osu file format v7

[General]
AudioFilename: xxdbxx - Cherokee.mp3
AudioLeadIn: 1500
PreviewTime: 14494
Countdown: 0
SampleSet: Soft
StackLeniency: 0.5
Mode: 0
LetterboxInBreaks: 1

[Editor]
Bookmarks: 14384,28502,42619,58502,72619,86737
DistanceSpacing: 1
BeatDivisor: 4
GridSize: 8

[Metadata]
Title:Cherokee
Artist:xxdbxx
Creator:xierbaliti
Version:NM
Source:DJMAX
Tags:technika portable collab ignorethis Crazy Jay

[Difficulty]
HPDrainRate:2
CircleSize:4
OverallDifficulty:6
SliderMultiplier:1.2
SliderTickRate:2

[Events]
//Background and Video events
0,0,"cherokee_Normal.jpg"
Video,0,"cherokee_Compress.avi"
//Break Periods
//Storyboard Layer 0 (Background)
//Storyboard Layer 1 (Fail)
//Storyboard Layer 2 (Pass)
//Storyboard Layer 3 (Foreground)
//Storyboard Sound Samples
//Background Colour Transformations
3,100,163,162,255

[TimingPoints]
257,441.176470588235,4,2,1,30,1,0
367,-100,4,2,1,40,0,0
1801,-100,4,2,1,30,0,0
2131,-100,4,2,1,40,0,0
3896,-100,4,2,1,50,0,0
4393,-100,4,2,1,40,0,0
4779,-100,4,2,1,50,0,0
5330,-100,4,2,1,40,0,0
6212,-100,4,2,1,60,0,0
6654,-100,4,2,2,70,0,0
7095,-100,4,2,1,80,0,0
7536,-100,4,1,2,70,0,0
11948,-100,4,2,0,70,0,0
12168,-100,4,2,2,70,0,0
12389,-100,4,2,0,70,0,0
12499,-100,4,2,1,70,0,0
12830,-100,4,1,2,70,0,0
13712,-100,4,2,0,70,0,0
13933,-100,4,2,2,70,0,0
14154,-100,4,2,0,70,0,0
14264,-100,4,2,1,70,0,0
14595,-100,4,1,2,70,0,0
17242,-100,4,2,0,70,0,0
17462,-100,4,2,2,70,0,0
17683,-100,4,2,0,70,0,0
17793,-100,4,1,2,70,0,0
25183,-100,4,2,0,70,0,0
25293,-100,4,1,2,70,0,0
26065,-100,4,2,0,70,0,0
26176,-100,4,1,2,70,0,0
45477,-100,4,2,0,70,0,0
45587,-100,4,1,2,70,0,0
57830,-100,4,2,2,70,0,0
57940,-100,4,1,2,70,0,0
58271,-100,4,1,1,85,0,0
58381,-100,4,2,2,70,0,0
60256,-100,4,2,1,70,0,0
60367,-100,4,2,2,70,0,0
62021,-100,4,2,1,70,0,0
62131,-100,4,2,2,70,0,0
64889,-100,4,2,1,70,0,0
64999,-100,4,1,1,85,0,0
65661,-100,4,1,2,70,0,0
69080,-100,4,1,1,75,0,0
69190,-100,4,1,2,70,0,0
71617,-100,4,1,1,80,0,0
72389,-100,4,1,2,90,0,0
72830,-100,4,1,2,80,0,0
79448,-100,4,2,2,60,0,0
79558,-100,4,1,2,70,0,0
82536,-100,4,1,1,44,0,0
82756,-100,4,2,2,70,0,0
82867,-100,4,1,2,70,0,0
86065,-100,4,1,1,30,0,0
86286,-100,4,2,2,70,0,0
86506,-100,4,2,2,25,0,0
86617,-100,4,2,1,90,0,0
86948,-100,4,1,2,70,0,0
93786,-100,4,2,1,70,0,1
94006,-100,4,2,1,70,0,0

[Colours]
Combo1 : 0,128,255
Combo2 : 255,128,255
Combo3 : 0,255,64
Combo4 : 255,255,128

[HitObjects]
64,192,257,6,0,B|80:128|160:112,1,120,2|8
176,232,1139,2,0,B|240:264|304:248,1,120,0|8
312,136,2021,2,0,B|328:104|376:120,2,60,2|0|8
192,152,2904,2,0,B|168:80|80:88,2,120,0|8|2
264,248,4227,5,8
264,128,4668,2,0,B|320:80|392:112,1,120,2|8
320,216,5551,2,0,B|400:208|424:288,1,120,2|8
312,328,6433,1,4
200,296,6874,1,4
200,176,7315,1,4
96,232,7756,5,2
88,112,8198,2,0,B|72:72|16:80,2,60,2|0|8
200,64,9080,1,2
312,112,9521,1,2
216,184,9962,2,0,B|240:256|320:272,1,120,2|8
416,264,10845,5,2
352,160,11286,1,2
416,56,11727,2,0,B|288:32|160:56,1,240,2|0
192,176,13051,1,8
152,288,13492,2,0,B|280:312|408:288,1,240,0|4
456,192,14815,5,8
336,184,15256,2,0,B|272:144,2,60,2|0|8
400,80,16139,2,0,B|456:40,2,60,2|0|8
280,56,17021,2,0,B|136:0|48:128,1,240,2|2
24,224,18345,5,8
144,224,18786,2,0,B|192:272,2,60,2|0|8
80,120,19668,2,0,B|40:48,2,60,2|0|8
200,120,20551,2,0,B|256:80|336:88,2,120,0|8|2
144,224,21874,6,0,B|200:272|272:264,1,120,8|0
376,248,22756,2,0,B|424:296,2,60,8|0|2
296,160,23639,1,8
208,80,24080,2,0,B|168:128,2,60,0|0|8
320,40,24962,6,0,B|400:64|392:152,1,120,2|8
280,160,25845,2,0,B|200:184|208:272,1,120,2|8
328,272,26727,2,0,B|352:344,2,60,0|0|8
392,176,27609,2,0,B|408:96|488:112,2,120,2|8|4
272,168,28933,5,8
208,272,29374,2,0,B|128:288|88:224,1,120,2|8
72,120,30256,1,2
176,56,30698,5,8
256,144,31139,1,0
336,56,31580,1,8
440,120,32021,1,2
360,208,32462,6,0,B|408:280,2,60,8|0|2
264,272,33345,2,0,B|200:296|152:232,1,120,8|0
160,120,34227,6,0,B|112:56,2,60,8|0|0
256,48,35109,2,0,B|256:136,2,60,8|0|4
352,120,35992,6,0,B|400:56,2,60,8|0|0
256,192,36874,1,8
256,192,37315,1,2
160,264,37756,6,0,B|112:328,2,60,8|0|0
256,192,38639,1,8
256,192,39080,1,2
376,192,39521,6,0,B|392:128|368:48,1,120,8|0
256,72,40404,1,8
256,192,40845,1,2
136,192,41286,6,0,B|120:256|144:336,1,120,8|0
256,312,42169,1,8
256,252,42389,1,8
256,191,42610,1,4
136,88,44374,6,0,B|136:168,2,60,4|0|8
200,88,45036,1,2
256,88,45256,2,0,B|256:232,1,120,0|8
376,240,46139,2,0,B|376:280,4,30,0|0|0|0|8
376,120,47021,2,0,B|408:48|472:56,2,120,0|8|0
256,120,48345,5,8
136,120,48786,2,0,B|56:120,2,60,0|0|8
136,239,49668,2,0,B|87:288,2,60,0|0|8
256,239,50551,2,0,B|256:320,2,60,0|0|8
376,239,51433,6,0,B|425:288,2,60,4|0|8
376,176,52095,1,2
376,120,52315,2,0,B|312:96|240:120,1,120,0|8
137,114,53198,2,0,B|112:176|136:248,1,120,2|8
192,232,53859,1,2
256,232,54080,2,0,B|256:296,2,60,0|2|8
256,112,54962,6,0,B|320:96|400:120,1,120,2|8
374,173,55624,1,0
374,233,55845,2,0,B|310:249|230:225,1,120,0|8
144,192,56727,2,0,B|104:192,4,30,2|0|0|0|8
264,192,57609,2,0,B|400:192,2,120,2|8|4
256,80,59815,5,0
256,80,60036,2,0,B|112:80,1,120,2|2
168,192,60918,1,2
256,304,61580,5,0
256,304,61801,2,0,B|400:304,1,120,2|2
344,192,62683,1,0
344,192,62904,1,2
168,192,63565,5,0
168,192,63786,1,4
256,48,64668,6,0,B|256:176,1,120,2|0
256,288,65551,1,4
196,183,65992,6,0,B|124:183,2,60,2|0|2
316,183,66874,2,0,B|396:183,2,60,2|0|2
256,80,67756,2,0,B|256:216,1,120,8|2
256,320,68639,5,8
256,320,68859,2,0,B|64:320,1,180,0|8
76,199,69962,2,0,B|220:199,1,120,2|8
256,96,70845,5,4
328,192,71286,1,4
256,288,71727,1,0
184,192,72168,1,4
256,96,72609,6,0,B|112:96,1,120,4|8
64,192,73492,2,0,B|-24:192,2,60,2|0|8
120,296,74374,6,0,B|32:296,2,60,2|0|8
184,192,75256,2,0,B|320:192,2,120,2|8|2
248,296,76580,5,8
368,296,77021,2,0,B|448:296,2,60,2|0|8
304,192,77904,5,2
184,192,78345,1,8
240,88,78786,2,0,B|96:88,2,120,2|8|4
360,88,80109,5,8
424,192,80551,2,0,B|504:192,2,60,2|0|8
304,192,81433,6,0,B|240:192,2,60,2|0|8
376,288,82315,2,0,B|256:304|128:288,1,240,2|2
64,192,83639,5,8
184,192,84080,2,0,B|256:192,2,60,2|0|8
120,88,84962,5,2
64,192,85404,1,8
120,88,85845,2,0,B|240:72|368:88,1,240,2|4
416,192,87168,5,8
296,192,87609,1,2
296,192,87830,1,0
296,192,88051,2,0,B|160:192,1,120,8|2
56,192,88933,5,8
120,296,89374,1,2
120,296,89595,1,0
120,296,89815,2,0,B|264:296,1,120,8|4
360,296,90698,5,8
296,192,91139,1,2
296,192,91359,1,0
296,192,91580,2,0,B|296:64,1,120,8|2
176,72,92462,5,8
176,192,92904,1,2
176,192,93124,1,2
176,192,93345,2,0,B|320:192,1,120,2|4
