osu file format v7

[General]
AudioFilename: xxdbxx - Cherokee.mp3
AudioLeadIn: 1500
PreviewTime: 14494
Countdown: 0
SampleSet: Soft
StackLeniency: 0.2
Mode: 0
LetterboxInBreaks: 1

[Editor]
Bookmarks: 14384,28502,42619,58502,72619,86737
DistanceSpacing: 0.5
BeatDivisor: 4
GridSize: 16

[Metadata]
Title:Cherokee
Artist:xxdbxx
Creator:xierbaliti
Version:MX
Source:DJMAX
Tags:technika portable collab ignorethis Crazy Jay

[Difficulty]
HPDrainRate:6
CircleSize:4
OverallDifficulty:8
SliderMultiplier:1.8
SliderTickRate:0.5

[Events]
//Background and Video events
0,0,"cherokee_Hard.jpg"
Video,0,"cherokee_Compress.avi"
//Break Periods
//Storyboard Layer 0 (Background)
//Storyboard Layer 1 (Fail)
//Storyboard Layer 2 (Pass)
//Storyboard Layer 3 (Foreground)
//Storyboard Sound Samples
//Background Colour Transformations
3,100,163,162,255

[TimingPoints]
257,441.176470588235,4,2,1,30,1,0
367,-100,4,2,1,40,0,0
863,-100,4,2,1,30,0,0
973,-100,4,2,1,40,0,0
1745,-100,4,2,1,24,0,0
1966,-100,4,2,1,30,0,0
2076,-100,4,2,1,40,0,0
2628,-100,4,2,1,30,0,0
2738,-100,4,2,1,40,0,0
3069,-100,4,2,1,30,0,0
3179,-100,4,2,1,40,0,0
3510,-100,4,2,1,30,0,0
3731,-100,4,2,1,40,0,0
3896,-100,4,2,1,50,0,0
4393,-100,4,2,1,40,0,0
4779,-100,4,2,1,50,0,0
5495,-100,4,2,1,40,0,0
6378,-100,4,2,1,60,0,0
6819,-100,4,2,2,70,0,0
7260,-100,4,2,1,80,0,0
7536,-100,4,1,2,70,0,0
7812,-100,4,2,2,70,0,0
7977,-100,4,2,1,70,0,0
8308,-100,4,2,2,70,0,0
8639,-100,4,2,1,70,0,0
14484,-100,4,2,2,70,0,0
51323,-100,4,2,1,70,0,0
58933,-100,4,2,2,70,0,0
59595,-100,4,2,1,70,0,0
60146,-100,4,2,2,70,0,0
60698,-100,4,2,1,70,0,0
61690,-100,4,2,2,70,0,0
62683,-100,4,2,1,70,0,0
63345,-100,4,2,2,70,0,0
65109,-100,4,1,1,85,0,0
65661,-100,4,2,1,70,0,0
71617,-100,4,1,1,70,0,0
72665,-100,4,2,1,70,0,0
93786,-100,4,2,1,70,0,1
94006,-100,4,2,1,70,0,0

[Colours]
Combo1 : 0,128,255
Combo2 : 255,128,255
Combo3 : 0,255,64
Combo4 : 255,255,128

[HitObjects]
432,192,257,2,0,B|440:96|320:88,1,135,2|0
312,80,698,1,8
264,88,808,1,0
232,128,918,1,2
224,176,1029,1,0
200,224,1139,6,0,B|176:320|80:264,1,135
56,248,1580,1,8
32,200,1690,1,0
40,144,1801,1,2
64,96,1911,1,2
56,40,2021,6,0,B|176:0|192:104,1,135,2|0
192,112,2462,1,8
208,168,2573,1,0
208,224,2683,1,2
224,272,2793,1,0
272,296,2904,6,0,B|360:304,1,45
320,248,3124,2,0,B|368:232,1,45,2|0
336,192,3345,2,0,B|288:160,1,45,8|0
336,128,3565,2,0,B|320:72,1,45,2|0
368,56,3786,6,0,B|416:128|504:96,1,135,2|0
496,152,4227,1,8
368,320,4448,5,2
320,304,4558,1,0
296,256,4668,2,0,B|256:176|160:232,1,135,2|0
144,256,5109,1,8
32,48,5330,5,2
64,88,5440,1,0
120,88,5551,2,0,B|216:80|224:152,1,135,2|0
280,136,5992,1,8
256,352,6212,5,2
256,352,6323,1,2
256,352,6433,2,0,B|304:264|400:256,1,135,4|0
328,216,6874,2,0,B|240:184|256:80,1,135,4|0
208,88,7315,1,4
96,288,7756,5,2
144,264,7867,1,2
136,160,8087,1,0
88,184,8198,2,0,B|32:80,1,90,2|2
24,56,8529,1,0
128,56,8749,1,0
168,88,8859,2,0,B|288:64,2,90,0|2|0
216,184,9521,5,2
272,168,9631,2,0,B|368:136,1,90
392,184,9962,2,0,B|488:152,1,90,2|0
480,208,10293,1,0
480,264,10404,2,0,B|408:288,1,45,2|0
384,256,10624,2,0,B|304:264,1,45
304,224,10845,6,0,B|208:176,1,90,2|0
176,160,11176,1,0
128,144,11286,2,0,B|136:64,1,45,2|0
112,48,11506,2,0,B|16:24,2,90,0|2|0
168,64,12058,1,0
192,112,12168,2,0,B|264:128,1,45,2|0
224,176,12389,1,0
328,208,12609,6,0,B|248:280,1,90,2|0
152,280,13051,2,0,B|88:304,2,45,2|0|0
200,184,13492,2,0,B|280:96,1,90,2|0
296,72,13823,1,0
400,72,14043,1,0
384,120,14154,1,0
368,168,14264,1,0
352,216,14374,1,4
448,320,14595,5,0
256,320,14815,1,8
64,320,15036,1,0
144,184,15256,1,2
368,184,15477,1,0
256,56,15698,1,8
256,224,15918,1,2
256,224,16029,1,0
256,56,16359,1,0
144,104,16580,5,8
144,104,16690,1,2
368,104,16911,1,0
368,104,17021,1,2
256,144,17242,1,2
184,232,17462,1,8
328,232,17683,1,2
328,232,17793,1,0
432,288,18124,5,2
328,344,18345,1,8
184,344,18565,1,2
80,288,18786,1,0
184,232,19006,1,0
256,120,19227,1,8
328,232,19448,1,2
328,232,19558,1,0
256,344,19779,1,0
256,344,19889,1,2
80,288,20109,5,8
80,288,20220,1,2
80,96,20440,1,0
80,96,20551,1,0
152,192,20771,1,2
152,192,20881,1,0
256,192,21102,1,0
256,192,21212,1,2
256,192,21323,1,0
352,72,21654,5,2
160,72,21874,1,8
352,72,22095,1,2
352,192,22315,1,0
256,280,22536,1,0
160,192,22756,1,8
256,280,22977,1,2
256,280,23087,1,0
256,104,23418,1,2
352,112,23639,6,0,B|400:120,1,45,8|0
160,112,23970,2,0,B|112:120,1,45,0|2
152,224,24301,1,2
256,280,24521,1,8
360,224,24742,1,2
360,224,24852,1,0
416,328,25183,6,0,B|448:280|456:232,2,90,2|8|2
328,352,25845,1,0
256,280,26065,1,2
184,352,26286,1,8
96,328,26506,1,0
96,328,26617,1,0
64,192,26948,1,2
96,104,27168,6,0,C|160:112,1,45,8|2
416,104,27499,2,0,C|352:112,1,45,0|2
371,109,27720,1,0
256,128,27940,1,2
256,256,28161,1,8
256,256,28271,1,2
256,256,28381,1,8
256,256,28492,1,4
336,192,28712,5,0
176,192,28933,1,8
424,192,29154,1,0
88,192,29374,1,2
256,64,29595,1,0
256,320,29815,1,8
256,320,29926,1,0
256,192,30146,1,0
256,192,30256,1,2
352,136,30477,5,0
352,136,30587,1,0
352,136,30698,1,8
256,192,30918,1,0
160,136,31139,1,2
256,192,31359,1,0
256,192,31470,1,0
256,192,31580,1,8
256,312,31801,2,0,B|256:376,2,45,0|0|2
256,72,32242,5,0
256,312,32462,1,8
256,72,32683,1,0
144,128,32904,1,2
256,192,33124,1,0
144,248,33345,1,8
144,248,33455,1,0
32,192,33676,1,0
32,192,33786,1,2
480,192,34006,5,0
480,192,34117,1,0
480,192,34227,1,8
368,128,34448,1,0
256,192,34668,1,2
256,192,34779,1,0
368,248,34999,1,8
368,248,35109,1,8
256,312,35330,1,2
256,72,35551,1,4
48,192,35992,5,8
152,136,36212,1,2
256,192,36433,1,2
360,136,36654,1,0
464,192,36874,1,8
464,192,36984,1,0
360,248,37205,1,0
360,248,37315,1,2
256,304,37536,5,2
256,304,37646,1,0
256,304,37756,1,8
152,248,37977,1,2
256,192,38198,1,2
256,80,38418,1,2
256,80,38529,1,0
256,80,38639,1,8
256,304,38859,2,0,B|256:376,2,45,0|0|2
256,80,39301,5,0
376,192,39521,1,8
256,304,39742,1,2
136,192,39962,1,2
256,192,40183,1,0
376,192,40404,1,8
376,192,40514,1,0
256,192,40734,1,0
256,192,40845,1,2
256,72,41065,5,0
256,72,41176,1,0
256,72,41286,2,0,B|256:168,1,90,8|2
176,248,41727,1,2
176,248,41837,1,8
336,248,42058,1,2
336,248,42168,1,8
256,336,42389,1,8
256,192,42609,1,0
256,192,42720,12,4,44374
80,320,44815,5,8
96,288,44926,1,0
96,256,45036,1,2
112,224,45146,1,0
112,192,45256,1,0
256,192,45477,1,0
256,48,45698,1,8
400,192,45918,5,2
400,224,46029,1,0
416,256,46139,1,0
416,288,46249,1,0
432,320,46359,1,2
256,336,46580,1,8
80,192,46801,5,2
112,192,46911,1,0
144,192,47021,2,0,B|192:160,1,45,2|0
208,192,47242,2,0,B|256:224,1,45,2|0
272,192,47462,2,0,B|320:160,1,45,8|0
336,192,47683,2,0,B|384:224,1,45,2|0
400,192,47904,5,0
400,224,48015,1,2
416,256,48125,1,2
416,288,48235,1,0
432,320,48345,1,8
256,352,48565,1,2
256,352,48676,1,0
256,352,48786,2,0,B|256:272|256:160,1,180,2|8
256,32,49448,1,0
336,128,49668,5,0
368,112,49779,1,0
400,112,49889,1,2
432,112,49999,1,0
464,96,50109,1,8
176,256,50330,1,0
176,256,50440,1,0
176,256,50551,1,2
80,224,50771,1,2
48,320,50992,1,8
144,352,51212,1,2
48,320,51433,5,4
144,304,51654,1,0
240,320,51874,2,0,C|352:320,1,90,8|2
416,320,52315,2,0,B|480:304|448:240,2,90,0|0|8
368,192,52977,1,0
368,192,53087,1,0
368,192,53198,6,0,B|306:194|264:191,1,90,2|0
176,192,53639,1,8
80,160,53859,2,0,B|32:208|48:272,2,90,2|0|0
64,64,54521,1,8
165,84,54742,1,2
165,84,54852,1,2
165,84,54962,6,0,B|252:89|361:82,1,180,0|8
400,176,55624,1,2
368,272,55845,2,0,B|272:272,1,90
184,296,56286,1,8
184,296,56506,6,0,B|136:312|88:240,1,90,0|2
96,232,56837,1,0
96,192,56948,1,0
104,160,57058,1,0
120,128,57168,1,8
192,64,57389,1,8
224,64,57499,1,0
256,64,57609,2,0,B|368:64,1,90,8|0
416,128,58051,1,8
416,160,58161,1,2
408,192,58271,1,0
400,224,58381,1,2
384,256,58492,1,4
320,328,58712,6,0,B|184:352|128:320,1,180,4|2
80,248,59374,1,0
208,96,59815,6,0,B|160:56|88:88,2,90,4|0|0
256,184,60477,1,2
424,72,60918,6,0,B|464:224|368:344,1,270,4|0
280,328,61801,1,2
256,232,62021,1,0
232,136,62242,1,2
88,312,62904,6,0,B|48:160|144:40,1,270,4|0
224,56,63786,1,0
288,328,64668,1,0
256,192,65551,5,4
256,104,65771,1,0
256,192,65992,5,8
319,128,66212,1,0
256,192,66433,5,2
344,192,66654,1,0
256,192,66874,5,8
319,255,67095,1,0
256,192,67315,5,2
256,280,67536,1,0
256,192,67756,5,8
192,255,67977,1,0
256,192,68198,5,2
168,192,68418,1,0
256,192,68639,5,8
192,128,68859,1,0
256,192,69080,5,2
256,56,69300,1,0
256,192,69521,5,8
392,192,69741,1,0
256,192,69962,5,2
256,328,70183,1,0
256,192,70403,5,8
120,192,70624,1,0
144,304,70845,5,4
144,304,71065,1,2
368,304,71286,5,4
368,304,71506,1,2
256,80,71727,5,0
248,104,71837,1,0
256,128,71948,1,0
264,152,72058,1,0
256,176,72168,5,0
248,200,72279,1,0
256,224,72389,1,0
264,248,72499,1,0
256,272,72609,5,4
88,256,72830,2,0,B|72:304|120:344,1,90,0|8
256,352,73271,1,0
399,337,73492,2,0,B|440:304|424:256,1,90,2|0
352,192,73933,1,8
352,192,74043,1,0
160,192,74264,1,0
160,192,74374,1,2
160,48,74595,5,0
264,80,74815,1,8
352,48,75036,1,0
424,104,75256,2,0,B|440:160|424:208,1,90,2|0
256,288,75698,1,8
256,192,75918,2,0,B|256:160|256:128,1,45
87,104,76359,6,0,B|72:160|83:192,2,90,0|8|0
176,64,77021,1,2
256,96,77242,1,0
336,64,77462,1,8
336,64,77573,1,0
416,96,77793,1,0
256,336,78124,5,0
256,336,78234,1,0
256,336,78345,1,8
176,336,78565,1,8
336,336,78786,1,2
96,336,79006,1,0
416,336,79227,1,8
208,256,79448,1,8
256,240,79558,1,8
304,256,79668,1,4
400,192,79889,5,0
416,96,80109,1,8
320,128,80330,1,0
256,64,80551,1,2
192,128,80771,1,0
96,96,80992,1,8
96,96,81102,1,0
112,192,81323,1,0
48,336,81654,6,0,B|95:325|145:292,1,90,0|8
208,256,82095,1,0
256,160,82315,2,0,B|251:111|255:54,2,90,2|0|8
304,256,82977,1,0
304,256,83087,1,0
464,336,83418,6,0,B|417:325|367:292,2,90,0|8|0
432,192,84080,1,2
256,192,84301,1,0
80,192,84521,1,8
80,192,84631,2,0,B|64:240|80:304,1,90
256,336,85183,5,0
336,304,85404,1,8
368,224,85624,1,0
352,128,85845,6,0,B|400:112,3,45,2|0|2|0
352,128,86286,1,8
320,112,86396,1,0
288,96,86506,1,2
256,80,86617,1,0
224,64,86727,6,0,B|173:66|120:64,1,90,4|0
48,64,87168,2,0,B|49:115|48:160,1,90,8|0
48,240,87609,1,2
48,320,87830,1,0
128,320,88051,2,8,B|160:320|176:320,1,45
256,320,88381,1,0
352,192,88712,6,0,B|400:224|400:288,2,90,0|8|0
256,160,89374,1,2
208,80,89594,1,0
160,160,89815,1,8
64,192,90035,1,0
64,192,90146,1,0
160,304,90477,5,0
352,304,90698,1,8
160,304,90918,1,0
352,304,91139,1,2
160,304,91359,1,0
352,304,91580,1,8
352,304,91690,1,8
256,192,91911,1,0
256,64,92242,5,0
224,64,92352,1,0
192,80,92462,1,8
176,176,92683,1,0
256,256,92904,1,2
272,272,93124,1,2
320,80,93345,1,2
288,64,93455,1,2
256,64,93565,1,2
224,64,93676,1,2
192,80,93786,1,4
