osu file format v7

[General]
AudioFilename: xxdbxx - Cherokee.mp3
AudioLeadIn: 1500
PreviewTime: 14494
Countdown: 0
SampleSet: Normal
StackLeniency: 0.4
Mode: 0
LetterboxInBreaks: 1

[Editor]
Bookmarks: 14384,28502,42619,58502,72619,86737
DistanceSpacing: 1
BeatDivisor: 4
GridSize: 8

[Metadata]
Title:Cherokee
Artist:xxdbxx
Creator:xierbaliti
Version:EZ
Source:DJMAX
Tags:technika portable collab ignorethis Crazy Jay

[Difficulty]
HPDrainRate:2
CircleSize:3
OverallDifficulty:3
SliderMultiplier:1
SliderTickRate:2

[Events]
//Background and Video events
0,0,"cherokee_Normal.jpg"
Video,0,"cherokee_Compress.avi"
//Break Periods
2,28692,34111
2,58692,64111
//Storyboard Layer 0 (Background)
//Storyboard Layer 1 (Fail)
//Storyboard Layer 2 (Pass)
//Storyboard Layer 3 (Foreground)
//Storyboard Sound Samples
//Background Colour Transformations
3,100,163,162,255

[TimingPoints]
257,441.176470588235,4,1,2,30,1,0
367,-100,4,2,1,40,0,0
1801,-100,4,1,2,30,0,0
2131,-100,4,1,2,40,0,0
4779,-100,4,1,2,50,0,0
5330,-100,4,1,2,40,0,0
6212,-100,4,1,2,60,0,0
6874,-100,4,1,2,70,0,0
7095,-100,4,2,1,80,0,0
7426,-100,4,1,2,70,0,0
11948,-100,4,2,0,70,0,0
12168,-100,4,2,2,70,0,0
12389,-100,4,2,0,70,0,0
12499,-100,4,1,2,70,0,0
13712,-100,4,2,0,70,0,0
13933,-100,4,2,2,70,0,0
14154,-100,4,2,0,70,0,0
14264,-100,4,1,2,70,0,0
17242,-100,4,2,0,70,0,0
17352,-100,4,1,2,70,0,0
17683,-100,4,2,0,70,0,0
17793,-100,4,1,2,70,0,0
19227,-100,4,2,2,70,0,0
19337,-100,4,1,2,70,0,0
26065,-100,4,2,0,70,0,0
26176,-100,4,1,2,70,0,0
44705,-100,4,1,1,70,0,0
45036,-100,4,2,1,70,0,0
45477,-100,4,2,0,70,0,0
45587,-100,4,1,1,70,0,0
45918,-100,4,1,2,50,0,0
46470,-100,4,1,1,70,0,0
46801,-100,4,2,1,70,0,0
47352,-100,4,1,1,70,0,0
47683,-100,4,2,1,70,0,0
48345,-100,4,2,2,40,0,0
48565,-100,4,1,1,60,0,0
48786,-100,4,2,0,70,0,0
49117,-100,4,1,1,70,0,0
50308,-100,4,1,2,60,0,0
50771,-100,4,1,1,70,0,0
51212,-100,4,2,1,60,0,0
51323,-100,4,1,1,70,0,0
51984,-100,4,1,2,60,0,0
52536,-100,4,1,1,70,0,0
52977,-100,4,1,2,60,0,0
53087,-100,4,1,2,70,0,0
54301,-100,4,1,1,70,0,0
54852,-100,4,1,2,70,0,0
55183,-100,4,1,1,70,0,0
55514,-100,4,1,2,70,0,0
56065,-100,4,1,1,70,0,0
56617,-100,4,1,2,70,0,0
56948,-100,4,1,1,50,0,0
57389,-100,4,1,2,70,0,0
57830,-100,4,2,2,70,0,0
58271,-100,4,2,2,84,0,0
65661,-100,4,1,2,70,0,0
71617,-100,4,1,1,70,0,0
72389,-100,4,1,2,70,0,0
73933,-100,4,2,2,70,0,0
74043,-100,4,1,2,70,0,0
75698,-100,4,2,2,70,0,0
75808,-100,4,1,2,70,0,0
79448,-100,4,2,2,80,0,0
80109,-100,4,1,2,70,0,0
86065,-100,4,1,1,50,0,0
86176,-100,4,1,2,70,0,0
86506,-100,4,2,2,40,0,0
86617,-100,4,2,1,90,0,0
86948,-100,4,1,2,70,0,0
93786,-100,4,2,1,70,0,1
94006,-100,4,2,1,70,0,0

[Colours]
Combo1 : 0,128,255
Combo2 : 255,128,255
Combo3 : 0,255,64
Combo4 : 255,255,128

[HitObjects]
256,96,257,2,0,B|136:96,2,100,2|8|0
256,288,2021,2,0,B|368:288,1,100,2|8
456,288,2904,2,0,B|488:184|448:72,1,200,0|0
256,80,4668,6,0,B|136:80,1,100,2|8
176,176,5551,2,0,B|288:176,1,100,2|8
256,272,6433,2,0,B|136:272,2,100,4|4|4
352,96,8198,6,0,B|256:48|136:96,1,200,2|2
160,288,9962,2,0,B|256:336|376:288,1,200,2|2
352,96,11727,6,0,B|256:48|136:96,1,200,2|2
160,192,13050,1,8
160,288,13492,2,0,B|256:336|376:288,1,200,2|4
352,192,14815,5,8
256,192,15256,2,0,B|224:128|160:136,2,100,2|8|2
256,192,17021,2,0,B|288:128|352:136,2,100,2|8|2
256,296,18345,5,8
160,296,18786,2,0,B|64:240|96:104,1,200,2|2
280,48,20551,2,0,B|340:22|388:30,2,100,2|8|2
304,144,21874,5,8
288,240,22315,2,0,B|304:312,2,50,2|0|8
112,152,23639,2,0,B|48:184,2,50,8|0|2
192,96,24521,2,0,B|240:64|304:88,1,100,8|2
320,280,25845,6,0,B|376:304|376:296,2,50,2|0|8
192,104,27168,2,0,B|136:80|136:88,2,50,8|0|2
256,184,28051,1,8
256,184,28492,1,4
256,192,35551,6,0,B|368:192,1,100,4|8
456,192,36433,1,2
256,192,37315,6,0,B|144:192,1,100,2|8
56,192,38197,1,2
256,192,39080,5,2
256,96,39521,1,8
256,96,39962,2,8,B|304:80|368:96,1,100,2|8
256,288,41286,5,8
256,288,41727,2,0,B|208:304|144:288,2,100,2|8|4
256,344,44374,6,0,B|144:344,1,100,4|0
176,248,45256,2,0,B|296:248,1,100
256,152,46139,2,0,B|136:152,1,100,2|0
168,56,47021,2,0,B|272:56,1,100
368,56,47904,6,0,B|480:192|368:352,1,300
200,192,50109,6,0,B|136:192,2,50,0|2|0
304,192,50992,2,0,B|368:192,2,50,0|0|4
256,104,51874,5,0
256,104,52095,1,2
256,256,52756,2,0,B|256:328,2,50,0|2|2
56,192,54521,6,0,B|168:192,1,100,0|2
256,192,55404,1,0
256,192,55624,1,2
456,192,56286,6,0,B|344:192,1,100,0|2
256,192,57168,1,0
256,96,57609,5,4
256,192,58051,1,4
256,288,58492,1,4
256,344,65551,6,0,B|256:232,1,100,4|8
256,48,66874,2,0,B|192:48,2,50,8|0|2
408,48,67977,1,0
408,48,68198,1,2
408,144,68639,1,8
408,240,69080,6,8,B|288:240,1,100,2|8
107,240,70404,2,0,B|48:240,2,50,8|0|4
208,240,71286,1,4
208,144,71727,2,0,B|208:32,2,100,0|4|4
208,240,73051,5,8
304,240,73492,2,0,B|400:192|376:64,1,200,2|2
184,32,75256,6,0,B|88:80|112:208,1,200,2|2
136,296,76580,6,0,B|256:296,1,100,8|2
336,296,77462,1,8
376,88,78345,6,0,B|256:88,1,100,8|0
176,88,79227,1,8
176,88,79668,1,4
448,192,80551,5,2
352,192,80992,1,8
256,192,81433,1,2
64,192,82315,5,2
160,192,82756,1,8
256,192,83197,1,2
256,192,84080,6,0,B|256:304,2,100,2|8|2
256,192,85845,6,0,B|256:80,2,100,2|8|4
304,280,87168,5,8
208,280,87609,1,2
256,192,88051,2,0,B|256:88,1,100,8|2
256,288,89374,5,2
256,192,89815,1,8
256,96,90256,1,4
328,288,91139,6,0,B|400:288,2,50,2|0|8
256,216,92021,1,2
184,288,92462,6,0,B|112:288,2,50,8|0|2
256,216,93345,2,0,B|256:96,1,100,8|4
