osu file format v7

[General]
AudioFilename: xxdbxx - Cherokee.mp3
AudioLeadIn: 1500
PreviewTime: 14494
Countdown: 0
SampleSet: Soft
StackLeniency: 0.7
Mode: 0
LetterboxInBreaks: 1

[Editor]
Bookmarks: 14384,28502,42619,58502,72619,86737
DistanceSpacing: 1
BeatDivisor: 4
GridSize: 8

[Metadata]
Title:Cherokee
Artist:xxdbxx
Creator:xierbaliti
Version:DJ Crazy Jay
Source:DJMAX
Tags:technika portable collab ignorethis Crazy Jay

[Difficulty]
HPDrainRate:6
CircleSize:4
OverallDifficulty:7
SliderMultiplier:1.6
SliderTickRate:1

[Events]
//Background and Video events
0,0,"cherokee_Hard.jpg"
Video,0,"cherokee_Compress.avi"
//Break Periods
2,58692,64651
//Storyboard Layer 0 (Background)
//Storyboard Layer 1 (Fail)
//Storyboard Layer 2 (Pass)
//Storyboard Layer 3 (Foreground)
//Storyboard Sound Samples
//Background Colour Transformations
3,100,163,162,255

[TimingPoints]
257,441.176470588235,4,2,0,70,1,0
698,-100,4,2,0,40,0,0
918,-100,4,2,0,70,0,0
1580,-100,4,2,0,40,0,0
1801,-100,4,2,0,70,0,0
2242,-100,4,2,0,40,0,0
2683,-100,4,2,0,70,0,0
3345,-100,4,2,0,40,0,0
3565,-100,4,2,0,70,0,0
4227,-100,4,2,0,40,0,0
4668,-100,4,2,0,70,0,0
5109,-100,4,2,0,40,0,0
5330,-100,4,2,0,70,0,0
5881,-100,4,2,0,50,0,0
6212,-100,4,2,0,70,0,0
7315,-100,4,1,0,70,0,0
7426,-100,4,2,0,70,0,0
8198,-100,4,1,0,70,0,0
8308,-100,4,2,0,70,0,0
9080,-100,4,1,0,70,0,0
9190,-100,4,2,0,70,0,0
9962,-100,4,1,0,70,0,0
10183,-100,4,2,0,70,0,0
10845,-100,4,1,0,70,0,0
11286,-100,4,2,0,70,0,0
11727,-100,4,1,0,70,0,0
12168,-100,4,2,0,70,0,0
12499,-100,4,1,0,70,0,0
12830,-100,4,2,0,70,0,0
13381,-100,4,1,0,70,0,0
13712,-100,4,2,0,70,0,0
15256,-100,4,1,0,70,0,0
15367,-100,4,2,0,70,0,0
17021,-100,4,1,0,70,0,0
17131,-100,4,2,0,70,0,0
18676,-100,4,1,0,70,0,0
18896,-100,4,2,0,70,0,0
20551,-100,4,1,0,70,0,0
20661,-100,4,2,0,70,0,0
21433,-100,4,1,0,70,0,0
21543,-100,4,2,0,70,0,0
22205,-100,4,1,0,70,0,0
22426,-100,4,2,0,70,0,0
24080,-100,4,1,0,70,0,0
24190,-100,4,2,0,70,0,0
25845,-100,4,1,0,70,0,0
25955,-100,4,2,0,70,0,0
27609,-100,4,1,0,70,0,0
27830,-100,4,2,0,70,0,0
27940,-100,4,1,0,60,0,0
28161,-100,4,2,0,70,0,0
29374,-100,4,1,0,70,0,0
29484,-100,4,2,0,70,0,0
31139,-100,4,1,0,70,0,0
31249,-100,4,2,0,70,0,0
32904,-100,4,1,0,70,0,0
33014,-100,4,2,0,70,0,0
33786,-100,4,1,0,70,0,0
33896,-100,4,2,0,70,0,0
34558,-100,4,1,0,70,0,0
34779,-100,4,2,0,70,0,0
35220,-100,4,1,0,70,0,0
35440,-100,4,2,0,70,0,0
36323,-100,4,1,0,70,0,0
36543,-100,4,2,0,70,0,0
37315,-100,4,1,0,70,0,0
37426,-100,4,2,0,70,0,0
38087,-100,4,1,0,70,0,0
38308,-100,4,2,0,70,0,0
39962,-100,4,1,0,70,0,0
40073,-100,4,2,0,70,0,0
40845,-100,4,1,0,70,0,0
40955,-100,4,2,0,70,0,0
41727,-100,4,1,0,70,0,0
41837,-100,4,2,0,70,0,0
41948,-100,4,1,0,40,0,0
42168,-100,4,2,0,70,0,0
42389,-100,4,1,0,70,0,0
42609,-100,4,1,0,80,0,0
42830,-100,4,2,0,70,0,0
51764,-100,4,1,0,70,0,0
52205,-100,4,2,0,70,0,0
52646,-100,4,1,0,70,0,0
52867,-100,4,2,0,70,0,0
53087,-100,4,1,0,70,0,0
53308,-100,4,2,0,70,0,0
53529,-100,4,1,0,70,0,0
53749,-100,4,1,0,70,0,0
53970,-100,4,2,0,70,0,0
54411,-100,4,1,0,70,0,0
54631,-100,4,2,0,70,0,0
54962,-100,4,1,0,70,0,0
65109,-100,4,1,0,50,0,0
72609,-100,4,1,0,50,0,1
94448,-100,4,2,0,0,0,0
95330,-100,4,2,0,0,0,0

[Colours]
Combo1 : 0,128,255
Combo2 : 255,128,255
Combo3 : 0,255,64
Combo4 : 255,255,128

[HitObjects]
256,336,257,1,0
192,288,477,2,0,B|192:232|264:208,1,80,0|8
312,208,918,2,0,B|312:120|208:88,1,160
152,144,1580,2,0,B|128:224,1,80,8|0
104,296,2021,5,0
264,296,2462,1,8
184,296,2683,2,0,B|184:248|200:200,1,80
200,200,3014,1,0
208,184,3124,1,0
272,128,3345,2,0,B|384:128,2,80,8|0|0
216,72,4006,1,0
136,88,4227,6,0,B|80:128|80:192|96:232,2,160,8|0|8
288,144,5551,2,0,B|344:160|368:192,1,80
312,248,5992,1,8
232,264,6212,1,0
232,264,6323,1,0
232,264,6433,2,0,B|248:312|272:336,2,80,0|0|4
136,136,7315,6,0,B|160:56,1,80,4|2
240,80,7756,2,0,B|336:112,1,80,8|2
288,184,8198,2,0,B|264:264,1,80,0|2
184,240,8639,2,0,B|88:208,2,80,8|2|0
224,312,9301,1,2
296,280,9521,2,0,B|336:312|360:352,2,80,8|2|0
328,208,10183,2,0,B|280:128,1,80,2|8
240,72,10624,1,2
240,72,10845,6,2,B|320:112|408:112,1,160,2|8
432,184,11506,1,2
432,184,11727,2,2,B|384:256|384:344,1,160,2|8
256,288,12389,1,2
192,336,12609,5,0
192,336,12830,1,2
120,312,13051,2,0,B|96:272|104:224,1,80,8|2
144,168,13492,1,0
144,168,13712,1,2
128,88,13933,2,0,B|96:64|40:64,1,80,8|2
200,112,14374,6,0,B|288:112|360:64,1,160,4|8
424,104,15036,1,2
376,168,15256,2,0,B|352:208|360:264,1,80,0|2
296,296,15698,2,0,B|240:328|144:328,2,120,8|2|2
280,216,16580,1,8
280,216,16690,1,2
184,144,17021,6,0,B|88:144,1,80,0|2
72,216,17462,1,8
144,256,17683,1,2
144,256,17793,2,0,B|160:304|200:336,1,80
200,336,18124,6,0,B|312:336,2,80,2|8|2
120,328,18786,1,0
160,184,19006,1,2
280,264,19227,1,8
272,184,19448,2,0,B|392:144,2,120,2|2|8
248,192,20220,1,0
208,120,20440,5,2
184,128,20551,2,0,B|32:184,2,160,0|8|0
288,88,21654,5,2
344,144,21874,1,8
328,216,22095,1,2
248,232,22315,1,0
192,184,22536,1,2
216,112,22756,2,0,B|176:64|112:32,2,120,8|2|2
288,88,23639,1,8
288,88,23749,2,0,B|352:96|416:48,1,120,2|0
456,120,24301,1,2
408,184,24521,2,0,B|400:240|416:272,1,80,8|0
412,263,24852,1,2
320,336,25183,5,2
248,296,25404,2,0,B|240:256|216:216,1,80,8|2
136,232,25845,2,0,B|112:264|72:288,1,80,0|2
48,208,26286,2,0,B|16:144|32:72,2,120,8|2|2
112,160,27168,1,8
128,144,27279,2,0,B|160:96|240:48,1,120,2|0
288,96,27830,1,8
328,168,28051,1,0
344,176,28161,1,8
392,240,28381,1,8
384,256,28492,6,0,B|368:296|320:312,1,80,4|2
264,256,28933,1,8
184,232,29154,2,0,B|136:248|128:304,2,80,2|0|2
240,176,29815,1,8
240,176,29926,1,2
320,200,30146,1,2
392,104,30477,5,2
392,104,30587,1,0
392,104,30698,1,8
312,104,30918,1,2
232,88,31139,2,0,B|192:72|168:40,1,80,0|2
288,184,31580,2,0,B|328:200|352:232,1,80,8|2
351,231,31911,2,0,B|320:304|232:296,1,120,0|2
184,264,32462,5,8
112,232,32683,1,2
112,232,32904,2,0,B|112:184|80:136,1,80,0|2
48,88,33345,1,8
48,88,33455,2,0,B|64:40|128:16,1,80,0|2
128,16,33786,1,0
184,88,34006,6,0,B|216:136|224:168,2,80,2|8|2
256,56,34668,1,0
272,64,34779,2,0,B|368:64,1,80,2|8
360,80,35109,1,8
400,152,35330,1,0
440,224,35551,6,0,B|456:320,1,80,4|2
328,232,35992,2,0,B|312:136,1,80,8|2
208,208,36433,2,0,B|224:304,1,80,0|2
104,240,36874,1,8
80,208,36984,2,0,B|88:168|136:136,1,80,2|2
160,120,37315,6,0,B|240:72|328:104,1,160,0|8
352,168,37977,1,2
424,200,38198,2,0,B|456:168|448:120,2,80,0|2|8
360,248,38859,1,2
360,248,38970,2,0,B|328:304|224:312,1,120,0|2
200,256,39521,5,8
168,184,39742,2,0,B|136:96,2,80,2|0|2
120,248,40404,1,8
96,280,40514,1,2
32,232,40734,1,2
56,200,40845,1,0
96,128,41065,5,2
96,128,41286,1,8
184,160,41506,2,0,B|208:248,1,80,2|0
216,280,41837,1,8
296,280,42058,1,0
312,240,42168,2,0,B|333:162,1,80,8|0
400,128,42609,1,4
256,192,42720,12,4,44374
384,48,44815,5,8
448,96,45036,1,0
384,144,45256,2,0,B|352:176|312:192|272:176|240:144,1,160,2|8
184,88,45918,1,0
184,88,46029,1,0
184,88,46139,2,0,B|88:88,2,80,2|0|8
168,168,46801,1,0
168,168,46911,1,0
168,168,47021,2,0,B|184:272,1,80,2|0
352,320,47462,2,0,B|336:216,1,80,8|0
248,128,47904,6,0,B|272:312,2,160,2|8|2
328,136,49006,1,0
384,192,49227,2,0,B|440:184|472:120|440:56,2,160,8|2|8
344,264,50330,1,0
280,216,50551,2,0,B|192:192,1,80,2|0
40,264,50992,2,0,B|104:208,1,80,8|0
144,144,51433,6,0,B|144:96|168:64,1,80,4|2
240,104,51874,1,0
296,48,52095,2,0,B|384:48,2,80,0|0|2
320,128,52756,1,0
320,128,52977,1,2
288,200,53198,6,0,B|296:264|360:296|424:264,1,160,0|0
432,192,53859,2,0,B|456:112,2,80,0|0|2
408,272,54521,2,0,B|393:313,4,40,0|0|2|0|0
256,328,55404,5,0
184,304,55624,1,0
104,168,56065,1,0
176,200,56286,2,0,B|328:264,1,160,0|0
368,192,56948,1,0
336,120,57168,2,0,B|368:88|416:80,2,80,0|0|4
176,120,58051,1,4
256,16,58492,1,6
64,40,65551,5,6
104,192,65992,1,0
232,96,66433,1,0
288,248,66874,1,2
368,224,67095,1,2
440,184,67315,6,0,B|448:136|416:104,1,80
288,8,67756,2,0,B|280:56|312:88,1,80,0|2
352,152,68198,2,0,B|312:232|200:216,1,160,0|2
139,191,68859,1,2
88,256,69080,2,0,B|72:320|112:368|176:368,2,160,0|0|2
64,176,70183,1,0
112,64,70404,1,0
200,144,70624,1,0
264,32,70845,5,4
264,32,71065,1,0
432,120,71286,1,4
432,120,71506,1,0
272,200,71727,1,4
352,224,71948,1,0
376,232,72058,1,0
400,240,72168,2,0,B|440:256,4,40,4|0|0|0|4
360,312,72830,5,0
288,352,73051,1,8
208,352,73271,1,0
136,312,73492,1,0
104,240,73712,1,0
144,168,73933,1,10
168,136,74043,1,2
208,152,74154,1,0
232,120,74264,1,2
272,136,74374,1,0
304,208,74595,6,0,B|328:248|368:256,2,80,0|8|0
368,160,75256,1,0
400,88,75477,1,0
384,8,75698,1,8
312,48,75918,2,2,B|272:72,2,40,2|2|0
384,8,76359,5,0
456,40,76580,2,0,B|488:72|488:112,1,80,8|0
440,176,77021,1,0
440,176,77242,1,0
392,240,77462,2,0,B|424:272,4,40,10|2|0|2|0
336,184,78124,5,0
280,128,78345,1,8
224,184,78565,1,0
168,128,78786,1,2
168,128,78896,1,10
104,176,79117,1,8
104,208,79227,1,2
120,232,79337,1,2
144,248,79448,1,8
216,280,79668,5,4
296,264,79889,2,0,B|400:240,2,80,0|8|0
240,200,80551,1,0
320,184,80771,1,0
400,168,80992,2,0,B|448:160,4,40,10|2|0|2|0
360,96,81654,5,0
336,64,81764,1,0
304,48,81874,1,8
240,104,82095,2,0,B|216:136|168:136,1,80
88,120,82536,1,0
88,120,82756,1,8
88,200,82977,1,2
96,240,83087,1,2
120,272,83198,1,0
200,288,83418,6,0,B|240:304|248:352,2,80,0|8|0
184,208,84080,1,0
232,144,84301,1,0
296,192,84521,2,0,B|296:240,4,40,10|2|0|2|0
352,136,85183,5,0
432,152,85404,1,8
472,224,85624,1,0
448,304,85845,1,2
416,328,85955,1,10
360,264,86176,1,8
344,240,86286,1,2
320,224,86396,1,2
296,216,86506,1,8
256,288,86727,5,4
192,240,86948,2,0,B|160:216|152:168,1,80,0|8
192,48,87389,2,0,B|224:72|232:120,1,80
352,240,87830,2,0,B|320:216|312:168,1,80,0|10
336,152,88161,2,0,B|424:152,1,80,2|2
448,152,88492,5,0
408,80,88712,1,0
328,56,88933,2,0,B|320:16|344:-24,2,80,8|0|0
248,80,89595,1,0
208,152,89815,1,8
256,216,90036,1,2
272,256,90146,1,2
272,296,90256,1,4
208,344,90477,5,0
136,304,90698,1,8
56,168,90918,5,0
128,200,91139,1,0
296,160,91359,5,0
224,120,91580,1,10
224,120,91690,1,2
296,272,91911,5,2
296,272,92021,1,0
368,312,92242,1,0
416,248,92462,6,0,B|432:200|416:160,1,80,8|0
360,112,92904,2,0,B|312:112,2,40,2|0|2
416,56,93345,2,0,B|464:56,3,40,2|0|2|0
496,56,93786,1,4
256,192,93896,12,0,95551
