osu file format v9

[General]
AudioFilename: xi-on - Mysterious Mountain.mp3
AudioLeadIn: 0
PreviewTime: 88272
Countdown: 0
SampleSet: Normal
StackLeniency: 0.6
Mode: 0
LetterboxInBreaks: 1

[Editor]
DistanceSpacing: 1
BeatDivisor: 4
GridSize: 4

[Metadata]
Title:Mysterious Mountain
Artist:xi-on
Creator:OnosakiHito
Version:Easy
Source:touhou
Tags:touhou project 10th mysterious mountain aya shameimaru nold_1702 DarkDunskin

[Difficulty]
HPDrainRate:2
CircleSize:3
OverallDifficulty:2
ApproachRate:2
SliderMultiplier:1
SliderTickRate:1

[Events]
//Background and Video events
0,0,"BG.jpg"
//Break Periods
2,37825,53006
2,71707,78417
2,197354,204064
//Storyboard Layer 0 (Background)
//Storyboard Layer 1 (Fail)
//Storyboard Layer 2 (Pass)
//Storyboard Layer 3 (Foreground)
//Storyboard Sound Samples
//Background Colour Transformations
3,100,163,162,255

[TimingPoints]
6065,480,4,1,0,51,1,0
6305,-100,4,2,0,59,0,0
7745,-100,4,2,0,59,0,0
8225,-100,4,2,0,61,0,0
9665,-100,4,1,0,39,0,0
10145,-100,4,2,0,61,0,0
11585,-100,4,1,0,51,0,0
12065,-100,4,2,0,60,0,0
12305,-100,4,2,0,41,0,0
13505,-100,4,1,0,41,0,0
13985,-100,4,2,0,61,0,0
17345,-100,4,1,0,40,0,0
17825,-100,4,2,0,61,0,0
19745,-100,4,2,0,69,0,0
20225,-100,4,2,0,79,0,0
20705,-100,4,2,0,89,0,0
22145,-100,4,2,0,100,0,0
26945,-100,4,2,0,50,0,0
27665,-100,4,2,0,60,0,0
28625,-100,4,2,0,82,0,0
31985,-100,4,2,0,90,0,0
33185,-100,4,2,0,100,0,0
33665,-100,4,2,0,31,0,0
37265,-100,4,1,0,70,0,0
37625,352.941176470588,4,1,0,80,1,0
54213,-100,4,1,0,59,0,0
88272,-100,4,2,0,100,0,0
93213,-100,4,2,0,100,0,0
93566,-100,4,2,0,100,0,0
120036,-100,4,1,0,52,0,0
136272,-100,4,2,0,100,0,0
147213,-100,4,1,0,49,0,0
148272,-100,4,2,0,100,0,0
161683,-100,4,1,0,41,0,0
162036,-100,4,2,0,100,0,0
205272,-100,4,1,0,71,0,0

[Colours]
Combo1 : 255,255,0
Combo2 : 255,0,0

[HitObjects]
80,88,6065,2,0,B|196:120,3,100,0|2|2|2
176,216,7985,2,0,B|60:248,3,100,0|2|2|2
144,320,9905,6,0,B|260:288,3,100,0|2|2|2
340,272,11825,1,4
340,72,12785,1,4
256,252,13745,6,0,B|256:44,1,200,4|2
116,192,15665,2,0,B|116:296,2,100,4|2|0
316,192,17585,6,0,B|316:88,2,100,4|2|0
116,192,19505,5,2
188,120,19985,1,4
256,192,20465,1,2
188,264,20945,1,4
288,280,21425,6,0,B|408:280,1,100,4|0
440,196,22385,2,0,B|472:100,2,100,2|0|2
340,184,23825,1,0
256,132,24305,6,0,B|204:236,2,100,2|0|2
156,116,25745,1,0
56,136,26225,2,0,B|108:240,1,100,2|0
156,308,27185,5,4
256,136,28145,5,4
356,308,29105,6,0,B|412:200,1,100,4|0
304,196,30065,2,0,B|248:88,2,100,4|0|4
256,284,31505,2,0,B|124:272,1,100,0|4
96,196,32465,1,0
196,196,32945,1,4
196,96,33425,1,0
256,192,33905,12,4,37625
256,144,54566,6,0,B|256:28,2,100,2|0|2
168,192,55624,2,0,B|48:192,1,100,0|2
68,292,56330,5,0
168,292,56683,1,2
256,240,57036,6,0,B|256:356,2,100,0|2|0
344,192,58095,2,0,B|464:192,1,100,2|0
444,92,58800,5,2
344,92,59154,2,0,B|228:92,3,100,0|2|0|2
256,192,60566,12,4,62330
156,92,63036,2,0,B|280:92,3,100,2|0|2|0
256,192,64448,1,2
180,260,64801,5,0
88,216,65154,1,2
164,152,65507,2,0,B|148:40,2,100,0|2|0
256,108,66566,6,0,B|288:160|384:160,1,100,2|0
388,244,67272,2,0,B|440:212|440:116,2,100,2|0|8
296,288,68330,2,2,B|264:236|168:236,1,100
256,192,69036,12,4,71507
120,152,79977,6,0,B|96:212|140:284,2,100,4|0|0
212,196,81036,2,0,B|272:220|344:176,1,100,4|8
396,244,81742,2,0,B|420:184|376:112,2,100,0|0|8
316,304,82801,1,0
216,304,83154,6,8,B|164:276|100:288,1,100
260,144,84213,6,8,B|312:172|376:160,1,100
160,196,85272,6,0,B|188:144|176:80,2,100,2|2|0
244,252,86330,1,2
324,188,86683,1,2
240,132,87036,1,2
160,196,87389,5,4
244,252,87742,1,4
160,304,88095,1,4
72,256,88448,5,4
92,160,88801,2,0,B|120:100|192:108,1,100,2|2
256,160,89507,2,0,B|316:188|308:260,2,100,2|2|2
352,136,90566,6,0,B|380:76|452:84,1,100,2|2
428,184,91272,1,2
392,276,91624,1,2
308,224,91977,1,2
252,140,92330,5,2
352,136,92683,1,2
152,140,93389,5,4
256,308,94095,6,2,B|256:176,1,100,2|0
228,112,94801,2,0,B|116:132,1,100,2|2
56,200,95507,2,0,B|76:312,1,100,2|0
172,296,96213,2,0,B|284:276,1,100,2|0
368,260,96919,6,0,B|348:148,1,100,4|2
256,192,97624,12,4,99742
100,192,100448,6,2,B|88:252|116:312,1,100
208,288,101154,2,2,B|176:172|200:80,2,200
368,192,103272,5,2
192,288,103977,1,2
200,88,104683,1,4
28,192,105389,6,0,B|64:248|140:248,1,100,4|2
192,192,106095,2,0,B|248:156|248:80,1,100,2|2
300,196,106801,6,0,B|336:252|412:252,1,100,2|2
416,156,107507,2,0,B|472:192|472:268,1,100,2|2
380,280,108213,6,0,B|352:328|256:328|256:224|256:224|44:224,1,400,4|4
88,136,109977,1,4
184,112,110330,1,4
280,136,110683,1,4
376,112,111036,5,4
376,212,111389,1,4
376,312,111742,1,4
276,312,112095,1,4
176,312,112448,1,4
76,312,112801,1,4
76,212,113154,1,4
76,112,113507,1,4
176,112,113860,1,4
176,212,114213,1,4
276,212,114566,1,4
276,112,114919,1,4
376,112,115272,6,0,B|496:112,2,100,4|2|2
376,212,116330,1,2
376,312,116683,6,0,B|248:312,3,100,4|2|2|2
276,212,118095,5,4
176,212,118448,1,2
176,112,118801,1,4
276,112,119154,6,0,B|400:112,2,100,4|4|4
276,212,120213,5,0
176,212,120566,1,0
176,312,120919,1,0
76,312,121272,1,0
76,212,121624,6,0,B|76:84,1,100,2|0
144,40,122330,2,0,B|256:48|256:44,1,100,2|0
256,144,123036,2,0,B|268:260,2,100,2|0|2
344,192,124095,1,0
344,292,124448,1,0
244,292,124801,1,0
144,292,125154,6,0,B|16:304,2,100
212,216,126213,2,0,B|224:344,1,100
316,280,126919,2,0,B|304:152,1,100
256,192,127624,12,4,129389
256,192,129742,5,4
256,192,130095,1,4
256,192,130448,1,4
464,192,131330,6,0,B|377:191|345:143|345:143|288:144,1,150
228,144,132213,6,0,B|172:176|116:160,3,100,2|0|2|0
36,196,133624,2,0,B|68:252|52:308,3,100,2|0|2|0
128,224,135036,2,0,B|184:192|240:208,1,100
256,108,135742,1,0
312,192,136095,1,0
256,276,136448,5,4
160,304,136801,2,0,B|52:328,2,100,2|0|2
140,204,137860,2,0,B|108:144|168:88,2,100,4|2|0
240,196,138919,6,0,B|448:196,1,200,2|4
376,116,139977,6,0,B|508:116,2,100,2|0|4
276,116,141036,2,0,B|48:116,1,200,4|2
76,216,142095,1,4
176,216,142448,6,0,B|312:216,2,100,2|2|2
76,216,143507,2,0,B|76:360,1,100,4|4
376,312,144919,6,0,B|376:208,1,100,0|4
476,204,145624,2,0,B|476:140|432:108|388:100|352:108|320:136,1,200,0|4
256,192,146683,5,4
164,156,147036,1,4
164,256,147389,2,0,B|164:364,2,100
164,156,148448,6,0,B|32:156,2,100,4|4|4
264,156,149507,2,0,B|268:56|364:56|368:160,1,200,2|2
320,244,150566,1,4
256,192,150919,12,4,152330
80,112,153389,6,2,B|316:112,1,200
220,192,154448,2,0,B|20:192,2,200,2|2|2
320,192,156213,1,4
320,292,156566,6,0,B|452:292,2,100,2|2|4
320,192,157624,2,2,B|188:192,2,100,2|2|4
320,92,158683,2,0,B|16:92,1,300,2|4
368,72,161860,6,0,B|460:72|460:248,1,200
364,192,162919,2,0,B|56:192,1,300,2|0
64,92,164330,1,4
264,92,165036,6,0,B|392:92,1,100,4|4
368,292,166095,2,0,B|268:292,1,100,4|4
264,92,167154,6,0,B|152:112|112:192|120:280|176:316,1,300,4|4
268,328,168566,1,0
348,268,168919,1,0
360,168,169272,5,4
324,76,169624,1,4
236,28,169977,1,4
136,16,170330,1,4
108,108,170683,6,0,B|216:128,1,100,2|2
128,188,171389,2,0,B|236:208,1,100,0|2
148,268,172095,6,0,B|256:288,1,100,2|2
168,348,172801,2,0,B|276:368,4,100,2|2|2|2|2
80,304,174566,1,4
148,116,175272,1,4
332,196,175977,6,4,B|112:196,1,200
316,280,177389,5,2
216,280,177742,1,4
116,280,178095,1,4
256,192,178801,12,4,181624
256,192,182330,6,0,B|204:136|204:136|96:188|64:112,1,200,2|0
148,336,183742,2,0,B|200:280|200:280|308:332|340:256,3,200,2|2|2|2
492,192,186566,1,4
292,192,187272,6,2,B|160:192,1,100
92,192,187977,1,2
92,292,188330,1,2
192,292,188683,2,0,B|332:292,3,100,4|0|2|0
256,200,190095,6,0,B|256:80,3,100,4|0|2|0
344,148,191507,5,4
400,232,191860,1,4
348,316,192213,1,4
296,232,192566,1,4
256,192,192919,12,4,197154
96,88,205624,6,0,B|304:88,1,200,2|2
232,164,206683,6,0,B|440:164,1,200,2|2
364,236,207742,6,0,B|156:236,1,200,2|2
256,192,208801,12,4,209860
