osu file format v14

[General]
AudioFilename: Cytus Chapter M Xi vs Sakuzyo - Storia.mp3
AudioLeadIn: 0
PreviewTime: 189329
Countdown: 0
SampleSet: Normal
StackLeniency: 1
Mode: 3
LetterboxInBreaks: 1
SpecialStyle: 0
WidescreenStoryboard: 1

[Editor]
Bookmarks: 81329,102663,145329,178663
DistanceSpacing: 2
BeatDivisor: 4
GridSize: 16
TimelineZoom: 1.9

[Metadata]
Title:Storia
TitleUnicode:Storia
Artist:xi vs sakuzyo
ArtistUnicode:xi vs sakuzyo
Creator:Sp3ct3r_2k11
Version:Ghostly
Source:Cytus
Tags:Cytus Storia xi vs sakuzyo
BeatmapID:732167
BeatmapSetID:330349

[Difficulty]
HPDrainRate:8
CircleSize:7
OverallDifficulty:8
ApproachRate:5
SliderMultiplier:1.4
SliderTickRate:1

[Events]
//Background and Video events
0,0,"background.jpg",0,0
//Break Periods
//Storyboard Layer 0 (Background)
//Storyboard Layer 1 (Fail)
//Storyboard Layer 2 (Pass)
//Storyboard Layer 3 (Foreground)
//Storyboard Sound Samples

[TimingPoints]
5330,333.333333333333,4,1,0,0,1,0
38663,-142.857142857143,4,1,0,0,0,0
39329,-100,4,1,0,0,0,0
39829,-142.857142857143,4,1,0,0,0,0
40663,-100,4,1,0,0,0,0
41329,-142.857142857143,4,1,0,0,0,0
41996,-100,4,1,0,0,0,0
42496,-142.857142857143,4,1,0,0,0,0
43329,-100,4,1,0,0,0,0
43663,-1000,4,1,0,0,0,0
43829,-142.857142857143,4,1,0,0,0,0
44663,-100,4,1,0,0,0,0
44996,-142.857142857143,4,1,0,0,0,0
45996,-100,4,1,0,0,0,0
46663,-142.857142857143,4,1,0,0,0,0
47329,-100,4,1,0,0,0,0
47663,-142.857142857143,4,1,0,0,0,0
48663,-166.666666666667,4,1,0,0,0,0
48704,-1000,4,1,0,0,0,0
48746,-142.857142857143,4,1,0,0,0,0
48788,-1000,4,1,0,0,0,0
48829,-125,4,1,0,0,0,0
48871,-1000,4,1,0,0,0,0
48913,-100,4,1,0,0,0,0
48954,-1000,4,1,0,0,0,0
48996,-83.3333333333333,4,1,0,0,0,0
49038,-1000,4,1,0,0,0,0
49079,-100,4,1,0,0,0,0
49121,-1000,4,1,0,0,0,0
49163,-125,4,1,0,0,0,0
49204,-1000,4,1,0,0,0,0
49246,-166.666666666667,4,1,0,0,0,0
49288,-1000,4,1,0,0,0,0
49329,-142.857142857143,4,1,0,0,0,0
49996,-100,4,1,0,0,0,0
50496,-142.857142857143,4,1,0,0,0,0
51329,-100,4,1,0,0,0,0
51996,-142.857142857143,4,1,0,0,0,0
52663,-100,4,1,0,0,0,0
53163,-142.857142857143,4,1,0,0,0,0
53996,-100,4,1,0,0,0,0
54163,-142.857142857143,4,1,0,0,0,0
55329,-100,4,1,0,0,0,0
55663,-142.857142857143,4,1,0,0,0,0
56663,-100,4,1,0,0,0,0
56996,-142.857142857143,4,1,0,0,0,0
57413,-125,4,1,0,0,0,0
57496,-111.111111111111,4,1,0,0,0,0
57579,-100,4,1,0,0,0,0
57663,-90.9090909090909,4,1,0,0,0,0
57746,-83.3333333333333,4,1,0,0,0,0
57829,-76.9230769230769,4,1,0,0,0,0
57913,-71.4285714285714,4,1,0,0,0,0
57996,-66.6666666666667,4,1,0,0,0,0
58079,-62.5,4,1,0,0,0,0
58163,-58.8235294117647,4,1,0,0,0,0
58246,-55.5555555555556,4,1,0,0,0,0
58329,-52.6315789473684,4,1,0,0,0,0
58413,-50,4,1,0,0,0,0
58496,-47.6190476190476,4,1,0,0,0,0
58579,-47.6190476190476,4,1,0,0,0,0
58829,-10,4,1,0,0,0,0
58871,-333.333333333333,4,1,0,0,0,0
59079,-10,4,1,0,0,0,0
59121,-333.333333333333,4,1,0,0,0,0
59329,-10,4,1,0,0,0,0
59371,-333.333333333333,4,1,0,0,0,0
59996,-100,4,1,0,0,0,0

[HitObjects]
256,192,2663,128,0,5330:0:0:0:0:
475,192,5330,1,0,0:0:0:0:
36,192,5330,1,0,0:0:0:0:
36,192,5496,1,0,0:0:0:0:
182,192,5663,1,0,0:0:0:0:
36,192,5830,1,0,0:0:0:0:
329,192,5996,1,0,0:0:0:0:
36,192,6163,1,0,0:0:0:0:
402,192,6330,1,0,0:0:0:0:
36,192,6496,1,0,0:0:0:0:
475,192,6663,1,0,0:0:0:0:
36,192,6830,1,0,0:0:0:0:
402,192,6996,1,0,0:0:0:0:
36,192,7163,1,0,0:0:0:0:
329,192,7330,1,0,0:0:0:0:
475,192,7496,1,0,0:0:0:0:
36,192,7663,1,0,0:0:0:0:
182,192,7830,1,0,0:0:0:0:
329,192,7996,1,0,0:0:0:0:
475,192,8163,1,0,0:0:0:0:
329,192,8330,1,0,0:0:0:0:
475,192,8496,1,0,0:0:0:0:
182,192,8663,1,0,0:0:0:0:
475,192,8830,1,0,0:0:0:0:
109,192,8996,1,0,0:0:0:0:
475,192,9163,1,0,0:0:0:0:
36,192,9330,1,0,0:0:0:0:
475,192,9496,1,0,0:0:0:0:
109,192,9663,1,0,0:0:0:0:
475,192,9830,1,0,0:0:0:0:
182,192,9996,1,0,0:0:0:0:
36,192,10163,1,0,0:0:0:0:
475,192,10330,1,0,0:0:0:0:
329,192,10496,1,0,0:0:0:0:
182,192,10663,1,0,0:0:0:0:
36,192,10830,1,0,0:0:0:0:
182,192,10996,1,0,0:0:0:0:
36,192,11163,1,0,0:0:0:0:
329,192,11330,1,0,0:0:0:0:
36,192,11496,1,0,0:0:0:0:
402,192,11663,1,0,0:0:0:0:
36,192,11830,1,0,0:0:0:0:
475,192,11996,1,0,0:0:0:0:
36,192,12163,1,0,0:0:0:0:
402,192,12330,1,0,0:0:0:0:
36,192,12496,1,0,0:0:0:0:
329,192,12663,1,0,0:0:0:0:
475,192,12830,1,0,0:0:0:0:
36,192,12996,1,0,0:0:0:0:
182,192,13163,1,0,0:0:0:0:
329,192,13330,1,0,0:0:0:0:
475,192,13496,1,0,0:0:0:0:
329,192,13663,1,0,0:0:0:0:
475,192,13830,1,0,0:0:0:0:
182,192,13996,1,0,0:0:0:0:
475,192,14163,1,0,0:0:0:0:
109,192,14330,1,0,0:0:0:0:
475,192,14496,1,0,0:0:0:0:
36,192,14663,1,0,0:0:0:0:
475,192,14830,1,0,0:0:0:0:
109,192,14996,1,0,0:0:0:0:
475,192,15163,1,0,0:0:0:0:
182,192,15330,1,0,0:0:0:0:
329,192,15330,128,0,15496:0:0:0:0:
36,192,15496,1,0,0:0:0:0:
256,192,15496,128,0,15663:0:0:0:0:
475,192,15663,1,0,0:0:0:0:
182,192,15663,128,0,15830:0:0:0:0:
329,192,15830,1,0,0:0:0:0:
109,192,15830,128,0,15996:0:0:0:0:
36,192,15996,128,0,18663:0:0:0:0:
256,192,15996,1,0,0:0:0:0:
475,192,15996,1,0,0:0:0:0:
182,192,16163,1,0,0:0:0:0:
329,192,16330,1,0,0:0:0:0:
182,192,16496,1,0,0:0:0:0:
402,192,16663,1,0,0:0:0:0:
182,192,16830,1,0,0:0:0:0:
475,192,16996,1,0,0:0:0:0:
182,192,17163,1,0,0:0:0:0:
475,192,17330,1,0,0:0:0:0:
182,192,17496,1,0,0:0:0:0:
402,192,17663,1,0,0:0:0:0:
182,192,17830,1,0,0:0:0:0:
329,192,17996,1,0,0:0:0:0:
475,192,18163,1,0,0:0:0:0:
182,192,18329,1,0,0:0:0:0:
329,192,18496,1,0,0:0:0:0:
402,192,18663,1,0,0:0:0:0:
475,192,18830,1,0,0:0:0:0:
109,192,18996,128,0,19163:0:0:0:0:
329,192,18996,1,0,0:0:0:0:
182,192,19163,128,0,19330:0:0:0:0:
475,192,19163,1,0,0:0:0:0:
256,192,19330,128,0,19496:0:0:0:0:
109,192,19330,1,0,0:0:0:0:
329,192,19496,128,0,19663:0:0:0:0:
36,192,19496,1,0,0:0:0:0:
402,192,19663,128,0,19830:0:0:0:0:
182,192,19663,1,0,0:0:0:0:
475,192,19830,128,0,20330:0:0:0:0:
36,192,19830,1,0,0:0:0:0:
329,192,19996,1,0,0:0:0:0:
36,192,20163,1,0,0:0:0:0:
402,192,20330,128,0,20663:0:0:0:0:
182,192,20330,1,0,0:0:0:0:
36,192,20496,1,0,0:0:0:0:
329,192,20663,128,0,20996:0:0:0:0:
109,192,20663,1,0,0:0:0:0:
182,192,20830,1,0,0:0:0:0:
256,192,20996,128,0,21330:0:0:0:0:
36,192,20996,1,0,0:0:0:0:
109,192,21163,1,0,0:0:0:0:
329,192,21330,128,0,21830:0:0:0:0:
109,192,21330,1,0,0:0:0:0:
36,192,21496,1,0,0:0:0:0:
109,192,21663,1,0,0:0:0:0:
402,192,21830,128,0,22330:0:0:0:0:
36,192,21830,1,0,0:0:0:0:
182,192,21996,1,0,0:0:0:0:
36,192,22163,1,0,0:0:0:0:
475,192,22330,128,0,25330:0:0:0:0:
256,192,22330,1,0,0:0:0:0:
36,192,22496,1,0,0:0:0:0:
329,192,22663,1,0,0:0:0:0:
36,192,22830,1,0,0:0:0:0:
256,192,22996,1,0,0:0:0:0:
36,192,23163,1,0,0:0:0:0:
109,192,23329,1,0,0:0:0:0:
182,192,23496,1,0,0:0:0:0:
36,192,23663,1,0,0:0:0:0:
109,192,23829,1,0,0:0:0:0:
109,192,23996,1,0,0:0:0:0:
36,192,24163,1,0,0:0:0:0:
109,192,24329,1,0,0:0:0:0:
36,192,24496,1,0,0:0:0:0:
182,192,24663,1,0,0:0:0:0:
36,192,24829,1,0,0:0:0:0:
256,192,24996,1,0,0:0:0:0:
36,192,25163,1,0,0:0:0:0:
329,192,25329,1,0,0:0:0:0:
36,192,25496,1,0,0:0:0:0:
475,192,25663,128,0,25996:0:0:0:0:
256,192,25663,1,0,0:0:0:0:
36,192,25829,1,0,0:0:0:0:
109,192,25996,1,0,0:0:0:0:
402,192,25996,128,0,26163:0:0:0:0:
182,192,26163,1,0,0:0:0:0:
329,192,26163,128,0,26330:0:0:0:0:
36,192,26330,1,0,0:0:0:0:
256,192,26330,128,0,26496:0:0:0:0:
182,192,26496,128,0,26663:0:0:0:0:
109,192,26496,1,0,0:0:0:0:
256,192,26663,128,0,27996:0:0:0:0:
402,192,26663,1,0,0:0:0:0:
109,192,26663,1,0,0:0:0:0:
36,192,26829,1,0,0:0:0:0:
475,192,26830,1,0,0:0:0:0:
329,192,26996,1,0,0:0:0:0:
182,192,26996,1,0,0:0:0:0:
182,192,27163,1,0,0:0:0:0:
109,192,27246,1,0,0:0:0:0:
36,192,27329,1,0,0:0:0:0:
109,192,27413,1,0,0:0:0:0:
475,192,27496,1,0,0:0:0:0:
36,192,27496,1,0,0:0:0:0:
329,192,27663,1,0,0:0:0:0:
182,192,27663,1,0,0:0:0:0:
109,192,27829,1,0,0:0:0:0:
109,192,27996,128,0,29330:0:0:0:0:
402,192,27996,1,0,0:0:0:0:
182,192,27996,1,0,0:0:0:0:
475,192,28163,1,0,0:0:0:0:
256,192,28163,1,0,0:0:0:0:
36,192,28329,1,0,0:0:0:0:
329,192,28330,1,0,0:0:0:0:
36,192,28496,1,0,0:0:0:0:
182,192,28579,1,0,0:0:0:0:
329,192,28580,1,0,0:0:0:0:
402,192,28663,1,0,0:0:0:0:
256,192,28663,1,0,0:0:0:0:
182,192,28746,1,0,0:0:0:0:
256,192,28829,1,0,0:0:0:0:
475,192,28830,1,0,0:0:0:0:
329,192,28996,1,0,0:0:0:0:
36,192,28996,1,0,0:0:0:0:
182,192,29163,1,0,0:0:0:0:
36,192,29329,1,0,0:0:0:0:
182,192,29330,128,0,29996:0:0:0:0:
402,192,29330,1,0,0:0:0:0:
475,192,29496,1,0,0:0:0:0:
109,192,29496,1,0,0:0:0:0:
329,192,29663,1,0,0:0:0:0:
36,192,29663,1,0,0:0:0:0:
36,192,29829,1,0,0:0:0:0:
109,192,29913,1,0,0:0:0:0:
36,192,29996,128,0,30663:0:0:0:0:
256,192,29996,1,0,0:0:0:0:
109,192,30079,1,0,0:0:0:0:
475,192,30163,1,0,0:0:0:0:
256,192,30163,1,0,0:0:0:0:
109,192,30329,1,0,0:0:0:0:
329,192,30330,1,0,0:0:0:0:
182,192,30496,1,0,0:0:0:0:
109,192,30663,128,0,31496:0:0:0:0:
402,192,30663,1,0,0:0:0:0:
256,192,30663,1,0,0:0:0:0:
182,192,30829,1,0,0:0:0:0:
475,192,30830,1,0,0:0:0:0:
329,192,30996,1,0,0:0:0:0:
36,192,30996,1,0,0:0:0:0:
36,192,31163,1,0,0:0:0:0:
329,192,31246,1,0,0:0:0:0:
182,192,31246,1,0,0:0:0:0:
256,192,31329,1,0,0:0:0:0:
402,192,31330,1,0,0:0:0:0:
36,192,31413,1,0,0:0:0:0:
182,192,31496,128,0,31663:0:0:0:0:
475,192,31496,1,0,0:0:0:0:
256,192,31496,1,0,0:0:0:0:
256,192,31663,128,0,31830:0:0:0:0:
329,192,31663,1,0,0:0:0:0:
329,192,31830,128,0,31996:0:0:0:0:
256,192,31996,128,0,32663:0:0:0:0:
109,192,31996,1,0,0:0:0:0:
402,192,31996,1,0,0:0:0:0:
36,192,32163,1,0,0:0:0:0:
329,192,32163,1,0,0:0:0:0:
475,192,32329,1,0,0:0:0:0:
182,192,32330,1,0,0:0:0:0:
475,192,32496,1,0,0:0:0:0:
329,192,32579,1,0,0:0:0:0:
402,192,32663,128,0,33329:0:0:0:0:
475,192,32663,1,0,0:0:0:0:
329,192,32746,1,0,0:0:0:0:
36,192,32829,1,0,0:0:0:0:
475,192,32829,1,0,0:0:0:0:
182,192,32996,1,0,0:0:0:0:
475,192,32996,1,0,0:0:0:0:
329,192,33163,1,0,0:0:0:0:
109,192,33329,128,0,34163:0:0:0:0:
475,192,33329,1,0,0:0:0:0:
36,192,33329,1,0,0:0:0:0:
402,192,33496,1,0,0:0:0:0:
182,192,33496,1,0,0:0:0:0:
329,192,33663,1,0,0:0:0:0:
36,192,33663,1,0,0:0:0:0:
36,192,33829,1,0,0:0:0:0:
329,192,33913,1,0,0:0:0:0:
182,192,33913,1,0,0:0:0:0:
402,192,33996,1,0,0:0:0:0:
36,192,33996,1,0,0:0:0:0:
182,192,34079,1,0,0:0:0:0:
475,192,34163,1,0,0:0:0:0:
36,192,34163,128,0,34496:0:0:0:0:
329,192,34163,1,0,0:0:0:0:
329,192,34329,1,0,0:0:0:0:
109,192,34329,1,0,0:0:0:0:
109,192,34496,1,0,0:0:0:0:
109,192,34663,128,0,35996:0:0:0:0:
256,192,34663,128,0,37329:0:0:0:0:
402,192,34663,1,0,0:0:0:0:
36,192,34663,1,0,0:0:0:0:
475,192,34829,1,0,0:0:0:0:
182,192,34829,1,0,0:0:0:0:
329,192,34996,1,0,0:0:0:0:
36,192,34996,1,0,0:0:0:0:
36,192,35163,1,0,0:0:0:0:
182,192,35246,1,0,0:0:0:0:
36,192,35329,1,0,0:0:0:0:
182,192,35413,1,0,0:0:0:0:
475,192,35496,1,0,0:0:0:0:
36,192,35496,1,0,0:0:0:0:
329,192,35663,1,0,0:0:0:0:
36,192,35663,1,0,0:0:0:0:
182,192,35829,1,0,0:0:0:0:
182,192,35996,128,0,37329:0:0:0:0:
402,192,35996,1,0,0:0:0:0:
36,192,35996,1,0,0:0:0:0:
475,192,36163,1,0,0:0:0:0:
109,192,36163,1,0,0:0:0:0:
329,192,36329,1,0,0:0:0:0:
36,192,36329,1,0,0:0:0:0:
36,192,36496,1,0,0:0:0:0:
329,192,36579,1,0,0:0:0:0:
109,192,36579,1,0,0:0:0:0:
402,192,36663,1,0,0:0:0:0:
36,192,36663,1,0,0:0:0:0:
109,192,36746,1,0,0:0:0:0:
475,192,36829,1,0,0:0:0:0:
36,192,36829,1,0,0:0:0:0:
329,192,36996,1,0,0:0:0:0:
36,192,36996,1,0,0:0:0:0:
109,192,37163,1,0,0:0:0:0:
109,192,37329,128,0,37496:0:0:0:0:
402,192,37329,128,0,37496:0:0:0:0:
182,192,37663,128,0,38663:0:0:0:0:
329,192,37663,128,0,38663:0:0:0:0:
36,192,37996,1,0,0:0:0:0:
109,192,38163,1,0,0:0:0:0:
402,192,38246,1,0,0:0:0:0:
475,192,38329,1,0,0:0:0:0:
402,192,38413,1,0,0:0:0:0:
109,192,38496,1,0,0:0:0:0:
36,192,38579,1,0,0:0:0:0:
109,192,38663,128,0,38996:0:0:0:0:
402,192,38663,128,0,38996:0:0:0:0:
256,192,38663,1,0,0:0:0:0:
402,192,39163,128,0,39329:0:0:0:0:
109,192,39163,128,0,39329:0:0:0:0:
256,192,39163,1,0,0:0:0:0:
182,192,39329,1,0,0:0:0:0:
329,192,39329,1,0,0:0:0:0:
36,192,39496,128,0,39663:0:0:0:0:
475,192,39496,128,0,39663:0:0:0:0:
109,192,39829,128,0,39996:0:0:0:0:
402,192,39829,128,0,39996:0:0:0:0:
256,192,39829,1,0,0:0:0:0:
182,192,40163,128,0,40329:0:0:0:0:
329,192,40163,128,0,40329:0:0:0:0:
256,192,40163,1,0,0:0:0:0:
109,192,40496,128,0,40663:0:0:0:0:
402,192,40496,128,0,40663:0:0:0:0:
256,192,40496,1,0,0:0:0:0:
182,192,40663,1,0,0:0:0:0:
329,192,40663,1,0,0:0:0:0:
182,192,40829,128,0,40996:0:0:0:0:
329,192,40829,128,0,40996:0:0:0:0:
36,192,40996,1,0,0:0:0:0:
109,192,41079,1,0,0:0:0:0:
182,192,41163,1,0,0:0:0:0:
256,192,41246,1,0,0:0:0:0:
109,192,41329,128,0,41663:0:0:0:0:
402,192,41329,128,0,41663:0:0:0:0:
256,192,41329,1,0,0:0:0:0:
182,192,41663,128,0,41829:0:0:0:0:
329,192,41663,128,0,41829:0:0:0:0:
109,192,41829,128,0,41996:0:0:0:0:
402,192,41829,128,0,41996:0:0:0:0:
256,192,41829,1,0,0:0:0:0:
182,192,41996,1,0,0:0:0:0:
329,192,41996,1,0,0:0:0:0:
36,192,42163,128,0,42329:0:0:0:0:
475,192,42163,128,0,42329:0:0:0:0:
109,192,42496,128,0,42663:0:0:0:0:
402,192,42496,128,0,42663:0:0:0:0:
256,192,42496,1,0,0:0:0:0:
182,192,42829,128,0,42996:0:0:0:0:
329,192,42829,128,0,42996:0:0:0:0:
256,192,42829,1,0,0:0:0:0:
109,192,43163,128,0,43329:0:0:0:0:
402,192,43163,128,0,43329:0:0:0:0:
256,192,43163,1,0,0:0:0:0:
182,192,43329,1,0,0:0:0:0:
329,192,43329,1,0,0:0:0:0:
36,192,43496,128,0,43663:0:0:0:0:
475,192,43496,128,0,43663:0:0:0:0:
109,192,43829,128,0,44496:0:0:0:0:
402,192,43829,128,0,44496:0:0:0:0:
256,192,43829,1,0,0:0:0:0:
256,192,43996,1,0,0:0:0:0:
182,192,44496,1,0,0:0:0:0:
256,192,44496,1,0,0:0:0:0:
329,192,44579,1,0,0:0:0:0:
36,192,44663,128,0,44829:0:0:0:0:
475,192,44663,128,0,44829:0:0:0:0:
182,192,44663,1,0,0:0:0:0:
329,192,44663,1,0,0:0:0:0:
109,192,44829,128,0,44996:0:0:0:0:
402,192,44829,128,0,44996:0:0:0:0:
182,192,44996,128,0,45163:0:0:0:0:
329,192,44996,128,0,45163:0:0:0:0:
256,192,44996,1,0,0:0:0:0:
109,192,45163,128,0,45496:0:0:0:0:
402,192,45163,128,0,45496:0:0:0:0:
256,192,45163,1,0,0:0:0:0:
182,192,45496,128,0,45829:0:0:0:0:
329,192,45496,128,0,45829:0:0:0:0:
256,192,45496,1,0,0:0:0:0:
256,192,45746,1,0,0:0:0:0:
109,192,45829,128,0,46163:0:0:0:0:
402,192,45829,128,0,46163:0:0:0:0:
182,192,45996,1,0,0:0:0:0:
329,192,45996,1,0,0:0:0:0:
182,192,46163,128,0,46329:0:0:0:0:
329,192,46163,128,0,46329:0:0:0:0:
109,192,46329,128,0,46496:0:0:0:0:
402,192,46329,128,0,46496:0:0:0:0:
36,192,46496,128,0,46663:0:0:0:0:
475,192,46496,128,0,46663:0:0:0:0:
109,192,46663,128,0,46996:0:0:0:0:
402,192,46663,128,0,46996:0:0:0:0:
256,192,46663,1,0,0:0:0:0:
109,192,47163,128,0,47496:0:0:0:0:
402,192,47163,128,0,47496:0:0:0:0:
256,192,47163,1,0,0:0:0:0:
36,192,47329,1,0,0:0:0:0:
475,192,47329,1,0,0:0:0:0:
182,192,47496,128,0,47663:0:0:0:0:
329,192,47496,128,0,47663:0:0:0:0:
256,192,47663,128,0,47829:0:0:0:0:
109,192,47663,1,0,0:0:0:0:
402,192,47663,1,0,0:0:0:0:
182,192,47829,128,0,48663:0:0:0:0:
329,192,47829,128,0,48663:0:0:0:0:
109,192,47829,1,0,0:0:0:0:
402,192,47829,1,0,0:0:0:0:
109,192,48163,1,0,0:0:0:0:
402,192,48163,1,0,0:0:0:0:
402,192,48413,1,0,0:0:0:0:
109,192,48413,1,0,0:0:0:0:
36,192,48663,1,0,0:0:0:0:
475,192,48663,1,0,0:0:0:0:
402,192,48663,128,0,48996:0:0:0:0:
109,192,48746,1,0,0:0:0:0:
182,192,48829,1,0,0:0:0:0:
256,192,48913,1,0,0:0:0:0:
475,192,48996,1,0,0:0:0:0:
109,192,48996,128,0,49329:0:0:0:0:
402,192,49079,1,0,0:0:0:0:
329,192,49163,1,0,0:0:0:0:
256,192,49246,1,0,0:0:0:0:
36,192,49329,128,0,49663:0:0:0:0:
475,192,49329,128,0,49663:0:0:0:0:
256,192,49329,1,0,0:0:0:0:
182,192,49663,128,0,49829:0:0:0:0:
329,192,49663,128,0,49829:0:0:0:0:
402,192,49829,128,0,49996:0:0:0:0:
109,192,49829,128,0,49996:0:0:0:0:
256,192,49829,1,0,0:0:0:0:
182,192,49996,1,0,0:0:0:0:
329,192,49996,1,0,0:0:0:0:
36,192,50163,128,0,50329:0:0:0:0:
475,192,50163,128,0,50329:0:0:0:0:
109,192,50496,128,0,50663:0:0:0:0:
402,192,50496,128,0,50663:0:0:0:0:
256,192,50496,1,0,0:0:0:0:
182,192,50829,128,0,50996:0:0:0:0:
329,192,50829,128,0,50996:0:0:0:0:
256,192,50829,1,0,0:0:0:0:
109,192,51163,128,0,51329:0:0:0:0:
402,192,51163,128,0,51329:0:0:0:0:
256,192,51163,1,0,0:0:0:0:
182,192,51329,1,0,0:0:0:0:
329,192,51329,1,0,0:0:0:0:
182,192,51496,128,0,51663:0:0:0:0:
329,192,51496,128,0,51663:0:0:0:0:
36,192,51663,1,0,0:0:0:0:
109,192,51746,1,0,0:0:0:0:
182,192,51829,1,0,0:0:0:0:
256,192,51913,1,0,0:0:0:0:
256,192,51996,1,0,0:0:0:0:
109,192,51996,128,0,52329:0:0:0:0:
402,192,51996,128,0,52329:0:0:0:0:
329,192,52329,128,0,52496:0:0:0:0:
182,192,52329,128,0,52496:0:0:0:0:
256,192,52496,1,0,0:0:0:0:
109,192,52496,128,0,52663:0:0:0:0:
402,192,52496,128,0,52663:0:0:0:0:
182,192,52663,1,0,0:0:0:0:
329,192,52663,1,0,0:0:0:0:
402,192,52829,128,0,52996:0:0:0:0:
109,192,52829,128,0,52996:0:0:0:0:
36,192,53163,128,0,53329:0:0:0:0:
475,192,53163,128,0,53329:0:0:0:0:
256,192,53163,1,0,0:0:0:0:
109,192,53496,128,0,53663:0:0:0:0:
402,192,53496,128,0,53663:0:0:0:0:
256,192,53496,1,0,0:0:0:0:
182,192,53829,128,0,53996:0:0:0:0:
329,192,53829,128,0,53996:0:0:0:0:
256,192,53829,1,0,0:0:0:0:
109,192,53996,1,0,0:0:0:0:
402,192,53996,1,0,0:0:0:0:
109,192,54163,128,0,54329:0:0:0:0:
402,192,54163,128,0,54329:0:0:0:0:
256,192,54163,1,0,0:0:0:0:
475,192,54496,1,0,0:0:0:0:
36,192,54496,1,0,0:0:0:0:
256,192,54496,1,0,0:0:0:0:
329,192,54579,1,0,0:0:0:0:
182,192,54579,1,0,0:0:0:0:
109,192,54663,128,0,55496:0:0:0:0:
402,192,54663,128,0,55496:0:0:0:0:
256,192,54663,1,0,0:0:0:0:
256,192,55163,1,0,0:0:0:0:
182,192,55329,1,0,0:0:0:0:
329,192,55329,1,0,0:0:0:0:
182,192,55496,128,0,55663:0:0:0:0:
329,192,55496,128,0,55663:0:0:0:0:
36,192,55663,128,0,55829:0:0:0:0:
475,192,55663,128,0,55829:0:0:0:0:
256,192,55663,1,0,0:0:0:0:
109,192,55829,128,0,56829:0:0:0:0:
402,192,55829,128,0,56829:0:0:0:0:
256,192,55829,1,0,0:0:0:0:
256,192,56163,1,0,0:0:0:0:
256,192,56413,1,0,0:0:0:0:
182,192,56663,1,0,0:0:0:0:
329,192,56663,1,0,0:0:0:0:
182,192,56829,128,0,56996:0:0:0:0:
329,192,56829,128,0,56996:0:0:0:0:
109,192,56996,128,0,57163:0:0:0:0:
402,192,56996,128,0,57163:0:0:0:0:
256,192,56996,1,0,0:0:0:0:
475,192,57163,128,0,58663:0:0:0:0:
36,192,57163,128,0,58663:0:0:0:0:
256,192,57163,1,0,0:0:0:0:
182,192,57329,1,0,0:0:0:0:
329,192,57413,1,0,0:0:0:0:
182,192,57496,1,0,0:0:0:0:
329,192,57579,1,0,0:0:0:0:
182,192,57663,1,0,0:0:0:0:
329,192,57746,1,0,0:0:0:0:
182,192,57829,1,0,0:0:0:0:
329,192,57913,1,0,0:0:0:0:
182,192,57996,1,0,0:0:0:0:
329,192,58079,1,0,0:0:0:0:
182,192,58163,1,0,0:0:0:0:
329,192,58246,1,0,0:0:0:0:
182,192,58329,1,0,0:0:0:0:
329,192,58413,1,0,0:0:0:0:
182,192,58496,1,0,0:0:0:0:
329,192,58579,1,0,0:0:0:0:
36,192,58829,1,0,0:0:0:0:
109,192,58829,1,0,0:0:0:0:
475,192,58829,1,0,0:0:0:0:
402,192,58829,1,0,0:0:0:0:
475,192,59079,1,0,0:0:0:0:
402,192,59079,1,0,0:0:0:0:
36,192,59079,1,0,0:0:0:0:
109,192,59079,1,0,0:0:0:0:
109,192,59329,1,0,0:0:0:0:
182,192,59329,1,0,0:0:0:0:
329,192,59329,1,0,0:0:0:0:
402,192,59329,1,0,0:0:0:0:
256,192,59663,1,0,0:0:0:0:
182,192,59996,1,0,0:0:0:0:
329,192,59996,1,0,0:0:0:0:
475,192,59996,1,0,0:0:0:0:
36,192,59996,1,0,0:0:0:0:
256,192,59996,1,0,0:0:0:0:
402,192,60079,1,0,0:0:0:0:
475,192,60163,1,0,0:0:0:0:
402,192,60329,1,0,0:0:0:0:
36,192,60329,1,0,0:0:0:0:
182,192,60329,1,0,0:0:0:0:
329,192,60329,1,0,0:0:0:0:
475,192,60413,1,0,0:0:0:0:
402,192,60496,1,0,0:0:0:0:
475,192,60663,1,0,0:0:0:0:
36,192,60663,1,0,0:0:0:0:
402,192,60746,1,0,0:0:0:0:
475,192,60829,1,0,0:0:0:0:
109,192,60829,1,0,0:0:0:0:
256,192,60829,1,0,0:0:0:0:
402,192,60996,1,0,0:0:0:0:
182,192,60996,1,0,0:0:0:0:
329,192,60996,1,0,0:0:0:0:
475,192,61079,1,0,0:0:0:0:
402,192,61163,1,0,0:0:0:0:
109,192,61163,1,0,0:0:0:0:
182,192,61163,1,0,0:0:0:0:
402,192,61329,1,0,0:0:0:0:
256,192,61329,1,0,0:0:0:0:
329,192,61413,1,0,0:0:0:0:
402,192,61496,1,0,0:0:0:0:
36,192,61496,1,0,0:0:0:0:
109,192,61496,1,0,0:0:0:0:
329,192,61663,1,0,0:0:0:0:
182,192,61663,1,0,0:0:0:0:
402,192,61746,1,0,0:0:0:0:
329,192,61829,1,0,0:0:0:0:
182,192,61829,1,0,0:0:0:0:
109,192,61829,1,0,0:0:0:0:
402,192,61996,1,0,0:0:0:0:
329,192,62079,1,0,0:0:0:0:
402,192,62163,1,0,0:0:0:0:
256,192,62163,1,0,0:0:0:0:
329,192,62329,1,0,0:0:0:0:
182,192,62329,1,0,0:0:0:0:
402,192,62413,1,0,0:0:0:0:
329,192,62496,1,0,0:0:0:0:
182,192,62663,1,0,0:0:0:0:
256,192,62663,1,0,0:0:0:0:
109,192,62746,1,0,0:0:0:0:
182,192,62829,1,0,0:0:0:0:
109,192,62996,1,0,0:0:0:0:
329,192,62996,1,0,0:0:0:0:
475,192,62996,1,0,0:0:0:0:
402,192,62996,1,0,0:0:0:0:
182,192,63079,1,0,0:0:0:0:
109,192,63163,1,0,0:0:0:0:
182,192,63329,1,0,0:0:0:0:
475,192,63329,1,0,0:0:0:0:
109,192,63413,1,0,0:0:0:0:
182,192,63496,1,0,0:0:0:0:
402,192,63496,1,0,0:0:0:0:
256,192,63496,1,0,0:0:0:0:
109,192,63663,1,0,0:0:0:0:
329,192,63663,1,0,0:0:0:0:
402,192,63663,1,0,0:0:0:0:
182,192,63746,1,0,0:0:0:0:
109,192,63829,1,0,0:0:0:0:
329,192,63829,1,0,0:0:0:0:
475,192,63829,1,0,0:0:0:0:
109,192,63996,1,0,0:0:0:0:
256,192,63996,1,0,0:0:0:0:
36,192,64079,1,0,0:0:0:0:
109,192,64163,1,0,0:0:0:0:
402,192,64163,1,0,0:0:0:0:
36,192,64329,1,0,0:0:0:0:
329,192,64329,1,0,0:0:0:0:
182,192,64329,1,0,0:0:0:0:
109,192,64413,1,0,0:0:0:0:
36,192,64496,1,0,0:0:0:0:
402,192,64496,1,0,0:0:0:0:
109,192,64663,1,0,0:0:0:0:
402,192,64663,1,0,0:0:0:0:
36,192,64746,1,0,0:0:0:0:
475,192,64746,1,0,0:0:0:0:
109,192,64829,1,0,0:0:0:0:
402,192,64829,1,0,0:0:0:0:
256,192,64829,1,0,0:0:0:0:
329,192,64913,1,0,0:0:0:0:
36,192,64996,1,0,0:0:0:0:
402,192,64996,1,0,0:0:0:0:
182,192,64996,1,0,0:0:0:0:
109,192,65079,1,0,0:0:0:0:
329,192,65079,1,0,0:0:0:0:
36,192,65163,1,0,0:0:0:0:
402,192,65163,1,0,0:0:0:0:
475,192,65246,1,0,0:0:0:0:
402,192,65329,1,0,0:0:0:0:
36,192,65329,1,0,0:0:0:0:
256,192,65329,1,0,0:0:0:0:
109,192,65413,1,0,0:0:0:0:
36,192,65496,1,0,0:0:0:0:
475,192,65663,128,0,65996:0:0:0:0:
109,192,65663,1,0,0:0:0:0:
329,192,65663,1,0,0:0:0:0:
36,192,65746,1,0,0:0:0:0:
109,192,65829,1,0,0:0:0:0:
402,192,65996,128,0,66163:0:0:0:0:
109,192,65996,1,0,0:0:0:0:
182,192,66079,1,0,0:0:0:0:
36,192,66163,128,0,66329:0:0:0:0:
109,192,66163,1,0,0:0:0:0:
256,192,66163,1,0,0:0:0:0:
109,192,66329,128,0,66496:0:0:0:0:
475,192,66329,1,0,0:0:0:0:
329,192,66329,1,0,0:0:0:0:
402,192,66413,1,0,0:0:0:0:
182,192,66496,128,0,66663:0:0:0:0:
475,192,66496,1,0,0:0:0:0:
402,192,66663,1,0,0:0:0:0:
36,192,66663,1,0,0:0:0:0:
256,192,66663,1,0,0:0:0:0:
475,192,66746,1,0,0:0:0:0:
109,192,66746,1,0,0:0:0:0:
402,192,66829,1,0,0:0:0:0:
36,192,66829,1,0,0:0:0:0:
329,192,66913,1,0,0:0:0:0:
402,192,66996,1,0,0:0:0:0:
109,192,66996,1,0,0:0:0:0:
182,192,66996,1,0,0:0:0:0:
475,192,67079,1,0,0:0:0:0:
36,192,67079,1,0,0:0:0:0:
402,192,67163,1,0,0:0:0:0:
109,192,67163,1,0,0:0:0:0:
329,192,67246,1,0,0:0:0:0:
402,192,67329,1,0,0:0:0:0:
36,192,67329,1,0,0:0:0:0:
475,192,67413,1,0,0:0:0:0:
109,192,67413,1,0,0:0:0:0:
402,192,67496,1,0,0:0:0:0:
36,192,67496,1,0,0:0:0:0:
256,192,67496,1,0,0:0:0:0:
329,192,67579,1,0,0:0:0:0:
182,192,67579,1,0,0:0:0:0:
182,192,67663,1,0,0:0:0:0:
475,192,67663,1,0,0:0:0:0:
36,192,67746,1,0,0:0:0:0:
402,192,67746,1,0,0:0:0:0:
109,192,67829,1,0,0:0:0:0:
475,192,67829,1,0,0:0:0:0:
182,192,67913,1,0,0:0:0:0:
36,192,67996,128,0,68163:0:0:0:0:
475,192,67996,1,0,0:0:0:0:
256,192,67996,1,0,0:0:0:0:
402,192,68079,1,0,0:0:0:0:
109,192,68163,128,0,68329:0:0:0:0:
475,192,68163,1,0,0:0:0:0:
36,192,68329,128,0,68496:0:0:0:0:
402,192,68329,1,0,0:0:0:0:
329,192,68329,1,0,0:0:0:0:
475,192,68413,1,0,0:0:0:0:
109,192,68496,1,0,0:0:0:0:
402,192,68496,1,0,0:0:0:0:
182,192,68579,1,0,0:0:0:0:
475,192,68663,128,0,68829:0:0:0:0:
36,192,68663,1,0,0:0:0:0:
109,192,68746,1,0,0:0:0:0:
402,192,68829,128,0,68996:0:0:0:0:
36,192,68829,1,0,0:0:0:0:
256,192,68829,1,0,0:0:0:0:
329,192,68996,1,0,0:0:0:0:
109,192,68996,1,0,0:0:0:0:
475,192,68996,1,0,0:0:0:0:
182,192,69079,1,0,0:0:0:0:
36,192,69079,1,0,0:0:0:0:
329,192,69163,1,0,0:0:0:0:
109,192,69163,1,0,0:0:0:0:
475,192,69246,1,0,0:0:0:0:
402,192,69329,128,0,69496:0:0:0:0:
256,192,69329,1,0,0:0:0:0:
36,192,69329,1,0,0:0:0:0:
109,192,69413,1,0,0:0:0:0:
329,192,69496,1,0,0:0:0:0:
36,192,69496,1,0,0:0:0:0:
182,192,69579,1,0,0:0:0:0:
109,192,69663,128,0,69829:0:0:0:0:
329,192,69663,1,0,0:0:0:0:
475,192,69663,1,0,0:0:0:0:
402,192,69746,1,0,0:0:0:0:
36,192,69829,1,0,0:0:0:0:
475,192,69829,1,0,0:0:0:0:
36,192,69996,1,0,0:0:0:0:
402,192,69996,1,0,0:0:0:0:
109,192,70079,1,0,0:0:0:0:
475,192,70079,1,0,0:0:0:0:
182,192,70163,1,0,0:0:0:0:
256,192,70163,1,0,0:0:0:0:
402,192,70163,1,0,0:0:0:0:
329,192,70246,1,0,0:0:0:0:
402,192,70329,1,0,0:0:0:0:
182,192,70329,1,0,0:0:0:0:
109,192,70329,1,0,0:0:0:0:
329,192,70413,1,0,0:0:0:0:
36,192,70413,1,0,0:0:0:0:
182,192,70496,1,0,0:0:0:0:
109,192,70496,1,0,0:0:0:0:
36,192,70579,1,0,0:0:0:0:
109,192,70663,1,0,0:0:0:0:
