osu file format v14

[General]
AudioFilename: xi over the top.mp3
AudioLeadIn: 0
PreviewTime: 77369
Countdown: 1
SampleSet: Normal
StackLeniency: 0.7
Mode: 0
LetterboxInBreaks: 1
WidescreenStoryboard: 0

[Editor]
Bookmarks: 6012,15517,25022,34527,44032,53536,63041,72546,77299,82051,96309,115319
DistanceSpacing: 1
BeatDivisor: 3
GridSize: 4
TimelineZoom: 1.6

[Metadata]
Title:over the top
TitleUnicode:over the top
Artist:xi
ArtistUnicode:xi
Creator:Broccoly
Version:Zion
Source:
Tags:Diverse System AD:Nearly 120 seconds
BeatmapID:800326
BeatmapSetID:364622

[Difficulty]
HPDrainRate:7
CircleSize:4
OverallDifficulty:9
ApproachRate:9.3
SliderMultiplier:1.76
SliderTickRate:1

[Events]
//Background and Video events
0,0,"BG.jpg",0,0
//Break Periods
//Storyboard Layer 0 (Background)
//Storyboard Layer 1 (Fail)
//Storyboard Layer 2 (Pass)
//Storyboard Layer 3 (Foreground)
//Storyboard Sound Samples

[TimingPoints]
1330,297.029702970297,4,1,0,100,1,0
5785,-100,4,1,0,35,0,0
15587,-153.846153846154,4,1,0,35,0,0
17666,-153.846153846154,4,1,0,25,0,0
17963,-153.846153846154,4,1,0,35,0,0
20042,-153.846153846154,4,1,0,25,0,0
20339,-153.846153846154,4,1,0,35,0,0
22419,-153.846153846154,4,1,0,25,0,0
22716,-200,4,1,0,35,0,0
23904,-300,4,1,0,35,0,0
24943,-100,4,1,0,35,0,0
34226,-100,4,2,0,20,0,0
34300,-66.6666666666667,4,1,0,35,0,0
34597,-90.9090909090909,4,1,0,35,0,1
44028,-90.9090909090909,4,1,0,35,0,0
44102,-90.9090909090909,4,1,0,35,0,1
53607,-100,4,1,0,35,0,0
70240,-200,4,1,0,35,0,0
70760,-200,4,2,0,20,0,0
70834,-200,4,1,0,35,0,0
71354,-200,4,2,0,20,0,0
71429,-200,4,1,0,35,0,0
71948,-200,4,2,0,20,0,0
72023,-200,4,1,0,35,0,0
74993,-100,4,1,0,35,0,0
79597,-100,4,2,0,35,0,0
79745,-100,4,1,0,35,0,0
79968,-100,4,2,0,20,0,0
80042,-100,4,1,0,35,0,0
81825,-133.333333333333,4,1,0,35,0,0
82047,-133.333333333333,4,2,0,35,0,0
82122,-100,4,1,0,35,0,1
95933,-200,4,1,0,35,0,0
96230,-100,4,1,0,35,0,0
96379,-100,4,1,0,35,0,1
115686,-100,4,1,0,35,0,0
120141,-100,4,2,0,35,0,0

[Colours]
Combo1 : 0,118,236
Combo2 : 119,211,242
Combo3 : 165,121,247

[HitObjects]
373,76,1330,5,0,0:0:0:0:
373,76,1429,2,0,L|384:134,1,58.6666666666667
413,261,1627,1,0,0:0:0:0:
140,128,2221,5,0,0:0:0:0:
140,128,2320,2,0,L|136:186,1,58.6666666666667
124,316,2518,1,0,0:0:0:0:
356,107,3706,5,0,0:0:0:0:
356,107,3805,2,0,L|415:99,1,58.6666666666667
256,28,4003,1,0,0:0:0:0:
173,309,4597,5,0,0:0:0:0:
173,309,4696,2,0,L|114:301,1,58.6666666666667
256,221,4894,1,0,0:0:0:0:
365,238,5785,6,0,P|398:202|387:249,1,132
265,241,6082,5,0,0:0:0:0:
265,241,6230,2,0,L|273:312,1,44
163,291,6379,5,0,0:0:0:0:
163,291,6528,2,0,L|155:362,1,44
55,241,6676,6,0,P|86:213|141:203,1,88
146,106,6899,1,0,0:0:0:0:
146,106,6973,2,0,L|243:121,1,88
334,115,7196,5,0,0:0:0:0:
334,115,7270,2,0,B|335:165|335:165|354:206,1,88
350,199,7493,2,0,L|307:208,1,44
465,134,7716,5,0,0:0:0:0:
465,134,7790,1,0,0:0:0:0:
465,134,7864,1,0,0:0:0:0:
402,288,8013,2,0,L|412:337,1,44
309,314,8161,2,0,L|209:304,1,88
47,261,8458,5,0,0:0:0:0:
154,200,8607,2,0,L|159:149,1,44
165,111,8755,5,0,0:0:0:0:
40,65,8904,2,0,L|35:108,1,44
67,215,9052,2,0,L|165:198,1,88
370,235,9349,1,0,0:0:0:0:
294,83,9498,5,0,0:0:0:0:
294,83,9572,1,0,0:0:0:0:
294,83,9646,2,0,B|280:126|280:126|290:171,1,88
474,298,9943,2,0,B|488:255|488:255|478:210,1,88
478,213,10166,1,0,0:0:0:0:
478,213,10240,5,0,0:0:0:0:
310,295,10389,1,0,0:0:0:0:
262,300,10537,1,0,0:0:0:0:
212,307,10686,1,0,0:0:0:0:
42,180,10834,6,0,L|191:202,1,132,0|0,0:0|2:0,0:0:0:0:
237,126,11131,2,0,L|331:115,1,88
441,146,11354,1,0,0:0:0:0:
441,146,11429,6,0,B|466:214|466:214|452:284,1,132,0|0,0:0|2:0,0:0:0:0:
378,332,11726,1,0,0:0:0:0:
234,241,11874,1,0,0:0:0:0:
109,349,12023,5,0,0:0:0:0:
109,349,12171,1,0,0:0:0:0:
43,227,12320,5,0,0:0:0:0:
44,196,12394,1,0,0:0:0:0:
61,169,12468,1,0,0:0:0:0:
89,156,12542,1,0,0:0:0:0:
118,162,12617,5,0,0:0:0:0:
232,80,12765,1,0,0:0:0:0:
396,77,12914,5,0,0:0:0:0:
392,107,12988,1,0,0:0:0:0:
388,137,13062,1,0,0:0:0:0:
384,167,13136,1,0,0:0:0:0:
380,197,13211,5,0,0:0:0:0:
267,232,13359,1,0,0:0:0:0:
406,241,13508,5,0,0:0:0:0:
223,152,13656,1,0,0:0:0:0:
467,195,13805,5,0,0:0:0:0:
166,226,13953,1,0,0:0:0:0:
380,322,14102,5,0,0:0:0:0:
139,122,14250,1,0,0:0:0:0:
95,331,14399,5,0,0:0:0:0:
112,328,14473,1,0,0:0:0:0:
129,325,14547,1,0,0:0:0:0:
146,322,14622,1,0,0:0:0:0:
163,319,14696,1,0,0:0:0:0:
180,316,14770,1,0,0:0:0:0:
197,313,14844,1,0,0:0:0:0:
214,310,14919,1,0,0:0:0:0:
256,335,14993,5,0,0:0:0:0:
299,339,15067,1,0,0:0:0:0:
342,343,15141,1,0,0:0:0:0:
386,347,15216,1,0,0:0:0:0:
429,352,15290,1,0,0:0:0:0:
275,135,15438,6,0,L|269:178,1,44
256,335,15587,6,0,B|261:302|252:241|176:216|193:139|193:139|199:183|241:253|293:211|333:200|333:163|323:137|286:103|258:155,1,457.599979052735
114,311,17666,5,0,0:0:0:0:
49,34,17963,2,0,B|55:92|55:92|42:116|42:116|49:206|49:206|31:230|31:230|130:197|130:197|162:209|162:209|223:190|223:190|196:254,1,457.599979052735
294,34,20042,5,0,0:0:0:0:
438,155,20339,2,0,B|466:139|483:140|483:140|490:184|463:234|463:234|493:291|457:344|457:344|467:299|447:269|416:252|383:271|383:271|350:284|318:264,1,457.599979052735
26,118,22419,5,0,0:0:0:0:
135,283,22716,2,0,B|84:315|84:315|114:226|114:226|141:211|141:211|168:123|168:123|190:156,1,308,0|0,0:0|2:0,0:0:0:0:
334,97,23904,6,0,P|391:85|448:176,1,176
271,282,24943,6,0,L|282:338,1,44
172,309,25092,2,0,L|73:303,1,88
40,81,25389,2,0,B|166:63|166:63|215:89,1,176
342,241,25834,1,0,0:0:0:0:
146,186,25983,1,0,0:0:0:0:
358,74,26131,1,0,0:0:0:0:
461,205,26280,5,0,0:0:0:0:
461,205,26354,1,0,0:0:0:0:
461,205,26429,2,0,L|451:267,1,44
343,296,26577,5,0,0:0:0:0:
343,296,26651,1,0,0:0:0:0:
343,296,26726,2,0,L|353:358,1,44
221,326,26874,5,0,0:0:0:0:
186,345,26948,1,0,0:0:0:0:
146,343,27023,1,0,0:0:0:0:
110,326,27097,1,0,0:0:0:0:
97,279,27171,5,0,0:0:0:0:
100,261,27245,1,0,0:0:0:0:
104,243,27320,1,0,0:0:0:0:
108,225,27394,1,0,0:0:0:0:
111,207,27468,6,0,B|65:215|65:215|17:185,1,88
359,63,27765,2,0,B|371:195|371:195|336:235,1,176
178,120,28211,1,0,0:0:0:0:
135,338,28359,2,0,L|228:324,1,88
438,335,28656,5,0,0:0:0:0:
438,335,28730,1,0,0:0:0:0:
438,335,28805,2,0,L|446:284,1,44
342,227,28953,5,0,0:0:0:0:
342,227,29028,1,0,0:0:0:0:
342,227,29102,2,0,L|334:179,1,44
369,87,29250,5,0,0:0:0:0:
337,70,29325,1,0,0:0:0:0:
302,72,29399,1,0,0:0:0:0:
272,90,29473,1,0,0:0:0:0:
238,124,29547,5,0,0:0:0:0:
195,137,29622,1,0,0:0:0:0:
152,125,29696,1,0,0:0:0:0:
124,90,29770,1,0,0:0:0:0:
83,74,29844,6,0,P|65:118|76:169,1,88
48,331,30141,2,0,B|116:311|116:311|144:321|144:321|228:298,1,176
408,318,30587,1,0,0:0:0:0:
260,215,30735,1,0,0:0:0:0:
438,149,30884,1,0,0:0:0:0:
297,56,31032,5,0,0:0:0:0:
297,56,31107,1,0,0:0:0:0:
297,56,31181,2,0,L|292:105,1,44
167,128,31330,5,0,0:0:0:0:
167,128,31404,1,0,0:0:0:0:
167,128,31478,2,0,L|180:191,1,44
117,254,31627,5,0,0:0:0:0:
154,276,31701,1,0,0:0:0:0:
197,277,31775,1,0,0:0:0:0:
235,256,31849,1,0,0:0:0:0:
269,219,31924,5,0,0:0:0:0:
321,213,31998,1,0,0:0:0:0:
366,238,32072,1,0,0:0:0:0:
390,284,32146,1,0,0:0:0:0:
376,335,32221,6,0,L|370:388,2,44
496,116,32518,2,0,L|502:63,2,44
444,209,32740,1,0,0:0:0:0:
444,209,32815,2,0,B|405:184|405:184|348:190,1,88
217,70,33112,5,0,0:0:0:0:
167,53,33186,1,0,0:0:0:0:
115,64,33260,1,0,0:0:0:0:
80,104,33334,1,0,0:0:0:0:
72,156,33409,1,0,0:0:0:0:
36,316,33557,5,0,0:0:0:0:
36,316,33631,1,0,0:0:0:0:
36,316,33706,1,0,0:0:0:0:
79,309,33780,1,0,0:0:0:0:
122,302,33854,1,0,0:0:0:0:
165,295,33929,1,0,0:0:0:0:
229,248,34003,6,0,B|312:233|312:233|360:281,1,132
444,329,34300,6,0,B|435:218|435:218|498:241|498:241|459:275,1,198.000007553101
345,266,34597,5,0,0:0:0:0:
417,111,34745,1,0,0:0:0:0:
417,111,34820,1,0,0:0:0:0:
417,111,34894,1,0,0:0:0:0:
248,37,35042,5,0,0:0:0:0:
254,56,35117,1,0,0:0:0:0:
260,74,35191,1,0,0:0:0:0:
95,97,35339,5,0,0:0:0:0:
105,132,35414,1,0,0:0:0:0:
117,168,35488,1,0,0:0:0:0:
220,241,35636,5,0,0:0:0:0:
25,316,35785,5,0,0:0:0:0:
51,281,35859,1,0,0:0:0:0:
93,270,35933,1,0,0:0:0:0:
135,286,36008,1,0,0:0:0:0:
161,320,36082,1,0,0:0:0:0:
199,340,36156,1,0,0:0:0:0:
242,338,36230,1,0,0:0:0:0:
280,316,36305,1,0,0:0:0:0:
307,282,36379,6,0,B|356:278|356:278|413:312,1,96.8000029541017
483,247,36602,2,0,P|493:210|467:149,1,96.8000029541017
425,75,36825,2,0,L|368:90,1,48.4000014770508
284,142,36973,5,0,0:0:0:0:
148,53,37122,1,0,0:0:0:0:
64,160,37270,5,0,0:0:0:0:
66,179,37344,1,0,0:0:0:0:
68,198,37419,1,0,0:0:0:0:
70,217,37493,1,0,0:0:0:0:
98,244,37567,5,0,0:0:0:0:
95,267,37641,1,0,0:0:0:0:
92,291,37716,1,0,0:0:0:0:
89,314,37790,1,0,0:0:0:0:
86,337,37864,5,0,0:0:0:0:
116,313,37938,1,0,0:0:0:0:
154,308,38013,1,0,0:0:0:0:
191,316,38087,1,0,0:0:0:0:
223,336,38161,5,0,0:0:0:0:
265,344,38235,1,0,0:0:0:0:
306,328,38310,1,0,0:0:0:0:
334,295,38384,1,0,0:0:0:0:
339,251,38458,6,0,P|336:219|320:195,1,48.4000014770508
444,325,38607,2,0,P|462:299|465:269,1,48.4000014770508
512,179,38755,5,0,0:0:0:0:
496,132,38830,1,0,0:0:0:0:
455,105,38904,1,0,0:0:0:0:
406,102,38978,1,0,0:0:0:0:
368,71,39052,6,0,L|313:67,1,48.4000014770508
237,118,39201,2,0,L|182:114,1,48.4000014770508
72,65,39349,6,0,L|86:178,1,96.8000029541017
54,295,39646,5,0,0:0:0:0:
87,275,39721,1,0,0:0:0:0:
124,278,39795,1,0,0:0:0:0:
155,302,39869,1,0,0:0:0:0:
169,337,39943,1,0,0:0:0:0:
370,176,40092,5,0,3:0:0:0:
330,156,40166,1,0,3:0:0:0:
286,158,40240,1,0,3:0:0:0:
251,184,40315,1,0,3:0:0:0:
240,226,40389,1,0,3:0:0:0:
305,351,40537,5,0,0:0:0:0:
305,351,40612,2,0,L|432:330,1,96.8000029541017
463,251,40834,2,0,B|471:162|471:162|438:103,1,145.200004431152
392,32,41131,1,0,0:0:0:0:
262,144,41280,2,0,L|267:96,1,48.4000014770508
158,109,41429,2,0,L|54:92,1,96.8000029541017
47,308,41726,5,0,0:0:0:0:
185,226,41874,1,0,0:0:0:0:
299,330,42023,6,0,L|306:279,1,48.4000014770508
432,271,42171,2,0,L|421:221,1,48.4000014770508
399,115,42320,5,0,0:0:0:0:
366,94,42394,1,0,0:0:0:0:
327,95,42468,1,0,0:0:0:0:
295,117,42542,1,0,0:0:0:0:
261,145,42617,5,0,0:0:0:0:
219,156,42691,1,0,0:0:0:0:
178,140,42765,1,0,0:0:0:0:
153,104,42839,1,0,0:0:0:0:
160,60,42914,5,0,0:0:0:0:
194,26,42988,1,0,0:0:0:0:
242,24,43062,1,0,0:0:0:0:
283,51,43136,1,0,0:0:0:0:
290,99,43211,5,0,0:0:0:0:
274,149,43285,1,0,0:0:0:0:
232,182,43359,1,0,0:0:0:0:
179,187,43433,1,0,0:0:0:0:
129,166,43508,5,0,0:0:0:0:
72,177,43582,1,0,0:0:0:0:
39,224,43656,1,0,0:0:0:0:
41,281,43730,1,0,0:0:0:0:
82,322,43805,1,0,0:0:0:0:
139,322,43879,1,0,0:0:0:0:
187,290,43953,1,0,0:0:0:0:
243,275,44028,1,0,0:0:0:0:
300,284,44102,5,0,0:0:0:0:
116,251,44250,1,0,0:0:0:0:
222,87,44399,5,0,0:0:0:0:
236,229,44547,1,0,0:0:0:0:
393,149,44696,5,0,0:0:0:0:
346,327,44844,1,0,0:0:0:0:
134,137,44993,5,0,0:0:0:0:
176,348,45141,1,0,0:0:0:0:
286,255,45290,5,0,0:0:0:0:
318,229,45364,1,0,0:0:0:0:
358,229,45438,1,0,0:0:0:0:
395,247,45513,1,0,0:0:0:0:
433,261,45587,1,0,0:0:0:0:
470,244,45661,1,0,0:0:0:0:
482,204,45735,1,0,0:0:0:0:
474,163,45810,1,0,0:0:0:0:
443,136,45884,6,0,B|400:117|400:117|345:132,1,96.8000029541017
240,168,46107,2,0,L|250:71,1,96.8000029541017
137,205,46330,2,0,L|144:255,1,48.4000014770508
47,138,46478,1,0,0:0:0:0:
29,343,46627,6,0,P|95:365|133:340,1,96.8000029541017
196,324,46849,1,0,0:0:0:0:
234,307,46924,1,0,0:0:0:0:
274,306,46998,1,0,0:0:0:0:
312,318,47072,5,0,0:0:0:0:
345,337,47146,1,0,0:0:0:0:
383,340,47221,1,0,0:0:0:0:
419,328,47295,1,0,0:0:0:0:
440,299,47369,5,0,0:0:0:0:
445,263,47443,1,0,0:0:0:0:
435,227,47518,1,0,0:0:0:0:
408,202,47592,1,0,0:0:0:0:
373,185,47666,6,0,P|346:189|309:203,1,48.4000014770508
270,109,47815,2,0,P|237:106|214:95,1,48.4000014770508
98,41,47963,5,0,0:0:0:0:
100,94,48037,1,0,0:0:0:0:
102,147,48112,1,0,0:0:0:0:
104,199,48186,1,0,0:0:0:0:
104,252,48260,6,0,L|25:244,2,64.5333353027344
215,317,48557,2,0,P|220:348|211:379,1,64.5333353027344
300,231,48755,1,0,0:0:0:0:
396,307,48854,6,0,L|509:292,1,96.8000029541017
271,78,49151,5,0,3:0:0:0:
306,61,49226,1,0,3:0:0:0:
344,65,49300,1,0,3:0:0:0:
376,85,49374,1,0,3:0:0:0:
398,116,49448,1,0,3:0:0:0:
152,107,49597,5,0,0:0:0:0:
99,96,49671,1,0,0:0:0:0:
71,141,49745,1,0,0:0:0:0:
106,180,49820,1,0,0:0:0:0:
155,160,49894,1,0,0:0:0:0:
165,324,50042,6,0,L|176:260,1,48.4000014770508
319,168,50191,2,0,L|311:230,1,48.4000014770508
427,299,50339,6,0,L|438:235,1,48.4000014770508
424,102,50488,1,0,0:0:0:0:
419,105,50562,1,0,0:0:0:0:
415,109,50636,5,0,0:0:0:0:
390,71,50711,1,0,0:0:0:0:
352,49,50785,1,0,0:0:0:0:
308,53,50859,1,0,0:0:0:0:
270,74,50933,5,0,0:0:0:0:
237,104,51008,1,0,0:0:0:0:
195,115,51082,1,0,0:0:0:0:
151,109,51156,1,0,0:0:0:0:
113,86,51230,5,0,0:0:0:0:
43,279,51379,2,0,L|148:268,1,96.8000029541017
379,298,51676,6,0,L|427:304,1,48.4000014770508
311,361,51825,1,0,0:0:0:0:
291,322,51899,1,0,0:0:0:0:
289,278,51973,1,0,0:0:0:0:
308,239,52047,1,0,0:0:0:0:
327,199,52122,1,0,0:0:0:0:
331,155,52196,1,0,0:0:0:0:
317,113,52270,1,0,0:0:0:0:
293,76,52344,1,0,0:0:0:0:
253,57,52419,6,0,P|221:61|199:84,1,48.4000014770508
67,65,52567,2,0,P|86:90|117:98,1,48.4000014770508
163,227,52716,2,0,P|174:197|166:166,3,48.4000014770508
88,298,53013,5,0,0:0:0:0:
120,326,53087,1,0,0:0:0:0:
162,333,53161,1,0,0:0:0:0:
203,320,53235,1,0,0:0:0:0:
247,289,53310,5,0,0:0:0:0:
292,261,53384,1,0,0:0:0:0:
344,254,53458,1,0,0:0:0:0:
392,275,53532,1,0,0:0:0:0:
428,314,53607,1,0,0:0:0:0:
212,41,54795,5,0,0:0:0:0:
46,332,55686,5,0,0:0:0:0:
46,332,55983,1,0,0:0:0:0:
435,91,57171,5,0,0:0:0:0:
223,164,58062,5,0,0:0:0:0:
171,283,58211,2,0,L|177:332,1,44
280,303,58359,6,0,L|391:298,1,88
396,75,58656,1,0,0:0:0:0:
481,195,58805,1,0,0:0:0:0:
252,173,58953,6,0,B|246:144|246:144|261:87,1,88
70,43,59250,1,0,0:0:0:0:
123,257,59399,1,0,0:0:0:0:
26,159,59547,6,0,L|148:146,1,88
346,123,59844,1,0,0:0:0:0:
319,322,59993,1,0,0:0:0:0:
483,230,60141,6,0,L|361:217,1,88
158,267,60438,1,0,0:0:0:0:
251,54,60587,1,0,0:0:0:0:
251,54,60661,1,0,0:0:0:0:
251,54,60735,5,0,0:0:0:0:
157,122,60884,2,0,L|167:177,1,44
53,148,61032,1,0,0:0:0:0:
117,48,61181,2,0,L|127:103,1,44
130,275,61330,5,0,0:0:0:0:
262,187,61478,2,0,L|252:244,1,44
343,325,61627,1,0,0:0:0:0:
307,121,61775,2,0,L|297:178,1,44
225,346,61924,5,0,0:0:0:0:
287,38,62072,1,0,0:0:0:0:
225,346,62221,5,0,0:0:0:0:
287,38,62369,1,0,0:0:0:0:
105,231,62518,6,0,L|175:219,1,44
241,155,62666,2,0,L|311:143,1,44
433,219,62815,1,0,0:0:0:0:
94,32,63112,5,0,0:0:0:0:
94,32,63211,2,0,L|98:93,1,58.6666666666667
105,231,63409,1,0,0:0:0:0:
384,142,64003,5,0,0:0:0:0:
384,142,64102,2,0,L|374:213,1,58.6666666666667
353,329,64300,1,0,0:0:0:0:
179,256,64597,5,0,0:0:0:0:
461,112,64894,1,0,0:0:0:0:
133,18,65191,1,0,0:0:0:0:
80,339,65488,5,0,0:0:0:0:
80,339,65587,2,0,L|88:270,1,58.6666666666667
236,251,65785,1,0,0:0:0:0:
185,106,66379,5,0,0:0:0:0:
185,106,66478,2,0,L|193:37,1,58.6666666666667
368,137,66676,1,0,0:0:0:0:
190,280,66973,5,0,0:0:0:0:
289,53,67270,1,0,0:0:0:0:
411,331,67567,1,0,0:0:0:0:
155,246,67864,5,0,0:0:0:0:
155,246,67963,2,0,L|94:258,1,58.6666666666667
91,87,68161,1,0,0:0:0:0:
320,319,68755,5,0,0:0:0:0:
320,319,68854,2,0,L|381:331,1,58.6666666666667
406,169,69052,1,0,0:0:0:0:
109,63,69349,5,0,0:0:0:0:
73,339,69646,1,0,0:0:0:0:
398,263,69943,1,0,0:0:0:0:
38,177,70240,6,0,P|91:159|157:232,1,154
239,119,70834,6,0,P|268:128|342:41,1,154
414,174,71429,6,0,B|432:230|432:230|407:338,1,154
284,311,72023,6,0,L|136:328,1,132
62,162,72617,5,0,0:0:0:0:
45,347,72765,1,0,0:0:0:0:
179,213,72914,5,0,0:0:0:0:
200,320,73062,1,0,0:0:0:0:
344,180,73211,5,0,0:0:0:0:
324,327,73359,1,0,0:0:0:0:
457,244,73508,5,0,0:0:0:0:
479,364,73656,1,0,0:0:0:0:
278,238,73805,5,0,0:0:0:0:
278,238,73953,1,0,0:0:0:0:
437,136,74102,5,0,0:0:0:0:
437,136,74250,1,0,0:0:0:0:
266,89,74399,5,0,0:0:0:0:
271,47,74547,1,0,0:0:0:0:
127,180,74696,5,0,0:0:0:0:
113,85,74844,1,0,0:0:0:0:
140,349,74993,5,0,0:0:0:0:
170,350,75067,1,0,0:0:0:0:
200,351,75141,1,0,0:0:0:0:
231,353,75216,1,0,0:0:0:0:
265,317,75290,5,0,0:0:0:0:
299,320,75364,1,0,0:0:0:0:
333,323,75438,1,0,0:0:0:0:
368,326,75513,1,0,0:0:0:0:
404,291,75587,5,0,0:0:0:0:
424,260,75661,1,0,0:0:0:0:
426,222,75735,1,0,0:0:0:0:
409,188,75810,1,0,0:0:0:0:
368,163,75884,6,0,L|366:141,3,22
322,133,76032,2,0,L|318:80,1,44
198,47,76181,5,0,0:0:0:0:
198,47,76255,1,0,0:0:0:0:
198,47,76329,2,0,L|201:90,1,44
102,157,76478,1,0,0:0:0:0:
102,157,76552,1,0,0:0:0:0:
102,157,76627,2,0,L|105:200,1,44
92,334,76775,6,0,L|156:322,1,44
222,252,76924,2,0,L|286:240,1,44
390,172,77072,5,0,0:0:0:0:
385,215,77146,1,0,0:0:0:0:
380,259,77221,1,0,0:0:0:0:
375,302,77295,1,0,0:0:0:0:
371,345,77369,1,0,0:0:0:0:
256,192,77406,12,0,79597,0:0:0:0:
56,271,79745,6,0,L|190:256,1,132
187,256,80042,6,0,L|192:309,1,44,0|0,0:0|2:0,0:0:0:0:
304,174,80191,2,0,L|298:224,1,44,0|0,0:0|2:0,0:0:0:0:
349,319,80339,5,0,0:0:0:0:
381,342,80414,1,0,0:0:0:0:
420,347,80488,1,0,0:0:0:0:
456,333,80562,1,0,0:0:0:0:
478,300,80636,6,0,L|483:256,3,44,0|0|0|0,0:0|2:0|0:0|0:0,0:0:0:0:
431,191,80933,5,0,0:0:0:0:
417,153,81008,1,0,0:0:0:0:
417,113,81082,1,0,0:0:0:0:
429,75,81156,1,0,0:0:0:0:
451,42,81230,5,0,0:0:0:0:
412,53,81305,1,0,0:0:0:0:
373,60,81379,1,0,0:0:0:0:
334,53,81453,1,0,0:0:0:0:
296,39,81528,5,0,0:0:0:0:
248,33,81602,1,0,0:0:0:0:
202,50,81676,1,0,0:0:0:0:
177,91,81750,1,0,0:0:0:0:
169,139,81825,6,0,L|186:238,1,99.0000037765504
231,307,82122,5,0,0:0:0:0:
198,283,82196,1,0,0:0:0:0:
158,285,82270,1,0,0:0:0:0:
126,308,82344,1,0,0:0:0:0:
109,344,82419,5,0,0:0:0:0:
104,313,82493,1,0,0:0:0:0:
99,282,82567,1,0,0:0:0:0:
94,251,82641,1,0,0:0:0:0:
51,217,82716,5,0,0:0:0:0:
57,178,82790,1,0,0:0:0:0:
63,139,82864,1,0,0:0:0:0:
69,100,82938,1,0,0:0:0:0:
46,51,83013,5,0,0:0:0:0:
88,27,83087,1,0,0:0:0:0:
136,26,83161,1,0,0:0:0:0:
181,42,83235,1,0,0:0:0:0:
213,78,83310,5,0,0:0:0:0:
246,99,83384,1,0,0:0:0:0:
285,104,83458,1,0,0:0:0:0:
323,97,83532,1,0,0:0:0:0:
358,70,83607,5,0,0:0:0:0:
363,57,83681,1,0,0:0:0:0:
368,45,83755,1,0,0:0:0:0:
373,33,83829,1,0,0:0:0:0:
379,20,83904,6,0,L|392:72,1,44
462,134,84052,2,0,L|475:186,1,44
426,278,84201,5,0,0:0:0:0:
400,294,84275,1,0,0:0:0:0:
366,305,84349,1,0,0:0:0:0:
321,303,84424,1,0,0:0:0:0:
272,282,84498,6,0,P|203:266|151:311,1,132,0|0,0:0|2:0,0:0:0:0:
56,284,84795,6,0,L|64:345,1,44,0|0,0:0|2:0,0:0:0:0:
195,185,84943,2,0,L|191:246,1,44,0|0,0:0|2:0,0:0:0:0:
56,128,85092,5,0,0:0:0:0:
81,92,85166,1,0,0:0:0:0:
120,73,85240,1,0,0:0:0:0:
164,76,85315,1,0,0:0:0:0:
203,94,85389,1,0,0:0:0:0:
241,116,85463,1,0,0:0:0:0:
284,114,85537,1,0,0:0:0:0:
324,96,85612,1,0,0:0:0:0:
363,59,85686,6,0,P|410:49|480:100,1,132,0|0,0:0|2:0,0:0:0:0:
447,177,85983,2,0,B|438:263|438:263|475:301,1,132,0|0,0:0|2:0,0:0:0:0:
375,349,86280,5,0,0:0:0:0:
335,344,86354,1,0,0:0:0:0:
295,339,86429,1,0,0:0:0:0:
255,335,86503,1,0,0:0:0:0:
215,331,86577,1,0,0:0:0:0:
52,190,86726,1,0,0:0:0:0:
98,362,86874,6,0,L|113:264,1,88
106,51,87171,1,0,0:0:0:0:
104,59,87245,1,0,0:0:0:0:
102,67,87320,1,0,0:0:0:0:
100,75,87394,1,0,0:0:0:0:
98,83,87468,5,0,0:0:0:0:
131,73,87542,1,0,0:0:0:0:
165,80,87617,1,0,0:0:0:0:
196,95,87691,1,0,0:0:0:0:
215,124,87765,1,0,0:0:0:0:
243,144,87839,1,0,0:0:0:0:
278,149,87914,1,0,0:0:0:0:
312,144,87988,1,0,0:0:0:0:
340,123,88062,5,0,0:0:0:0:
370,105,88136,1,0,0:0:0:0:
405,99,88211,1,0,0:0:0:0:
438,109,88285,1,0,0:0:0:0:
462,133,88359,1,0,0:0:0:0:
471,166,88433,1,0,0:0:0:0:
464,200,88508,1,0,0:0:0:0:
444,229,88582,1,0,0:0:0:0:
409,248,88656,5,0,0:0:0:0:
370,241,88730,1,0,0:0:0:0:
333,224,88805,1,0,0:0:0:0:
293,223,88879,1,0,0:0:0:0:
263,249,88953,1,0,0:0:0:0:
253,287,89028,1,0,0:0:0:0:
269,322,89102,1,0,0:0:0:0:
302,343,89176,1,0,0:0:0:0:
343,341,89250,6,0,L|432:333,1,88
59,236,89547,2,0,L|153:242,1,88
420,138,89844,5,0,0:0:0:0:
418,129,89919,1,0,0:0:0:0:
417,120,89993,1,0,0:0:0:0:
416,111,90067,1,0,0:0:0:0:
414,102,90141,5,0,0:0:0:0:
391,74,90216,1,0,0:0:0:0:
357,64,90290,1,0,0:0:0:0:
322,70,90364,1,0,0:0:0:0:
283,104,90438,5,0,0:0:0:0:
243,124,90513,1,0,0:0:0:0:
199,117,90587,1,0,0:0:0:0:
166,87,90661,1,0,0:0:0:0:
125,70,90735,5,0,0:0:0:0:
81,76,90810,1,0,0:0:0:0:
51,108,90884,1,0,0:0:0:0:
41,150,90958,1,0,0:0:0:0:
54,191,91032,5,0,0:0:0:0:
84,223,91107,1,0,0:0:0:0:
126,232,91181,1,0,0:0:0:0:
167,217,91255,1,0,0:0:0:0:
205,196,91329,6,0,P|263:191|320:246,1,132,0|0,0:0|2:0,0:0:0:0:
408,274,91627,5,0,0:0:0:0:
405,286,91701,1,0,0:0:0:0:
403,299,91775,1,0,0:0:0:0:
401,312,91849,1,0,0:0:0:0:
394,344,91924,5,0,0:0:0:0:
367,328,91998,1,0,0:0:0:0:
336,328,92072,1,0,0:0:0:0:
309,342,92146,1,0,0:0:0:0:
286,363,92221,5,0,0:0:0:0:
255,367,92295,1,0,0:0:0:0:
224,367,92369,1,0,0:0:0:0:
195,355,92443,1,0,0:0:0:0:
166,329,92518,5,0,0:0:0:0:
135,304,92592,1,0,0:0:0:0:
95,301,92666,1,0,0:0:0:0:
58,316,92740,1,0,0:0:0:0:
34,348,92815,6,0,L|48:239,1,88
215,44,93112,2,0,L|226:148,1,88
255,106,93334,1,0,0:0:0:0:
293,95,93409,5,0,0:0:0:0:
331,102,93483,1,0,0:0:0:0:
363,124,93557,1,0,0:0:0:0:
384,156,93631,1,0,0:0:0:0:
388,195,93706,6,0,L|378:241,1,44
287,283,93854,2,0,L|299:334,1,44
175,307,94003,6,0,L|57:296,1,88
302,185,94300,1,0,0:0:0:0:
145,85,94448,1,0,0:0:0:0:
398,16,94597,6,0,P|417:62|402:117,1,88
437,187,94820,1,0,0:0:0:0:
437,187,94894,1,0,0:0:0:0:
282,78,95042,1,0,0:0:0:0:
255,310,95191,6,0,L|360:295,1,88
87,117,95488,2,0,L|187:133,1,88
66,332,95785,1,0,0:0:0:0:
304,172,95933,6,0,L|308:130,2,22
438,92,96230,6,0,L|432:151,1,44
452,299,96379,6,0,P|412:277|358:286,1,88
81,296,96676,5,0,3:0:0:0:
113,307,96750,1,0,3:0:0:0:
148,308,96825,1,0,3:0:0:0:
178,292,96899,1,0,3:0:0:0:
200,265,96973,5,0,3:0:0:0:
200,251,97047,1,0,0:0:0:0:
198,237,97122,1,0,0:0:0:0:
196,223,97196,1,0,0:0:0:0:
162,188,97270,5,0,0:0:0:0:
165,166,97344,1,0,0:0:0:0:
168,144,97419,1,0,0:0:0:0:
171,122,97493,1,0,0:0:0:0:
174,100,97567,5,0,0:0:0:0:
157,74,97641,1,0,0:0:0:0:
130,58,97716,1,0,0:0:0:0:
99,60,97790,1,0,0:0:0:0:
72,75,97864,5,0,0:0:0:0:
49,107,97938,1,0,0:0:0:0:
49,146,98013,1,0,0:0:0:0:
68,180,98087,1,0,0:0:0:0:
103,197,98161,5,0,0:0:0:0:
151,196,98235,1,0,0:0:0:0:
198,185,98310,1,0,0:0:0:0:
241,163,98384,1,0,0:0:0:0:
287,151,98458,5,0,0:0:0:0:
339,149,98532,1,0,0:0:0:0:
388,168,98607,1,0,0:0:0:0:
425,205,98681,1,0,0:0:0:0:
444,254,98755,6,0,B|455:180|455:180|436:118,1,132,0|0,0:0|2:0,0:0:0:0:
441,32,99052,6,0,P|416:31|397:39,1,44,0|0,0:0|2:0,0:0:0:0:
312,79,99201,2,0,P|289:78|270:71,1,44,0|0,0:0|2:0,0:0:0:0:
168,102,99349,5,0,0:0:0:0:
121,86,99424,1,0,0:0:0:0:
75,102,99498,1,0,0:0:0:0:
48,142,99572,1,0,0:0:0:0:
51,190,99646,1,0,0:0:0:0:
86,224,99721,1,0,0:0:0:0:
132,238,99795,1,0,0:0:0:0:
179,229,99869,1,0,0:0:0:0:
219,203,99943,6,0,P|266:190|312:211,1,88
301,202,100166,1,0,0:0:0:0:
301,202,100240,2,0,L|312:260,1,44
439,146,100389,2,0,L|431:209,1,44
446,356,100537,5,0,3:0:0:0:
405,352,100612,1,0,3:0:0:0:
365,348,100686,1,0,3:0:0:0:
325,344,100760,1,0,3:0:0:0:
285,339,100834,2,0,L|177:326,1,88
88,130,101131,6,0,L|196:122,1,88
388,49,101429,5,0,0:0:0:0:
408,82,101503,1,0,0:0:0:0:
413,121,101577,1,0,0:0:0:0:
406,159,101651,1,0,0:0:0:0:
391,196,101726,1,0,0:0:0:0:
389,235,101800,1,0,0:0:0:0:
392,274,101874,1,0,0:0:0:0:
409,309,101948,1,0,0:0:0:0:
434,339,102023,5,0,0:0:0:0:
397,323,102097,1,0,0:0:0:0:
357,320,102171,1,0,0:0:0:0:
320,333,102245,1,0,0:0:0:0:
280,364,102320,6,0,L|172:351,1,88
41,263,102617,5,0,0:0:0:0:
56,226,102691,1,0,0:0:0:0:
86,201,102765,1,0,0:0:0:0:
125,195,102839,1,0,0:0:0:0:
163,205,102914,5,0,0:0:0:0:
207,224,102988,1,0,0:0:0:0:
254,216,103062,1,0,0:0:0:0:
291,185,103136,1,0,0:0:0:0:
312,141,103211,5,0,0:0:0:0:
311,132,103285,1,0,0:0:0:0:
310,123,103359,1,0,0:0:0:0:
309,114,103433,1,0,0:0:0:0:
308,105,103508,6,0,P|385:93|409:149,1,132,0|0,0:0|2:0,0:0:0:0:
510,31,103805,6,0,L|505:78,1,44,0|0,0:0|2:0,0:0:0:0:
408,131,103953,2,0,L|403:178,1,44,0|0,0:0|2:0,0:0:0:0:
462,275,104102,5,0,0:0:0:0:
430,298,104176,1,0,0:0:0:0:
390,301,104250,1,0,0:0:0:0:
352,286,104325,1,0,0:0:0:0:
323,258,104399,1,0,0:0:0:0:
286,243,104473,1,0,0:0:0:0:
247,249,104547,1,0,0:0:0:0:
214,272,104622,1,0,0:0:0:0:
191,306,104696,6,0,L|45:293,1,132,0|0,0:0|2:0,0:0:0:0:
81,194,104993,2,0,B|75:115|75:115|111:70,1,132,0|0,0:0|2:0,0:0:0:0:
209,46,105290,5,0,0:0:0:0:
209,46,105364,2,0,L|304:55,1,88
390,28,105587,1,0,0:0:0:0:
429,215,105735,1,0,0:0:0:0:
241,160,105884,5,0,0:0:0:0:
215,326,106032,1,0,0:0:0:0:
102,245,106181,5,0,0:0:0:0:
314,235,106329,1,0,0:0:0:0:
63,88,106478,5,0,0:0:0:0:
102,245,106627,1,0,0:0:0:0:
257,39,106775,5,0,0:0:0:0:
241,160,106924,1,0,0:0:0:0:
386,114,107072,6,0,L|487:124,1,88
276,299,107369,2,0,L|385:291,1,88
143,369,107666,5,0,0:0:0:0:
119,337,107740,1,0,0:0:0:0:
115,297,107815,1,0,0:0:0:0:
124,258,107889,1,0,0:0:0:0:
147,226,107963,6,0,L|202:221,1,44
86,134,108112,2,0,L|31:129,1,44
184,30,108260,6,0,L|195:129,1,88
193,117,108483,1,0,0:0:0:0:
193,117,108557,1,0,0:0:0:0:
315,63,108706,2,0,L|369:58,1,44
445,115,108854,5,0,0:0:0:0:
462,150,108929,1,0,0:0:0:0:
461,189,109003,1,0,0:0:0:0:
440,222,109077,1,0,0:0:0:0:
403,237,109151,1,0,0:0:0:0:
363,228,109226,1,0,0:0:0:0:
327,210,109300,1,0,0:0:0:0:
287,214,109374,1,0,0:0:0:0:
250,229,109448,5,0,0:0:0:0:
212,260,109523,1,0,0:0:0:0:
191,303,109597,1,0,0:0:0:0:
154,333,109671,1,0,0:0:0:0:
105,329,109745,1,0,0:0:0:0:
62,305,109820,1,0,0:0:0:0:
50,258,109894,1,0,0:0:0:0:
72,215,109968,1,0,0:0:0:0:
106,181,110042,6,0,L|112:86,1,88
111,93,110265,1,0,0:0:0:0:
111,93,110339,1,0,0:0:0:0:
263,32,110488,2,0,L|260:90,1,44
303,170,110636,5,0,0:0:0:0:
329,193,110711,1,0,0:0:0:0:
363,200,110785,1,0,0:0:0:0:
396,189,110859,1,0,0:0:0:0:
430,183,110933,1,0,0:0:0:0:
463,195,111008,1,0,0:0:0:0:
487,220,111082,1,0,0:0:0:0:
497,253,111156,1,0,0:0:0:0:
493,287,111230,5,0,0:0:0:0:
475,322,111305,1,0,0:0:0:0:
439,340,111379,1,0,0:0:0:0:
399,337,111453,1,0,0:0:0:0:
363,318,111528,1,0,0:0:0:0:
334,291,111602,1,0,0:0:0:0:
296,279,111676,1,0,0:0:0:0:
257,287,111750,1,0,0:0:0:0:
224,310,111825,5,0,0:0:0:0:
186,333,111899,1,0,0:0:0:0:
142,337,111973,1,0,0:0:0:0:
100,324,112047,1,0,0:0:0:0:
67,293,112122,1,0,0:0:0:0:
64,249,112196,1,0,0:0:0:0:
80,208,112270,1,0,0:0:0:0:
115,181,112344,1,0,0:0:0:0:
159,175,112419,5,0,0:0:0:0:
205,188,112493,1,0,0:0:0:0:
248,209,112567,1,0,0:0:0:0:
296,213,112641,1,0,0:0:0:0:
341,194,112716,1,0,0:0:0:0:
367,153,112790,1,0,0:0:0:0:
368,104,112864,1,0,0:0:0:0:
345,61,112938,1,0,0:0:0:0:
299,43,113013,5,0,0:0:0:0:
250,47,113087,1,0,0:0:0:0:
217,82,113161,1,0,0:0:0:0:
207,129,113235,1,0,0:0:0:0:
221,175,113310,1,0,0:0:0:0:
259,203,113384,1,0,0:0:0:0:
306,210,113458,1,0,0:0:0:0:
353,203,113532,1,0,0:0:0:0:
399,211,113607,5,0,0:0:0:0:
441,241,113681,1,0,0:0:0:0:
450,292,113755,1,0,0:0:0:0:
433,341,113829,1,0,0:0:0:0:
384,364,113904,1,0,0:0:0:0:
332,353,113978,1,0,0:0:0:0:
290,320,114052,1,0,0:0:0:0:
237,313,114127,1,0,0:0:0:0:
191,327,114201,6,0,L|136:317,1,44
82,209,114349,2,0,L|125:216,1,44
264,166,114498,2,0,L|209:156,1,44
69,66,114646,2,0,L|112:73,1,44
257,23,114795,5,0,0:0:0:0:
412,60,114943,5,0,0:0:0:0:
407,108,115018,1,0,0:0:0:0:
402,155,115092,1,0,0:0:0:0:
397,203,115166,1,0,0:0:0:0:
392,251,115240,1,0,0:0:0:0:
387,299,115315,1,0,0:0:0:0:
383,347,115389,1,0,0:0:0:0:
165,258,115537,6,0,L|121:261,1,44
257,146,115686,1,0,0:0:0:0:
256,192,115723,12,0,120141,0:0:0:0:
