osu file format v14

[General]
AudioFilename: [SDVX II ] Wish upon Twin Stars [NOFX].mp3
AudioLeadIn: 0
PreviewTime: 53415
Countdown: 0
SampleSet: Soft
StackLeniency: 0.7
Mode: 3
LetterboxInBreaks: 0
SpecialStyle: 0
WidescreenStoryboard: 0

[Editor]
DistanceSpacing: 0.5
BeatDivisor: 4
GridSize: 32
TimelineZoom: 2.3

[Metadata]
Title:Wish upon Twin Stars
TitleUnicode:Wish upon Twin Stars
Artist:xi
ArtistUnicode:xi
Creator:LNP-
Version:NOVICE Lv.9
Source:SOUND VOLTEX II -infinite infection-
Tags:SDVX Character Theme First Contest eon-
BeatmapID:540061
BeatmapSetID:232650

[Difficulty]
HPDrainRate:7
CircleSize:4
OverallDifficulty:7
ApproachRate:5
SliderMultiplier:1.4
SliderTickRate:1

[Events]
//Background and Video events
0,0,"BeGe.png",0,0
//Break Periods
//Storyboard Layer 0 (Background)
//Storyboard Layer 1 (Fail)
//Storyboard Layer 2 (Pass)
//Storyboard Layer 3 (Foreground)
//Storyboard Sound Samples
Sample,73065,0,"LR3_BassDropSSG.wav",50

[TimingPoints]
1076,300,4,2,0,40,1,0
5876,-100,4,2,0,40,0,1
5951,-100,4,2,0,40,0,0
27476,-100,4,2,0,40,0,1
27551,-100,4,2,0,40,0,0
53876,-100,4,2,0,40,0,1
63401,-100,4,2,0,40,0,0
63476,-100,4,2,0,40,0,1
73076,-100,4,2,0,40,0,0
82676,-100,4,2,0,40,0,1
82751,-100,4,2,0,40,0,0
101876,-100,4,2,0,40,0,1
111476,-100,4,2,0,40,0,0

[HitObjects]
64,192,626,5,2,0:0:0:0:
320,192,776,1,2,0:0:0:0:
192,192,926,1,2,0:0:0:0:
448,192,1076,1,2,0:0:0:0:
64,192,1076,1,2,0:0:0:0:
320,192,1226,1,2,0:0:0:0:
192,192,1376,1,2,0:0:0:0:
320,192,1526,1,2,0:0:0:0:
64,192,1826,1,2,0:0:0:0:
192,192,2126,1,2,0:0:0:0:
448,192,2126,1,2,0:0:0:0:
320,192,2426,1,2,0:0:0:0:
448,192,2576,1,2,0:0:0:0:
320,192,2876,1,2,0:0:0:0:
192,192,3176,1,2,0:0:0:0:
448,192,3476,1,2,0:0:0:0:
64,192,3476,1,2,0:0:0:0:
192,192,3776,1,2,0:0:0:0:
320,192,3926,1,2,0:0:0:0:
64,192,3926,1,2,0:0:0:0:
192,192,4226,1,2,0:0:0:0:
448,192,4376,1,2,0:0:0:0:
320,192,4376,1,2,0:0:0:0:
64,192,4976,128,0,5876:0:0:0:50:LR3_BassDropSSG.wav
192,192,4976,1,0,0:0:0:0:
320,192,5876,1,0,0:0:0:50:bass.wav
448,192,5876,1,4,0:0:0:0:
64,192,6176,1,0,0:0:0:0:snare.wav
192,192,6476,1,0,0:0:0:0:bass.wav
320,192,6776,1,0,0:0:0:0:bass.wav
192,192,7076,1,0,0:0:0:0:bass.wav
64,192,7076,1,4,0:0:0:0:
448,192,7376,1,0,0:0:0:0:snare.wav
192,192,7676,1,0,0:0:0:0:bass.wav
448,192,7676,1,4,0:0:0:0:
320,192,7826,1,0,0:0:0:50:bass.wav
192,192,7976,1,0,0:0:0:0:bass.wav
64,192,8126,1,0,0:0:0:0:bass.wav
192,192,8276,1,0,0:0:0:0:bass.wav
448,192,8276,1,4,0:0:0:0:
320,192,8426,1,0,0:0:0:50:bass.wav
192,192,8576,1,0,0:0:0:50:bass.wav
64,192,8726,1,0,0:0:0:0:bass.wav
320,192,8726,1,4,0:0:0:0:
192,192,8876,1,0,0:0:0:50:bass.wav
320,192,9026,1,0,0:0:0:50:bass.wav
448,192,9176,1,4,0:0:0:0:
192,192,9176,1,0,0:0:0:0:bass.wav
320,192,9326,1,0,0:0:0:50:bass.wav
448,192,9626,1,0,0:0:0:0:bass.wav
192,192,9776,1,0,0:0:0:0:bass.wav
320,192,9926,1,0,0:0:0:0:bass.wav
64,192,10076,1,0,0:0:0:0:bass.wav
192,192,10376,1,0,0:0:0:0:clap.wav
320,192,10376,1,0,0:0:0:0:
448,192,10676,128,0,11876:0:0:0:0:LR3_BassDropSSG.wav
192,192,11876,128,0,13076:0:0:0:0:
64,192,13376,1,2,0:0:0:0:
192,192,13526,1,2,0:0:0:0:
320,192,13676,1,2,0:0:0:0:
448,192,14126,1,2,0:0:0:0:
320,192,14576,1,2,0:0:0:0:
64,192,14876,1,2,0:0:0:0:
320,192,15026,1,2,0:0:0:0:
192,192,15326,1,2,0:0:0:0:
448,192,15476,1,2,0:0:0:0:
320,192,15776,1,2,0:0:0:0:
192,192,15926,1,2,0:0:0:0:
64,192,16076,1,2,0:0:0:0:
448,192,16226,1,2,0:0:0:0:
192,192,16526,1,2,0:0:0:0:
64,192,16976,1,2,0:0:0:0:
448,192,17276,1,2,0:0:0:0:
320,192,17576,1,2,0:0:0:0:
64,192,17876,128,2,18176:0:0:0:0:
192,192,18176,1,2,0:0:0:0:
64,192,18326,128,2,18776:0:0:0:0:
448,192,18776,1,2,0:0:0:0:
320,192,19076,1,2,0:0:0:0:
192,192,19376,1,2,0:0:0:0:
64,192,19676,1,2,0:0:0:0:
320,192,19976,1,2,0:0:0:0:
64,192,20276,1,0,0:0:0:0:bass.wav
448,192,20276,1,4,0:0:0:0:
192,192,20576,1,0,0:0:0:0:bass.wav
64,192,20726,1,0,0:0:0:0:bass.wav
448,192,20726,1,4,0:0:0:0:
320,192,21026,1,0,0:0:0:0:bass.wav
192,192,21176,1,0,0:0:0:0:bass.wav
64,192,21326,1,0,0:0:0:0:bass.wav
192,192,21476,1,0,0:0:0:0:bass.wav
448,192,21476,1,4,0:0:0:0:
64,192,21776,1,0,0:0:0:0:bass.wav
320,192,21776,1,4,0:0:0:0:
192,192,22076,1,0,0:0:0:0:bass.wav
448,192,22076,1,4,0:0:0:0:
64,192,22301,1,0,0:0:0:0:bass.wav
448,192,22526,1,0,0:0:0:0:bass.wav
64,192,22676,1,0,0:0:0:0:bass.wav
192,192,22826,1,0,0:0:0:0:bass.wav
320,192,22976,128,2,23276:0:0:0:0:
64,192,23276,1,4,0:0:0:0:
448,192,23276,1,0,0:0:0:0:bass.wav
192,192,23426,1,0,0:0:0:0:bass.wav
448,192,23576,1,0,0:0:0:0:bass.wav
320,192,23726,1,0,0:0:0:0:bass.wav
64,192,23726,1,4,0:0:0:0:
192,192,24026,1,0,0:0:0:0:bass.wav
448,192,24176,128,2,24476:0:0:0:0:
192,192,24326,1,0,0:0:0:0:bass.wav
320,192,24476,1,4,0:0:0:0:
64,192,24476,1,0,0:0:0:0:bass.wav
192,192,24776,1,0,0:0:0:0:bass.wav
448,192,24776,1,4,0:0:0:0:
320,192,25076,1,4,0:0:0:0:
64,192,25076,1,0,0:0:0:0:bass.wav
448,192,25376,1,0,0:0:0:0:bass.wav
192,192,25526,1,0,0:0:0:0:bass.wav
64,192,25526,1,4,0:0:0:0:
64,192,25826,1,0,0:0:0:0:bass.wav
448,192,25976,1,0,0:0:0:0:bass.wav
320,192,25976,1,4,0:0:0:0:
192,192,26576,1,2,0:0:0:0:
320,192,26876,1,2,0:0:0:0:
192,192,27176,128,2,27476:0:0:0:0:
320,192,27476,1,4,0:0:0:0:
448,192,27476,1,0,0:0:0:0:bass.wav
64,192,27626,1,0,0:0:0:0:
192,192,27776,1,2,0:0:0:50:snare.wav
320,192,27926,1,0,0:0:0:0:
64,192,28226,1,0,0:0:0:0:
192,192,28376,1,2,0:0:0:50:snare.wav
448,192,28526,1,0,0:0:0:0:
320,192,28676,1,0,0:0:0:0:bass.wav
192,192,28676,1,4,0:0:0:0:
64,192,28826,1,0,0:0:0:0:
192,192,28976,1,2,0:0:0:50:snare.wav
320,192,29126,128,0,29426:0:0:0:50:bass.wav
448,192,29426,1,2,0:0:0:50:bass.wav
192,192,29576,1,2,0:0:0:0:
320,192,29726,1,2,0:0:0:0:
64,192,29876,1,4,0:0:0:0:
192,192,29876,1,0,0:0:0:0:bass.wav
320,192,30176,1,0,0:0:0:0:bass.wav
448,192,30176,1,4,0:0:0:0:
192,192,30476,1,0,0:0:0:0:bass.wav
64,192,30476,1,4,0:0:0:0:
448,192,30926,1,4,0:0:0:0:
64,192,30926,1,0,0:0:0:0:bass.wav
192,192,31276,1,0,0:0:0:0:bass.wav
320,192,31476,1,0,0:0:0:0:bass.wav
64,192,31676,1,0,0:0:0:0:bass.wav
448,192,31876,1,0,0:0:0:0:bass.wav
320,192,32076,1,0,0:0:0:0:bass.wav
192,192,32276,1,4,0:0:0:0:
64,192,32276,1,0,0:0:0:0:bass.wav
320,192,32726,1,4,0:0:0:0:
64,192,32726,1,0,0:0:0:0:bass.wav
448,192,33176,1,4,0:0:0:0:
64,192,33176,1,0,0:0:0:0:bass.wav
448,192,33776,128,0,34076:0:0:0:50:LR_Clap kick.wav
320,192,34076,128,2,34376:0:0:0:0:
64,192,34376,128,2,34676:0:0:0:50:LR_Clap kick.wav
320,192,34676,1,4,0:0:0:0:
448,192,34676,1,0,0:0:0:0:bass.wav
192,192,35126,1,4,0:0:0:0:
448,192,35126,1,0,0:0:0:0:bass.wav
64,192,35576,1,4,0:0:0:0:
448,192,35576,1,0,0:0:0:0:bass.wav
64,192,36026,1,2,0:0:0:0:
192,192,36176,1,2,0:0:0:50:LR_Clap kick.wav
320,192,36326,1,2,0:0:0:0:
448,192,36476,1,0,0:0:0:0:bass.wav
64,192,36476,1,4,0:0:0:0:
192,192,36701,1,0,0:0:0:0:bass.wav
448,192,36926,1,0,0:0:0:0:bass.wav
320,192,37076,1,0,0:0:0:0:bass.wav
64,192,37076,1,0,0:0:0:0:
192,192,37526,1,0,0:0:0:0:bass.wav
448,192,37526,1,0,0:0:0:0:
64,192,37976,1,0,0:0:0:0:bass.wav
448,192,37976,1,0,0:0:0:0:
192,192,38576,128,0,38876:0:0:0:50:LR_Clap kick.wav
320,192,38876,1,2,0:0:0:0:
448,192,39026,1,2,0:0:0:0:
192,192,39176,1,2,0:0:0:50:LR_Clap kick.wav
64,192,39326,1,2,0:0:0:0:
192,192,39476,1,4,0:0:0:0:
320,192,39476,1,0,0:0:0:0:bass.wav
64,192,39926,1,4,0:0:0:0:
448,192,39926,1,0,0:0:0:0:bass.wav
192,192,40376,1,4,0:0:0:0:
320,192,40376,1,0,0:0:0:0:bass.wav
64,192,40826,1,0,0:0:0:0:bass.wav
320,192,40976,1,0,0:0:0:0:bass.wav
192,192,41126,1,0,0:0:0:0:bass.wav
448,192,41276,1,0,0:0:0:0:bass.wav
64,192,41426,1,0,0:0:0:0:bass.wav
192,192,41726,1,0,0:0:0:0:bass.wav
320,192,41726,1,4,0:0:0:0:
64,192,42026,1,2,0:0:0:0:
192,192,42176,1,2,0:0:0:0:
320,192,42326,1,2,0:0:0:0:
448,192,42476,128,2,42776:0:0:0:0:
320,192,42776,128,2,43076:0:0:0:0:
192,192,43076,128,2,43376:0:0:0:0:
448,192,43226,1,2,0:0:0:0:
320,192,43376,1,2,0:0:0:0:
64,192,43526,1,2,0:0:0:0:
320,192,43676,1,2,0:0:0:0:bass.wav
192,192,43826,1,2,0:0:0:0:bass.wav
320,192,44126,1,4,0:0:0:0:
192,192,44126,1,0,0:0:0:0:bass.wav
64,192,44426,1,2,0:0:0:0:
192,192,44576,1,2,0:0:0:0:
320,192,44726,1,2,0:0:0:0:
448,192,44876,128,2,45176:0:0:0:0:
64,192,45176,128,2,45476:0:0:0:0:
192,192,45476,1,2,0:0:0:0:
448,192,45626,1,2,0:0:0:0:
192,192,45776,1,2,0:0:0:0:
320,192,45926,1,2,0:0:0:0:
192,192,46076,1,0,0:0:0:0:bass.wav
64,192,46226,1,0,0:0:0:0:bass.wav
192,192,46526,1,0,0:0:0:0:bass.wav
320,192,46526,128,4,47276:0:0:0:0:
64,192,47276,1,0,0:0:0:0:bass.wav
320,192,47876,1,4,0:0:0:0:
448,192,47876,1,0,0:0:0:0:bass.wav
192,192,48476,1,0,0:0:0:0:bass.wav
320,192,48626,1,0,0:0:0:0:bass.wav
64,192,48776,1,0,0:0:0:0:bass.wav
448,192,48926,1,0,0:0:0:0:bass.wav
192,192,49076,1,0,0:0:0:0:bass.wav
64,192,49076,1,4,0:0:0:0:
192,192,49526,1,4,0:0:0:0:
320,192,49526,1,0,0:0:0:0:bass.wav
320,192,49976,1,4,0:0:0:0:
448,192,49976,1,0,0:0:0:0:bass.wav
64,192,50426,1,0,0:0:0:0:bass.wav
320,192,50576,1,0,0:0:0:0:bass.wav
192,192,50726,1,0,0:0:0:0:bass.wav
448,192,50876,1,0,0:0:0:0:bass.wav
192,192,51176,1,0,0:0:0:0:clap.wav
320,192,51176,1,0,0:0:0:0:
64,192,51476,128,0,52676:0:0:0:0:bass.wav
448,192,52676,128,2,53876:0:0:0:0:
64,192,53276,128,2,53876:0:0:0:0:
192,192,53876,1,4,0:0:0:0:
320,192,53876,1,0,0:0:0:0:bass.wav
64,192,54026,1,2,0:0:0:0:
448,192,54176,1,0,0:0:0:0:bass.wav
64,192,54326,1,0,0:0:0:0:bass.wav
192,192,54626,1,0,0:0:0:0:bass.wav
320,192,54926,128,0,55226:0:0:0:0:bass.wav
192,192,55226,1,0,0:0:0:0:bass.wav
448,192,55376,128,2,55676:0:0:0:0:
320,192,55676,128,2,55976:0:0:0:0:
192,192,55976,128,2,56276:0:0:0:0:
64,192,56276,1,0,0:0:0:0:bass.wav
448,192,56276,1,4,0:0:0:0:
320,192,56726,1,4,0:0:0:0:
192,192,56726,1,0,0:0:0:0:bass.wav
64,192,57026,1,0,0:0:0:0:bass.wav
448,192,57326,1,4,0:0:0:0:
192,192,57326,1,0,0:0:0:0:bass.wav
64,192,57776,1,0,0:0:0:0:bass.wav
320,192,57776,1,4,0:0:0:0:
448,192,58076,1,0,0:0:0:0:bass.wav
64,192,58226,1,0,0:0:0:0:bass.wav
320,192,58376,128,2,58676:0:0:0:0:
192,192,58676,1,4,0:0:0:0:
64,192,58676,1,0,0:0:0:50:bass.wav
64,192,58976,1,0,0:0:0:0:
448,192,58976,1,0,0:0:0:0:snare.wav
320,192,59276,1,0,0:0:0:0:bass.wav
64,192,59576,1,0,0:0:0:0:bass.wav
320,192,59876,1,0,0:0:0:0:bass.wav
192,192,59876,1,4,0:0:0:0:
448,192,60176,1,0,0:0:0:0:snare.wav
64,192,60176,1,0,0:0:0:0:
320,192,60326,1,0,0:0:0:0:bass.wav
192,192,60626,128,0,61076:0:0:0:0:bass.wav
320,192,61076,1,0,0:0:0:0:bass.wav
448,192,61226,1,2,0:0:0:50:bass.wav
192,192,61376,1,0,0:0:0:0:bass.wav
320,192,61526,1,2,0:0:0:50:bass.wav
64,192,61676,1,0,0:0:0:0:bass.wav
448,192,61826,1,0,0:0:0:0:bass.wav
192,192,61976,1,0,0:0:0:0:bass.wav
448,192,62126,1,0,0:0:0:0:bass.wav
64,192,62126,1,4,0:0:0:0:
192,192,62426,1,0,0:0:0:0:
320,192,62426,1,0,0:0:0:0:bass.wav
320,192,62576,1,0,0:0:0:0:bass.wav
192,192,62576,1,0,0:0:0:0:
192,192,62876,1,2,0:0:0:0:
64,192,63176,1,0,0:0:0:0:clap.wav
448,192,63176,1,0,0:0:0:0:
320,192,63476,1,0,0:0:0:0:bass.wav
448,192,63626,1,2,0:0:0:0:
320,192,63776,1,0,0:0:0:0:bass.wav
192,192,63926,128,0,64226:0:0:0:0:bass.wav
64,192,64226,128,0,64526:0:0:0:0:bass.wav
320,192,64526,128,0,64826:0:0:0:0:bass.wav
192,192,64826,1,0,0:0:0:0:bass.wav
448,192,64976,128,2,65276:0:0:0:0:
320,192,65276,128,2,65576:0:0:0:0:
192,192,65576,128,2,65876:0:0:0:0:
64,192,65876,1,0,0:0:0:0:bass.wav
448,192,65876,1,4,0:0:0:0:
320,192,66176,1,0,0:0:0:50:bass.wav
64,192,66326,128,0,66626:0:0:0:0:bass.wav
192,192,66326,1,4,0:0:0:0:
320,192,66626,1,0,0:0:0:0:bass.wav
192,192,66926,1,4,0:0:0:0:
448,192,66926,1,0,0:0:0:0:bass.wav
320,192,67226,1,0,0:0:0:50:bass.wav
448,192,67376,1,0,0:0:0:0:bass.wav
64,192,67376,1,4,0:0:0:0:
320,192,67676,1,0,0:0:0:0:bass.wav
192,192,67826,1,0,0:0:0:0:bass.wav
320,192,68126,1,4,0:0:0:0:
448,192,68126,128,0,68426:0:0:0:0:bass.wav
64,192,68426,1,0,0:0:0:0:bass.wav
320,192,68576,1,2,0:0:0:0:
192,192,68726,1,2,0:0:0:0:
64,192,69026,1,2,0:0:0:0:
192,192,69176,1,2,0:0:0:0:
320,192,69326,1,2,0:0:0:0:
448,192,69476,1,0,0:0:0:0:bass.wav
64,192,69476,1,4,0:0:0:0:
192,192,69626,1,0,0:0:0:0:bass.wav
448,192,69776,1,0,0:0:0:0:bass.wav
320,192,69926,1,0,0:0:0:0:
192,192,69926,1,0,0:0:0:0:bass.wav
64,192,70226,128,4,70526:0:0:0:0:bass.wav
448,192,70226,1,4,0:0:0:0:
320,192,70526,1,0,0:0:0:0:bass.wav
192,192,70676,128,0,71276:0:0:0:0:bass.wav
448,192,70676,1,4,0:0:0:0:
448,192,71276,128,4,71726:0:0:0:0:
320,192,71726,1,0,0:0:0:0:bass.wav
64,192,72026,1,0,0:0:0:0:bass.wav
448,192,72176,1,0,0:0:0:0:bass.wav
64,192,72326,1,0,0:0:0:0:bass.wav
448,192,72476,1,0,0:0:0:0:bass.wav
320,192,72701,1,0,0:0:0:0:bass.wav
192,192,72926,1,0,0:0:0:0:bass.wav
64,192,73076,1,4,0:0:0:0:
448,192,73076,128,0,75476:0:0:0:0:bass.wav
320,192,73676,1,8,0:0:0:0:LR_Clap kick.wav
192,192,74276,1,2,0:0:0:0:
320,192,75476,1,2,0:0:0:0:
192,192,75476,128,0,76676:0:0:0:0:bass.wav
64,192,75776,1,2,0:0:0:0:
448,192,76076,1,8,0:0:0:0:LR_Clap kick.wav
320,192,76676,1,2,0:0:0:0:
192,192,77276,1,2,0:0:0:0:
448,192,77726,1,8,0:0:0:0:LR_Clap kick.wav
64,192,77876,128,2,79076:0:0:0:0:
320,192,77876,1,0,0:0:0:0:
192,192,78176,1,2,0:0:0:0:
320,192,78476,1,8,0:0:0:0:LR_Clap kick.wav
448,192,79076,1,2,0:0:0:0:
320,192,79676,1,2,0:0:0:0:
192,192,80276,128,2,81476:0:0:0:0:
64,192,80276,1,0,0:0:0:0:
448,192,80576,1,2,0:0:0:0:
320,192,80876,1,8,0:0:0:0:LR_Clap kick.wav
448,192,81476,128,2,82676:0:0:0:0:
64,192,82076,1,2,0:0:0:0:
192,192,82376,1,8,0:0:0:0:LR_Clap kick.wav
320,192,82676,1,4,0:0:0:0:
64,192,82676,1,0,0:0:0:0:bass.wav
192,192,83126,1,0,0:0:0:0:bass.wav
448,192,83126,1,4,0:0:0:0:
64,192,83576,1,0,0:0:0:0:bass.wav
320,192,83576,1,4,0:0:0:0:
64,192,84026,1,0,0:0:0:0:bass.wav
448,192,84026,1,4,0:0:0:0:
192,192,84476,1,0,0:0:0:0:bass.wav
320,192,84476,1,4,0:0:0:0:
64,192,84926,1,0,0:0:0:0:bass.wav
192,192,84926,1,4,0:0:0:0:
192,192,85376,1,0,0:0:0:0:bass.wav
320,192,85376,1,4,0:0:0:0:
64,192,85826,1,0,0:0:0:0:bass.wav
448,192,85826,1,4,0:0:0:0:
64,192,86276,1,0,0:0:0:0:bass.wav
320,192,86276,1,4,0:0:0:0:
192,192,86726,1,0,0:0:0:0:bass.wav
448,192,86726,1,4,0:0:0:0:
64,192,87176,1,0,0:0:0:0:bass.wav
320,192,87176,1,4,0:0:0:0:
320,192,87476,1,0,0:0:0:0:bass.wav
448,192,87476,1,4,0:0:0:0:
64,192,87776,1,0,0:0:0:0:bass.wav
192,192,88076,1,0,0:0:0:0:bass.wav
320,192,88376,1,0,0:0:0:0:bass.wav
448,192,88676,1,0,0:0:0:0:bass.wav
64,192,88676,1,4,0:0:0:0:
192,192,88976,1,0,0:0:0:0:bass.wav
64,192,89276,1,0,0:0:0:0:bass.wav
320,192,89276,1,4,0:0:0:0:
448,192,89576,1,0,0:0:0:0:bass.wav
320,192,89726,1,0,0:0:0:0:bass.wav
192,192,89876,1,0,0:0:0:0:bass.wav
64,192,89876,1,4,0:0:0:0:
192,192,90326,1,4,0:0:0:0:
320,192,90326,1,0,0:0:0:0:bass.wav
320,192,90776,1,4,0:0:0:0:
448,192,90776,1,0,0:0:0:0:bass.wav
64,192,91226,1,0,0:0:0:0:bass.wav
320,192,91376,1,0,0:0:0:0:bass.wav
192,192,91526,1,0,0:0:0:0:bass.wav
448,192,91676,1,0,0:0:0:0:bass.wav
320,192,91826,1,2,0:0:0:0:
192,192,91976,1,2,0:0:0:0:
64,192,92276,1,2,0:0:0:0:
448,192,92426,1,2,0:0:0:0:
320,192,92576,1,2,0:0:0:0:
192,192,92726,1,2,0:0:0:0:
64,192,93026,1,2,0:0:0:0:
320,192,93326,1,2,0:0:0:0:
64,192,93626,1,2,0:0:0:0:
448,192,93776,1,2,0:0:0:0:
320,192,94076,1,2,0:0:0:0:
192,192,94376,1,2,0:0:0:0:
448,192,94676,1,2,0:0:0:0:
320,192,94976,1,2,0:0:0:0:
64,192,95126,128,2,95576:0:0:0:0:
448,192,95426,1,2,0:0:0:0:bass.wav
320,192,95576,1,2,0:0:0:0:bass.wav
192,192,95726,1,0,0:0:0:0:bass.wav
64,192,95726,1,4,0:0:0:0:
320,192,96176,1,0,0:0:0:0:bass.wav
448,192,96176,1,4,0:0:0:0:
64,192,96476,1,0,0:0:0:0:bass.wav
448,192,96626,1,0,0:0:0:0:bass.wav
192,192,96776,128,2,97076:0:0:0:0:
320,192,97076,1,4,0:0:0:0:
448,192,97076,1,0,0:0:0:0:bass.wav
448,192,97376,1,0,0:0:0:50:LR_Clap kick.wav
320,192,97526,1,2,0:0:0:0:
64,192,97826,128,2,98276:0:0:0:0:
320,192,98276,1,0,0:0:0:0:bass.wav
192,192,98276,1,4,0:0:0:0:
448,192,98576,1,4,0:0:0:50:LR_Clap kick.wav
64,192,98726,1,0,0:0:0:0:bass.wav
192,192,98726,1,4,0:0:0:0:
192,192,99026,128,0,99476:0:0:0:0:bass.wav
320,192,99026,1,4,0:0:0:0:
448,192,99476,1,0,0:0:0:0:bass.wav
320,192,99626,1,0,0:0:0:0:bass.wav
64,192,99776,1,0,0:0:0:0:bass.wav
192,192,99926,1,0,0:0:0:0:bass.wav
448,192,100076,1,0,0:0:0:0:bass.wav
320,192,100226,1,0,0:0:0:0:bass.wav
192,192,100376,1,0,0:0:0:0:bass.wav
320,192,100526,128,0,100976:0:0:0:0:bass.wav
64,192,100526,1,0,0:0:0:0:
192,192,100826,1,0,0:0:0:0:bass.wav
64,192,100976,1,0,0:0:0:0:bass.wav
448,192,101126,128,2,101876:0:0:0:0:
320,192,101576,1,0,0:0:0:0:clap.wav
64,192,101576,1,0,0:0:0:0:
192,192,101876,1,0,0:0:0:0:bass.wav
64,192,101876,1,4,0:0:0:0:
320,192,102026,1,2,0:0:0:0:
192,192,102176,1,0,0:0:0:50:bass.wav
448,192,102326,1,0,0:0:0:0:bass.wav
320,192,102326,128,0,102626:0:0:0:0:
64,192,102626,128,0,102926:0:0:0:0:bass.wav
192,192,102626,1,0,0:0:0:0:
448,192,102926,1,0,0:0:0:0:
192,192,102926,128,0,103226:0:0:0:0:bass.wav
320,192,103226,1,0,0:0:0:0:bass.wav
448,192,103376,128,2,103676:0:0:0:0:
320,192,103676,128,2,103976:0:0:0:0:
192,192,103976,128,2,104276:0:0:0:0:
64,192,104276,1,4,0:0:0:0:
448,192,104276,1,0,0:0:0:0:bass.wav
192,192,104576,1,0,0:0:0:0:bass.wav
448,192,104726,1,0,0:0:0:0:bass.wav
320,192,104726,128,4,105026:0:0:0:0:
64,192,105026,128,0,105326:0:0:0:50:bass.wav
448,192,105326,128,4,105626:0:0:0:0:
192,192,105326,1,0,0:0:0:0:bass.wav
64,192,105626,1,0,0:0:0:0:bass.wav
448,192,105776,128,4,106076:0:0:0:0:
192,192,105776,1,0,0:0:0:0:bass.wav
64,192,106076,1,0,0:0:0:0:bass.wav
320,192,106226,1,0,0:0:0:0:bass.wav
448,192,106526,128,0,106826:0:0:0:0:
64,192,106526,1,0,0:0:0:0:bass.wav
320,192,106826,1,0,0:0:0:0:bass.wav
192,192,106976,1,2,0:0:0:0:
64,192,107126,1,2,0:0:0:0:
192,192,107426,1,2,0:0:0:0:
320,192,107576,1,2,0:0:0:0:
448,192,107726,1,2,0:0:0:0:
320,192,107876,1,0,0:0:0:0:bass.wav
192,192,107876,1,4,0:0:0:0:
448,192,108026,1,0,0:0:0:50:bass.wav
64,192,108176,1,0,0:0:0:0:bass.wav
192,192,108326,1,0,0:0:0:0:bass.wav
448,192,108326,1,4,0:0:0:0:
320,192,108626,128,0,108926:0:0:0:0:bass.wav
64,192,108626,1,4,0:0:0:0:
192,192,108926,1,0,0:0:0:0:bass.wav
64,192,109076,128,0,110126:0:0:0:0:bass.wav
448,192,109076,1,4,0:0:0:0:
192,192,109676,128,2,110126:0:0:0:0:
320,192,110126,1,4,0:0:0:0:
448,192,110126,1,0,0:0:0:0:bass.wav
64,192,110426,1,0,0:0:0:0:bass.wav
192,192,110576,1,0,0:0:0:0:bass.wav
320,192,110726,1,0,0:0:0:0:bass.wav
64,192,110876,1,0,0:0:0:0:bass.wav
448,192,111101,1,0,0:0:0:0:bass.wav
320,192,111326,1,0,0:0:0:0:bass.wav
64,192,111476,128,4,113876:0:0:0:0:
192,192,111476,1,0,0:0:0:0:bass.wav
320,192,112076,1,8,0:0:0:0:LR_Clap kick.wav
192,192,112676,1,2,0:0:0:0:
320,192,113276,1,2,0:0:0:0:
448,192,113426,128,2,113876:0:0:0:0:
192,192,113876,1,0,0:0:0:0:bass.wav
448,192,114026,1,0,0:0:0:0:bass.wav
192,192,114176,1,0,0:0:0:0:bass.wav
448,192,114326,1,0,0:0:0:0:bass.wav
64,192,114476,1,0,0:0:0:0:bass.wav
320,192,114626,1,0,0:0:0:0:bass.wav
64,192,114776,1,0,0:0:0:0:bass.wav
320,192,114926,1,0,0:0:0:0:bass.wav
192,192,115076,128,0,115676:0:0:0:0:bass.wav
448,192,115676,128,0,116276:0:0:0:0:bass.wav
64,192,115676,128,4,116276:0:0:0:0:
320,192,116276,1,4,0:0:0:0:
192,192,116276,1,0,0:0:0:0:bass.wav
320,192,116426,1,4,0:0:0:0:
192,192,116426,1,0,0:0:0:0:bass.wav
