osu file format v14

[General]
AudioFilename: [SDVX II ] Wish upon Twin Stars [NOFX].mp3
AudioLeadIn: 0
PreviewTime: 53415
Countdown: 0
SampleSet: Soft
StackLeniency: 0.7
Mode: 3
LetterboxInBreaks: 0
SpecialStyle: 0
WidescreenStoryboard: 0

[Editor]
DistanceSpacing: 0.5
BeatDivisor: 4
GridSize: 32
TimelineZoom: 2.3

[Metadata]
Title:Wish upon Twin Stars
TitleUnicode:Wish upon Twin Stars
Artist:xi
ArtistUnicode:xi
Creator:LNP-
Version:EXHAUST Lv.15
Source:SOUND VOLTEX II -infinite infection-
Tags:SDVX Character Theme First Contest eon-
BeatmapID:540060
BeatmapSetID:232650

[Difficulty]
HPDrainRate:8.5
CircleSize:4
OverallDifficulty:8.5
ApproachRate:5
SliderMultiplier:1.4
SliderTickRate:1

[Events]
//Background and Video events
0,0,"BeGe.png",0,0
//Break Periods
//Storyboard Layer 0 (Background)
//Storyboard Layer 1 (Fail)
//Storyboard Layer 2 (Pass)
//Storyboard Layer 3 (Foreground)
//Storyboard Sound Samples

[TimingPoints]
1076,300,4,2,0,40,1,0
5876,-100,4,2,0,40,0,1
5951,-100,4,2,0,40,0,0
27476,-100,4,2,0,40,0,1
27551,-100,4,2,0,40,0,0
53876,-100,4,2,0,40,0,1
63401,-100,4,2,0,40,0,0
63476,-100,4,2,0,40,0,1
73076,-100,4,2,0,40,0,0
82676,-100,4,2,0,40,0,1
82751,-100,4,2,0,40,0,0
101876,-100,4,2,0,40,0,1
111476,-100,4,2,0,40,0,0

[HitObjects]
64,192,626,5,2,0:0:0:50:
192,192,776,1,2,0:0:0:50:
448,192,926,1,2,0:0:0:50:
64,192,1057,1,2,0:0:0:50:
192,192,1076,1,2,0:0:0:50:
448,192,1076,1,2,0:0:0:50:
192,192,1226,1,2,0:0:0:50:
448,192,1376,1,2,0:0:0:50:
64,192,1526,1,2,0:0:0:50:
320,192,1526,1,2,0:0:0:50:
192,192,1826,1,2,0:0:0:50:
64,192,2088,1,2,0:0:0:50:
192,192,2107,1,2,0:0:0:50:
320,192,2126,1,2,0:0:0:50:
192,192,2426,1,2,0:0:0:50:
448,192,2576,1,2,0:0:0:50:
320,192,2876,1,2,0:0:0:50:
64,192,2876,128,2,3476:0:0:0:0:
192,192,3176,1,2,0:0:0:50:
192,192,3438,1,2,0:0:0:50:
320,192,3457,1,2,0:0:0:50:
448,192,3476,1,2,0:0:0:50:
320,192,3776,1,2,0:0:0:50:
448,192,3926,1,2,0:0:0:50:
64,192,3926,1,2,0:0:0:50:
192,192,4226,1,2,0:0:0:50:
64,192,4376,1,2,0:0:0:50:
448,192,4376,1,2,0:0:0:50:
64,192,4976,128,0,5876:0:0:0:50:LR3_BassDropSSG.wav
320,192,4976,1,0,0:0:0:50:
448,192,4976,1,0,0:0:0:50:
192,192,5276,128,0,5501:0:0:0:50:
448,192,5501,128,0,5726:0:0:0:50:
320,192,5726,1,0,0:0:0:50:
192,192,5876,1,0,0:0:0:50:bass.wav
448,192,5876,1,4,0:0:0:50:
320,192,5876,1,0,0:0:0:50:
448,192,6026,1,0,0:0:0:50:
320,192,6101,1,0,0:0:0:50:
192,192,6176,1,0,0:0:0:50:
64,192,6176,1,0,0:0:0:50:snare.wav
448,192,6251,1,0,0:0:0:50:
320,192,6326,1,0,0:0:0:50:
448,192,6476,1,0,0:0:0:50:
64,192,6476,1,0,0:0:0:50:bass.wav
192,192,6626,1,0,0:0:0:50:
320,192,6701,1,0,0:0:0:50:
64,192,6701,1,0,0:0:0:50:
192,192,6776,1,0,0:0:0:50:
448,192,6776,1,0,0:0:0:50:bass.wav
320,192,6926,1,0,0:0:0:50:
64,192,6926,1,0,0:0:0:50:
64,192,7076,1,4,0:0:0:50:
320,192,7076,1,0,0:0:0:50:
448,192,7076,1,0,0:0:0:50:bass.wav
320,192,7226,1,0,0:0:0:50:
192,192,7301,1,0,0:0:0:50:
64,192,7376,1,0,0:0:0:50:snare.wav
448,192,7376,1,0,0:0:0:50:
320,192,7451,1,0,0:0:0:50:
192,192,7526,1,0,0:0:0:50:
448,192,7676,1,0,0:0:0:50:bass.wav
320,192,7676,1,4,0:0:0:50:
64,192,7676,1,0,0:0:0:50:
448,192,7826,1,0,0:0:0:50:bass.wav
320,192,7863,1,0,0:0:0:50:bass.wav
192,192,7901,1,0,0:0:0:50:bass.wav
64,192,7938,1,0,0:0:0:50:bass.wav
320,192,7976,1,0,0:0:0:50:
448,192,7976,1,0,0:0:0:50:bass.wav
192,192,8126,1,0,0:0:0:50:
64,192,8126,1,0,0:0:0:50:bass.wav
448,192,8276,1,0,0:0:0:50:bass.wav
320,192,8276,1,0,0:0:0:50:
64,192,8276,1,4,0:0:0:50:
192,192,8426,1,0,0:0:0:50:
320,192,8426,1,0,0:0:0:50:bass.wav
448,192,8501,1,0,0:0:0:50:
192,192,8576,1,0,0:0:0:50:
64,192,8576,1,0,0:0:0:50:bass.wav
320,192,8651,1,0,0:0:0:50:
64,192,8726,1,4,0:0:0:50:
192,192,8726,1,0,0:0:0:50:
448,192,8726,1,0,0:0:0:50:bass.wav
320,192,8801,1,0,0:0:0:50:
448,192,8876,1,0,0:0:0:50:bass.wav
320,192,8951,1,0,0:0:0:50:bass.wav
64,192,9026,1,0,0:0:0:50:bass.wav
192,192,9101,1,0,0:0:0:50:bass.wav
320,192,9176,1,0,0:0:0:50:bass.wav
448,192,9176,1,4,0:0:0:50:
192,192,9251,1,0,0:0:0:50:bass.wav
64,192,9251,1,0,0:0:0:50:
320,192,9326,1,0,0:0:0:50:bass.wav
448,192,9326,1,0,0:0:0:50:
192,192,9401,1,0,0:0:0:50:bass.wav
64,192,9401,1,0,0:0:0:50:
64,192,9626,1,4,0:0:0:50:
320,192,9626,1,0,0:0:0:50:
448,192,9626,1,0,0:0:0:50:bass.wav
320,192,9776,1,0,0:0:0:50:
64,192,9776,1,4,0:0:0:50:
448,192,9776,1,0,0:0:0:50:bass.wav
448,192,9926,1,0,0:0:0:50:bass.wav
320,192,9926,1,0,0:0:0:50:
64,192,9926,1,4,0:0:0:50:
192,192,10076,1,4,0:0:0:50:
320,192,10076,1,0,0:0:0:50:
64,192,10076,1,0,0:0:0:50:bass.wav
64,192,10376,1,0,0:0:0:50:
320,192,10376,1,0,0:0:0:50:clap.wav
448,192,10376,1,0,0:0:0:50:
192,192,10376,1,0,0:0:0:0:
448,192,10676,128,0,11876:0:0:0:50:LR3_BassDropSSG.wav
64,192,10676,128,0,11276:0:0:0:50:bass.wav
64,192,11876,128,0,13076:0:0:0:50:
320,192,13376,1,2,0:0:0:50:
64,192,13451,1,2,0:0:0:50:
192,192,13526,1,2,0:0:0:50:
320,192,13601,1,2,0:0:0:50:
448,192,13676,1,2,0:0:0:50:
64,192,13676,1,2,0:0:0:50:
64,192,14126,1,2,0:0:0:50:
320,192,14126,1,2,0:0:0:50:
64,192,14576,1,2,0:0:0:50:
192,192,14876,1,2,0:0:0:50:
448,192,14876,1,2,0:0:0:0:
320,192,15026,1,2,0:0:0:50:
64,192,15026,1,2,0:0:0:0:
320,192,15326,1,2,0:0:0:50:
64,192,15326,1,2,0:0:0:0:
192,192,15476,1,2,0:0:0:50:
448,192,15476,1,2,0:0:0:50:
64,192,15776,1,2,0:0:0:50:
192,192,15851,1,2,0:0:0:50:
320,192,15926,1,2,0:0:0:50:
64,192,16001,1,2,0:0:0:50:
448,192,16076,1,2,0:0:0:50:
192,192,16076,1,2,0:0:0:50:
64,192,16226,1,2,0:0:0:50:
320,192,16226,1,2,0:0:0:50:
64,192,16526,1,2,0:0:0:50:
448,192,16526,1,2,0:0:0:50:
320,192,16826,1,2,0:0:0:50:
64,192,16976,1,2,0:0:0:50:
448,192,16976,1,2,0:0:0:50:
192,192,17126,1,2,0:0:0:50:
448,192,17276,1,2,0:0:0:50:
64,192,17276,1,2,0:0:0:50:
320,192,17426,1,2,0:0:0:50:
448,192,17576,1,2,0:0:0:50:
192,192,17576,1,2,0:0:0:50:
64,192,17726,1,2,0:0:0:50:
320,192,17876,1,2,0:0:0:50:
448,192,17876,1,2,0:0:0:50:
192,192,18026,1,2,0:0:0:50:
320,192,18101,1,2,0:0:0:50:
64,192,18176,1,2,0:0:0:50:
192,192,18251,1,2,0:0:0:50:
320,192,18326,1,2,0:0:0:50:
448,192,18326,1,2,0:0:0:50:
192,192,18476,1,2,0:0:0:50:
320,192,18551,1,2,0:0:0:50:
64,192,18626,1,2,0:0:0:50:
192,192,18701,1,2,0:0:0:50:
320,192,18776,1,2,0:0:0:50:
448,192,18776,1,2,0:0:0:50:
192,192,19076,1,2,0:0:0:50:
320,192,19076,1,2,0:0:0:50:
192,192,19376,1,2,0:0:0:50:
64,192,19376,1,2,0:0:0:50:
320,192,19676,1,2,0:0:0:50:
64,192,19676,1,2,0:0:0:50:
448,192,19826,1,0,0:0:0:0:
320,192,19901,1,0,0:0:0:0:
448,192,19976,1,2,0:0:0:0:
64,192,19976,1,2,0:0:0:0:
192,192,20051,1,0,0:0:0:0:
320,192,20126,1,0,0:0:0:0:
192,192,20201,1,0,0:0:0:0:
448,192,20276,1,4,0:0:0:50:
320,192,20276,1,0,0:0:0:50:
64,192,20276,1,0,0:0:0:50:bass.wav
192,192,20426,1,0,0:0:0:0:
320,192,20501,1,0,0:0:0:50:
192,192,20576,1,0,0:0:0:50:
64,192,20576,1,0,0:0:0:50:bass.wav
64,192,20726,1,0,0:0:0:50:bass.wav
192,192,20726,1,0,0:0:0:50:
448,192,20726,1,4,0:0:0:50:
320,192,21026,1,0,0:0:0:50:
192,192,21026,1,0,0:0:0:50:bass.wav
192,192,21176,1,0,0:0:0:50:bass.wav
64,192,21176,1,0,0:0:0:50:
320,192,21251,1,0,0:0:0:50:bass.wav
448,192,21251,1,0,0:0:0:50:
192,192,21326,1,0,0:0:0:50:bass.wav
64,192,21326,1,0,0:0:0:50:
320,192,21401,1,0,0:0:0:50:bass.wav
64,192,21476,1,0,0:0:0:50:
192,192,21476,1,0,0:0:0:50:bass.wav
448,192,21476,1,4,0:0:0:50:
320,192,21626,1,0,0:0:0:0:
192,192,21701,1,0,0:0:0:0:
448,192,21776,1,0,0:0:0:50:bass.wav
320,192,21776,1,0,0:0:0:50:
64,192,21776,1,4,0:0:0:50:
192,192,21926,1,0,0:0:0:50:bass.wav
320,192,22001,1,0,0:0:0:0:
64,192,22076,1,4,0:0:0:50:
192,192,22076,1,2,0:0:0:50:
448,192,22076,1,0,0:0:0:50:bass.wav
320,192,22301,1,2,0:0:0:50:
64,192,22301,1,0,0:0:0:50:bass.wav
448,192,22301,1,0,0:0:0:50:
64,192,22526,1,0,0:0:0:50:
192,192,22526,1,0,0:0:0:50:bass.wav
320,192,22601,1,0,0:0:0:50:bass.wav
448,192,22601,1,0,0:0:0:50:
192,192,22676,1,0,0:0:0:50:bass.wav
64,192,22676,1,0,0:0:0:50:
64,192,22826,1,0,0:0:0:50:bass.wav
448,192,22826,1,0,0:0:0:0:
192,192,22976,1,2,0:0:0:50:
320,192,23051,1,2,0:0:0:50:
448,192,23126,1,2,0:0:0:50:
192,192,23201,1,2,0:0:0:50:
320,192,23276,1,4,0:0:0:50:
64,192,23276,1,0,0:0:0:50:bass.wav
320,192,23426,1,0,0:0:0:50:
64,192,23426,1,0,0:0:0:50:bass.wav
448,192,23501,1,0,0:0:0:50:bass.wav
192,192,23501,1,0,0:0:0:50:
64,192,23576,1,0,0:0:0:50:
320,192,23576,1,0,0:0:0:50:bass.wav
448,192,23726,1,0,0:0:0:50:bass.wav
192,192,23726,1,0,0:0:0:50:
64,192,23726,1,4,0:0:0:50:
64,192,24026,1,0,0:0:0:50:bass.wav
192,192,24026,1,0,0:0:0:50:
320,192,24101,1,2,0:0:0:50:
64,192,24176,1,2,0:0:0:50:bass.wav
192,192,24251,1,2,0:0:0:50:
320,192,24326,1,2,0:0:0:50:
448,192,24326,1,0,0:0:0:50:bass.wav
192,192,24401,1,2,0:0:0:50:
64,192,24476,1,4,0:0:0:50:
320,192,24476,1,0,0:0:0:50:
448,192,24476,1,0,0:0:0:50:bass.wav
64,192,24626,1,0,0:0:0:50:bass.wav
192,192,24663,1,0,0:0:0:50:bass.wav
320,192,24701,1,0,0:0:0:50:bass.wav
448,192,24738,1,0,0:0:0:50:bass.wav
64,192,24776,1,4,0:0:0:50:
192,192,24776,1,0,0:0:0:50:bass.wav
320,192,24926,1,0,0:0:0:50:
448,192,24926,1,0,0:0:0:50:bass.wav
64,192,25076,1,4,0:0:0:50:
192,192,25076,1,0,0:0:0:50:
448,192,25076,1,0,0:0:0:50:bass.wav
448,192,25376,1,0,0:0:0:50:bass.wav
64,192,25376,1,0,0:0:0:50:
64,192,25526,1,4,0:0:0:50:
320,192,25526,1,0,0:0:0:50:bass.wav
192,192,25526,1,0,0:0:0:50:
448,192,25826,1,0,0:0:0:50:bass.wav
64,192,25826,1,0,0:0:0:50:
192,192,25976,1,4,0:0:0:50:
320,192,25976,1,0,0:0:0:50:
448,192,25976,1,0,0:0:0:50:bass.wav
320,192,26426,1,0,0:0:0:50:bass.wav
64,192,26576,1,0,0:0:0:50:
448,192,26576,1,0,0:0:0:50:bass.wav
192,192,26726,1,0,0:0:0:50:
448,192,26726,1,0,0:0:0:50:bass.wav
64,192,26801,1,0,0:0:0:50:
448,192,26876,1,0,0:0:0:50:bass.wav
320,192,26876,1,0,0:0:0:50:
192,192,27026,1,0,0:0:0:50:
64,192,27026,1,0,0:0:0:50:bass.wav
448,192,27176,1,0,0:0:0:50:
320,192,27176,1,0,0:0:0:50:bass.wav
64,192,27251,1,0,0:0:0:50:
192,192,27251,1,0,0:0:0:50:bass.wav
320,192,27326,1,0,0:0:0:50:bass.wav
448,192,27326,1,0,0:0:0:50:
192,192,27401,1,0,0:0:0:50:bass.wav
64,192,27401,1,0,0:0:0:50:
320,192,27476,1,0,0:0:0:50:bass.wav
448,192,27476,1,4,0:0:0:50:
64,192,27476,1,0,0:0:0:50:
192,192,27626,1,0,0:0:0:50:
448,192,27776,1,0,0:0:0:50:snare.wav
64,192,27776,1,0,0:0:0:50:
320,192,27926,1,0,0:0:0:50:
192,192,28076,1,0,0:0:0:50:
64,192,28076,1,0,0:0:0:50:bass.wav
448,192,28226,1,0,0:0:0:50:
320,192,28376,1,0,0:0:0:50:snare.wav
64,192,28376,1,0,0:0:0:50:
192,192,28526,1,0,0:0:0:50:
320,192,28676,1,0,0:0:0:50:
448,192,28676,1,4,0:0:0:50:
64,192,28676,1,0,0:0:0:50:bass.wav
320,192,28826,1,0,0:0:0:50:
448,192,28976,1,0,0:0:0:50:snare.wav
64,192,28976,1,0,0:0:0:50:
192,192,29126,1,0,0:0:0:50:bass.wav
320,192,29126,1,0,0:0:0:0:
320,192,29276,1,0,0:0:0:50:
192,192,29276,1,0,0:0:0:50:bass.wav
448,192,29426,1,0,0:0:0:50:bass.wav
64,192,29576,1,0,0:0:0:50:
192,192,29576,1,0,0:0:0:50:snare.wav
320,192,29651,1,0,0:0:0:50:bass.wav
448,192,29651,1,0,0:0:0:50:
192,192,29726,1,0,0:0:0:50:bass.wav
64,192,29726,1,0,0:0:0:50:
320,192,29801,1,0,0:0:0:50:bass.wav
448,192,29801,1,0,0:0:0:50:
192,192,29876,1,0,0:0:0:50:bass.wav
64,192,29876,1,0,0:0:0:50:
448,192,29876,1,4,0:0:0:50:
320,192,30176,1,0,0:0:0:50:
448,192,30176,1,0,0:0:0:50:bass.wav
64,192,30176,1,4,0:0:0:50:
64,192,30476,1,0,0:0:0:50:bass.wav
192,192,30476,1,0,0:0:0:50:
448,192,30476,1,4,0:0:0:50:
64,192,30626,1,2,0:0:0:50:
192,192,30701,1,2,0:0:0:50:
448,192,30776,1,0,0:0:0:50:bass.wav
320,192,30813,1,0,0:0:0:50:bass.wav
192,192,30851,1,0,0:0:0:50:bass.wav
64,192,30888,1,0,0:0:0:50:bass.wav
320,192,30926,1,0,0:0:0:50:bass.wav
448,192,30926,1,4,0:0:0:50:
64,192,31276,1,0,0:0:0:50:bass.wav
192,192,31276,1,0,0:0:0:50:
320,192,31276,1,0,0:0:0:50:
192,192,31476,1,0,0:0:0:50:
64,192,31476,1,0,0:0:0:50:bass.wav
320,192,31476,1,0,0:0:0:50:
320,192,31676,1,0,0:0:0:50:
192,192,31676,1,0,0:0:0:50:bass.wav
448,192,31676,1,0,0:0:0:50:
320,192,31876,1,0,0:0:0:50:
448,192,31876,1,0,0:0:0:50:
64,192,31876,1,0,0:0:0:50:bass.wav
448,192,32076,1,0,0:0:0:50:
192,192,32076,1,0,0:0:0:50:
64,192,32076,1,0,0:0:0:50:bass.wav
448,192,32276,1,4,0:0:0:50:
320,192,32276,1,0,0:0:0:50:
64,192,32276,1,0,0:0:0:50:bass.wav
192,192,32426,1,0,0:0:0:50:bass.wav
320,192,32501,1,0,0:0:0:50:bass.wav
192,192,32576,1,0,0:0:0:50:bass.wav
448,192,32576,1,0,0:0:0:50:
64,192,32651,1,0,0:0:0:50:bass.wav
320,192,32651,1,0,0:0:0:50:
448,192,32726,1,0,0:0:0:50:bass.wav
192,192,32726,1,4,0:0:0:50:
320,192,32951,1,0,0:0:0:50:
64,192,33026,1,0,0:0:0:50:bass.wav
448,192,33026,1,0,0:0:0:50:
192,192,33176,1,0,0:0:0:50:bass.wav
64,192,33176,1,4,0:0:0:50:
448,192,33176,128,0,33476:0:0:0:0:
448,192,33776,128,2,34076:0:0:0:50:
192,192,33776,1,8,0:0:0:50:LR_Clap kick.wav
320,192,34076,1,2,0:0:0:50:
192,192,34176,1,2,0:0:0:50:
320,192,34301,1,2,0:0:0:50:
64,192,34376,128,2,34676:0:0:0:50:
192,192,34376,1,0,0:0:0:50:LR_Clap kick.wav
192,192,34676,1,0,0:0:0:50:bass.wav
320,192,34676,1,0,0:0:0:50:
448,192,34676,1,4,0:0:0:50:
64,192,34976,1,0,0:0:0:50:bass.wav
192,192,34976,1,0,0:0:0:50:
192,192,35126,1,0,0:0:0:50:
320,192,35126,1,4,0:0:0:50:
64,192,35126,1,0,0:0:0:50:bass.wav
448,192,35426,1,0,0:0:0:50:bass.wav
320,192,35426,1,0,0:0:0:50:
192,192,35576,1,4,0:0:0:50:
448,192,35576,1,0,0:0:0:50:bass.wav
64,192,35576,128,0,35876:0:0:0:0:
320,192,36026,1,2,0:0:0:50:
192,192,36176,1,2,0:0:0:50:
448,192,36176,1,0,0:0:0:50:LR_Clap kick.wav
64,192,36251,1,2,0:0:0:50:
320,192,36326,1,2,0:0:0:50:
192,192,36401,1,2,0:0:0:50:
448,192,36476,1,4,0:0:0:50:
64,192,36476,1,0,0:0:0:50:bass.wav
320,192,36476,1,0,0:0:0:50:
320,192,36701,1,0,0:0:0:50:bass.wav
64,192,36701,1,0,0:0:0:0:
192,192,36776,1,0,0:0:0:0:
448,192,36776,1,0,0:0:0:50:bass.wav
192,192,36926,1,0,0:0:0:50:
448,192,36926,1,0,0:0:0:50:bass.wav
64,192,37076,1,0,0:0:0:50:
320,192,37076,1,0,0:0:0:50:bass.wav
64,192,37376,1,0,0:0:0:50:
448,192,37376,1,0,0:0:0:50:bass.wav
320,192,37451,1,0,0:0:0:50:bass.wav
192,192,37526,1,0,0:0:0:50:bass.wav
64,192,37526,1,0,0:0:0:0:
64,192,37826,1,0,0:0:0:50:
320,192,37826,1,0,0:0:0:50:bass.wav
192,192,37976,1,0,0:0:0:50:bass.wav
448,192,37976,128,0,38276:0:0:0:50:
64,192,38576,128,2,38876:0:0:0:50:
320,192,38576,1,0,0:0:0:50:LR_Clap kick.wav
192,192,38876,1,2,0:0:0:50:
448,192,38951,1,2,0:0:0:50:
320,192,39026,1,2,0:0:0:50:
192,192,39101,1,2,0:0:0:50:
320,192,39176,1,2,0:0:0:50:
64,192,39176,1,0,0:0:0:50:LR_Clap kick.wav
64,192,39326,1,2,0:0:0:50:
192,192,39476,1,4,0:0:0:50:
448,192,39476,1,0,0:0:0:50:bass.wav
320,192,39476,1,0,0:0:0:50:
64,192,39626,1,0,0:0:0:50:
448,192,39776,1,0,0:0:0:50:bass.wav
320,192,39776,1,0,0:0:0:50:
192,192,39926,1,0,0:0:0:50:
64,192,39926,1,4,0:0:0:50:
448,192,39926,1,0,0:0:0:50:bass.wav
320,192,40076,1,0,0:0:0:50:
448,192,40151,1,0,0:0:0:0:
64,192,40226,1,0,0:0:0:50:bass.wav
192,192,40226,1,0,0:0:0:50:
320,192,40376,1,0,0:0:0:50:
448,192,40376,1,4,0:0:0:50:
64,192,40376,1,0,0:0:0:50:bass.wav
320,192,40826,1,0,0:0:0:50:
448,192,40826,1,0,0:0:0:50:bass.wav
192,192,40976,1,0,0:0:0:50:
320,192,40976,1,0,0:0:0:50:bass.wav
192,192,41126,1,0,0:0:0:50:bass.wav
64,192,41126,1,0,0:0:0:50:
320,192,41201,1,0,0:0:0:50:bass.wav
448,192,41201,1,0,0:0:0:50:
64,192,41276,1,0,0:0:0:50:
192,192,41276,1,0,0:0:0:50:bass.wav
448,192,41426,1,0,0:0:0:50:bass.wav
64,192,41426,1,4,0:0:0:0:
448,192,41726,1,0,0:0:0:50:bass.wav
320,192,41726,1,4,0:0:0:50:
64,192,41726,128,0,42026:0:0:0:0:
192,192,42026,1,0,0:0:0:50:bass.wav
320,192,42026,1,0,0:0:0:50:
64,192,42176,1,0,0:0:0:50:snare.wav
448,192,42176,1,2,0:0:0:50:
320,192,42251,1,2,0:0:0:50:
192,192,42326,1,2,0:0:0:50:
64,192,42401,1,2,0:0:0:50:
192,192,42476,1,2,0:0:0:50:
448,192,42476,1,0,0:0:0:50:bass.wav
320,192,42551,1,2,0:0:0:50:
192,192,42626,1,2,0:0:0:50:
320,192,42701,1,2,0:0:0:50:
448,192,42776,1,2,0:0:0:50:
64,192,42776,1,0,0:0:0:50:snare.wav
192,192,42851,1,2,0:0:0:50:
320,192,42926,1,2,0:0:0:50:
448,192,43001,1,2,0:0:0:50:
192,192,43076,1,2,0:0:0:50:
64,192,43076,1,0,0:0:0:50:bass.wav
64,192,43226,1,0,0:0:0:50:
320,192,43226,1,2,0:0:0:50:
64,192,43376,1,0,0:0:0:50:snare.wav
320,192,43376,1,2,0:0:0:50:
64,192,43526,1,0,0:0:0:50:
448,192,43526,1,2,0:0:0:50:
320,192,43601,1,2,0:0:0:50:
192,192,43676,1,0,0:0:0:50:
448,192,43676,1,0,0:0:0:50:bass.wav
64,192,43676,1,4,0:0:0:50:
64,192,43826,1,4,0:0:0:50:
192,192,43826,1,0,0:0:0:50:
448,192,43826,1,0,0:0:0:50:bass.wav
448,192,44126,1,4,0:0:0:50:
320,192,44126,1,0,0:0:0:50:bass.wav
64,192,44126,128,0,44426:0:0:0:0:
192,192,44426,1,0,0:0:0:50:bass.wav
320,192,44501,1,0,0:0:0:50:bass.wav
192,192,44576,1,0,0:0:0:50:snare.wav
448,192,44576,1,2,0:0:0:50:
320,192,44651,1,2,0:0:0:50:
192,192,44726,1,2,0:0:0:50:
64,192,44801,1,2,0:0:0:50:
192,192,44876,1,2,0:0:0:50:
448,192,44876,1,0,0:0:0:50:bass.wav
320,192,44951,1,2,0:0:0:50:
192,192,45026,1,2,0:0:0:50:
64,192,45101,1,2,0:0:0:50:
192,192,45176,1,2,0:0:0:50:
448,192,45176,1,0,0:0:0:50:snare.wav
320,192,45251,1,2,0:0:0:50:
192,192,45326,1,2,0:0:0:50:
320,192,45401,1,2,0:0:0:50:
448,192,45476,1,0,0:0:0:50:bass.wav
64,192,45476,1,2,0:0:0:50:
448,192,45626,1,0,0:0:0:50:bass.wav
64,192,45626,1,0,0:0:0:50:
320,192,45701,1,0,0:0:0:50:bass.wav
192,192,45701,1,0,0:0:0:50:
448,192,45776,1,0,0:0:0:50:snare.wav
64,192,45776,1,2,0:0:0:50:
448,192,45926,1,0,0:0:0:50:
64,192,45926,1,0,0:0:0:50:bass.wav
320,192,46001,1,0,0:0:0:50:
192,192,46076,1,0,0:0:0:50:bass.wav
64,192,46076,1,0,0:0:0:50:
448,192,46076,1,4,0:0:0:50:
192,192,46226,1,0,0:0:0:50:bass.wav
64,192,46226,1,0,0:0:0:50:
448,192,46226,1,4,0:0:0:50:
320,192,46526,1,0,0:0:0:50:
64,192,46526,1,4,0:0:0:50:
448,192,46526,128,0,47276:0:0:0:50:bass.wav
192,192,46826,1,0,0:0:0:50:
64,192,46976,1,0,0:0:0:50:
320,192,47126,1,0,0:0:0:50:
192,192,47201,1,0,0:0:0:50:
320,192,47276,1,0,0:0:0:50:bass.wav
64,192,47276,1,0,0:0:0:50:
64,192,47426,1,0,0:0:0:50:
192,192,47501,1,0,0:0:0:50:
448,192,47576,1,0,0:0:0:50:
320,192,47651,1,0,0:0:0:50:
64,192,47726,1,2,0:0:0:50:
192,192,47801,1,2,0:0:0:50:
320,192,47876,1,0,0:0:0:50:bass.wav
64,192,47876,1,4,0:0:0:50:
448,192,47876,128,0,48176:0:0:0:0:
64,192,48176,128,0,48476:0:0:0:50:
192,192,48476,1,0,0:0:0:50:
320,192,48476,1,0,0:0:0:50:bass.wav
448,192,48626,1,0,0:0:0:50:bass.wav
64,192,48626,1,0,0:0:0:0:
192,192,48701,1,0,0:0:0:50:bass.wav
448,192,48776,1,0,0:0:0:50:bass.wav
320,192,48776,1,0,0:0:0:50:
192,192,48851,1,0,0:0:0:50:
320,192,48926,1,0,0:0:0:50:
64,192,48926,1,0,0:0:0:50:bass.wav
192,192,49001,1,0,0:0:0:50:
320,192,49076,1,0,0:0:0:50:
448,192,49076,1,4,0:0:0:50:
64,192,49076,1,0,0:0:0:50:bass.wav
192,192,49226,1,0,0:0:0:50:bass.wav
320,192,49301,1,0,0:0:0:50:bass.wav
448,192,49301,1,0,0:0:0:50:
192,192,49376,1,0,0:0:0:50:bass.wav
64,192,49376,1,0,0:0:0:50:
448,192,49526,1,0,0:0:0:50:bass.wav
320,192,49526,1,0,0:0:0:50:
64,192,49526,1,4,0:0:0:50:
192,192,49676,1,0,0:0:0:50:bass.wav
320,192,49751,1,0,0:0:0:50:bass.wav
448,192,49751,1,0,0:0:0:50:
192,192,49826,1,0,0:0:0:50:bass.wav
64,192,49826,1,0,0:0:0:50:
320,192,49901,1,0,0:0:0:50:bass.wav
448,192,49976,1,0,0:0:0:50:bass.wav
192,192,49976,1,0,0:0:0:50:
64,192,49976,1,4,0:0:0:50:
320,192,50051,1,0,0:0:0:50:
64,192,50126,1,4,0:0:0:50:
448,192,50126,1,0,0:0:0:50:bass.wav
192,192,50201,1,0,0:0:0:50:
64,192,50426,1,0,0:0:0:50:
192,192,50426,1,0,0:0:0:50:
448,192,50426,1,0,0:0:0:50:bass.wav
448,192,50576,1,0,0:0:0:50:bass.wav
192,192,50576,1,0,0:0:0:50:
64,192,50576,1,0,0:0:0:50:
64,192,50726,1,0,0:0:0:50:
192,192,50726,1,0,0:0:0:50:
448,192,50726,1,0,0:0:0:50:bass.wav
64,192,50876,1,0,0:0:0:50:bass.wav
320,192,50876,1,0,0:0:0:50:
192,192,50876,1,0,0:0:0:50:
64,192,51176,1,2,0:0:0:50:
320,192,51176,1,0,0:0:0:50:clap.wav
448,192,51176,1,0,0:0:0:0:
192,192,51251,1,2,0:0:0:50:
64,192,51326,1,2,0:0:0:50:
192,192,51401,1,2,0:0:0:50:
320,192,51476,1,2,0:0:0:50:
64,192,51476,1,0,0:0:0:50:bass.wav
448,192,51551,1,2,0:0:0:50:
320,192,51626,1,2,0:0:0:50:
192,192,51701,1,2,0:0:0:50:
320,192,51776,1,2,0:0:0:50:
448,192,51851,1,2,0:0:0:50:
320,192,51926,1,2,0:0:0:50:
192,192,52001,1,2,0:0:0:50:
64,192,52076,1,2,0:0:0:50:
320,192,52151,1,2,0:0:0:50:
192,192,52226,1,2,0:0:0:50:
64,192,52301,1,2,0:0:0:50:
192,192,52376,1,2,0:0:0:50:
448,192,52451,1,2,0:0:0:50:
320,192,52526,1,2,0:0:0:50:
192,192,52601,1,2,0:0:0:50:
64,192,52676,1,2,0:0:0:50:
192,192,52751,1,2,0:0:0:50:
320,192,52826,1,2,0:0:0:50:
448,192,52901,1,2,0:0:0:50:
320,192,52976,1,2,0:0:0:50:
192,192,53051,1,2,0:0:0:50:
320,192,53126,1,2,0:0:0:50:
192,192,53201,1,2,0:0:0:50:
64,192,53276,1,2,0:0:0:50:
64,192,53426,1,2,0:0:0:50:
320,192,53426,1,2,0:0:0:50:
64,192,53576,1,2,0:0:0:50:
320,192,53576,1,2,0:0:0:50:
448,192,53726,1,2,0:0:0:50:
192,192,53726,1,2,0:0:0:50:
192,192,53876,1,0,0:0:0:50:
448,192,53876,1,0,0:0:0:50:bass.wav
64,192,53876,1,4,0:0:0:50:
320,192,54026,1,2,0:0:0:50:
192,192,54026,1,2,0:0:0:50:
448,192,54176,1,0,0:0:0:50:
64,192,54176,1,0,0:0:0:50:bass.wav
448,192,54326,128,0,54626:0:0:0:50:
320,192,54326,128,0,54626:0:0:0:50:bass.wav
64,192,54626,128,0,54926:0:0:0:50:bass.wav
192,192,54626,128,0,54926:0:0:0:50:
320,192,54926,1,0,0:0:0:50:bass.wav
448,192,54926,128,0,55376:0:0:0:0:
192,192,55226,1,0,0:0:0:50:bass.wav
64,192,55376,1,0,0:0:0:50:bass.wav
320,192,55376,1,0,0:0:0:50:
192,192,55526,1,0,0:0:0:50:bass.wav
320,192,55601,1,0,0:0:0:50:bass.wav
448,192,55676,1,0,0:0:0:50:
192,192,55676,1,0,0:0:0:50:bass.wav
448,192,55826,1,0,0:0:0:50:bass.wav
320,192,55863,1,0,0:0:0:50:bass.wav
192,192,55901,1,0,0:0:0:50:bass.wav
64,192,55938,1,0,0:0:0:50:bass.wav
320,192,55976,1,0,0:0:0:50:
448,192,55976,1,0,0:0:0:50:bass.wav
192,192,56126,1,0,0:0:0:50:bass.wav
64,192,56276,1,4,0:0:0:50:
320,192,56276,1,0,0:0:0:50:bass.wav
448,192,56276,128,0,56576:0:0:0:0:
64,192,56576,1,0,0:0:0:50:bass.wav
192,192,56576,1,0,0:0:0:50:
320,192,56651,1,0,0:0:0:50:
192,192,56726,1,0,0:0:0:50:bass.wav
448,192,56726,1,4,0:0:0:50:
64,192,56726,128,0,57026:0:0:0:0:
320,192,57026,1,0,0:0:0:50:bass.wav
192,192,57026,1,0,0:0:0:50:
64,192,57176,1,0,0:0:0:50:bass.wav
192,192,57251,1,0,0:0:0:50:bass.wav
320,192,57326,1,0,0:0:0:50:
64,192,57326,1,0,0:0:0:50:bass.wav
448,192,57326,128,4,57626:0:0:0:50:
64,192,57626,1,0,0:0:0:50:bass.wav
192,192,57701,1,0,0:0:0:50:bass.wav
320,192,57776,1,0,0:0:0:50:
448,192,57776,128,4,58076:0:0:0:50:
64,192,57776,1,0,0:0:0:50:bass.wav
320,192,58076,1,0,0:0:0:50:
192,192,58076,1,0,0:0:0:50:bass.wav
192,192,58226,1,0,0:0:0:50:bass.wav
64,192,58226,1,0,0:0:0:50:
320,192,58376,1,2,0:0:0:50:
448,192,58451,1,2,0:0:0:50:
192,192,58526,1,2,0:0:0:50:
64,192,58601,1,2,0:0:0:50:
320,192,58676,1,0,0:0:0:50:
448,192,58676,1,0,0:0:0:50:bass.wav
192,192,58676,1,4,0:0:0:50:
64,192,58826,1,0,0:0:0:50:
192,192,58976,1,0,0:0:0:50:snare.wav
320,192,58976,1,0,0:0:0:50:
448,192,59126,1,0,0:0:0:50:
192,192,59276,1,0,0:0:0:50:
64,192,59276,1,0,0:0:0:50:bass.wav
320,192,59426,1,0,0:0:0:50:
448,192,59501,1,0,0:0:0:50:
192,192,59576,1,0,0:0:0:50:snare.wav
320,192,59576,1,0,0:0:0:50:
64,192,59651,1,0,0:0:0:50:
192,192,59726,1,0,0:0:0:50:
320,192,59801,1,0,0:0:0:50:
448,192,59876,1,0,0:0:0:50:bass.wav
192,192,59876,1,0,0:0:0:50:
64,192,59876,1,4,0:0:0:50:
320,192,60026,1,0,0:0:0:50:
448,192,60176,1,0,0:0:0:50:snare.wav
192,192,60176,1,0,0:0:0:50:
64,192,60326,1,0,0:0:0:50:
320,192,60326,1,0,0:0:0:50:bass.wav
448,192,60326,1,4,0:0:0:0:
64,192,60626,1,4,0:0:0:50:
448,192,60626,1,0,0:0:0:50:bass.wav
192,192,60626,1,0,0:0:0:50:
192,192,60776,1,0,0:0:0:50:
64,192,60851,1,0,0:0:0:50:
320,192,60926,1,0,0:0:0:50:
192,192,61001,1,0,0:0:0:50:
448,192,61076,1,0,0:0:0:50:
320,192,61076,1,0,0:0:0:50:bass.wav
192,192,61226,1,0,0:0:0:50:bass.wav
64,192,61226,1,0,0:0:0:50:
320,192,61376,1,0,0:0:0:50:bass.wav
448,192,61376,1,0,0:0:0:50:
192,192,61526,1,0,0:0:0:50:bass.wav
64,192,61526,1,0,0:0:0:50:
320,192,61601,1,0,0:0:0:50:bass.wav
448,192,61601,1,0,0:0:0:50:
192,192,61676,1,0,0:0:0:50:bass.wav
64,192,61676,1,0,0:0:0:50:
320,192,61751,1,0,0:0:0:50:bass.wav
448,192,61826,1,0,0:0:0:50:bass.wav
320,192,61863,1,0,0:0:0:50:bass.wav
192,192,61901,1,0,0:0:0:50:bass.wav
64,192,61938,1,0,0:0:0:50:bass.wav
320,192,61976,1,0,0:0:0:50:bass.wav
448,192,61976,1,0,0:0:0:50:
64,192,62126,1,0,0:0:0:50:bass.wav
192,192,62126,1,4,0:0:0:50:
448,192,62126,128,0,62576:0:0:0:0:
320,192,62426,1,0,0:0:0:50:bass.wav
192,192,62426,1,0,0:0:0:50:
192,192,62576,1,0,0:0:0:50:
320,192,62576,1,0,0:0:0:50:bass.wav
320,192,62801,1,2,0:0:0:50:
64,192,62876,1,2,0:0:0:50:
192,192,62951,1,2,0:0:0:50:
320,192,63026,1,2,0:0:0:50:
448,192,63101,1,2,0:0:0:50:
320,192,63176,1,0,0:0:0:50:clap.wav
192,192,63176,1,0,0:0:0:50:
64,192,63176,1,0,0:0:0:0:
448,192,63251,1,2,0:0:0:50:
320,192,63326,1,2,0:0:0:50:
192,192,63401,1,2,0:0:0:50:
64,192,63476,1,0,0:0:0:50:bass.wav
320,192,63476,1,0,0:0:0:50:
448,192,63476,1,4,0:0:0:50:
320,192,63626,1,2,0:0:0:50:
64,192,63626,1,2,0:0:0:50:
448,192,63776,1,0,0:0:0:50:
192,192,63776,1,0,0:0:0:50:bass.wav
64,192,63926,128,0,64226:0:0:0:50:bass.wav
320,192,63926,1,0,0:0:0:50:
192,192,64226,128,0,64526:0:0:0:50:
448,192,64226,1,0,0:0:0:50:bass.wav
448,192,64526,1,0,0:0:0:50:bass.wav
320,192,64526,128,0,64976:0:0:0:50:
192,192,64826,1,0,0:0:0:50:
64,192,64826,1,0,0:0:0:50:bass.wav
448,192,64976,1,0,0:0:0:50:
64,192,64976,1,0,0:0:0:50:bass.wav
448,192,65126,1,0,0:0:0:50:
320,192,65126,1,0,0:0:0:50:bass.wav
192,192,65201,1,0,0:0:0:50:bass.wav
64,192,65201,1,0,0:0:0:50:
320,192,65276,1,0,0:0:0:50:bass.wav
448,192,65276,1,0,0:0:0:50:
448,192,65426,1,0,0:0:0:50:bass.wav
320,192,65463,1,0,0:0:0:50:bass.wav
192,192,65501,1,0,0:0:0:50:bass.wav
64,192,65538,1,0,0:0:0:50:bass.wav
320,192,65576,1,0,0:0:0:50:
448,192,65576,1,0,0:0:0:50:bass.wav
320,192,65726,1,0,0:0:0:50:bass.wav
192,192,65726,1,0,0:0:0:50:
448,192,65876,128,4,66176:0:0:0:50:
64,192,65876,128,0,66626:0:0:0:50:
192,192,65876,1,0,0:0:0:50:bass.wav
192,192,66176,1,0,0:0:0:50:bass.wav
320,192,66251,1,0,0:0:0:50:bass.wav
192,192,66326,128,4,66626:0:0:0:50:
448,192,66326,1,0,0:0:0:50:bass.wav
320,192,66626,1,0,0:0:0:50:bass.wav
448,192,66626,1,2,0:0:0:50:
192,192,66701,1,2,0:0:0:50:
64,192,66776,1,0,0:0:0:50:
320,192,66776,1,0,0:0:0:50:bass.wav
192,192,66851,1,2,0:0:0:50:
320,192,66926,1,0,0:0:0:50:bass.wav
64,192,66926,1,4,0:0:0:50:
448,192,66926,128,0,67226:0:0:0:50:
64,192,67226,1,0,0:0:0:50:
320,192,67226,1,0,0:0:0:50:bass.wav
192,192,67301,1,0,0:0:0:50:bass.wav
448,192,67376,128,0,67676:0:0:0:50:
64,192,67376,1,4,0:0:0:50:
320,192,67376,1,0,0:0:0:50:bass.wav
320,192,67676,1,0,0:0:0:50:bass.wav
64,192,67676,1,0,0:0:0:50:
192,192,67826,1,0,0:0:0:50:bass.wav
64,192,67826,1,0,0:0:0:50:
448,192,68126,1,0,0:0:0:50:bass.wav
320,192,68126,1,0,0:0:0:50:
64,192,68126,1,4,0:0:0:50:
448,192,68276,1,2,0:0:0:50:
320,192,68351,1,2,0:0:0:50:
64,192,68426,1,0,0:0:0:50:
192,192,68426,1,0,0:0:0:50:bass.wav
320,192,68501,1,0,0:0:0:50:bass.wav
448,192,68501,1,0,0:0:0:50:
192,192,68576,1,0,0:0:0:50:snare.wav
64,192,68576,1,0,0:0:0:50:
448,192,68726,1,2,0:0:0:50:
192,192,68876,1,0,0:0:0:50:
64,192,68876,1,0,0:0:0:50:bass.wav
320,192,69026,1,2,0:0:0:50:
448,192,69101,1,2,0:0:0:50:
320,192,69176,1,2,0:0:0:50:
64,192,69176,1,0,0:0:0:50:snare.wav
192,192,69251,1,2,0:0:0:50:
320,192,69326,1,2,0:0:0:50:
192,192,69401,1,2,0:0:0:50:
448,192,69476,1,0,0:0:0:50:bass.wav
320,192,69476,1,0,0:0:0:50:
64,192,69476,1,4,0:0:0:50:
64,192,69626,1,0,0:0:0:50:bass.wav
192,192,69663,1,0,0:0:0:50:bass.wav
320,192,69701,1,0,0:0:0:50:bass.wav
448,192,69738,1,0,0:0:0:50:bass.wav
64,192,69776,1,0,0:0:0:50:
192,192,69776,1,0,0:0:0:50:bass.wav
448,192,69926,1,0,0:0:0:50:bass.wav
320,192,69926,1,0,0:0:0:50:
64,192,70226,1,4,0:0:0:50:
448,192,70226,128,0,70526:0:0:0:50:bass.wav
192,192,70526,1,0,0:0:0:50:
320,192,70526,1,0,0:0:0:50:bass.wav
320,192,70676,1,0,0:0:0:50:
448,192,70676,1,0,0:0:0:50:bass.wav
64,192,70676,128,4,71276:0:0:0:50:
448,192,71276,128,4,71726:0:0:0:50:
192,192,71276,1,0,0:0:0:50:
320,192,71726,1,0,0:0:0:50:bass.wav
192,192,71726,1,0,0:0:0:50:
64,192,71726,1,4,0:0:0:50:
448,192,72026,1,0,0:0:0:50:bass.wav
192,192,72026,1,0,0:0:0:50:
448,192,72176,1,0,0:0:0:50:bass.wav
192,192,72176,1,0,0:0:0:50:
320,192,72326,1,0,0:0:0:50:bass.wav
64,192,72326,1,0,0:0:0:50:
64,192,72476,1,0,0:0:0:50:
320,192,72476,1,0,0:0:0:50:bass.wav
448,192,72701,1,0,0:0:0:50:bass.wav
64,192,72701,1,8,0:0:0:50:clap.wav
192,192,72926,1,0,0:0:0:50:
320,192,72926,1,0,0:0:0:50:bass.wav
192,192,73076,1,0,0:0:0:50:bass.wav
64,192,73076,128,0,75476:0:0:0:50:LR3_BassDropSSG.wav
448,192,73076,128,4,73676:0:0:0:50:
320,192,73676,1,2,0:0:0:50:LR_Clap kick.wav
192,192,73976,1,2,0:0:0:50:
320,192,74276,1,2,0:0:0:50:
320,192,74576,1,2,0:0:0:50:
448,192,74876,1,2,0:0:0:50:
320,192,75176,1,2,0:0:0:50:
192,192,75476,1,2,0:0:0:50:
448,192,75776,1,2,0:0:0:50:
192,192,76076,1,2,0:0:0:50:
320,192,76076,1,2,0:0:0:50:LR_Clap kick.wav
64,192,76376,1,2,0:0:0:50:
320,192,76676,1,2,0:0:0:50:
192,192,76976,1,2,0:0:0:50:
320,192,77276,1,2,0:0:0:50:
448,192,77576,1,2,0:0:0:50:
320,192,77726,1,0,0:0:0:50:LR_Clap kick.wav
64,192,77726,1,2,0:0:0:50:
64,192,77876,128,0,79076:0:0:0:50:
192,192,77876,1,2,0:0:0:50:
448,192,78176,1,2,0:0:0:50:
320,192,78476,1,2,0:0:0:50:
192,192,78476,1,0,0:0:0:50:LR_Clap kick.wav
192,192,78776,1,2,0:0:0:50:
320,192,79076,1,2,0:0:0:50:
448,192,79376,1,2,0:0:0:50:
192,192,79676,1,2,0:0:0:50:
64,192,79976,1,2,0:0:0:50:
320,192,80276,128,0,81476:0:0:0:50:
192,192,80276,1,2,0:0:0:50:
448,192,80576,1,2,0:0:0:50:
192,192,80876,1,2,0:0:0:50:
64,192,80876,1,0,0:0:0:50:LR_Clap kick.wav
64,192,81176,1,2,0:0:0:50:
192,192,81476,1,2,0:0:0:50:
448,192,81476,128,0,82376:0:0:0:50:
320,192,81776,1,2,0:0:0:50:
64,192,82076,1,2,0:0:0:50:
320,192,82376,1,2,0:0:0:50:
192,192,82426,1,2,0:0:0:50:
64,192,82476,1,2,0:0:0:50:
192,192,82526,1,2,0:0:0:50:
320,192,82576,1,2,0:0:0:50:
448,192,82626,1,2,0:0:0:50:
192,192,82676,1,4,0:0:0:50:
320,192,82676,1,0,0:0:0:50:bass.wav
64,192,82826,1,2,0:0:0:50:
192,192,82901,1,2,0:0:0:50:
320,192,82976,1,2,0:0:0:50:
448,192,82976,1,0,0:0:0:50:bass.wav
64,192,83126,1,0,0:0:0:50:bass.wav
448,192,83126,1,4,0:0:0:50:
320,192,83201,1,2,0:0:0:50:
448,192,83276,1,2,0:0:0:50:
320,192,83351,1,2,0:0:0:50:
448,192,83426,1,2,0:0:0:50:
64,192,83426,1,0,0:0:0:50:bass.wav
320,192,83501,1,2,0:0:0:50:
192,192,83576,1,4,0:0:0:50:
64,192,83576,1,0,0:0:0:50:bass.wav
320,192,83651,1,2,0:0:0:50:
448,192,83726,1,2,0:0:0:50:
320,192,83801,1,2,0:0:0:50:
64,192,83876,1,0,0:0:0:50:bass.wav
192,192,83876,1,2,0:0:0:50:
192,192,83951,1,2,0:0:0:50:
448,192,84026,1,4,0:0:0:50:
64,192,84026,1,0,0:0:0:50:bass.wav
192,192,84101,1,2,0:0:0:50:
320,192,84176,1,2,0:0:0:50:
320,192,84251,1,2,0:0:0:50:
64,192,84326,1,2,0:0:0:50:
448,192,84326,1,0,0:0:0:50:bass.wav
192,192,84401,1,2,0:0:0:50:
320,192,84476,1,4,0:0:0:50:
448,192,84476,1,0,0:0:0:50:bass.wav
448,192,84626,1,2,0:0:0:50:
64,192,84626,128,0,84926:0:0:0:50:
320,192,84701,1,2,0:0:0:50:
448,192,84776,1,2,0:0:0:50:
192,192,84776,1,0,0:0:0:50:bass.wav
320,192,84851,1,2,0:0:0:50:
192,192,84926,1,0,0:0:0:50:bass.wav
448,192,84926,1,4,0:0:0:50:
64,192,85076,1,2,0:0:0:50:
320,192,85076,1,2,0:0:0:50:
448,192,85226,1,2,0:0:0:50:
64,192,85226,1,0,0:0:0:50:bass.wav
192,192,85276,1,2,0:0:0:50:
320,192,85326,1,2,0:0:0:50:
448,192,85376,1,4,0:0:0:50:
64,192,85376,1,0,0:0:0:50:bass.wav
192,192,85526,1,2,0:0:0:50:
320,192,85601,1,2,0:0:0:50:
64,192,85676,1,2,0:0:0:50:
448,192,85676,1,0,0:0:0:50:bass.wav
192,192,85751,1,2,0:0:0:50:
448,192,85826,1,0,0:0:0:50:bass.wav
320,192,85826,1,4,0:0:0:50:
64,192,85901,1,2,0:0:0:50:
192,192,85976,1,0,0:0:0:50:
320,192,85976,1,2,0:0:0:50:
448,192,86026,1,2,0:0:0:50:
320,192,86076,1,2,0:0:0:50:
192,192,86126,1,2,0:0:0:50:
64,192,86176,1,2,0:0:0:50:
192,192,86226,1,2,0:0:0:50:
448,192,86276,128,0,86576:0:0:0:50:bass.wav
320,192,86276,1,2,0:0:0:50:
64,192,86276,1,4,0:0:0:50:
192,192,86351,1,2,0:0:0:50:
64,192,86426,1,2,0:0:0:50:
192,192,86501,1,2,0:0:0:50:
64,192,86576,128,0,86876:0:0:0:50:bass.wav
320,192,86576,1,2,0:0:0:50:
192,192,86651,1,2,0:0:0:50:
320,192,86726,1,4,0:0:0:50:
448,192,86726,1,0,0:0:0:50:bass.wav
192,192,86801,1,2,0:0:0:50:
448,192,86876,1,0,0:0:0:50:
320,192,86876,1,2,0:0:0:50:
448,192,87026,1,2,0:0:0:50:
320,192,87101,1,2,0:0:0:50:
192,192,87176,1,0,0:0:0:50:bass.wav
448,192,87176,1,0,0:0:0:50:
64,192,87251,1,0,0:0:0:50:bass.wav
320,192,87251,1,0,0:0:0:50:
448,192,87326,1,0,0:0:0:50:
192,192,87326,1,0,0:0:0:50:bass.wav
64,192,87401,1,0,0:0:0:50:
320,192,87401,1,0,0:0:0:50:bass.wav
448,192,87476,1,0,0:0:0:50:bass.wav
192,192,87476,1,0,0:0:0:50:
64,192,87476,1,4,0:0:0:50:
320,192,87626,1,0,0:0:0:50:
192,192,87701,1,0,0:0:0:50:
64,192,87776,1,0,0:0:0:50:snare.wav
448,192,87776,1,0,0:0:0:50:
320,192,87851,1,0,0:0:0:50:
192,192,87926,1,0,0:0:0:50:
320,192,88076,1,0,0:0:0:50:
64,192,88076,1,0,0:0:0:50:bass.wav
192,192,88226,1,0,0:0:0:50:
320,192,88301,1,0,0:0:0:50:
448,192,88301,1,0,0:0:0:50:
192,192,88376,1,0,0:0:0:50:
64,192,88376,1,0,0:0:0:50:snare.wav
320,192,88526,1,0,0:0:0:50:
192,192,88526,1,0,0:0:0:50:bass.wav
64,192,88676,1,0,0:0:0:50:bass.wav
192,192,88676,1,0,0:0:0:50:
448,192,88676,1,4,0:0:0:50:
320,192,88826,1,0,0:0:0:50:
192,192,88901,1,0,0:0:0:50:
64,192,88976,1,0,0:0:0:50:snare.wav
448,192,88976,1,0,0:0:0:50:
320,192,89051,1,0,0:0:0:50:
192,192,89126,1,0,0:0:0:50:
320,192,89276,1,0,0:0:0:50:
64,192,89276,1,4,0:0:0:50:
448,192,89276,1,0,0:0:0:50:bass.wav
64,192,89426,1,0,0:0:0:50:bass.wav
192,192,89463,1,0,0:0:0:50:bass.wav
320,192,89501,1,0,0:0:0:50:bass.wav
448,192,89538,1,0,0:0:0:50:bass.wav
64,192,89576,1,0,0:0:0:50:bass.wav
192,192,89576,1,0,0:0:0:50:
192,192,89726,1,0,0:0:0:50:
64,192,89726,1,0,0:0:0:50:bass.wav
320,192,89876,1,0,0:0:0:50:
448,192,89876,1,4,0:0:0:50:
64,192,89876,1,0,0:0:0:50:bass.wav
448,192,90026,1,0,0:0:0:50:bass.wav
64,192,90026,1,0,0:0:0:50:
320,192,90101,1,0,0:0:0:50:bass.wav
192,192,90176,1,0,0:0:0:50:bass.wav
64,192,90251,1,0,0:0:0:50:bass.wav
192,192,90326,1,4,0:0:0:50:
320,192,90326,1,0,0:0:0:50:
448,192,90326,1,0,0:0:0:50:bass.wav
64,192,90401,1,0,0:0:0:50:bass.wav
448,192,90476,1,0,0:0:0:50:bass.wav
192,192,90476,1,0,0:0:0:50:
320,192,90551,1,0,0:0:0:50:bass.wav
192,192,90626,1,0,0:0:0:50:bass.wav
64,192,90701,1,0,0:0:0:50:bass.wav
320,192,90776,1,0,0:0:0:50:
448,192,90776,1,0,0:0:0:50:bass.wav
192,192,90776,1,4,0:0:0:50:
64,192,90851,1,0,0:0:0:50:bass.wav
192,192,90926,1,0,0:0:0:50:
448,192,90926,1,0,0:0:0:50:bass.wav
320,192,91001,1,0,0:0:0:50:bass.wav
64,192,91226,1,4,0:0:0:50:
320,192,91226,1,2,0:0:0:50:
448,192,91226,1,0,0:0:0:50:bass.wav
448,192,91376,1,0,0:0:0:50:bass.wav
320,192,91376,1,2,0:0:0:50:
64,192,91376,1,4,0:0:0:50:
192,192,91526,1,2,0:0:0:50:
64,192,91526,1,4,0:0:0:50:
448,192,91526,1,0,0:0:0:50:bass.wav
448,192,91676,1,0,0:0:0:50:bass.wav
192,192,91676,1,2,0:0:0:50:
64,192,91676,1,4,0:0:0:50:
320,192,91826,1,2,0:0:0:50:
192,192,91901,1,2,0:0:0:50:
448,192,91976,1,2,0:0:0:50:
192,192,92126,1,2,0:0:0:50:
64,192,92276,1,2,0:0:0:50:
448,192,92276,1,0,0:0:0:50:
192,192,92426,1,2,0:0:0:50:
448,192,92576,1,2,0:0:0:50:
320,192,92726,128,2,93026:0:0:0:0:
192,192,93026,1,2,0:0:0:50:
64,192,93288,1,2,0:0:0:50:
192,192,93307,1,2,0:0:0:50:
320,192,93326,1,2,0:0:0:50:
64,192,93626,1,2,0:0:0:50:
448,192,93776,1,2,0:0:0:50:
320,192,94076,1,2,0:0:0:50:
64,192,94076,1,2,0:0:0:50:
192,192,94376,1,2,0:0:0:50:
192,192,94638,1,2,0:0:0:50:
320,192,94657,1,2,0:0:0:50:
448,192,94676,1,2,0:0:0:50:
192,192,94976,1,2,0:0:0:50:
448,192,95126,1,2,0:0:0:50:
64,192,95126,1,2,0:0:0:50:
192,192,95426,1,0,0:0:0:50:bass.wav
320,192,95426,1,0,0:0:0:50:
448,192,95576,1,0,0:0:0:50:bass.wav
320,192,95613,1,0,0:0:0:50:bass.wav
192,192,95651,1,0,0:0:0:50:bass.wav
64,192,95688,1,0,0:0:0:50:bass.wav
320,192,95726,1,0,0:0:0:50:bass.wav
192,192,95726,1,0,0:0:0:50:
448,192,95726,128,4,96026:0:0:0:50:
64,192,96026,1,0,0:0:0:50:
320,192,96026,1,0,0:0:0:50:bass.wav
192,192,96101,1,0,0:0:0:50:bass.wav
448,192,96176,128,4,96476:0:0:0:50:
320,192,96176,1,0,0:0:0:50:bass.wav
64,192,96176,1,0,0:0:0:50:
320,192,96476,1,0,0:0:0:50:
64,192,96476,1,0,0:0:0:50:bass.wav
192,192,96626,1,0,0:0:0:50:
64,192,96626,1,0,0:0:0:50:bass.wav
320,192,96776,1,2,0:0:0:50:
448,192,96851,1,2,0:0:0:50:
192,192,96926,1,2,0:0:0:50:
320,192,97001,1,2,0:0:0:50:
64,192,97076,128,4,97676:0:0:0:50:
192,192,97076,1,0,0:0:0:50:
448,192,97076,1,0,0:0:0:50:bass.wav
448,192,97376,1,0,0:0:0:50:LR_Clap kick.wav
320,192,97526,1,4,0:0:0:50:
192,192,97676,1,0,0:0:0:50:
448,192,97676,1,0,0:0:0:50:bass.wav
64,192,97826,1,2,0:0:0:50:
320,192,97976,1,2,0:0:0:50:
192,192,98051,1,2,0:0:0:50:
64,192,98126,1,2,0:0:0:50:
320,192,98201,1,2,0:0:0:50:
192,192,98276,1,0,0:0:0:50:
64,192,98276,1,4,0:0:0:50:
448,192,98276,128,0,98576:0:0:0:50:bass.wav
320,192,98576,1,0,0:0:0:50:LR_Clap kick.wav
64,192,98576,1,0,0:0:0:50:bass.wav
192,192,98726,1,0,0:0:0:50:
64,192,98726,1,0,0:0:0:50:bass.wav
320,192,98726,1,4,0:0:0:50:
320,192,99026,1,0,0:0:0:50:
448,192,99026,1,4,0:0:0:50:
192,192,99026,1,0,0:0:0:50:bass.wav
64,192,99176,1,2,0:0:0:50:
192,192,99251,1,2,0:0:0:50:
320,192,99326,1,2,0:0:0:50:
448,192,99401,1,2,0:0:0:50:
64,192,99476,1,0,0:0:0:50:bass.wav
192,192,99476,1,0,0:0:0:50:
192,192,99626,1,0,0:0:0:50:
64,192,99626,1,0,0:0:0:50:bass.wav
320,192,99776,1,0,0:0:0:50:
64,192,99776,1,0,0:0:0:50:bass.wav
320,192,99926,1,0,0:0:0:50:
64,192,99926,1,0,0:0:0:50:bass.wav
192,192,100001,1,0,0:0:0:50:bass.wav
448,192,100001,1,0,0:0:0:50:
320,192,100076,1,0,0:0:0:50:
64,192,100076,1,0,0:0:0:50:bass.wav
448,192,100226,1,0,0:0:0:50:bass.wav
320,192,100263,1,0,0:0:0:50:bass.wav
192,192,100301,1,0,0:0:0:50:bass.wav
64,192,100338,1,0,0:0:0:50:bass.wav
320,192,100376,1,0,0:0:0:50:
448,192,100376,1,0,0:0:0:50:bass.wav
192,192,100526,1,0,0:0:0:50:bass.wav
64,192,100526,128,0,100976:0:0:0:50:
448,192,100826,1,0,0:0:0:50:
320,192,100826,1,0,0:0:0:50:bass.wav
320,192,100976,1,0,0:0:0:50:bass.wav
448,192,100976,1,0,0:0:0:50:
320,192,101201,1,2,0:0:0:50:
192,192,101276,1,2,0:0:0:50:
320,192,101351,1,2,0:0:0:50:
448,192,101426,1,2,0:0:0:50:
320,192,101501,1,2,0:0:0:50:
448,192,101576,1,0,0:0:0:50:
192,192,101576,1,8,0:0:0:50:clap.wav
64,192,101576,1,0,0:0:0:0:
320,192,101651,1,2,0:0:0:50:
192,192,101726,1,2,0:0:0:50:
64,192,101801,1,2,0:0:0:50:
448,192,101876,1,4,0:0:0:50:
320,192,101876,1,0,0:0:0:50:
192,192,101876,1,0,0:0:0:50:bass.wav
192,192,102026,1,2,0:0:0:50:
448,192,102026,1,2,0:0:0:50:
64,192,102176,1,0,0:0:0:50:bass.wav
320,192,102176,1,0,0:0:0:50:
448,192,102326,128,0,102626:0:0:0:50:
192,192,102326,128,0,102626:0:0:0:50:bass.wav
64,192,102626,128,0,102926:0:0:0:50:bass.wav
320,192,102626,128,0,102926:0:0:0:50:
192,192,102926,1,0,0:0:0:50:bass.wav
448,192,102926,128,0,103226:0:0:0:50:
64,192,103226,1,0,0:0:0:50:bass.wav
192,192,103226,1,0,0:0:0:50:
320,192,103376,1,0,0:0:0:50:bass.wav
448,192,103376,1,0,0:0:0:50:
192,192,103526,1,0,0:0:0:50:bass.wav
64,192,103526,1,0,0:0:0:50:
320,192,103601,1,0,0:0:0:50:bass.wav
448,192,103601,1,0,0:0:0:50:
192,192,103676,1,0,0:0:0:50:bass.wav
64,192,103676,1,0,0:0:0:50:
448,192,103826,1,0,0:0:0:50:bass.wav
320,192,103863,1,0,0:0:0:50:bass.wav
192,192,103901,1,0,0:0:0:50:bass.wav
64,192,103938,1,0,0:0:0:50:bass.wav
320,192,103976,1,0,0:0:0:50:
448,192,103976,1,0,0:0:0:50:bass.wav
320,192,104126,1,0,0:0:0:50:bass.wav
448,192,104126,1,0,0:0:0:50:
64,192,104276,1,4,0:0:0:50:
192,192,104276,1,0,0:0:0:50:
448,192,104276,1,0,0:0:0:50:bass.wav
320,192,104426,1,0,0:0:0:50:
64,192,104576,1,0,0:0:0:50:bass.wav
448,192,104576,1,0,0:0:0:50:
192,192,104651,1,0,0:0:0:50:bass.wav
320,192,104726,1,4,0:0:0:50:
64,192,104726,128,0,105026:0:0:0:50:bass.wav
448,192,105026,128,0,105326:0:0:0:50:
192,192,105026,1,0,0:0:0:50:bass.wav
320,192,105176,1,2,0:0:0:50:
192,192,105251,1,2,0:0:0:50:
320,192,105326,128,4,105626:0:0:0:50:
64,192,105326,128,0,105626:0:0:0:50:bass.wav
192,192,105626,1,0,0:0:0:50:bass.wav
448,192,105626,1,0,0:0:0:50:
192,192,105776,128,4,106076:0:0:0:50:
448,192,105776,128,0,106076:0:0:0:50:bass.wav
64,192,106076,1,0,0:0:0:50:bass.wav
320,192,106076,1,0,0:0:0:50:
192,192,106226,1,0,0:0:0:50:
448,192,106226,1,0,0:0:0:50:bass.wav
64,192,106526,1,0,0:0:0:50:
448,192,106526,128,0,106826:0:0:0:50:bass.wav
192,192,106676,1,2,0:0:0:50:
320,192,106751,1,2,0:0:0:50:
64,192,106826,1,0,0:0:0:50:
192,192,106826,1,0,0:0:0:50:bass.wav
320,192,106901,1,0,0:0:0:50:bass.wav
448,192,106901,1,0,0:0:0:50:
192,192,106976,1,0,0:0:0:50:snare.wav
64,192,106976,1,0,0:0:0:50:
320,192,107126,1,2,0:0:0:50:
192,192,107276,1,0,0:0:0:50:
64,192,107276,1,0,0:0:0:50:bass.wav
320,192,107426,1,2,0:0:0:50:
192,192,107576,1,2,0:0:0:50:
448,192,107576,1,0,0:0:0:50:snare.wav
64,192,107651,1,2,0:0:0:50:
192,192,107726,1,2,0:0:0:50:
320,192,107801,1,2,0:0:0:50:
192,192,107876,1,0,0:0:0:50:
64,192,107876,1,0,0:0:0:50:bass.wav
448,192,107876,1,4,0:0:0:50:
448,192,108026,1,0,0:0:0:50:bass.wav
320,192,108063,1,0,0:0:0:50:bass.wav
192,192,108101,1,0,0:0:0:50:bass.wav
64,192,108138,1,0,0:0:0:50:bass.wav
320,192,108176,1,0,0:0:0:50:bass.wav
448,192,108176,1,0,0:0:0:50:
64,192,108326,1,4,0:0:0:50:
448,192,108326,1,0,0:0:0:50:bass.wav
192,192,108326,1,0,0:0:0:50:
448,192,108626,128,4,108926:0:0:0:50:
320,192,108626,1,0,0:0:0:50:
192,192,108626,1,0,0:0:0:50:bass.wav
64,192,108926,1,0,0:0:0:50:bass.wav
192,192,108926,1,0,0:0:0:50:
320,192,109076,1,0,0:0:0:50:bass.wav
448,192,109076,1,0,0:0:0:50:
64,192,109076,128,4,109676:0:0:0:50:
192,192,109526,1,2,0:0:0:50:
320,192,109601,1,2,0:0:0:50:
448,192,109676,128,4,110126:0:0:0:50:
192,192,109676,1,2,0:0:0:50:
64,192,110126,1,0,0:0:0:50:bass.wav
192,192,110126,1,0,0:0:0:50:
320,192,110126,1,4,0:0:0:50:
64,192,110426,1,0,0:0:0:50:
320,192,110426,1,0,0:0:0:50:bass.wav
448,192,110426,1,0,0:0:0:50:
320,192,110576,1,0,0:0:0:50:bass.wav
64,192,110576,1,0,0:0:0:50:
448,192,110576,1,0,0:0:0:50:
192,192,110726,1,0,0:0:0:50:
448,192,110726,1,0,0:0:0:50:bass.wav
64,192,110726,1,0,0:0:0:50:
448,192,110876,1,0,0:0:0:50:bass.wav
192,192,110876,1,0,0:0:0:50:
64,192,110876,1,4,0:0:0:50:
448,192,111101,1,4,0:0:0:50:
320,192,111101,1,0,0:0:0:50:clap.wav
64,192,111101,1,0,0:0:0:50:bass.wav
64,192,111326,1,0,0:0:0:50:bass.wav
192,192,111326,1,0,0:0:0:50:
448,192,111326,1,0,0:0:0:50:
192,192,111476,1,0,0:0:0:50:
64,192,111476,128,0,113876:0:0:0:50:bass.wav
448,192,111476,1,4,0:0:0:50:
192,192,111776,1,2,0:0:0:50:
448,192,111926,1,2,0:0:0:50:
320,192,112076,1,2,0:0:0:50:LR_Clap kick.wav
192,192,112376,1,2,0:0:0:50:
448,192,112526,1,2,0:0:0:50:
320,192,112676,1,2,0:0:0:50:
192,192,112976,1,2,0:0:0:50:
448,192,113126,1,2,0:0:0:50:
320,192,113276,1,2,0:0:0:50:
192,192,113426,1,0,0:0:0:0:
320,192,113501,1,0,0:0:0:0:
448,192,113576,1,2,0:0:0:0:
192,192,113651,1,0,0:0:0:0:
320,192,113726,1,2,0:0:0:0:
448,192,113801,1,0,0:0:0:0:
192,192,113876,1,0,0:0:0:50:bass.wav
320,192,113876,1,0,0:0:0:50:
192,192,114026,1,0,0:0:0:50:
64,192,114026,1,0,0:0:0:50:bass.wav
448,192,114176,1,0,0:0:0:50:bass.wav
320,192,114176,1,4,0:0:0:50:
192,192,114326,1,0,0:0:0:50:
64,192,114326,1,0,0:0:0:50:bass.wav
320,192,114476,1,4,0:0:0:50:
192,192,114476,1,0,0:0:0:50:bass.wav
448,192,114626,1,0,0:0:0:50:
320,192,114626,1,0,0:0:0:50:bass.wav
192,192,114701,1,0,0:0:0:0:
64,192,114776,1,4,0:0:0:50:
448,192,114776,1,0,0:0:0:50:bass.wav
320,192,114851,1,0,0:0:0:50:
64,192,114926,1,0,0:0:0:50:bass.wav
448,192,114926,1,0,0:0:0:50:
320,192,115001,1,0,0:0:0:50:bass.wav
448,192,115076,1,0,0:0:0:50:
64,192,115076,1,0,0:0:0:50:bass.wav
320,192,115151,1,0,0:0:0:50:bass.wav
64,192,115226,1,0,0:0:0:50:bass.wav
448,192,115226,1,0,0:0:0:50:
320,192,115301,1,0,0:0:0:50:bass.wav
448,192,115376,1,0,0:0:0:50:
64,192,115376,1,0,0:0:0:50:bass.wav
320,192,115451,1,0,0:0:0:50:bass.wav
448,192,115526,1,0,0:0:0:50:
64,192,115526,1,0,0:0:0:50:bass.wav
192,192,115601,1,0,0:0:0:50:bass.wav
64,192,115676,1,0,0:0:0:50:bass.wav
448,192,115676,1,4,0:0:0:50:
320,192,115713,1,0,0:0:0:50:
192,192,115751,1,0,0:0:0:50:
64,192,115788,1,0,0:0:0:50:
448,192,115826,1,0,0:0:0:50:
320,192,115863,1,0,0:0:0:50:
192,192,115901,1,0,0:0:0:50:
64,192,115938,1,0,0:0:0:50:
448,192,115976,1,0,0:0:0:50:
320,192,116013,1,0,0:0:0:50:
192,192,116051,1,0,0:0:0:50:
64,192,116088,1,0,0:0:0:50:
320,192,116126,1,0,0:0:0:50:
448,192,116126,1,0,0:0:0:50:bass.wav
64,192,116276,1,0,0:0:0:50:bass.wav
192,192,116276,1,0,0:0:0:50:
448,192,116276,1,4,0:0:0:50:
64,192,116426,1,0,0:0:0:50:bass.wav
448,192,116426,1,4,0:0:0:50:
192,192,116426,1,0,0:0:0:50:
