osu file format v14

[General]
AudioFilename: Wish upon Twin Stars.mp3
AudioLeadIn: 0
PreviewTime: 51480
Countdown: 0
SampleSet: Soft
StackLeniency: 0.7
Mode: 0
LetterboxInBreaks: 0
WidescreenStoryboard: 0

[Editor]
DistanceSpacing: 0.7
BeatDivisor: 4
GridSize: 32
TimelineZoom: 2.5

[Metadata]
Title:Wish upon Twin Stars
TitleUnicode:Wish upon Twin Stars
Artist:xi
ArtistUnicode:xi
Creator:Crier
Version:WISH
Source:SOUND VOLTEX II -infinite infection-
Tags:SDVX
BeatmapID:775806
BeatmapSetID:352046

[Difficulty]
HPDrainRate:7
CircleSize:4
OverallDifficulty:8
ApproachRate:9
SliderMultiplier:1.6
SliderTickRate:1

[Events]
//Background and Video events
0,0,"bg.jpg",0,0
//Break Periods
2,75680,80880
//Storyboard Layer 0 (Background)
//Storyboard Layer 1 (Fail)
//Storyboard Layer 2 (Pass)
//Storyboard Layer 3 (Foreground)
//Storyboard Sound Samples

[TimingPoints]
-120,300,4,2,1,65,1,0
630,-125,4,2,1,35,0,0
4980,-83.3333333333333,4,1,2,60,0,0
5130,-83.3333333333333,4,2,2,60,0,0
5280,-100,4,2,1,60,0,0
9630,-100,4,1,2,60,0,0
9705,-100,4,2,1,60,0,0
10380,-100,4,2,3,60,0,0
10455,-100,4,2,1,60,0,0
13380,-125,4,2,1,40,0,0
20280,-100,4,2,1,50,0,0
22680,-100,4,2,1,50,0,0
25980,-125,4,2,1,50,0,0
26580,-100,4,2,1,50,0,0
29880,-83.3333333333333,4,2,1,50,0,0
31280,-83.3333333333333,4,2,2,50,0,0
31330,-83.3333333333333,4,2,1,50,0,0
32280,-100,4,2,1,50,0,0
33780,-125,4,2,1,50,0,0
34680,-100,4,2,1,50,0,0
38580,-125,4,2,1,50,0,0
39480,-100,4,2,1,50,0,0
41280,-100,4,1,2,50,0,0
41430,-166.666666666667,4,2,1,50,0,0
41730,-100,4,2,1,50,0,0
43680,-100,4,1,2,50,0,0
43755,-100,4,2,1,50,0,0
46080,-100,4,1,2,50,0,0
46230,-166.666666666667,4,2,1,50,0,0
46503,-100,4,2,1,50,0,0
49980,-100,4,1,2,50,0,0
50055,-100,4,2,1,50,0,0
50355,-100,4,2,1,5,0,0
50430,-100,4,2,1,60,0,0
51180,-100,4,2,3,60,0,0
51480,-100,4,2,1,40,0,0
52680,-100,4,2,1,50,0,0
53880,-90.9090909090909,4,2,1,60,0,1
63180,-166.666666666667,4,2,3,60,0,0
63480,-90.9090909090909,4,2,1,60,0,1
70680,-125,4,2,1,60,0,0
82674,-90.9090909090909,4,2,1,60,0,0
91155,-90.9090909090909,4,2,1,5,0,0
91230,-90.9090909090909,4,2,1,70,0,0
91830,-90.9090909090909,4,2,5,15,0,0
91905,-90.9090909090909,4,2,1,40,0,0
92280,-125,4,2,1,30,0,0
94680,-125,4,1,2,50,0,0
94755,-125,4,2,1,30,0,0
95130,-100,4,2,1,40,0,0
95280,-83.3333333333333,4,2,1,60,0,0
95730,-83.3333333333333,4,2,1,60,0,1
96030,-90.9090909090909,4,2,1,60,0,1
100530,-90.9090909090909,4,1,2,60,0,1
100605,-90.9090909090909,4,2,1,60,0,1
101580,-142.857142857143,4,2,3,60,0,0
101880,-90.9090909090909,4,2,1,60,0,1
109080,-125,4,2,1,60,0,0
110430,-90.9090909090909,4,2,1,50,0,0
110880,-90.9090909090909,4,1,2,50,0,0
110955,-90.9090909090909,4,2,1,50,0,0
113880,-90.9090909090909,4,2,1,60,0,0

[Colours]
Combo1 : 209,211,207
Combo2 : 139,233,250
Combo3 : 245,204,107

[HitObjects]
110,99,630,6,0,P|68:87|28:80,2,64
182,159,1080,1,2,0:0:0:0:
199,71,1230,1,0,0:0:0:0:
269,133,1380,1,0,0:0:0:0:
96,191,1530,5,2,0:0:0:0:
219,331,1830,1,2,0:0:0:0:
399,218,2130,2,0,P|335:228|272:237,1,128,2|0,0:0|0:0,0:0:0:0:
187,249,2580,1,2,0:0:0:0:
299,329,2880,1,2,0:0:0:0:
376,132,3180,1,2,0:0:0:0:
476,249,3480,6,0,P|389:234|329:222,1,128,2|0,0:0|0:0,0:0:0:0:
289,158,3930,2,0,P|202:173|142:185,1,128,2|0,0:0|0:0,0:0:0:0:
75,203,4380,1,2,0:0:0:0:
75,203,4980,6,0,P|88:248|90:296,1,95.9999970703126,4|0,0:0|0:0,0:0:0:0:
184,216,5280,2,0,P|193:154|208:67,2,120
217,308,5880,6,0,P|253:324|292:330,1,80,12|0,0:0|0:0,0:0:0:0:
372,345,6105,1,0,0:0:0:0:
385,354,6180,2,0,P|395:315|402:276,1,80,8|0,0:0|0:0,0:0:0:0:
416,181,6480,2,0,P|357:195|298:205,2,120,8|0|0,0:0|0:0|0:0,0:0:0:0:
512,156,7080,1,12,0:0:0:0:
386,81,7230,1,0,0:0:0:0:
487,55,7380,1,8,0:0:0:0:
416,181,7530,2,0,P|409:220|407:260,1,80,0|8,0:0|0:0,0:0:0:0:
325,319,7830,2,0,L|333:358,2,40,8|8|8,0:0|0:0|0:0,0:0:0:0:
303,219,8130,1,8,0:0:0:0:
42,266,8280,5,12,0:0:0:0:
200,315,8430,1,8,0:0:0:0:
102,180,8580,1,8,0:0:0:0:
42,303,8730,5,12,0:0:0:0:
185,224,8880,1,8,0:0:0:0:
41,124,9030,1,8,0:0:0:0:
120,295,9180,5,12,0:0:0:0:
191,37,9330,1,8,0:0:0:0:
437,323,9630,5,12,0:0:0:0:
341,169,9780,1,8,0:0:0:0:
311,293,9930,1,8,0:0:0:0:
469,198,10080,1,8,0:0:0:0:
123,247,10380,5,4,0:0:0:0:
256,192,10680,12,0,13080,0:0:0:0:
63,57,13380,5,0,0:0:0:0:
65,70,13455,1,0,0:0:0:0:
67,83,13530,1,0,0:0:0:0:
69,96,13605,1,0,0:0:0:0:
71,108,13681,2,0,P|154:77|207:148,1,192,2|0,0:0|0:0,0:0:0:0:
131,155,14580,5,2,0:0:0:0:
312,321,14880,1,2,0:0:0:0:
249,257,15030,2,0,P|256:196|264:129,1,128,2|0,0:0|0:0,0:0:0:0:
276,50,15480,1,2,0:0:0:0:
479,216,15780,5,0,0:0:0:0:
465,217,15855,1,0,0:0:0:0:
450,220,15930,1,0,0:0:0:0:
432,224,16005,1,0,0:0:0:0:
415,229,16080,1,2,0:0:0:0:
334,190,16230,2,0,P|272:172|208:164,1,128,2|0,0:0|0:0,0:0:0:0:
50,304,16980,5,2,0:0:0:0:
55,324,17130,1,0,0:0:0:0:
169,248,17280,1,2,0:0:0:0:
163,270,17430,1,0,0:0:0:0:
11,170,17580,1,2,0:0:0:0:
16,192,17730,1,0,0:0:0:0:
227,175,17880,6,0,P|165:156|102:146,1,128,2|0,0:0|0:0,0:0:0:0:
193,71,18330,2,0,P|256:62|318:46,1,128,2|0,0:0|0:0,0:0:0:0:
311,139,18780,2,0,P|319:187|327:226,1,64,2|0,0:0|0:0,0:0:0:0:
389,320,19080,2,0,P|343:302|305:290,1,64,2|0,0:0|0:0,0:0:0:0:
194,293,19380,2,0,P|231:262|261:235,1,64,2|0,0:0|0:0,0:0:0:0:
403,217,19680,1,2,0:0:0:0:
311,139,19830,1,2,0:0:0:0:
309,123,19905,1,2,0:0:0:0:
307,107,19980,1,2,0:0:0:0:
305,91,20055,1,2,0:0:0:0:
303,75,20130,1,0,0:0:0:0:
301,59,20205,1,0,0:0:0:0:
298,39,20280,6,0,P|241:55|181:60,1,120,12|8,0:0|0:0,0:0:0:0:
148,48,20580,1,8,0:0:0:0:
11,124,20730,2,0,P|87:119|133:181,1,160,12|8,0:0|0:0,0:0:0:0:
126,307,21180,1,8,0:0:0:0:
141,311,21255,1,8,0:0:0:0:
156,315,21330,1,8,0:0:0:0:
171,319,21405,1,8,0:0:0:0:
186,322,21480,6,0,P|224:312|264:307,1,80,12|8,0:0|0:0,0:0:0:0:
419,240,21780,2,0,P|379:235|340:225,1,80,12|0,0:0|0:0,0:0:0:0:
340,225,22005,1,0,0:0:0:0:
340,225,22080,2,0,P|332:165|326:105,2,120,12|8|8,0:0|0:0|0:0,0:0:0:0:
351,324,22680,5,8,0:0:0:0:
423,152,22830,1,0,0:0:0:0:
244,177,22980,1,0,0:0:0:0:
228,172,23055,1,0,0:0:0:0:
212,167,23130,1,0,0:0:0:0:
196,162,23205,1,0,0:0:0:0:
180,157,23280,6,0,P|110:168|71:169,1,80,12|8,0:0|0:0,0:0:0:0:
76,191,23505,2,0,L|9:176,1,40,8|8,0:0|0:0,0:0:0:0:
177,274,23730,2,0,P|98:286|19:300,1,160,12|8,0:0|0:0,0:0:0:0:
214,358,24180,1,0,0:0:0:0:
249,338,24255,1,0,0:0:0:0:
272,305,24330,1,8,0:0:0:0:
273,265,24405,1,0,0:0:0:0:
255,229,24480,6,0,P|247:189|241:150,1,80,12|8,0:0|0:0,0:0:0:0:
303,90,24705,1,8,0:0:0:0:
303,90,24780,2,0,P|340:102|378:117,1,80,8|8,0:0|0:0,0:0:0:0:
409,204,25080,6,0,P|376:232|347:255,1,80,8|0,0:0|0:0,0:0:0:0:
468,137,25380,1,0,0:0:0:0:
426,325,25530,2,0,P|354:290|258:294,1,160,12|8,0:0|0:0,0:0:0:0:
171,345,25980,6,0,B|38:319|38:319|83:286,1,192,12|8,0:0|0:0,0:0:0:0:
162,174,26580,6,0,P|166:213|172:253,1,80
173,254,26805,1,0,0:0:0:0:
173,254,26880,1,8,0:0:0:0:
240,101,27030,1,8,0:0:0:0:
75,146,27180,1,8,0:0:0:0:
72,125,27255,1,8,0:0:0:0:
69,104,27330,1,8,0:0:0:0:
67,83,27405,1,8,0:0:0:0:
64,62,27480,5,12,0:0:0:0:
0,202,27630,1,0,0:0:0:0:
162,174,27780,1,8,0:0:0:0:
83,245,27930,6,0,P|71:283|65:323,1,80,0|8,0:0|0:0,0:0:0:0:
263,363,28230,1,0,0:0:0:0:
166,296,28380,1,8,0:0:0:0:
240,101,28530,1,0,0:0:0:0:
349,163,28680,6,0,P|311:178|272:187,1,80,12|0,0:0|0:0,0:0:0:0:
374,61,28980,1,8,0:0:0:0:
353,263,29130,2,0,P|429:238|507:222,1,160,0|8,0:0|0:0,0:0:0:0:
506,218,29505,1,8,0:0:0:0:
504,214,29580,1,8,0:0:0:0:
503,210,29655,1,8,0:0:0:0:
502,206,29730,1,8,0:0:0:0:
501,202,29805,1,8,0:0:0:0:
499,197,29880,6,0,P|483:276|472:355,1,143.999995605469,12|0,0:0|0:0,0:0:0:0:
394,354,30180,2,0,P|325:338|252:328,1,143.999995605469,4|0,0:0|0:0,0:0:0:0:
175,335,30480,5,0,0:0:0:0:
286,193,30630,1,0,0:0:0:0:
101,130,30780,2,0,L|115:175,1,47.9999985351563,8|8,0:0|0:0,0:0:0:0:
150,253,30930,2,0,P|159:181|174:105,1,143.999995605469,12|0,0:0|0:0,0:0:0:0:
264,78,31280,6,0,L|294:88,1,31.9999990234375,4|0,0:1|0:0,0:0:0:0:
469,43,31480,2,0,L|444:63,1,31.9999990234375,10|0,0:0|0:0,0:0:0:0:
402,227,31680,2,0,L|395:195,1,31.9999990234375,10|0,0:0|0:0,0:0:0:0:
355,0,31880,2,0,L|361:31,1,31.9999990234375,10|0,0:0|0:0,0:0:0:0:
286,193,32080,2,0,L|310:172,1,31.9999990234375,10|0,0:0|0:0,0:0:0:0:
500,151,32280,6,0,P|448:135|360:118,1,120,12|8,0:0|0:0,0:0:0:0:
302,68,32580,2,0,L|263:77,1,40,8|8,0:0|0:0,0:0:0:0:
170,68,32730,2,0,P|184:126|196:185,1,120,12|0,0:0|0:0,0:0:0:0:
116,232,33030,2,0,P|112:251|108:271,1,40
63,158,33180,5,10,0:0:0:0:
63,158,33780,6,0,P|122:149|210:146,1,128,2|0,0:0|0:0,0:0:0:0:
266,150,34180,2,0,P|287:152|312:158,1,42.6666666666667
379,186,34380,2,0,P|409:196|439:213,1,64
494,37,34680,6,0,P|454:44|415:53,1,80,12|0,0:0|0:0,0:0:0:0:
415,53,34905,1,0,0:0:0:0:
415,53,34980,1,8,0:0:0:0:
301,78,35130,2,0,P|242:67|182:60,1,120,8|0,0:0|0:0,0:0:0:0:
157,45,35430,2,0,P|154:64|151:89,1,40
133,200,35580,5,12,0:0:0:0:
133,200,36030,5,2,0:0:0:0:
251,181,36180,1,2,0:0:0:0:
259,207,36255,1,2,0:0:0:0:
265,234,36330,1,2,0:0:0:0:
267,261,36405,1,2,0:0:0:0:
263,288,36480,6,0,P|199:300|152:311,1,80,14|0,0:0|0:0,0:0:0:0:
152,329,36705,2,0,L|107:318,3,40,8|8|8|8,0:0|0:0|0:0|0:0,0:0:0:0:
30,175,37080,6,0,P|43:239|49:277,1,80,12|0,0:0|0:0,0:0:0:0:
45,253,37305,1,8,0:0:0:0:
45,253,37380,1,8,0:0:0:0:
182,129,37530,2,0,P|192:90|199:50,1,80,12|0,0:0|0:0,0:0:0:0:
199,50,37755,1,0,0:0:0:0:
199,50,37830,1,8,0:0:0:0:
339,187,37980,5,12,0:0:0:0:
339,187,38580,6,0,P|394:177|486:163,1,128,2|2,0:0|0:0,0:0:0:0:
464,246,38955,2,0,L|494:256,2,32,2|2|2,0:0|0:0|0:0,0:0:0:0:
384,264,39180,2,0,L|390:295|396:326,1,64,4|8,0:0|0:0,0:0:0:0:
260,161,39480,6,0,P|253:200|245:250,1,80,12|0,0:0|0:0,0:0:0:0:
247,239,39705,1,0,0:0:0:0:
247,239,39780,1,8,0:0:0:0:
192,96,39930,1,12,0:0:0:0:
344,121,40080,2,0,P|383:112|420:99,1,80,0|8,0:0|0:0,0:0:0:0:
164,184,40380,2,0,P|124:174|7:145,1,160,12|0,0:0|0:0,0:0:0:0:
41,53,40830,5,8,0:0:0:0:
135,265,40980,1,8,0:0:0:0:
8,145,41130,2,0,L|65:135,1,40,8|8,0:0|0:0,0:0:0:0:
134,125,41280,5,12,0:0:0:0:
52,305,41430,2,0,P|45:270|34:236,1,71.9999978027344
49,336,41730,6,0,P|126:318|206:314,1,160,12|8,0:0|0:0,0:0:0:0:
362,345,42180,1,8,0:0:0:0:
286,265,42330,1,0,0:0:0:0:
283,245,42405,1,0,0:0:0:0:
279,223,42480,1,8,0:0:0:0:
379,227,42630,1,0,0:0:0:0:
376,207,42705,1,0,0:0:0:0:
372,185,42780,1,8,0:0:0:0:
475,199,42930,1,0,0:0:0:0:
472,179,43005,1,0,0:0:0:0:
468,157,43080,1,8,0:0:0:0:
454,298,43230,5,0,0:0:0:0:
286,265,43380,1,8,0:0:0:0:
105,242,43530,2,0,L|162:223,1,40
224,203,43680,5,12,0:0:0:0:
42,340,43830,1,8,0:0:0:0:
42,340,44130,6,0,P|32:280|-6:165,1,160,12|8,0:0|0:0,0:0:0:0:
2,185,44505,1,8,0:0:0:0:
2,185,44580,1,8,0:0:0:0:
115,138,44730,2,0,L|168:156,2,40,0|0|8,0:0|0:0|0:0,0:0:0:0:
13,58,45030,2,0,L|-1:14,2,40,0|0|8,0:0|0:0|0:0,0:0:0:0:
2,185,45330,1,0,0:0:0:0:
112,36,45480,5,8,0:0:0:0:
278,129,45630,2,0,L|219:137,1,40,8|8,0:0|0:0,0:0:0:0:
163,146,45780,2,0,L|270:173,1,80,8|8,0:0|0:0,0:0:0:0:
353,199,46080,5,12,0:0:0:0:
174,253,46230,2,0,P|145:275|125:308,1,71.9999978027344
114,337,46530,6,0,P|105:276|79:166,1,160,12|0,0:0|0:0,0:0:0:0:
142,104,46980,2,0,P|185:115|236:129,1,80
219,124,47205,1,0,0:0:0:0:
219,124,47280,1,8,0:0:0:0:
303,170,47430,2,0,L|354:149,2,40
221,222,47730,2,0,L|226:271,1,40
191,328,47880,6,0,P|263:296|342:300,1,160,12|0,0:0|0:0,0:0:0:0:
431,350,48330,1,0,0:0:0:0:
493,272,48480,2,0,P|499:222|506:169,1,80,8|8,0:0|0:0,0:0:0:0:
502,192,48705,1,8,0:0:0:0:
502,192,48780,1,8,0:0:0:0:
510,95,48930,1,8,0:0:0:0:
329,271,49080,5,12,0:0:0:0:
427,144,49230,1,8,0:0:0:0:
427,144,49305,1,8,0:0:0:0:
427,144,49380,1,8,0:0:0:0:
237,28,49530,5,12,0:0:0:0:
322,182,49680,1,8,0:0:0:0:
324,159,49755,1,8,0:0:0:0:
328,135,49830,1,8,0:0:0:0:
333,111,49905,1,8,0:0:0:0:
335,88,49980,2,0,L|388:73,1,40,12|8,0:0|0:0,0:0:0:0:
231,123,50130,1,8,0:0:0:0:
219,108,50205,2,0,P|182:96|141:87,1,80,8|0,0:0|0:0,0:0:0:0:
57,88,50430,5,12,0:0:0:0:
240,206,50580,1,8,0:0:0:0:
58,306,50730,1,8,0:0:0:0:
117,198,50880,1,8,0:0:0:0:
430,336,51180,6,0,P|373:319|312:310,1,120,4|0,0:0|0:0,0:0:0:0:
231,316,51480,2,0,P|211:317|191:320,3,40,2|0|0|0,0:0|0:0|0:0|0:0,0:0:0:0:
263,238,51780,2,0,P|252:221|239:205,3,40,2|0|0|0,0:0|0:0|0:0|0:0,0:0:0:0:
346,230,52080,2,0,P|355:212|362:193,3,40,2|0|0|0,0:0|0:0|0:0|0:0,0:0:0:0:
452,203,52380,2,0,P|451:182|447:163,3,40,2|0|0|0,0:0|0:0|0:0|0:0,0:0:0:0:
383,66,52680,6,0,P|382:86|378:105,3,40,2|0|0|0,0:0|0:0|0:0|0:0,0:0:0:0:
292,143,52980,2,0,P|289:123|285:103,3,40,2|0|0|0,0:0|0:0|0:0|0:0,0:0:0:0:
221,45,53280,1,2,0:0:0:0:
182,217,53430,5,2,0:0:0:0:
41,123,53580,1,2,0:0:0:0:
160,102,53730,1,2,0:0:0:0:
66,238,53880,6,0,P|52:299|50:360,1,88.000002685547,12|0,0:0|0:0,0:0:0:0:
51,325,54105,1,0,0:0:0:0:
51,325,54180,1,8,0:0:0:0:
144,359,54330,2,0,P|187:350|230:343,1,88.000002685547,8|0,0:0|0:0,0:0:0:0:
340,356,54630,2,0,P|328:313|317:270,1,88.000002685547,8|0,0:0|0:0,0:0:0:0:
458,113,54930,6,0,P|432:212|425:309,1,176.000005371094,8|0,0:0|0:0,0:0:0:0:
265,159,55380,1,8,0:0:0:0:
331,82,55530,2,0,P|326:60|321:39,2,44.0000013427735,8|8|8,0:0|0:0|0:0,0:0:0:0:
361,179,55830,1,8,0:0:0:0:
361,179,55905,1,8,0:0:0:0:
361,179,55980,1,8,0:0:0:0:
239,287,56130,1,8,0:0:0:0:
105,194,56280,6,0,P|94:115|133:30,1,176.000005371094,4|8,0:0|0:0,0:0:0:0:
134,30,56655,1,8,0:0:0:0:
134,30,56730,2,0,P|177:40|221:50,1,88.000002685547,8|0,0:0|0:0,0:0:0:0:
387,91,57030,2,0,P|345:100|300:113,1,88.000002685547,8|0,0:0|0:0,0:0:0:0:
188,212,57330,6,0,P|273:231|360:259,1,176.000005371094,12|8,0:0|0:0,0:0:0:0:
383,265,57705,1,8,0:0:0:0:
406,272,57780,1,8,0:0:0:0:
437,177,57930,1,0,0:0:0:0:
383,367,58080,1,8,0:0:0:0:
501,306,58230,1,8,0:0:0:0:
311,241,58380,1,2,0:0:0:0:
307,223,58455,1,2,0:0:0:0:
304,205,58530,1,2,0:0:0:0:
301,187,58605,1,2,0:0:0:0:
298,168,58680,6,0,P|299:128|309:81,1,88.000002685547,12|0,0:0|0:0,0:0:0:0:
214,115,58980,1,8,0:0:0:0:
118,158,59130,2,0,P|153:179|187:211,1,88.000002685547,0|8,0:0|0:0,0:0:0:0:
76,349,59430,2,0,P|40:327|6:295,1,88.000002685547,0|8,0:0|0:0,0:0:0:0:
28,93,59730,5,2,0:0:0:0:
28,93,59805,1,2,0:0:0:0:
28,93,59880,1,14,0:0:0:0:
101,255,60030,1,0,0:0:0:0:
214,115,60180,1,8,0:0:0:0:
24,194,60330,6,0,L|110:212|196:230,1,176.000005371094,8|12,0:0|0:0,0:0:0:0:
295,255,60780,1,0,0:0:0:0:
345,48,60930,1,2,0:0:0:0:
345,48,61005,1,2,0:0:0:0:
345,48,61080,5,10,0:0:0:0:
425,233,61230,1,8,0:0:0:0:
241,130,61380,1,8,0:0:0:0:
458,120,61530,2,0,L|416:134,1,44.0000013427735,8|8,0:0|0:0,0:0:0:0:
333,165,61680,5,8,0:0:0:0:
369,298,61830,1,8,0:0:0:0:
373,319,61905,1,8,0:0:0:0:
378,341,61980,1,8,0:0:0:0:
228,304,62130,2,8,B|185:288|144:308|144:308|101:326|57:302,1,176.000005371094,12|8,0:0|0:0,0:0:0:0:
13,187,62580,1,8,0:0:0:0:
107,233,62730,5,2,0:0:0:0:
123,202,62805,1,2,0:0:0:0:
124,166,62880,1,2,0:0:0:0:
111,132,62955,1,2,0:0:0:0:
104,97,63030,1,2,0:0:0:0:
112,62,63105,1,2,0:0:0:0:
136,30,63180,6,0,P|171:18|206:17,1,71.9999978027344,6|0,0:0|0:0,0:0:0:0:
191,93,63480,6,0,P|200:136|211:178,1,88.000002685547,12|0,0:0|0:0,0:0:0:0:
410,221,63780,1,8,0:0:0:0:
299,333,63930,2,8,P|305:245|319:158,1,176.000005371094
347,44,64380,1,0,0:0:0:0:
511,111,64530,6,0,P|469:122|425:134,1,88.000002685547,8|0,0:0|0:0,0:0:0:0:
204,207,64830,1,8,0:0:0:0:
204,207,64980,2,0,P|270:225|317:241,1,88.000002685547,8|8,0:0|0:0,0:0:0:0:
312,239,65205,1,8,0:0:0:0:
334,247,65280,1,8,0:0:0:0:
275,139,65430,2,0,L|269:80,2,44.0000013427735,8|8|8,0:0|0:0|0:0,0:0:0:0:
299,333,65730,1,8,0:0:0:0:
201,295,65880,6,0,P|114:290|39:339,1,176.000005371094,12|8,0:0|0:0,0:0:0:0:
41,336,66255,1,8,0:0:0:0:
41,336,66330,2,0,P|24:267|17:222,1,88.000002685547,8|0,0:0|0:0,0:0:0:0:
8,148,66630,1,8,0:0:0:0:
185,48,66780,2,0,L|173:103,1,44.0000013427735,8|0,0:0|0:0,0:0:0:0:
108,145,66930,6,0,P|188:126|231:196,1,176.000005371094,12|8,0:0|0:0,0:0:0:0:
226,216,67305,1,8,0:0:0:0:
217,234,67380,2,0,P|216:277|222:321,1,88.000002685547,8|0,0:0|0:0,0:0:0:0:
312,361,67680,1,8,0:0:0:0:
356,180,67830,1,8,0:0:0:0:
478,312,67980,1,0,0:0:0:0:
376,285,68130,5,12,0:0:0:0:
452,119,68280,1,2,0:0:0:0:
452,119,68355,1,2,0:0:0:0:
452,119,68430,2,0,P|467:184|471:233,2,88.000002685547,10|10|2,0:0|0:0|0:0,0:0:0:0:
410,26,68880,1,8,0:0:0:0:
205,122,69030,5,0,0:0:0:0:
382,257,69180,1,2,0:0:0:0:
382,257,69255,1,2,0:0:0:0:
382,257,69330,1,2,0:0:0:0:
273,321,69480,2,0,P|219:309|173:308,1,88.000002685547,14|10,0:0|0:0,0:0:0:0:
162,311,69705,1,10,0:0:0:0:
137,318,69780,1,10,0:0:0:0:
0,165,69930,2,0,P|65:220|150:211,1,176.000005371094,0|12,0:0|0:0,0:0:0:0:
205,122,70380,1,0,0:0:0:0:
273,321,70530,1,8,0:0:0:0:
432,249,70680,6,0,P|337:231|242:216,1,192,12|0,0:0|0:0,0:0:0:0:
153,175,71280,2,0,P|140:237|132:301,1,128
205,358,71730,1,12,0:0:0:0:
301,60,72030,5,8,0:0:0:0:
415,130,72180,1,8,0:0:0:0:
296,192,72330,1,8,0:0:0:0:
396,28,72480,5,8,0:0:0:0:
394,225,72630,1,0,0:0:0:0:
394,225,72705,1,8,0:0:0:0:
394,225,72780,1,8,0:0:0:0:
223,125,72930,1,8,0:0:0:0:
340,127,73080,5,12,0:0:0:0:
256,192,73155,12,0,75480,0:0:0:0:
261,261,81480,6,0,B|243:296|243:296|216:300|216:300|193:334|133:336|101:314|90:273,1,224
80,245,82080,1,0,0:0:0:0:
86,210,82155,1,0,0:0:0:0:
92,175,82230,1,0,0:0:0:0:
99,140,82305,1,0,0:0:0:0:
162,92,82380,6,0,L|201:105,5,21.3333333333333,2|2|2|2|2|2,0:0|0:0|0:0|0:0|0:0|0:0,0:0:0:0:
212,112,82680,2,0,P|254:101|305:91,1,88.000002685547,14|2,0:0|0:0,0:0:0:0:
440,78,82980,2,0,L|429:120,1,44.0000013427735,2|2,0:0|0:0,0:0:0:0:
368,187,83130,5,14,0:0:0:0:
371,204,83205,1,2,0:0:0:0:
374,221,83280,1,2,0:0:0:0:
377,238,83355,1,2,0:0:0:0:
380,255,83430,1,10,0:0:0:0:
383,272,83505,1,2,0:0:0:0:
386,289,83580,2,0,L|397:347,3,44.0000013427735,14|2|2|2,0:0|0:0|0:0|0:0,0:0:0:0:
309,357,83880,6,0,L|291:270,1,88.000002685547,2|12,0:0|0:0,0:0:0:0:
122,137,84180,2,0,L|145:255,1,88.000002685547,2|0,0:0|0:0,0:0:0:0:
291,270,84480,2,0,L|377:246,1,88.000002685547,14|0,0:0|0:0,0:0:0:0:
399,240,84705,1,0,0:0:0:0:
426,233,84780,1,2,0:0:0:0:
257,147,84930,1,10,0:0:0:0:
198,338,85080,6,0,P|132:338|75:308,1,132.00000402832,2|0,0:0|0:0,0:0:0:0:
53,284,85380,1,12,0:0:0:0:
104,50,85530,2,0,P|114:92|121:136,1,88.000002685547,2|8,0:0|0:0,0:0:0:0:
126,157,85755,1,0,0:0:0:0:
135,176,85830,1,12,0:0:0:0:
146,194,85905,1,0,0:0:0:0:
158,213,85980,2,0,L|145:261,5,29.3333342285157,2|2|2|2|0|0,0:0|0:0|0:0|0:0|0:0|0:0,0:0:0:0:
231,259,86280,6,0,P|273:269|318:285,1,88.000002685547,14|0,0:0|0:0,0:0:0:0:
367,142,86580,2,0,P|409:131|454:116,1,88.000002685547,2|8,0:0|0:0,0:0:0:0:
277,174,86880,2,0,P|267:131|254:88,1,88.000002685547,2|2,0:0|0:0,0:0:0:0:
243,55,87105,1,2,0:0:0:0:
218,29,87180,1,10,0:0:0:0:
184,17,87255,1,10,0:0:0:0:
148,16,87330,2,0,P|127:22|105:28,1,44.0000013427735,10|10,0:0|0:0,0:0:0:0:
27,123,87480,6,0,P|69:133|112:143,1,88.000002685547,12|0,0:0|0:0,0:0:0:0:
204,226,87780,1,10,0:0:0:0:
206,243,87855,1,2,0:0:0:0:
209,260,87930,1,2,0:0:0:0:
212,277,88005,1,2,0:0:0:0:
216,294,88080,2,0,P|287:283|380:273,2,132.00000402832,10|2|2,0:0|0:0|0:0,0:0:0:0:
113,253,88680,6,0,P|104:296|98:339,1,88.000002685547,12|0,0:0|0:0,0:0:0:0:
12,235,88980,1,10,0:0:0:0:
9,204,89055,1,2,0:0:0:0:
6,173,89130,1,2,0:0:0:0:
3,142,89205,1,2,0:0:0:0:
0,111,89280,1,10,0:0:0:0:
107,141,89430,2,0,L|150:132,2,44.0000013427735,8|8|8,0:0|0:0|0:0,0:0:0:0:
95,26,89730,1,8,0:0:0:0:
263,50,89880,6,0,P|249:117|238:170,1,88.000002685547,12|2,0:0|0:0,0:0:0:0:
191,200,90105,1,2,0:0:0:0:
178,215,90180,2,0,L|188:286,1,44.0000013427735,2|2,0:0|0:0,0:0:0:0:
175,348,90330,2,0,L|133:332,1,44.0000013427735,10|8,0:0|0:0,0:0:0:0:
256,307,90480,1,10,0:0:0:0:
285,302,90555,1,10,0:0:0:0:
315,297,90630,1,10,0:0:0:0:
345,293,90705,1,10,0:0:0:0:
374,287,90780,2,0,P|395:294|416:303,1,44.0000013427735,8|8,0:0|0:0,0:0:0:0:
501,239,90930,2,0,P|476:177|464:112,1,132.00000402832,8|0,0:0|0:0,0:0:0:0:
465,29,91230,5,8,0:0:0:0:
384,207,91380,1,8,0:0:0:0:
263,50,91530,1,8,0:0:0:0:
367,100,91680,1,8,0:0:0:0:
275,162,91830,2,0,P|269:182|262:206,2,44.0000013427735,4|2|2,0:0|0:0|0:0,0:0:0:0:
344,11,92130,1,2,0:0:0:0:
471,132,92280,5,2,0:0:0:0:
385,133,92430,1,2,0:0:0:0:
343,208,92580,1,2,0:0:0:0:
348,293,92730,2,0,P|415:309|477:323,1,128
272,255,93330,2,0,P|205:269|136:280,1,128
72,309,93780,2,0,P|60:246|60:182,1,128,2|2,0:0|0:0,0:0:0:0:
100,30,94380,1,2,0:0:0:0:
100,30,94680,6,0,P|165:43|252:53,1,128,4|0,2:1|0:0,0:0:0:0:
420,161,95130,2,0,P|383:168|342:180,1,80,2|0,0:0|0:0,0:0:0:0:
251,226,95355,1,0,0:0:0:0:
227,242,95430,6,0,L|220:194,1,47.9999985351563,8|0,0:0|0:0,0:0:0:0:
312,50,95580,2,0,L|321:97,1,47.9999985351563,8|8,0:0|0:0,0:0:0:0:
288,299,95730,6,0,P|201:324|144:254,1,191.999994140625,12|8,0:0|0:0,0:0:0:0:
144,254,96105,1,8,0:0:0:0:
144,254,96180,2,0,P|154:207|169:140,1,88.000002685547,8|0,0:0|0:0,0:0:0:0:
81,346,96480,1,8,0:0:0:0:
227,242,96630,1,8,0:0:0:0:
50,237,96780,1,2,0:0:0:0:
56,215,96855,1,2,0:0:0:0:
63,189,96930,1,2,0:0:0:0:
69,163,97005,1,2,0:0:0:0:
74,137,97080,6,0,L|60:39,1,88.000002685547,14|0,0:0|0:0,0:0:0:0:
164,163,97380,1,0,0:0:0:0:
158,20,97530,1,0,0:0:0:0:
277,89,97680,2,0,P|319:100|363:103,1,88.000002685547,8|0,0:0|0:0,0:0:0:0:
488,56,97980,2,0,P|479:99|473:142,1,88.000002685547,0|2,0:0|0:0,0:0:0:0:
471,170,98205,1,2,0:0:0:0:
471,195,98280,2,0,P|401:205|287:232,1,176.000005371094,14|0,0:0|0:0,0:0:0:0:
171,334,98730,6,0,P|213:344|255:358,1,88.000002685547,8|0,0:0|0:0,0:0:0:0:
391,125,99030,2,0,L|373:36,1,88.000002685547,12|0,0:0|0:0,0:0:0:0:
200,126,99330,1,2,0:0:0:0:
195,165,99405,1,2,0:0:0:0:
189,204,99480,5,14,0:0:0:0:
149,59,99630,1,8,0:0:0:0:
305,36,99780,1,8,0:0:0:0:
321,185,99930,1,8,0:0:0:0:
112,160,100080,5,12,0:0:0:0:
262,248,100230,1,8,0:0:0:0:
149,59,100380,1,8,0:0:0:0:
0,226,100530,2,0,P|86:236|163:277,1,176.000005371094,12|8,0:0|0:0,0:0:0:0:
403,299,100980,2,0,P|360:307|319:321,1,88.000002685547,8|2,0:0|0:0,0:0:0:0:
318,321,101205,1,2,0:0:0:0:
318,321,101280,1,2,0:0:0:0:
318,321,101355,1,2,0:0:0:0:
318,321,101430,1,2,0:0:0:0:
318,321,101505,1,2,0:0:0:0:
318,321,101580,6,0,P|299:279|293:238,1,83.9999974365235,4|0,0:0|0:0,0:0:0:0:
215,203,101880,6,0,P|229:162|234:118,1,88.000002685547,10|0,0:0|0:0,0:0:0:0:
138,140,102180,1,8,0:0:0:0:
321,161,102330,2,0,P|363:149|405:138,1,88.000002685547,8|0,0:0|0:0,0:0:0:0:
212,298,102630,2,0,P|158:283|98:268,1,88.000002685547,8|0,0:0|0:0,0:0:0:0:
394,358,102930,2,0,P|431:280|429:192,1,176.000005371094,8|0,0:0|0:0,0:0:0:0:
392,98,103380,5,8,0:0:0:0:
239,216,103530,2,0,L|174:191,2,44.0000013427735,8|8|8,0:0|0:0|0:0,0:0:0:0:
340,251,103830,1,8,0:0:0:0:
301,64,103980,2,0,P|307:107|315:150,1,88.000002685547,8|8,0:0|0:0,0:0:0:0:
167,323,104280,2,0,P|160:279|152:236,1,88.000002685547,12|0,2:0|2:0,2:0:0:0:
83,34,104580,2,0,P|73:65|69:79,1,44.0000013427735,8|8,0:0|0:0,0:0:0:0:
22,150,104730,6,0,B|83:161|83:161|136:145|136:145|227:157,1,176.000005371094,8|8,0:0|0:0,0:0:0:0:
364,182,105180,2,0,L|321:191,1,44.0000013427735
307,270,105330,2,0,P|376:305|447:218,1,176.000005371094,12|8,0:0|0:0,0:0:0:0:
445,249,105705,1,8,0:0:0:0:
445,249,105780,2,0,P|455:188|464:130,1,88.000002685547,8|0,0:0|0:0,0:0:0:0:
446,59,106080,5,8,0:0:0:0:
221,122,106230,2,0,L|308:142,1,88.000002685547,8|0,0:0|0:0,0:0:0:0:
158,30,106530,5,10,0:0:0:0:
190,224,106680,2,0,L|178:282,2,44.0000013427735,2|2|10,0:0|0:0|0:0,0:0:0:0:
106,147,106980,2,0,L|19:127,1,88.000002685547,10|0,0:0|0:0,0:0:0:0:
99,248,107280,2,0,L|12:268,1,88.000002685547,8|0,0:0|0:0,0:0:0:0:
276,194,107580,1,10,0:0:0:0:
301,186,107655,1,2,0:0:0:0:
326,178,107730,1,2,0:0:0:0:
351,170,107805,1,2,0:0:0:0:
376,162,107880,5,14,0:0:0:0:
325,277,108030,2,0,L|315:319,2,44.0000013427735,10|10|10,0:0|0:0|0:0,0:0:0:0:
194,253,108330,2,0,P|185:209|177:166,1,88.000002685547,10|0,0:0|0:0,0:0:0:0:
87,62,108630,2,0,P|143:123|221:95,1,176.000005371094,8|8,0:0|0:0,0:0:0:0:
300,27,109080,6,0,P|393:41|495:62,1,192,12|0,0:0|0:0,0:0:0:0:
468,158,109680,2,0,P|419:149|339:132,1,128
253,121,110130,2,0,P|243:168|238:215,1,96,8|0,0:0|0:0,0:0:0:0:
242,247,110430,6,0,L|298:235,1,44.0000013427735,8|0,0:0|0:0,0:0:0:0:
182,321,110580,2,0,L|243:343,1,44.0000013427735,8|0,0:0|0:0,0:0:0:0:
113,238,110730,2,0,L|169:226,1,44.0000013427735,8|0,0:0|0:0,0:0:0:0:
52,311,110880,6,0,L|113:333,1,44.0000013427735,12|0,0:0|0:0,0:0:0:0:
338,201,111105,6,0,L|322:263,1,44.0000013427735,8|0,0:0|0:0,0:0:0:0:
107,26,111330,6,0,L|122:94,1,44.0000013427735,8|0,0:0|0:0,0:0:0:0:
139,154,111480,1,8,0:0:0:0:
256,192,111555,12,0,113280,0:0:0:0:
187,117,113430,6,0,L|129:88,2,44.0000013427735
343,77,113730,2,0,L|330:150,1,44.0000013427735
319,205,113880,5,8,0:0:0:0:
251,32,114030,1,8,0:0:0:0:
407,183,114180,1,8,0:0:0:0:
215,257,114330,1,8,0:0:0:0:
394,300,114480,5,8,0:0:0:0:
281,189,114630,1,8,0:0:0:0:
234,348,114780,1,8,0:0:0:0:
139,313,114930,1,10,0:0:0:0:
135,290,115005,1,10,0:0:0:0:
134,263,115080,6,0,L|128:206,3,44.0000013427735,10|8|10|8,0:0|0:0|0:0|0:0,0:0:0:0:
44,169,115380,2,0,L|58:116,3,44.0000013427735,10|10|10|10,0:0|0:0|0:0|0:0,0:0:0:0:
135,55,115680,6,0,L|146:94,6,22.0000006713867,10|0|10|0|10|0|10,0:0|0:0|0:0|0:0|0:0|0:0|0:0,0:0:0:0:
189,156,115980,2,0,L|246:144,1,44.0000013427735,8|8,0:0|0:0,0:0:0:0:
292,230,116130,2,0,L|349:244,1,44.0000013427735,8|8,0:0|0:0,0:0:0:0:
449,187,116280,5,8,0:0:0:0:
417,342,116430,1,8,0:0:0:0:
