osu file format v14

[General]
AudioFilename: Wish upon Twin Stars.mp3
AudioLeadIn: 0
PreviewTime: 51480
Countdown: 0
SampleSet: Soft
StackLeniency: 0.7
Mode: 0
LetterboxInBreaks: 0
WidescreenStoryboard: 0

[Editor]
DistanceSpacing: 1
BeatDivisor: 3
GridSize: 32
TimelineZoom: 1.9

[Metadata]
Title:Wish upon Twin Stars
TitleUnicode:Wish upon Twin Stars
Artist:xi
ArtistUnicode:xi
Creator:Crier
Version:NOVICE
Source:SOUND VOLTEX II -infinite infection-
Tags:SDVX
BeatmapID:776215
BeatmapSetID:352046

[Difficulty]
HPDrainRate:4
CircleSize:3.5
OverallDifficulty:4
ApproachRate:5
SliderMultiplier:1
SliderTickRate:1

[Events]
//Background and Video events
0,0,"bg.jpg",0,0
//Break Periods
2,75680,81480
//Storyboard Layer 0 (Background)
//Storyboard Layer 1 (Fail)
//Storyboard Layer 2 (Pass)
//Storyboard Layer 3 (Foreground)
//Storyboard Sound Samples

[TimingPoints]
-120,300,4,2,1,30,1,0
4980,-100,4,1,2,65,0,0
5280,-100,4,2,1,50,0,0
9630,-100,4,1,2,50,0,0
9705,-100,4,2,1,50,0,0
10380,-100,4,2,3,50,0,0
10455,-100,4,2,1,50,0,0
13380,-100,4,2,1,40,0,0
20280,-100,4,2,1,50,0,0
22005,-100,4,2,2,50,0,0
22080,-100,4,2,1,50,0,0
31280,-100,4,2,2,50,0,0
31330,-100,4,2,1,50,0,0
41280,-100,4,1,2,50,0,0
41430,-100,4,2,1,50,0,0
43680,-100,4,1,2,50,0,0
43755,-100,4,2,1,50,0,0
46080,-100,4,1,2,50,0,0
46230,-100,4,2,1,50,0,0
49980,-100,4,1,2,50,0,0
50055,-100,4,2,1,50,0,0
51180,-100,4,2,3,50,0,0
51480,-100,4,2,1,40,0,0
52680,-100,4,2,1,50,0,0
53880,-100,4,2,1,60,0,1
63180,-100,4,2,3,60,0,0
63480,-100,4,2,1,60,0,1
70680,-100,4,2,1,50,0,0
91830,-100,4,2,5,15,0,0
91905,-100,4,2,1,30,0,0
94680,-100,4,1,2,30,0,0
94755,-100,4,2,1,30,0,0
95580,-100,4,2,1,60,0,0
95730,-100,4,2,1,60,0,1
100530,-100,4,1,2,60,0,1
100605,-100,4,2,1,60,0,1
101580,-100,4,2,1,60,0,0
101880,-100,4,2,1,60,0,1
109080,-100,4,2,1,50,0,0
110430,-100,4,2,1,40,0,0
110880,-100,4,1,2,40,0,0
110955,-100,4,2,1,40,0,0

[Colours]
Combo1 : 209,211,207
Combo2 : 139,233,250
Combo3 : 245,204,107

[HitObjects]
73,205,630,6,0,P|69:182|65:155,2,50,0|0|0,0:0|0:0|0:0,0:0:0:0:
99,246,1080,2,0,P|167:269|231:231,1,150,2|2,0:0|0:0,0:0:0:0:
241,143,1830,1,2,0:0:0:0:
211,57,2130,2,0,P|156:104|160:179,1,150,2|2,0:0|0:0,0:0:0:0:
231,233,2880,2,0,L|329:249,1,100,2|2,0:0|0:0,0:0:0:0:
419,257,3480,6,0,P|432:183|432:108,2,150,2|2|2,0:0|0:0|0:0,0:0:0:0:
275,336,4980,5,4,0:0:0:0:
212,271,5280,2,0,P|165:254|115:254,1,100,0|0,0:0|0:0,0:0:0:0:
17,276,5880,6,0,P|25:226|34:177,1,100,12|8,0:0|0:0,0:0:0:0:
132,157,6480,2,0,P|123:107|114:58,1,100,8|0,0:0|0:0,0:0:0:0:
212,37,7080,2,0,P|220:86|229:135,1,100,12|8,0:0|0:0,0:0:0:0:
324,164,7680,2,0,L|315:213|306:262,1,100,8|8,0:0|0:0,0:0:0:0:
245,342,8280,6,0,P|195:342|154:315,1,100,12|8,0:0|0:0,0:0:0:0:
124,275,8730,2,0,P|134:226|142:176,1,100,12|8,0:0|0:0,0:0:0:0:
124,130,9180,1,12,0:0:0:0:
266,81,9630,2,0,L|275:32,2,50,12|8|8,0:0|0:0|0:0,0:0:0:0:
266,131,10080,2,0,P|316:139|368:150,1,100,8|4,0:0|0:0,0:0:0:0:
256,192,10680,12,0,13080,0:0:0:0:
193,273,13680,6,0,P|270:262|341:254,2,150,2|0|2,0:0|0:0|0:0,0:0:0:0:
94,292,14880,1,0,0:0:0:0:
56,259,15030,2,0,P|41:211|44:161,1,100
64,116,15480,1,0,0:0:0:0:
149,167,15780,1,0,0:0:0:0:
231,110,16080,6,0,B|275:96|275:96|377:113,1,150,2|0,0:0|0:0,0:0:0:0:
391,271,16980,2,0,P|341:275|291:280,2,100,2|2|2,0:0|0:0|0:0,0:0:0:0:
476,323,17880,2,0,P|489:250|448:190,1,150,2|2,0:0|0:0,0:0:0:0:
299,176,18780,6,0,P|291:112|283:61,2,100,2|2|2,0:0|0:0|0:0,0:0:0:0:
319,274,19680,1,2,0:0:0:0:
397,212,19980,1,2,0:0:0:0:
474,148,20280,6,0,P|490:221|495:295,2,150,12|12|8,0:0|0:0|0:0,0:0:0:0:
410,70,21480,2,0,P|363:53|313:49,1,100,12|12,0:0|0:0,0:0:0:0:
267,70,21930,1,0,0:0:0:0:
235,109,22080,2,0,P|142:123|92:38,1,200,12|8,0:0|0:0,0:0:0:0:
2,87,22980,5,0,0:0:0:0:
53,172,23280,2,0,P|62:221|61:271,1,100,12|8,0:0|0:0,0:0:0:0:
49,319,23730,2,0,P|113:284|185:300,1,150,12|0,0:0|0:0,0:0:0:0:
225,329,24330,1,2,0:0:0:0:
274,324,24480,2,0,P|283:274|292:225,1,100,12|8,0:0|0:0,0:0:0:0:
365,158,25080,6,0,P|410:176|460:175,1,100
498,143,25530,2,0,P|489:93|482:44,1,100
433,30,25980,2,0,B|395:50|395:50|288:35,1,150
239,43,26580,2,0,P|218:88|218:137,1,100
273,222,27180,1,0,0:0:0:0:
352,161,27480,6,0,P|374:204|370:254,1,100,12|8,0:0|0:0,0:0:0:0:
388,300,27930,2,0,P|314:309|259:321,1,100,0|8,0:0|0:0,0:0:0:0:
248,343,28380,1,0,0:0:0:0:
194,258,28680,6,0,P|146:244|96:241,1,100,12|8,0:0|0:0,0:0:0:0:
50,256,29130,2,0,P|12:223|5:175,1,100,0|8,0:0|0:0,0:0:0:0:
20,127,29580,1,0,0:0:0:0:
104,63,29880,5,12,0:0:0:0:
175,132,30180,1,4,0:0:0:0:
251,67,30480,2,0,P|300:50|349:50,1,100,0|8,0:0|0:0,0:0:0:0:
397,58,30930,1,12,0:0:0:0:
455,158,31280,6,0,B|428:211|355:217|298:189|298:189|322:214|334:247|324:287,1,266.666666666667,4|0,0:1|0:0,0:0:0:0:
301,332,32280,6,0,P|252:340|204:326,1,100,12|8,0:0|0:0,0:0:0:0:
173,287,32730,2,0,P|126:272|77:280,1,100,12|0,0:0|0:0,0:0:0:0:
34,305,33180,1,10,0:0:0:0:
58,106,33780,6,0,P|107:116|156:128,1,100,2|0,0:0|0:0,0:0:0:0:
197,157,34230,2,0,L|249:141,1,50
345,157,34680,6,0,P|363:204|364:253,1,100,12|8,0:0|0:0,0:0:0:0:
347,300,35130,2,0,P|300:318|251:318,1,100,8|0,0:0|0:0,0:0:0:0:
203,307,35580,1,12,0:0:0:0:
87,212,36030,6,0,P|83:236|79:261,2,50,2|2|2,0:0|0:0|0:0,0:0:0:0:
89,161,36480,2,0,P|139:167|188:175,1,100,14|8,0:0|0:0,0:0:0:0:
273,228,37080,6,0,P|292:183|282:130,1,100,12|8,0:0|0:0,0:0:0:0:
258,90,37530,2,0,P|209:83|160:75,1,100,12|8,0:0|0:0,0:0:0:0:
110,65,37980,1,12,0:0:0:0:
168,256,38580,6,0,P|161:305|153:354,2,100,2|2|4,0:0|0:0|0:0,0:0:0:0:
207,163,39480,6,0,P|256:148|312:155,1,100,12|8,0:0|0:0,0:0:0:0:
343,185,39930,2,0,P|393:189|440:174,1,100,12|8,0:0|0:0,0:0:0:0:
478,141,40380,1,12,0:0:0:0:
464,290,40830,6,0,L|528:306,2,50,8|8|8,0:0|0:0|0:0,0:0:0:0:
420,266,41280,2,0,P|396:272|372:279,1,50,12|0,0:0|0:0,0:0:0:0:
313,360,41730,6,0,P|272:306|287:225,1,150,12|8,0:0|0:0,0:0:0:0:
331,139,42480,2,0,P|324:89|316:40,1,100,8|8,0:0|0:0,0:0:0:0:
217,52,43080,2,0,L|225:101|233:150,1,100,8|8,0:0|0:0,0:0:0:0:
158,216,43680,2,0,P|150:239|143:263,1,50,12|8,0:0|0:0,0:0:0:0:
61,321,44130,6,0,P|136:309|223:304,1,150,12|8,0:0|0:0,0:0:0:0:
310,312,44880,2,0,P|371:322|410:335,1,100,8|8,0:0|0:0,0:0:0:0:
434,237,45480,2,0,P|385:229|337:215,1,100,8|8,0:0|0:0,0:0:0:0:
245,175,46080,2,0,L|239:119,1,50,12|0,0:0|0:0,0:0:0:0:
298,43,46530,6,0,B|230:14|178:49|178:49|119:84|61:46,1,250,12|8,0:0|0:0,0:0:0:0:
119,233,47880,2,0,P|213:224|252:309,1,200,12|8,0:0|0:0,0:0:0:0:
329,356,48780,1,8,0:0:0:0:
416,331,49080,6,0,B|436:289|436:289|421:178,2,150,12|12|12,0:0|0:0|0:0,0:0:0:0:
278,273,50430,2,0,P|254:279|231:287,2,50,12|8|8,0:0|0:0|0:0,0:0:0:0:
327,263,50880,2,0,P|318:201|310:152,1,100,8|4,0:0|0:0,0:0:0:0:
369,81,51480,6,0,B|329:38|246:48|212:113|212:113|180:180|114:178|81:115|112:53|178:49|212:113|212:113|219:163|219:163|207:209|207:209|222:278,1,600,2|2,0:0|0:0,0:0:0:0:
223,305,53430,2,0,P|272:311|321:323,1,100
366,342,53880,6,0,P|390:298|396:249,1,100,12|0,0:0|0:0,0:0:0:0:
393,198,54330,1,8,0:0:0:0:
323,125,54630,1,8,0:0:0:0:
245,187,54930,2,0,P|171:194|109:155,1,150,8|8,0:0|0:0,0:0:0:0:
44,78,55680,2,0,P|17:124|13:173,1,100,8|8,0:0|0:0,0:0:0:0:
56,260,56280,6,0,P|105:268|190:286,1,100,4|8,0:0|0:0,0:0:0:0:
203,267,56730,1,8,0:0:0:0:
274,336,57030,1,8,0:0:0:0:
371,311,57330,2,0,P|401:248|396:153,1,150,12|8,0:0|0:0,0:0:0:0:
380,70,58080,2,0,L|291:59,1,50,8|8,0:0|0:0,0:0:0:0:
181,43,58680,6,0,P|155:85|149:135,1,100,12|0,0:0|0:0,0:0:0:0:
162,183,59130,1,0,0:0:0:0:
233,259,59430,2,0,P|282:251|332:245,1,100,0|2,0:0|0:0,0:0:0:0:
371,214,59880,2,0,B|428:223|486:236|486:236|470:205,1,150,14|8,0:0|0:0,0:0:0:0:
414,124,60630,1,12,0:0:0:0:
327,73,60930,6,0,L|334:23,2,50,2|10|8,0:0|0:0|0:0,0:0:0:0:
291,107,61380,2,0,P|194:122|169:124,2,100,8|8|8,0:0|0:0|0:0,0:0:0:0:
339,119,62130,6,0,P|391:149|363:252,1,150,12|8,0:0|0:0,0:0:0:0:
311,295,62880,2,0,P|245:286|189:275,1,100,2|6,0:0|0:0,0:0:0:0:
112,288,63480,6,0,P|123:230|138:147,1,100,12|8,0:0|0:0,0:0:0:0:
111,143,63930,1,0,0:0:0:0:
158,55,64230,1,8,0:0:0:0:
238,114,64530,2,0,P|317:121|379:47,1,150,8|8,0:0|0:0,0:0:0:0:
467,68,65280,2,0,P|478:145|484:189,1,100,8|8,0:0|0:0,0:0:0:0:
383,190,65880,6,0,P|365:240|362:288,1,100,12|8,0:0|0:0,0:0:0:0:
371,334,66330,2,0,P|322:324|272:319,1,100,8|8,0:0|0:0,0:0:0:0:
177,350,66930,2,0,P|104:354|55:301,1,150,12|8,0:0|0:0,0:0:0:0:
38,202,67680,2,0,L|51:133,1,50,8|8,0:0|0:0,0:0:0:0:
144,177,68130,5,0,0:0:0:0:
173,217,68280,2,0,P|221:228|270:237,1,100,12|10,0:0|0:0,0:0:0:0:
321,234,68730,2,0,P|345:190|350:141,1,100,8|2,0:0|0:0,0:0:0:0:
340,91,69180,1,0,0:0:0:0:
279,11,69480,2,0,P|230:17|181:27,1,100,14|10,0:0|0:0,0:0:0:0:
141,55,69930,2,0,P|77:43|23:33,2,100,0|12|8,0:0|0:0|0:0,0:0:0:0:
185,79,70680,6,0,P|210:170|141:237,1,200,12|0,0:0|0:0,0:0:0:0:
21,328,71730,2,0,B|54:348|54:348|123:339,1,100,12|8,0:0|0:0,0:0:0:0:
162,355,72180,1,8,0:0:0:0:
245,299,72480,2,0,P|311:311|365:321,1,100,8|8,0:0|0:0,0:0:0:0:
256,192,73080,12,0,75480,0:0:0:0:
279,143,82680,6,0,P|339:101|412:112,1,150,14|14,0:0|0:0,0:0:0:0:
441,258,83580,2,0,P|380:299|307:288,1,150,14|12,0:0|0:0,0:0:0:0:
168,343,84480,2,0,B|186:297|186:297|160:186,1,150,14|10,0:0|0:0,0:0:0:0:
116,181,85080,6,0,P|125:131|133:82,1,100,2|12,0:0|0:0,0:0:0:0:
274,31,85830,2,0,P|347:44|422:53,1,150,12|14,0:0|0:0,0:0:0:0:
378,143,86580,2,0,P|328:134|278:126,1,100,2|2,0:0|0:0,0:0:0:0:
179,114,87180,1,10,0:0:0:0:
100,51,87480,6,0,P|79:95|83:145,1,100,12|10,0:0|0:0,0:0:0:0:
157,212,88080,2,0,P|160:261|140:306,1,100,10|0,0:0|0:0,0:0:0:0:
222,362,88680,6,0,P|271:352|320:345,1,100,12|10,0:0|0:0,0:0:0:0:
408,297,89280,2,0,P|410:248|397:198,1,100,10|8,0:0|0:0,0:0:0:0:
333,121,89880,6,0,P|258:109|184:97,2,150,12|10|8,0:0|0:0|0:0,0:0:0:0:
449,215,91230,2,0,L|513:194,2,50,8|8|8,0:0|0:0|0:0,0:0:0:0:
404,237,91680,2,0,P|390:284|391:334,1,100,8|2,0:0|0:0,0:0:0:0:
297,304,92280,6,0,B|259:279|259:279|138:303,1,150,2|0,0:0|0:0,0:0:0:0:
68,321,93030,1,0,0:0:0:0:
91,234,93330,2,0,P|83:159|74:84,1,150,0|2,0:0|0:0,0:0:0:0:
163,69,94080,2,0,P|168:118|174:168,1,100,2|2,0:0|0:0,0:0:0:0:
185,257,94680,6,0,P|250:245|322:308,2,150,4|2|8,2:1|0:0|0:0,0:0:0:0:
149,292,95730,6,0,P|76:299|23:250,1,150,12|8,0:0|0:0,0:0:0:0:
0,151,96480,2,0,P|3:127|11:102,1,50,8|8,0:0|0:0,0:0:0:0:
133,24,97080,6,0,P|184:28|230:49,1,100,14|0,0:0|0:0,0:0:0:0:
255,89,97530,2,0,P|305:89|353:73,1,100,8|0,0:0|0:0,0:0:0:0:
395,47,97980,1,0,0:0:0:0:
475,106,98280,6,0,P|466:155|455:204,1,100,14|0,0:0|0:0,0:0:0:0:
407,221,98730,2,0,P|414:270|425:319,2,100,8|12|2,0:0|0:0|0:0,0:0:0:0:
377,180,99480,6,0,P|328:190|278:198,1,100,14|8,0:0|0:0,0:0:0:0:
228,202,99930,1,0,0:0:0:0:
179,207,100080,2,0,P|194:160|205:110,1,100,12|8,0:0|0:0,0:0:0:0:
193,61,100530,2,0,P|133:19|52:36,1,150,12|8,0:0|0:0,0:0:0:0:
0,111,101280,2,0,P|7:163|15:219,1,100,2|4,0:0|0:0,0:0:0:0:
50,303,101880,6,0,P|97:315|145:301,1,100,10|8,0:0|0:0,0:0:0:0:
184,269,102330,1,0,0:0:0:0:
260,333,102630,1,8,0:0:0:0:
354,299,102930,2,0,B|379:265|379:265|360:159,1,150,8|8,0:0|0:0,0:0:0:0:
265,136,103680,2,0,P|276:184|286:233,1,100,8|8,0:0|0:0,0:0:0:0:
193,270,104280,6,0,P|120:280|46:296,2,150,12|8|0,2:0|0:0|0:0,0:0:0:0:
233,297,105330,2,0,P|279:316|327:305,1,100,12|8,0:0|0:0,0:0:0:0:
365,272,105780,1,0,0:0:0:0:
391,175,106080,2,0,L|380:126,1,50,8|8,0:0|0:0,0:0:0:0:
285,90,106530,6,0,L|296:41,2,50,10|2|10,0:0|0:0|0:0,0:0:0:0:
265,135,106980,2,0,P|213:133|167:117,1,100,10|8,0:0|0:0,0:0:0:0:
133,81,107430,2,0,P|108:74|84:72,1,50
92,172,107880,2,0,P|81:246|72:293,1,100,14|10,0:0|0:0,0:0:0:0:
66,320,108330,1,10,0:0:0:0:
164,338,108630,2,0,P|172:289|180:239,1,100,8|8,0:0|0:0,0:0:0:0:
210,199,109080,6,0,P|298:164|369:227,1,200,12|0,0:0|0:0,0:0:0:0:
478,125,110130,2,0,P|431:116|387:83,1,100,8|8,0:0|0:0,0:0:0:0:
351,52,110580,2,0,P|299:49|252:69,2,100,8|12|0,0:0|0:0|0:0,0:0:0:0:
318,146,111480,1,8,0:0:0:0:
256,192,111630,12,0,113280,0:0:0:0:
191,112,113880,6,0,L|240:102|289:92,1,100,8|8,0:0|0:0,0:0:0:0:
316,188,114480,2,0,P|365:197|413:208,1,100,8|8,0:0|0:0,0:0:0:0:
393,306,115080,6,0,P|343:296|295:285,1,100,10|10,0:0|0:0,0:0:0:0:
227,211,115680,2,0,P|177:220|129:231,1,100,10|8,0:0|0:0,0:0:0:0:
33,261,116280,6,0,L|25:211,1,50,8|8,0:0|0:0,0:0:0:0:
