osu file format v14

[General]
AudioFilename: Wish upon Twin Stars.mp3
AudioLeadIn: 1000
PreviewTime: 53415
Countdown: 0
SampleSet: Soft
StackLeniency: 0.7
Mode: 0
LetterboxInBreaks: 0
WidescreenStoryboard: 0

[Editor]
DistanceSpacing: 1.1
BeatDivisor: 4
GridSize: 4
TimelineZoom: 2.1

[Metadata]
Title:Wish upon Twin Stars
TitleUnicode:Wish upon Twin Stars
Artist:xi
ArtistUnicode:xi
Creator:Chaoslitz
Version:Wish
Source:SOUND VOLTEX II -infinite infection-
Tags:sdvx Gaia ニア ノア NEAR NOAH
BeatmapID:559673
BeatmapSetID:242462

[Difficulty]
HPDrainRate:7
CircleSize:4
OverallDifficulty:8
ApproachRate:9.3
SliderMultiplier:1.8
SliderTickRate:1

[Events]
//Background and Video events
0,0,"bg.jpg",0,0
//Break Periods
2,75465,80923
//Storyboard Layer 0 (Background)
//Storyboard Layer 1 (Fail)
//Storyboard Layer 2 (Pass)
//Storyboard Layer 3 (Foreground)
//Storyboard Sound Samples

[TimingPoints]
-123,300,4,2,2,40,1,0
4977,-100,4,2,1,40,0,0
5877,-100,4,2,1,50,0,0
13077,-100,4,2,1,40,0,0
20277,-83.3333333333333,4,2,1,60,0,0
22077,-76.9230769230769,4,2,1,60,0,0
22527,-83.3333333333333,4,2,1,60,0,0
22677,-83.3333333333333,4,2,15,40,0,0
22977,-83.3333333333333,4,2,1,60,0,0
27102,-83.3333333333333,4,3,1,60,0,0
27477,-66.6666666666667,4,2,1,60,0,0
29877,-83.3333333333333,4,2,1,60,0,0
31227,-83.3333333333333,4,2,1,50,0,0
32277,-83.3333333333333,4,2,1,60,0,0
33027,-117.647058823529,4,2,1,60,0,0
34677,-83.3333333333333,4,2,1,60,0,0
41727,-100,4,2,1,65,0,0
43227,-100,4,2,15,65,0,0
44427,-100,4,2,1,65,0,0
45477,-100,4,2,15,65,0,0
49077,-100,4,2,1,65,0,0
51177,-100,4,2,2,60,0,0
53277,-100,4,2,15,50,0,0
53427,-83.3333333333333,4,2,15,60,0,0
53877,-83.3333333333333,4,2,1,70,0,1
58677,-83.3333333333333,4,2,2,40,0,1
58752,-83.3333333333333,4,2,1,70,0,1
58827,-83.3333333333333,4,2,15,70,0,1
59877,-83.3333333333333,4,2,2,40,0,1
59952,-83.3333333333333,4,2,15,70,0,1
61077,-83.3333333333333,4,2,1,70,0,1
62127,-83.3333333333333,4,2,1,70,0,0
62427,-83.3333333333333,4,2,2,70,0,0
63177,-83.3333333333333,4,2,2,40,0,0
63477,-83.3333333333333,4,2,15,70,0,1
64977,-83.3333333333333,4,2,1,70,0,1
68127,-83.3333333333333,4,2,2,40,0,1
68277,-83.3333333333333,4,2,15,70,0,1
70677,-125,4,2,15,70,0,0
81477,-111.111111111111,4,3,18,60,0,0
82677,-83.3333333333333,4,2,1,60,0,0
91827,-166.666666666667,4,2,1,40,0,0
91977,-133.333333333333,4,2,2,40,0,0
92277,-133.333333333333,4,2,2,40,0,0
95727,-83.3333333333333,4,2,1,50,0,1
97077,-83.3333333333333,4,2,1,70,0,1
97152,-83.3333333333333,4,2,1,60,0,1
100827,-83.3333333333333,4,2,15,60,0,0
101877,-83.3333333333333,4,2,15,70,0,1
109077,-100,4,2,1,50,0,0
110427,-100,4,2,1,60,0,0
111102,-100,4,2,1,70,0,0
111477,-100,4,2,1,60,0,0
115077,-100,4,2,1,80,0,0

[Colours]
Combo1 : 15,50,249
Combo2 : 4,215,204
Combo3 : 62,172,253

[HitObjects]
104,98,627,6,0,L|207:93,1,90,0|0,0:0|0:0,0:0:0:0:
331,122,927,1,0,0:0:0:0:
400,277,1077,2,0,P|397:209|399:163,1,90,2|0,0:0|0:0,0:0:0:0:
430,52,1377,1,0,0:0:0:0:
274,38,1527,1,2,0:0:0:0:
127,234,1827,1,2,0:0:0:0:
280,330,2127,6,0,P|249:246|246:157,1,180,2|0,0:0|0:0,0:0:0:0:
323,33,2577,2,0,P|332:81|324:154,1,90,2|0,0:0|0:0,0:0:0:0:
79,116,2877,2,0,L|182:111,1,90,2|0,0:0|0:0,0:0:0:0:
296,60,3177,1,2,0:0:0:0:
448,185,3477,6,0,P|435:234|401:275,1,90,2|0,0:0|0:0,0:0:0:0:
291,295,3777,1,2,0:0:0:0:
130,346,3927,2,0,P|181:343|229:342,1,90,2|0,0:0|0:0,0:0:0:0:
362,349,4227,1,2,0:0:0:0:
218,237,4377,2,0,P|149:234|28:241,1,180,2|0,0:0|0:0,0:0:0:0:
234,76,4977,6,0,L|225:31,3,45,8|0|0|0,0:0|0:0|0:0|0:0,0:0:0:0:
307,43,5277,2,0,P|372:41|443:46,2,135
155,65,5877,6,0,L|163:109,3,45,4|0|0|0,0:0|0:0|0:0|0:0,0:0:0:0:
176,142,6177,1,8,0:0:0:0:
184,177,6252,1,0,0:0:0:0:
181,212,6327,1,0,0:0:0:0:
170,246,6402,1,0,0:0:0:0:
147,274,6477,2,0,P|88:261|14:259,2,135,0|8|0,0:0|0:0|0:0,0:0:0:0:
265,311,7077,6,0,L|260:267,3,45,4|0|0|0,0:0|0:0|0:0|0:0,0:0:0:0:
265,231,7377,1,8,0:0:0:0:
282,200,7452,1,0,0:0:0:0:
314,186,7527,1,0,0:0:0:0:
349,187,7602,1,0,0:0:0:0:
384,193,7677,2,0,P|394:265|407:332,2,135,8|0|8,0:0|0:0|0:0,0:0:0:0:
305,48,8277,6,0,P|257:43|210:47,1,90,12|0,0:0|0:0,0:0:0:0:
184,52,8502,1,0,0:0:0:0:
155,65,8577,1,0,0:0:0:0:
260,199,8727,2,0,P|308:198|354:206,1,90,12|0,0:0|0:0,0:0:0:0:
379,212,8952,1,0,0:0:0:0:
408,223,9027,2,0,L|412:169,1,45
470,286,9177,1,12,0:0:0:0:
496,312,9252,1,0,0:0:0:0:
512,348,9327,2,0,L|468:352,1,45,8|0,0:0|0:0,0:0:0:0:
126,297,9627,5,8,0:0:0:0:
392,116,9777,1,8,0:0:0:0:
155,65,9927,1,8,0:0:0:0:
364,292,10077,1,8,0:0:0:0:
52,242,10377,5,12,0:0:0:0:
444,188,10677,1,0,0:0:0:0:
256,192,10827,12,0,12777,0:0:0:0:
135,225,13077,5,0,0:0:0:0:
338,156,13377,5,0,0:0:0:0:
307,175,13452,1,0,0:0:0:0:
271,184,13527,1,0,0:0:0:0:
233,179,13602,1,0,0:0:0:0:
198,163,13677,2,0,P|148:138|51:202,1,180,2|0,0:0|0:0,0:0:0:0:
65,356,14127,2,0,P|138:311|135:225,1,180,2|0,0:0|0:0,0:0:0:0:
40,76,14577,6,0,P|88:52|152:56,1,90,0|0,0:0|0:0,0:0:0:0:
160,56,14802,1,0,0:0:0:0:
196,64,14877,2,0,P|247:63|296:60,1,90,2|2,0:0|0:0,0:0:0:0:
418,42,15177,1,0,0:0:0:0:
418,42,15327,2,0,P|414:101|420:156,1,90,0|2,0:0|0:0,0:0:0:0:
471,227,15627,1,0,0:0:0:0:
429,339,15777,5,0,0:0:0:0:
418,304,15852,1,0,0:0:0:0:
391,279,15927,1,0,0:0:0:0:
357,266,16002,1,0,0:0:0:0:
321,263,16077,2,0,L|231:267,1,90,0|2,0:0|0:0,0:0:0:0:
83,283,16377,1,0,0:0:0:0:
212,339,16527,2,0,P|289:313|272:206,1,180,2|0,0:0|0:0,0:0:0:0:
209,67,16977,6,0,P|215:135|234:183,1,90,2|0,0:0|0:0,0:0:0:0:
321,263,17277,1,2,0:0:0:0:
302,103,17427,1,0,0:0:0:0:
133,181,17577,2,0,P|126:112|107:64,1,90,2|0,0:0|0:0,0:0:0:0:
42,192,17877,5,6,0:0:0:0:
42,192,17952,1,0,0:0:0:0:
42,192,18027,1,0,0:0:0:0:
42,192,18102,1,0,0:0:0:0:
42,192,18177,1,0,0:0:0:0:
96,300,18327,5,6,0:0:0:0:
132,296,18402,1,0,0:0:0:0:
168,292,18477,1,0,0:0:0:0:
204,288,18552,1,0,0:0:0:0:
240,284,18627,1,0,0:0:0:0:
320,196,18777,6,0,P|368:216|380:292,1,135,2|0,0:0|0:0,0:0:0:0:
368,328,19077,2,0,L|461:322,1,90,2|0,0:0|0:0,0:0:0:0:
455,166,19377,2,0,L|462:67,1,90,2|0,0:0|0:0,0:0:0:0:
340,59,19677,1,2,0:0:0:0:
209,117,19827,1,0,0:0:0:0:
209,117,19902,1,0,0:0:0:0:
209,117,19977,1,0,0:0:0:0:
209,117,20052,1,0,0:0:0:0:
209,117,20127,1,0,0:0:0:0:
209,117,20202,1,0,0:0:0:0:
209,117,20277,6,0,P|157:141|21:71,1,215.999993408203,4|0,0:0|0:0,0:0:0:0:
223,39,20727,2,0,P|275:14|411:84,1,215.999993408203,4|0,0:0|0:0,0:0:0:0:
406,209,21177,1,0,0:0:0:0:
392,240,21252,1,0,0:0:0:0:
380,268,21327,1,0,0:0:0:0:
347,270,21402,1,0,0:0:0:0:
314,272,21477,2,0,L|190:276,1,107.999996704102,4|0,0:0|0:0,0:0:0:0:
52,248,21777,1,0,0:0:0:0:
156,140,21927,5,0,0:0:0:0:
156,140,22002,1,0,0:0:0:0:
156,140,22077,2,0,P|64:94|-38:118,2,175.499991966248,4|4|4,0:0|0:0|0:0,0:0:0:0:
312,212,22677,2,0,L|320:100,1,107.999996704102,12|8,0:0|0:0,0:0:0:0:
272,32,22977,2,0,L|336:28,1,53.9999983520508,0|0,0:0|0:0,0:0:0:0:
373,100,23127,2,0,L|320:104,1,53.9999983520508,0|0,0:0|0:0,0:0:0:0:
156,44,23277,2,0,L|292:37,1,107.999996704102,4|0,0:0|0:0,0:0:0:0:
464,124,23577,1,0,0:0:0:0:
404,24,23727,1,4,0:0:0:0:
444,232,23877,1,0,0:0:0:0:
308,296,24027,5,0,0:0:0:0:
276,300,24102,1,0,0:0:0:0:
244,304,24177,1,2,0:0:0:0:
212,308,24252,1,2,0:0:0:0:
180,312,24327,1,2,0:0:0:0:
148,316,24402,1,2,0:0:0:0:
116,320,24477,1,2,0:0:0:0:
144,190,24627,1,0,0:0:0:0:
336,208,24777,2,0,L|208:224,1,107.999996704102,2|0,0:0|0:0,0:0:0:0:
64,236,25077,6,0,P|56:172|76:120,1,107.999996704102,0|0,0:0|0:0,0:0:0:0:
127,47,25377,1,2,0:0:0:0:
264,136,25527,2,0,L|156:144,1,107.999996704102,2|0,0:0|0:0,0:0:0:0:
156,143,25827,1,0,0:0:0:0:
235,51,25977,2,0,L|128:48,1,107.999996704102,2|0,0:0|0:0,0:0:0:0:
228,221,26277,1,0,0:0:0:0:
328,48,26427,1,0,0:0:0:0:
496,160,26577,5,0,0:0:0:0:
429,317,26727,1,0,0:0:0:0:
429,317,26802,1,0,0:0:0:0:
429,317,26877,2,0,P|343:322|266:331,1,161.999995056153,4|8,0:0|0:0,0:0:0:0:
235,337,27177,1,0,0:0:0:0:
59,332,27327,1,12,0:0:0:0:
72,137,27477,5,0,0:0:0:0:
273,102,27627,1,0,0:0:0:0:
134,240,27777,1,4,0:0:0:0:
158,49,27927,1,0,0:0:0:0:
253,219,28077,1,0,0:0:0:0:
157,330,28227,2,0,P|86:321|47:269,2,135.000005149842,0|4|0,0:0|0:0|0:0,0:0:0:0:
378,298,28677,5,0,0:0:0:0:
416,107,28827,1,0,0:0:0:0:
273,238,28977,1,4,0:0:0:0:
469,222,29127,1,0,0:0:0:0:
292,120,29277,1,0,0:0:0:0:
380,32,29427,2,0,P|448:33|492:80,2,135.000005149842,0|4|0,0:0|0:0|0:0,0:0:0:0:
173,75,29877,5,4,0:0:0:0:
148,84,30177,1,4,0:0:0:0:
124,92,30477,1,4,0:0:0:0:
50,172,30627,5,0,0:0:0:0:
61,202,30702,1,0,0:0:0:0:
66,233,30777,1,0,0:0:0:0:
63,265,30852,1,0,0:0:0:0:
48,294,30927,2,0,P|108:292|158:294,1,107.999996704102,4|0,0:0|0:0,0:0:0:0:
292,120,31277,6,0,P|363:115|435:113,2,143.999995605469,8|8|8,0:0|0:0|0:0,0:0:0:0:
378,28,31877,1,8,0:0:0:0:
273,238,32077,1,8,0:0:0:0:
131,37,32277,6,0,P|151:91|149:144,1,107.999996704102,4|0,0:0|0:0,0:0:0:0:
147,173,32502,1,0,0:0:0:0:
140,204,32577,1,0,0:0:0:0:
45,282,32727,2,0,L|65:214,1,53.9999983520508,4|0,0:0|0:0,0:0:0:0:
126,289,32877,2,0,L|106:357,1,53.9999983520508,0|0,0:0|0:0,0:0:0:0:
198,326,33027,1,0,0:0:0:0:
236,327,33102,1,0,0:0:0:0:
273,333,33177,1,4,0:0:0:0:
424,220,33777,6,0,P|416:172|464:60,1,153.000002918243,2|0,0:0|0:0,0:0:0:0:
379,43,34177,1,0,0:0:0:0:
328,43,34277,1,0,0:0:0:0:
277,47,34377,1,2,0:0:0:0:
296,336,34677,6,0,L|414:344,1,107.999996704102,4|0,0:0|0:0,0:0:0:0:
345,206,34977,2,0,L|290:210,1,53.9999983520508,0|0,0:0|0:0,0:0:0:0:
169,264,35127,2,0,L|223:260,1,53.9999983520508,4|0,0:0|0:0,0:0:0:0:
220,180,35277,1,0,0:0:0:0:
176,184,35352,1,0,0:0:0:0:
132,188,35427,1,0,0:0:0:0:
88,192,35502,1,0,0:0:0:0:
44,196,35577,1,4,0:0:0:0:
244,72,36027,5,0,0:0:0:0:
340,167,36177,1,0,0:0:0:0:
345,206,36252,1,0,0:0:0:0:
350,243,36327,2,0,L|358:315,1,53.9999983520508
458,328,36477,2,0,P|453:235|466:136,2,161.999995056153,4|4|4,0:0|0:0|0:0,0:0:0:0:
260,320,37077,6,0,P|168:316|116:320,1,107.999996704102,4|0,0:0|0:0,0:0:0:0:
120,320,37302,1,0,0:0:0:0:
88,325,37377,1,0,0:0:0:0:
45,197,37527,1,4,0:0:0:0:
77,200,37602,1,0,0:0:0:0:
109,202,37677,2,0,L|176:207,1,53.9999983520508,0|0,0:0|0:0,0:0:0:0:
251,174,37827,2,0,L|246:241,1,53.9999983520508
196,113,37977,1,4,0:0:0:0:
372,63,38577,6,0,P|410:107|392:203,1,161.999995056153,2|0,0:0|0:0,0:0:0:0:
376,231,38877,1,2,0:0:0:0:
362,260,38952,1,2,0:0:0:0:
361,292,39027,1,2,0:0:0:0:
378,319,39102,1,0,0:0:0:0:
407,332,39177,1,2,0:0:0:0:
439,327,39252,1,0,0:0:0:0:
458,301,39327,1,2,0:0:0:0:
486,206,39477,6,0,L|489:99,1,107.999996704102,4|0,0:0|0:0,0:0:0:0:
376,231,39777,1,0,0:0:0:0:
328,68,39927,2,0,L|268:71,1,53.9999983520508,6|0,0:0|0:0,0:0:0:0:
213,143,40077,2,0,L|195:200,1,53.9999983520508
128,108,40227,2,0,L|145:50,1,53.9999983520508
40,132,40377,1,4,0:0:0:0:
32,336,40827,5,6,0:0:0:0:
32,336,40977,1,4,0:0:0:0:
228,260,41127,2,0,L|298:255,2,53.9999983520508,4|4|2,0:0|0:0|0:0,0:0:0:0:
104,196,41427,1,6,0:0:0:0:
185,335,41727,6,0,P|260:340|313:264,1,135,4|0,0:0|0:0,0:0:0:0:
313,278,42027,1,0,0:0:0:0:
322,252,42102,1,0,0:0:0:0:
328,225,42177,1,0,0:0:0:0:
335,199,42252,1,0,0:0:0:0:
348,175,42327,1,0,0:0:0:0:
366,155,42402,1,0,0:0:0:0:
391,145,42477,6,0,L|459:142,1,45,0|0,0:0|0:0,0:0:0:0:
424,52,42627,2,0,L|492:49,1,45,0|0,0:0|0:0,0:0:0:0:
324,38,42777,2,0,L|279:39,1,45,0|0,0:0|0:0,0:0:0:0:
267,127,42927,2,0,L|222:128,1,45,0|0,0:0|0:0,0:0:0:0:
122,56,43077,6,0,P|123:126|103:182,1,90,0|10,0:0|0:0,0:0:0:0:
112,171,43302,1,0,0:0:0:0:
104,196,43377,1,10,0:0:0:0:
172,310,43527,1,10,0:0:0:0:
172,310,43602,1,10,0:0:0:0:
172,310,43677,2,0,L|71:313,1,90,10|10,0:0|0:0,0:0:0:0:
208,193,44127,6,0,P|181:138|230:46,1,135,4|0,0:0|0:0,0:0:0:0:
220,51,44427,1,0,0:0:0:0:
244,40,44502,1,0,0:0:0:0:
270,39,44577,1,0,0:0:0:0:
296,45,44652,1,0,0:0:0:0:
320,55,44727,1,0,0:0:0:0:
346,62,44802,1,0,0:0:0:0:
372,65,44877,6,0,L|431:63,1,45,0|0,0:0|0:0,0:0:0:0:
393,150,45027,2,0,L|348:151,1,45,0|0,0:0|0:0,0:0:0:0:
486,138,45177,2,0,L|487:182,1,45,0|0,0:0|0:0,0:0:0:0:
410,271,45327,2,0,L|408:226,1,45,0|0,0:0|0:0,0:0:0:0:
416,63,45477,5,10,0:0:0:0:
309,243,45627,1,10,0:0:0:0:
248,124,45777,1,10,0:0:0:0:
75,126,45927,1,10,0:0:0:0:
75,126,46002,1,10,0:0:0:0:
75,126,46077,2,0,P|144:122|179:124,1,90,10|10,0:0|0:0,0:0:0:0:
410,271,46527,6,0,P|328:263|224:277,1,180,4|0,0:0|0:0,0:0:0:0:
201,284,46902,1,0,0:0:0:0:
172,297,46977,2,0,P|165:234|154:190,1,90
160,208,47202,1,0,0:0:0:0:
160,208,47277,1,0,0:0:0:0:
274,143,47427,2,0,P|280:117|284:94,2,45
397,286,47727,1,0,0:0:0:0:
397,286,47802,1,0,0:0:0:0:
397,286,47877,6,0,P|422:219|390:157,1,135,4|0,0:0|0:0,0:0:0:0:
375,135,48177,1,0,0:0:0:0:
159,33,48477,1,8,0:0:0:0:
203,121,48627,2,0,L|248:124,2,45,0|0|8,0:0|0:0|0:0,0:0:0:0:
15,103,48927,1,8,0:0:0:0:
204,167,49077,5,4,0:0:0:0:
60,28,49227,1,0,0:0:0:0:
24,223,49377,1,0,0:0:0:0:
182,264,49527,1,4,0:0:0:0:
182,264,49602,1,0,0:0:0:0:
182,264,49677,1,0,0:0:0:0:
182,264,49752,1,0,0:0:0:0:
182,264,49827,1,0,0:0:0:0:
294,142,49977,2,0,P|295:186|276:228,1,90,4|0,0:0|0:0,0:0:0:0:
104,224,50427,5,8,0:0:0:0:
414,196,50577,1,8,0:0:0:0:
256,48,50727,1,8,0:0:0:0:
256,340,50877,1,8,0:0:0:0:
496,250,51177,5,4,0:0:0:0:
507,215,51252,1,0,0:0:0:0:
496,180,51327,1,0,0:0:0:0:
506,145,51402,1,0,0:0:0:0:
492,112,51477,5,2,0:0:0:0:
476,108,51552,1,0,0:0:0:0:
460,104,51627,1,2,0:0:0:0:
444,100,51702,1,0,0:0:0:0:
428,96,51777,1,2,0:0:0:0:
412,92,51852,1,0,0:0:0:0:
396,88,51927,2,0,L|324:93,1,45,2|0,0:0|0:0,0:0:0:0:
262,147,52077,5,2,0:0:0:0:
246,179,52152,1,0,0:0:0:0:
216,199,52227,1,2,0:0:0:0:
180,201,52302,1,0,0:0:0:0:
144,193,52377,2,0,L|151:137,1,45,2|0,0:0|0:0,0:0:0:0:
107,37,52527,2,0,L|99:93,1,45,2|0,0:0|0:0,0:0:0:0:
47,170,52677,5,2,0:0:0:0:
61,207,52752,1,2,0:0:0:0:
66,247,52827,1,2,0:0:0:0:
61,287,52902,1,0,0:0:0:0:
39,321,52977,2,0,B|94:308|134:299|134:299|168:303|192:309,1,135
207,332,53277,1,8,0:0:0:0:
361,326,53427,5,8,0:0:0:0:
413,167,53577,1,8,0:0:0:0:
293,56,53727,1,8,0:0:0:0:
134,101,53877,5,4,0:0:0:0:
243,210,54027,1,0,0:0:0:0:
413,167,54177,1,0,0:0:0:0:
449,18,54327,1,4,0:0:0:0:
488,228,54477,2,0,L|504:112,1,107.999996704102,0|0,0:0|0:0,0:0:0:0:
340,236,54777,1,0,0:0:0:0:
317,66,54927,6,0,L|385:74,1,53.9999983520508,4|0,0:0|0:0,0:0:0:0:
334,142,55077,2,0,L|202:126,1,107.999996704102
60,45,55377,1,4,0:0:0:0:
61,207,55527,1,0,0:0:0:0:
61,207,55602,1,0,0:0:0:0:
61,207,55677,1,4,0:0:0:0:
186,311,55827,1,0,0:0:0:0:
206,314,55902,1,0,0:0:0:0:
226,317,55977,1,4,0:0:0:0:
445,293,56127,6,0,P|456:330|461:363,1,53.9999983520508
449,220,56277,2,0,P|385:236|337:276,1,107.999996704102,4|0,0:0|0:0,0:0:0:0:
351,260,56502,1,0,0:0:0:0:
351,260,56577,1,0,0:0:0:0:
210,213,56727,2,0,P|208:143|204:89,1,107.999996704102,4|0,0:0|0:0,0:0:0:0:
311,155,57027,1,0,0:0:0:0:
369,55,57177,5,0,0:0:0:0:
369,55,57252,1,0,0:0:0:0:
369,55,57327,2,0,P|311:54|247:41,1,107.999996704102,4|0,0:0|0:0,0:0:0:0:
83,44,57627,1,0,0:0:0:0:
124,220,57777,2,0,P|152:275|221:298,1,107.999996704102,4|0,0:0|0:0,0:0:0:0:
307,336,58077,1,4,0:0:0:0:
88,324,58227,1,4,0:0:0:0:
210,213,58377,2,0,L|215:160,3,53.9999983520508,0|0|0|0,0:0|0:0|0:0|0:0,0:0:0:0:
230,137,58677,5,4,0:0:0:0:
328,56,58827,1,0,0:0:0:0:
144,128,58977,1,12,0:0:0:0:
324,256,59127,1,0,0:0:0:0:
196,56,59277,2,0,P|144:40|84:64,1,107.999996704102,0|8,0:0|0:0,0:0:0:0:
92,196,59577,2,0,P|143:212|204:188,1,107.999996704102,0|0,0:0|0:0,0:0:0:0:
193,196,59802,1,0,0:0:0:0:
193,196,59877,5,4,0:0:0:0:
420,96,60027,1,0,0:0:0:0:
224,44,60177,1,12,0:0:0:0:
432,272,60327,1,0,0:0:0:0:
309,134,60477,1,0,0:0:0:0:
245,318,60627,2,0,L|305:313,3,53.9999983520508,8|0|8|0,0:0|0:0|0:0|0:0,0:0:0:0:
320,288,60927,1,8,0:0:0:0:
176,71,61077,5,8,0:0:0:0:
416,192,61227,1,8,0:0:0:0:
112,192,61377,1,8,0:0:0:0:
328,72,61527,1,8,0:0:0:0:
328,324,61677,1,8,0:0:0:0:
84,108,61827,1,8,0:0:0:0:
332,192,61977,1,8,0:0:0:0:
84,284,62127,1,8,0:0:0:0:
352,318,62427,6,0,P|296:314|244:318,1,107.999996704102
42,264,62802,1,0,0:0:0:0:
42,231,62877,1,0,0:0:0:0:
50,199,62952,1,0,0:0:0:0:
62,169,63027,1,0,0:0:0:0:
72,138,63102,1,0,0:0:0:0:
84,108,63177,2,0,P|86:72|81:44,3,53.9999983520508,4|0|0|0,0:0|0:0|0:0|0:0,0:0:0:0:
176,51,63477,6,0,P|239:44|309:55,1,107.999996704102,12|0,0:0|0:0,0:0:0:0:
417,98,63777,1,0,0:0:0:0:
465,241,63927,1,8,0:0:0:0:
306,194,64077,1,0,0:0:0:0:
417,98,64227,5,0,0:0:0:0:
465,241,64377,1,0,0:0:0:0:
349,340,64527,2,0,L|406:346,1,53.9999983520508,8|0,0:0|0:0,0:0:0:0:
283,293,64677,2,0,P|235:278|171:296,1,107.999996704102,0|0,0:0|0:0,0:0:0:0:
40,344,64977,1,4,0:0:0:0:
28,196,65127,5,0,0:0:0:0:
32,228,65202,1,0,0:0:0:0:
36,260,65277,1,4,0:0:0:0:
156,212,65427,1,0,0:0:0:0:
156,212,65502,1,0,0:0:0:0:
156,212,65577,2,0,P|165:151|164:100,1,107.999996704102,4|0,0:0|0:0,0:0:0:0:
356,212,65877,2,0,P|347:151|348:100,1,107.999996704102,4|0,0:0|0:0,0:0:0:0:
256,68,66177,5,0,0:0:0:0:
256,68,66327,2,0,L|256:180,1,107.999996704102,4|0,0:0|0:0,0:0:0:0:
292,332,66627,1,0,0:0:0:0:
217,297,66777,2,0,P|190:304|150:300,1,53.9999983520508,0|0,0:0|0:0,0:0:0:0:
292,331,66927,2,0,P|343:318|397:319,1,107.999996704102,4|0,0:0|0:0,0:0:0:0:
470,226,67227,1,0,0:0:0:0:
378,120,67377,6,0,P|368:173|366:233,1,107.999996704102,4|0,0:0|0:0,0:0:0:0:
388,342,67677,1,0,0:0:0:0:
284,241,67827,2,0,P|234:216|181:219,1,107.999996704102,4|0,0:0|0:0,0:0:0:0:
64,252,68127,5,4,0:0:0:0:
86,129,68277,1,0,0:0:0:0:
86,129,68352,1,0,0:0:0:0:
86,129,68427,1,0,0:0:0:0:
86,129,68502,1,0,0:0:0:0:
86,129,68577,2,0,L|203:126,1,107.999996704102,8|0,0:0|0:0,0:0:0:0:
400,120,68877,1,0,0:0:0:0:
321,39,69027,5,0,0:0:0:0:
299,69,69102,1,0,0:0:0:0:
288,105,69177,1,8,0:0:0:0:
289,142,69252,1,0,0:0:0:0:
301,177,69327,1,0,0:0:0:0:
324,206,69402,1,0,0:0:0:0:
345,237,69477,2,0,P|362:293|342:344,1,107.999996704102,4|8,0:0|0:0,0:0:0:0:
171,337,69777,1,0,0:0:0:0:
86,129,69927,1,4,0:0:0:0:
429,49,70227,6,0,P|430:119|426:165,1,107.999996704102
345,237,70527,1,0,0:0:0:0:
171,337,70677,6,0,P|94:351|26:302,1,144,12|0,0:0|0:0,0:0:0:0:
86,129,71277,2,0,P|123:188|116:258,1,144,12|0,0:0|0:0,0:0:0:0:
115,257,71727,1,12,0:0:0:0:
179,93,72027,5,0,0:0:0:0:
277,48,72177,1,0,0:0:0:0:
382,31,72327,1,0,0:0:0:0:
423,144,72477,2,0,L|427:265,2,108,4|4|4,0:0|0:0|0:0,0:0:0:0:
487,46,73077,1,4,0:0:0:0:
20,51,81477,6,0,P|140:156|-5:110,1,404.999987640381,4|0,0:0|0:0,0:0:0:0:
75,110,82377,5,0,0:0:0:0:
80,113,82452,1,0,0:0:0:0:
85,116,82527,1,0,0:0:0:0:
90,119,82602,1,0,0:0:0:0:
95,122,82677,2,0,P|154:133|212:121,1,107.999996704102,2|0,0:0|0:0,0:0:0:0:
268,100,82927,2,0,L|272:147,1,35.9999989013672
351,219,83127,5,2,0:0:0:0:
353,181,83202,1,0,0:0:0:0:
356,143,83277,1,0,0:0:0:0:
358,105,83352,1,0,0:0:0:0:
361,68,83427,1,0,0:0:0:0:
462,71,83577,5,2,0:0:0:0:
459,107,83652,1,2,0:0:0:0:
456,143,83727,1,2,0:0:0:0:
453,179,83802,1,2,0:0:0:0:
451,215,83877,1,2,0:0:0:0:
415,329,84027,6,0,L|467:341,2,53.9999983520508,2|2|2,0:0|0:0|0:0,0:0:0:0:
300,338,84327,1,0,0:0:0:0:
196,312,84477,1,2,0:0:0:0:
196,312,84552,1,2,0:0:0:0:
196,312,84627,2,0,P|144:296|84:295,2,107.999996704102,2|2|2,0:0|0:0|0:0,0:0:0:0:
28,187,85077,2,0,P|89:203|149:197,1,107.999996704102
134,200,85302,1,2,0:0:0:0:
134,200,85377,1,2,0:0:0:0:
248,184,85527,1,0,0:0:0:0:
377,217,85677,5,0,0:0:0:0:
398,186,85752,1,0,0:0:0:0:
404,148,85827,1,0,0:0:0:0:
400,110,85902,1,0,0:0:0:0:
385,74,85977,1,0,0:0:0:0:
347,69,86052,1,0,0:0:0:0:
309,75,86127,1,0,0:0:0:0:
274,89,86202,1,0,0:0:0:0:
236,87,86277,2,0,L|241:32,4,53.9999983520508,2|2|2|2|2,0:0|0:0|0:0|0:0|0:0,0:0:0:0:
106,163,86727,1,0,0:0:0:0:
106,163,86802,1,0,0:0:0:0:
106,163,86877,1,0,0:0:0:0:
41,301,87027,5,2,0:0:0:0:
78,297,87102,1,2,0:0:0:0:
115,298,87177,1,2,0:0:0:0:
151,307,87252,1,2,0:0:0:0:
187,316,87327,2,0,P|191:276|194:259,1,53.9999983520508
278,202,87477,6,0,P|272:255|268:309,1,107.999996704102,4|0,0:0|0:0,0:0:0:0:
268,347,87702,1,0,0:0:0:0:
305,344,87777,1,0,0:0:0:0:
342,345,87852,1,0,0:0:0:0:
379,350,87927,2,0,P|410:336|438:330,1,53.9999983520508
512,301,88077,2,0,P|456:296|382:224,2,161.999995056153,0|8|0,0:0|0:0|0:0,0:0:0:0:
490,187,88677,1,12,0:0:0:0:
298,234,88827,5,0,0:0:0:0:
278,202,88902,1,0,0:0:0:0:
266,166,88977,1,0,0:0:0:0:
265,128,89052,1,0,0:0:0:0:
274,91,89127,1,0,0:0:0:0:
291,58,89202,1,0,0:0:0:0:
320,34,89277,2,0,P|407:18|474:54,2,161.999995056153,8|0|8,0:0|0:0|0:0,0:0:0:0:
163,202,89877,5,12,0:0:0:0:
386,143,90027,1,0,0:0:0:0:
157,43,90177,1,0,0:0:0:0:
266,166,90327,1,12,0:0:0:0:
263,202,90402,1,0,0:0:0:0:
260,238,90477,1,0,0:0:0:0:
257,274,90552,1,0,0:0:0:0:
253,309,90627,1,0,0:0:0:0:
118,250,90777,2,0,P|118:196|117:140,1,107.999996704102,8|0,0:0|0:0,0:0:0:0:
456,123,91227,5,8,0:0:0:0:
291,333,91377,1,8,0:0:0:0:
162,116,91527,1,8,0:0:0:0:
400,280,91677,1,8,0:0:0:0:
348,132,91827,6,0,L|356:61,1,53.9999983520508,0|4,0:0|0:0,0:0:0:0:
436,29,92127,1,0,0:0:0:0:
283,40,92277,2,0,P|248:40|215:52,1,67.5000025749208,0|0,0:0|0:0,0:0:0:0:
113,117,92577,1,0,0:0:0:0:
69,235,92727,1,0,0:0:0:0:
316,236,93027,1,0,0:0:0:0:
171,318,93327,6,0,P|244:318|318:335,1,135.000005149842
392,297,93777,2,0,P|410:352|415:375,1,67.5000025749208
448,238,94077,2,0,P|436:193|435:157,1,67.5000025749208
435,172,94377,1,0,0:0:0:0:
274,69,94677,6,0,P|217:62|131:80,1,135.000005149842
64,179,95127,1,0,0:0:0:0:
197,266,95427,5,0,0:0:0:0:
255,222,95502,1,0,0:0:0:0:
328,219,95577,1,0,0:0:0:0:
390,260,95652,1,0,0:0:0:0:
416,328,95727,6,0,L|435:195,1,107.999996704102,4|0,0:0|0:0,0:0:0:0:
426,68,96027,1,0,0:0:0:0:
426,68,96102,1,0,0:0:0:0:
426,68,96177,2,0,P|373:80|322:65,1,107.999996704102,4|0,0:0|0:0,0:0:0:0:
166,54,96477,2,0,P|109:39|51:49,1,107.999996704102,0|4,0:0|0:0,0:0:0:0:
99,188,96777,1,0,0:0:0:0:
99,188,96852,1,0,0:0:0:0:
99,188,96927,1,0,0:0:0:0:
99,188,97002,1,0,0:0:0:0:
99,188,97077,6,0,P|115:246|107:304,1,107.999996704102,4|0,0:0|0:0,0:0:0:0:
193,228,97377,1,0,0:0:0:0:
275,166,97527,2,0,P|223:154|179:124,1,107.999996704102
203,331,97827,2,0,P|239:292|288:269,1,107.999996704102,4|0,0:0|0:0,0:0:0:0:
473,273,98127,6,0,P|462:329|462:341,1,53.9999983520508,0|0,0:0|0:0,0:0:0:0:
398,261,98277,2,0,P|410:192|409:131,1,107.999996704102,4|0,0:0|0:0,0:0:0:0:
330,75,98577,1,0,0:0:0:0:
506,42,98727,2,0,P|458:66|404:69,1,107.999996704102,4|0,0:0|0:0,0:0:0:0:
256,80,99027,2,0,P|200:84|156:108,1,107.999996704102,4|0,0:0|0:0,0:0:0:0:
155,108,99252,1,0,0:0:0:0:
155,108,99327,1,0,0:0:0:0:
155,284,99477,5,8,0:0:0:0:
351,108,99627,1,8,0:0:0:0:
155,108,99777,1,8,0:0:0:0:
351,284,99927,1,8,0:0:0:0:
76,192,100077,1,8,0:0:0:0:
440,192,100227,1,8,0:0:0:0:
256,320,100377,1,8,0:0:0:0:
256,80,100527,1,8,0:0:0:0:
165,193,100827,6,0,P|221:193|284:159,1,107.999996704102,8|8,0:0|0:0,0:0:0:0:
395,39,101202,1,0,0:0:0:0:
426,32,101277,1,0,0:0:0:0:
457,41,101352,1,0,0:0:0:0:
477,66,101427,1,0,0:0:0:0:
482,97,101502,1,0,0:0:0:0:
486,130,101577,2,0,P|498:185|514:206,3,53.9999983520508,0|0|0|0,0:0|0:0|0:0|0:0,0:0:0:0:
458,275,101877,6,0,L|351:284,1,107.999996704102,4|0,0:0|0:0,0:0:0:0:
185,277,102177,1,8,0:0:0:0:
91,150,102327,1,0,0:0:0:0:
253,130,102477,1,0,0:0:0:0:
185,277,102627,1,0,0:0:0:0:
29,290,102777,1,8,0:0:0:0:
91,150,102927,6,0,P|101:116|102:79,1,53.9999983520508,0|0,0:0|0:0,0:0:0:0:
172,151,103077,2,0,P|205:197|272:210,1,107.999996704102,0|0,0:0|0:0,0:0:0:0:
368,90,103377,1,8,0:0:0:0:
360,213,103527,1,0,0:0:0:0:
392,208,103602,1,0,0:0:0:0:
424,204,103677,1,8,0:0:0:0:
460,320,103827,1,0,0:0:0:0:
460,320,103902,1,0,0:0:0:0:
460,320,103977,2,0,P|392:312|332:324,1,107.999996704102,8|0,0:0|0:0,0:0:0:0:
172,336,104277,6,0,L|284:336,1,107.999996704102,4|0,0:0|0:0,0:0:0:0:
388,167,104577,2,0,P|373:189|360:213,1,53.9999983520508,8|0,0:0|0:0,0:0:0:0:
458,127,104727,2,0,P|451:76|458:9,1,107.999996704102,4|0,0:0|0:0,0:0:0:0:
456,213,105027,1,0,0:0:0:0:
277,48,105177,1,0,0:0:0:0:
277,48,105252,1,0,0:0:0:0:
277,48,105327,6,0,L|283:161,1,107.999996704102,12|0,0:0|0:0,0:0:0:0:
299,287,105627,1,8,0:0:0:0:
153,225,105777,2,0,P|81:230|34:222,1,107.999996704102,8|0,0:0|0:0,0:0:0:0:
45,224,106002,1,0,0:0:0:0:
45,224,106077,1,4,0:0:0:0:
187,151,106227,1,0,0:0:0:0:
69,318,106377,1,0,0:0:0:0:
44,48,106527,6,0,P|97:39|149:52,1,107.999996704102,12|0,0:0|0:0,0:0:0:0:
189,67,106752,1,0,0:0:0:0:
231,77,106827,1,0,0:0:0:0:
274,78,106902,1,0,0:0:0:0:
316,71,106977,1,0,0:0:0:0:
451,63,107127,1,8,0:0:0:0:
394,260,107277,2,0,P|395:188|412:122,1,107.999996704102,0|0,0:0|0:0,0:0:0:0:
299,218,107577,5,0,0:0:0:0:
299,218,107652,1,0,0:0:0:0:
299,218,107727,1,0,0:0:0:0:
299,218,107802,1,0,0:0:0:0:
299,218,107877,2,0,P|238:228|192:225,1,107.999996704102,12|0,0:0|0:0,0:0:0:0:
57,170,108177,1,0,0:0:0:0:
274,78,108327,1,12,0:0:0:0:
472,291,108627,6,0,L|463:164,1,107.999996704102,8|8,0:0|0:0,0:0:0:0:
409,67,108927,1,8,0:0:0:0:
327,138,109077,6,0,P|250:155|201:46,1,180,8|0,0:0|0:0,0:0:0:0:
327,138,109677,2,0,P|404:121|453:230,1,180,8|0,0:0|0:0,0:0:0:0:
446,310,110127,1,8,0:0:0:0:
151,280,110427,2,0,P|104:270|36:298,2,90,8|8|8,0:0|0:0|0:0,0:0:0:0:
235,307,110877,2,0,P|308:322|381:292,2,135,8|8|8,0:0|0:0|0:0,0:0:0:0:
167,183,111477,5,0,0:0:0:0:
263,53,111627,1,0,0:0:0:0:
385,183,111777,2,0,L|394:82,1,90,4|0,0:0|0:0,0:0:0:0:
299,218,112077,5,0,0:0:0:0:
471,172,112227,1,0,0:0:0:0:
357,24,112377,2,0,L|349:113,1,90,4|0,0:0|0:0,0:0:0:0:
158,235,112677,5,0,0:0:0:0:
183,31,112827,1,0,0:0:0:0:
320,125,112977,1,4,0:0:0:0:
86,149,113127,1,0,0:0:0:0:
299,218,113277,5,0,0:0:0:0:
320,223,113352,1,0,0:0:0:0:
343,226,113427,1,0,0:0:0:0:
364,225,113502,1,0,0:0:0:0:
386,221,113577,1,4,0:0:0:0:
409,216,113652,1,0,0:0:0:0:
431,213,113727,1,0,0:0:0:0:
454,216,113802,1,0,0:0:0:0:
475,221,113877,6,0,L|482:131,1,90,8|0,0:0|0:0,0:0:0:0:
501,323,114177,2,0,L|495:234,1,90,8|0,0:0|0:0,0:0:0:0:
387,67,114477,1,8,0:0:0:0:
366,58,114552,1,0,0:0:0:0:
344,51,114627,1,0,0:0:0:0:
321,51,114702,1,0,0:0:0:0:
299,57,114777,1,8,0:0:0:0:
277,63,114852,1,0,0:0:0:0:
254,63,114927,1,0,0:0:0:0:
232,57,115002,1,0,0:0:0:0:
209,52,115077,6,0,L|159:55,1,45,8|0,0:0|0:0,0:0:0:0:
174,135,115227,2,0,L|124:138,1,45,8|0,0:0|0:0,0:0:0:0:
141,215,115377,2,0,L|91:218,1,45,8|0,0:0|0:0,0:0:0:0:
107,299,115527,2,0,L|57:302,1,45,8|0,0:0|0:0,0:0:0:0:
174,338,115677,5,2,0:0:0:0:
208,335,115752,1,2,0:0:0:0:
244,331,115827,1,2,0:0:0:0:
280,327,115902,1,2,0:0:0:0:
316,323,115977,1,2,0:0:0:0:
352,319,116052,1,2,0:0:0:0:
388,315,116127,1,2,0:0:0:0:
423,311,116202,1,0,0:0:0:0:
461,288,116277,5,10,0:0:0:0:
407,68,116427,1,10,0:0:0:0:
