osu file format v14

[General]
AudioFilename: Wish upon Twin Stars.mp3
AudioLeadIn: 1000
PreviewTime: 53415
Countdown: 0
SampleSet: Soft
StackLeniency: 0.7
Mode: 0
LetterboxInBreaks: 0
WidescreenStoryboard: 0

[Editor]
DistanceSpacing: 0.8
BeatDivisor: 4
GridSize: 4
TimelineZoom: 2.1

[Metadata]
Title:Wish upon Twin Stars
TitleUnicode:Wish upon Twin Stars
Artist:xi
ArtistUnicode:xi
Creator:Chaoslitz
Version:NOVICE
Source:SOUND VOLTEX II -infinite infection-
Tags:sdvx Gaia ニア ノア NEAR NOAH
BeatmapID:680477
BeatmapSetID:242462

[Difficulty]
HPDrainRate:4
CircleSize:3
OverallDifficulty:4
ApproachRate:5
SliderMultiplier:1.1
SliderTickRate:1

[Events]
//Background and Video events
0,0,"bg.jpg",0,0
//Break Periods
2,75465,80277
//Storyboard Layer 0 (Background)
//Storyboard Layer 1 (Fail)
//Storyboard Layer 2 (Pass)
//Storyboard Layer 3 (Foreground)
//Storyboard Sound Samples

[TimingPoints]
-123,300,4,2,2,40,1,0
4977,-100,4,2,1,40,0,0
5877,-100,4,2,1,50,0,0
13077,-100,4,2,1,40,0,0
20277,-100,4,2,1,60,0,0
22077,-100,4,2,1,60,0,0
22527,-100,4,2,1,60,0,0
22677,-100,4,2,15,40,0,0
22977,-100,4,2,1,60,0,0
27102,-100,4,3,1,60,0,0
27477,-100,4,2,1,60,0,0
29877,-100,4,2,1,60,0,0
31227,-100,4,2,1,50,0,0
32277,-100,4,2,1,60,0,0
33027,-100,4,2,1,60,0,0
34677,-100,4,2,1,60,0,0
41727,-100,4,2,1,65,0,0
43227,-100,4,2,15,65,0,0
44427,-100,4,2,1,65,0,0
45477,-100,4,2,15,65,0,0
49077,-100,4,2,1,65,0,0
51177,-100,4,2,2,60,0,0
53277,-100,4,2,15,50,0,0
53427,-100,4,2,15,60,0,0
53877,-100,4,2,1,70,0,1
58677,-100,4,2,2,40,0,1
58752,-100,4,2,1,70,0,1
58827,-100,4,2,15,70,0,1
59877,-100,4,2,2,40,0,1
59952,-100,4,2,15,70,0,1
61077,-100,4,2,1,70,0,1
62127,-100,4,2,1,70,0,0
62427,-100,4,2,2,70,0,0
63177,-100,4,2,2,40,0,0
63477,-100,4,2,15,70,0,1
64977,-100,4,2,1,70,0,1
68127,-100,4,2,2,40,0,1
68277,-100,4,2,15,70,0,1
70677,-100,4,2,15,70,0,0
81477,-100,4,3,18,60,0,0
82677,-100,4,2,1,60,0,0
91827,-100,4,2,1,40,0,0
91977,-100,4,2,2,40,0,0
92277,-100,4,2,2,40,0,0
95727,-100,4,2,1,50,0,1
97077,-100,4,2,1,70,0,1
97153,-100,4,2,1,60,0,1
100827,-100,4,2,15,60,0,0
101877,-100,4,2,15,70,0,1
109077,-100,4,2,1,50,0,0
110427,-100,4,2,1,60,0,0
111102,-100,4,2,1,70,0,0
111477,-100,4,2,1,60,0,0
115077,-100,4,2,1,80,0,0

[Colours]
Combo1 : 15,50,249
Combo2 : 4,215,204
Combo3 : 62,172,253

[HitObjects]
268,66,627,6,0,L|327:63,1,55
366,65,927,1,0,0:0:0:0:
408,80,1077,2,0,P|452:160|428:232,1,165,2|2,0:0|0:0,0:0:0:0:
364,280,1827,1,2,0:0:0:0:
276,288,2127,6,0,L|152:284,1,110,2|0,0:0|0:0,0:0:0:0:
132,312,2577,2,0,P|80:317|28:293,2,110,2|2|2,0:0|0:0|0:0,0:0:0:0:
94,232,3477,6,0,P|82:148|106:52,2,165,2|2|2,0:0|0:0|0:0,0:0:0:0:
255,298,4977,1,8,0:0:0:0:
332,258,5277,2,0,P|342:299|330:342,2,82.5
310,209,5877,6,0,P|293:145|309:89,1,110,4|8,0:0|0:0,0:0:0:0:
378,60,6477,2,0,P|385:119|371:155,2,82.5,0|8|0,0:0|0:0|0:0,0:0:0:0:
361,18,7077,2,0,P|305:-1|242:18,1,110,4|8,0:0|0:0,0:0:0:0:
206,82,7677,2,0,P|247:96|299:81,2,82.5,0|8|0,0:0|0:0|0:0,0:0:0:0:
168,58,8277,6,0,P|76:39|2:78,2,165,12|12|12,0:0|0:0|0:0,0:0:0:0:
298,139,9627,2,0,L|295:208,1,55,8|8,0:0|0:0,0:0:0:0:
267,228,9927,2,0,L|263:295,1,55,8|8,0:0|0:0,0:0:0:0:
179,308,10377,1,12,0:0:0:0:
256,192,10677,12,0,13077,0:0:0:0:
243,71,13677,6,0,P|247:129|240:182,1,110,2|0,0:0|0:0,0:0:0:0:
230,222,14127,2,0,P|296:267|371:240,1,165,2|0,0:0|0:0,0:0:0:0:
412,160,14877,1,2,0:0:0:0:
412,160,15027,2,0,P|455:211|459:259,1,110
443,293,15477,1,2,0:0:0:0:
371,240,15777,5,0,0:0:0:0:
340,322,16077,2,0,P|265:314|215:329,1,110,0|0,0:0|0:0,0:0:0:0:
189,334,16527,2,0,P|121:340|52:257,1,165,2|2,0:0|0:0,0:0:0:0:
37,189,17277,2,0,P|32:127|40:72,1,110,2|2,0:0|0:0,0:0:0:0:
118,43,17877,6,0,P|208:57|276:26,2,165,6|6|2,0:0|0:0|0:0,0:0:0:0:
38,79,19077,2,0,P|31:134|37:189,1,110,2|2,0:0|0:0,0:0:0:0:
116,151,19677,2,0,P|133:207|170:246,1,110,2|0,0:0|0:0,0:0:0:0:
247,279,20277,6,0,P|307:276|356:238,1,110,4|0,0:0|0:0,0:0:0:0:
372,213,20727,2,0,P|391:133|367:56,1,165,4|0,0:0|0:0,0:0:0:0:
288,16,21477,2,0,P|233:17|187:46,1,110,4|0,0:0|0:0,0:0:0:0:
124,108,22077,2,0,P|101:62|108:12,2,82.5,4|4|4,0:0|0:0|0:0,0:0:0:0:
130,151,22677,6,0,P|134:184|128:219,1,55,12|8,0:0|0:0,0:0:0:0:
126,247,22977,2,0,P|122:274|124:308,1,55
129,345,23277,2,0,P|189:334|249:347,1,110,4|0,0:0|0:0,0:0:0:0:
280,347,23727,2,0,P|336:338|356:277,1,110,4|0,2:0|2:0,2:0:0:0:
346,251,24177,1,2,0:0:0:0:
262,223,24477,2,0,P|258:171|262:107,1,110
198,51,25077,6,0,P|247:27|310:41,1,110,0|2,0:0|0:0,0:0:0:0:
345,52,25527,2,0,P|396:68|450:58,1,110
480,26,25977,2,0,L|477:142,1,110,2|0,0:0|0:0,0:0:0:0:
464,224,26577,1,0,0:0:0:0:
430,305,26877,2,0,P|486:311|521:291,2,82.5,4|8|12,0:0|0:0|0:0,0:0:0:0:
394,278,27477,6,0,P|333:260|219:294,1,165
172,344,28227,2,0,L|102:340,1,55,0|4,0:0|0:0,0:0:0:0:
83,315,28527,1,0,0:0:0:0:
56,280,28677,6,0,B|86:191|38:191|66:99,1,165
30,31,29427,2,0,P|64:19|101:21,1,55,0|4,0:0|0:0,0:0:0:0:
123,34,29727,1,0,0:0:0:0:
161,54,29877,6,0,L|277:62,1,110,4|4,0:0|0:0,0:0:0:0:
356,40,30477,2,0,P|368:104|352:172,1,110,4|0,0:0|0:0,0:0:0:0:
352,192,30927,1,4,0:0:0:0:
303,282,31277,6,0,P|261:279|217:287,2,73.3333333333333,8|8|8,0:0|0:0|0:0,0:0:0:0:
355,309,31877,2,0,P|403:304|435:284,1,73.3333333333333,8|8,0:0|0:0,0:0:0:0:
465,254,32277,6,0,L|471:83,2,165,4|4|4,0:0|0:0|0:0,0:0:0:0:
299,313,33777,1,2,0:0:0:0:
299,313,34077,2,0,P|262:305|187:313,1,110,0|2,0:0|0:0,0:0:0:0:
108,343,34677,6,0,P|86:277|105:161,2,165,4|4|4,0:0|0:0|0:0,0:0:0:0:
272,281,36177,1,0,0:0:0:0:
348,239,36477,2,0,P|358:282|342:333,2,82.5,4|4|4,0:0|0:0|0:0,0:0:0:0:
323,202,37077,6,0,P|307:122|373:48,2,165,4|4|4,0:0|0:0|0:0,0:0:0:0:
463,308,38577,1,2,0:0:0:0:
463,308,38877,2,0,P|408:305|356:277,1,110,2|2,0:0|0:0,0:0:0:0:
270,280,39477,6,0,P|209:330|117:330,2,165,4|6|4,0:0|0:0|0:0,0:0:0:0:
233,153,40827,1,6,0:0:0:0:
233,153,40977,2,0,P|272:148|312:152,1,55,4|4,0:0|0:0,0:0:0:0:
331,152,41277,2,0,P|358:151|385:147,1,55,4|6,0:0|0:0,0:0:0:0:
473,140,41727,6,0,P|492:211|481:267,1,110,4|0,0:0|0:0,0:0:0:0:
468,286,42177,1,0,0:0:0:0:
400,342,42477,2,0,P|354:360|279:346,1,110
206,361,43077,2,0,P|216:305|204:234,1,110,0|10,0:0|0:0,0:0:0:0:
203,209,43527,1,10,0:0:0:0:
198,165,43677,2,0,P|191:128|198:100,1,55,10|10,0:0|0:0,0:0:0:0:
216,26,44127,6,0,P|160:10|109:19,1,110,4|0,0:0|0:0,0:0:0:0:
69,37,44577,1,0,0:0:0:0:
17,108,44877,2,0,P|12:163|21:217,1,110
62,294,45477,2,0,P|37:305|5:305,2,55,10|10|10,0:0|0:0|0:0,0:0:0:0:
144,264,46077,2,0,P|180:261|220:266,1,55,10|10,0:0|0:0,0:0:0:0:
276,302,46527,6,0,P|330:329|392:318,1,110,4|0,0:0|0:0,0:0:0:0:
416,302,46977,1,0,0:0:0:0:
466,231,47277,2,0,P|471:177|456:114,1,110,8|0,0:0|0:0,0:0:0:0:
432,38,47877,2,0,B|374:28|374:28|324:47,1,110,4|0,0:0|0:0,0:0:0:0:
248,104,48477,1,8,0:0:0:0:
212,80,48627,2,0,L|208:20,2,55,0|0|8,0:0|0:0|0:0,0:0:0:0:
168,68,49077,6,0,P|84:76|8:144,2,165,4|4|4,0:0|0:0|0:0,0:0:0:0:
287,125,50427,2,0,L|290:188,1,55,8|8,0:0|0:0,0:0:0:0:
324,207,50727,2,0,L|327:270,1,55,8|8,0:0|0:0,0:0:0:0:
362,342,51177,5,4,0:0:0:0:
274,331,51477,2,0,P|215:326|149:334,1,110,2|2,0:0|0:0,0:0:0:0:
81,361,52077,2,0,P|73:296|76:237,1,110,2|2,0:0|0:0,0:0:0:0:
83,163,52677,2,0,P|181:106|288:157,1,220,2|8,0:0|0:0,0:0:0:0:
293,180,53427,2,0,L|291:244,2,55,8|8|8,0:0|0:0|0:0,0:0:0:0:
331,202,53877,6,0,P|383:215|437:204,1,110,4|0,0:0|0:0,0:0:0:0:
473,177,54327,2,0,P|478:127|476:64,1,110,4|0,0:0|0:0,0:0:0:0:
391,42,54927,2,0,P|335:50|279:42,1,110,4|0,0:0|0:0,0:0:0:0:
240,29,55377,2,0,P|185:21|131:29,2,110,4|4|4,0:0|0:0|0:0,0:0:0:0:
309,83,56277,6,0,P|319:150|305:211,1,110,4|0,0:0|0:0,0:0:0:0:
294,231,56727,2,0,P|239:249|177:244,1,110,4|0,0:0|0:0,0:0:0:0:
146,230,57177,2,0,L|145:167,1,55,0|4,0:0|0:0,0:0:0:0:
116,91,57627,1,0,0:0:0:0:
116,91,57777,1,4,0:0:0:0:
35,125,58077,2,0,L|36:188,1,55,4|4,0:0|0:0,0:0:0:0:
23,222,58377,2,0,L|24:285,1,55,0|0,0:0|0:0,0:0:0:0:
53,309,58677,6,0,P|139:344|222:321,2,165,4|0|0,0:0|0:0|0:0,0:0:0:0:
23,222,59877,2,0,L|19:49,2,165,4|0|8,0:0|0:0|0:0,0:0:0:0:
109,238,61077,6,0,P|146:234|184:238,1,55,8|8,0:0|0:0,0:0:0:0:
199,260,61377,2,0,P|236:262|272:273,1,55,8|8,0:0|0:0,0:0:0:0:
297,273,61677,2,0,L|301:210,1,55,8|8,0:0|0:0,0:0:0:0:
299,174,61977,2,0,L|303:111,1,55,8|8,0:0|0:0,0:0:0:0:
348,42,62427,6,0,P|382:40|409:43,1,55
481,82,62877,2,0,P|489:139|481:199,1,110,0|4,0:0|0:0,0:0:0:0:
452,273,63477,6,0,P|397:282|343:274,1,110,12|0,0:0|0:0,0:0:0:0:
306,252,63926,2,0,P|251:244|197:253,1,110,8|0,0:0|0:0,0:0:0:0:
128,308,64527,2,0,P|110:256|129:196,1,110,8|0,0:0|0:0,0:0:0:0:
141,163,64977,2,0,P|86:175|26:167,2,110,4|4|4,0:0|0:0|0:0,0:0:0:0:
164,80,65877,6,0,P|217:68|271:73,1,110,4|0,0:0|0:0,0:0:0:0:
310,94,66327,2,0,P|316:145|312:205,1,110,4|0,0:0|0:0,0:0:0:0:
301,246,66777,2,0,P|296:274|300:301,1,55,0|4,0:0|0:0,0:0:0:0:
380,335,67227,2,0,P|408:340|435:336,1,55,0|4,0:0|0:0,0:0:0:0:
465,305,67527,2,0,L|462:360,2,55,0|0|4,0:0|0:0|0:0,0:0:0:0:
495,222,68127,6,0,P|489:167|496:107,1,110,4|0,0:0|0:0,0:0:0:0:
505,70,68577,2,0,P|478:73|445:70,1,55,8|0,0:0|0:0,0:0:0:0:
367,42,69027,1,0,0:0:0:0:
367,42,69177,2,0,L|304:46,1,55,8|0,0:0|0:0,0:0:0:0:
268,37,69477,2,0,P|207:28|148:44,1,110,4|0,0:0|0:0,0:0:0:0:
120,58,69927,1,4,0:0:0:0:
66,127,70227,1,0,0:0:0:0:
56,260,70677,6,0,P|108:292|169:292,1,110,12|0,0:0|0:0,0:0:0:0:
240,324,71277,2,0,L|249:192,1,110,12|0,0:0|0:0,0:0:0:0:
270,173,71727,1,12,0:0:0:0:
303,91,72027,2,0,P|336:113|353:144,2,55,0|0|0,0:0|0:0|0:0,0:0:0:0:
259,82,72477,2,0,P|261:43|280:-8,2,82.5,4|4|4,0:0|0:0|0:0,0:0:0:0:
215,88,73077,5,4,0:0:0:0:
260,78,81477,6,0,P|100:96|56:240,1,330,4|0,0:0|0:0,0:0:0:0:
100,316,82677,6,0,B|144:332|144:332|188:336|232:328,1,110,2|0,0:0|0:0,0:0:0:0:
244,312,83127,2,0,P|304:304|364:320,1,110,2|0,0:0|0:0,0:0:0:0:
392,336,83577,2,0,P|380:272|392:216,1,110,2|2,0:0|0:0,0:0:0:0:
400,184,84027,2,0,P|407:129|395:76,1,110,2|0,0:0|0:0,0:0:0:0:
369,40,84477,2,0,P|410:44|451:41,2,82.5,2|0|2,0:0|0:0|0:0,0:0:0:0:
325,32,85077,6,0,P|272:18|217:37,1,110,0|2,0:0|0:0,0:0:0:0:
183,114,85677,2,0,L|191:245,1,110
187,267,86127,1,0,0:0:0:0:
175,309,86277,2,0,P|118:319|65:307,1,110,2|2,0:0|0:0,0:0:0:0:
26,230,86877,2,0,P|19:166|27:108,1,110,2|2,0:0|0:0,0:0:0:0:
85,58,87477,6,0,P|138:52|205:71,1,110,4|0,0:0|0:0,0:0:0:0:
272,101,88077,2,0,P|314:95|364:104,2,82.5
245,136,88677,2,0,P|237:190|240:245,1,110,4|0,0:0|0:0,0:0:0:0:
212,328,89277,2,0,P|255:332|293:316,2,82.5,8|0|8,0:0|0:0|0:0,0:0:0:0:
171,311,89877,6,0,P|101:297|-2:333,2,165,12|12|8,0:0|0:0|0:0,0:0:0:0:
302,309,91227,2,0,L|300:246,1,55,8|8,0:0|0:0,0:0:0:0:
341,238,91527,2,0,L|339:175,1,55,8|8,0:0|0:0,0:0:0:0:
386,108,91977,1,4,0:0:0:0:
433,34,92277,6,0,P|355:59|274:45,1,165
183,28,93027,1,0,0:0:0:0:
108,74,93327,2,0,P|96:129|110:186,1,110,0|0,0:0|0:0,0:0:0:0:
119,224,93777,2,0,P|128:275|109:342,2,110,0|0|0,0:0|0:0|0:0,0:0:0:0:
194,178,94677,2,0,P|217:265|203:348,2,165
187,134,95727,6,0,P|218:75|316:83,1,165,4|4,0:0|0:0,0:0:0:0:
381,124,96477,2,0,L|379:181,1,55,0|4,0:0|0:0,0:0:0:0:
407,212,96777,2,0,L|405:269,1,55,0|0,0:0|0:0,0:0:0:0:
424,306,97077,6,0,P|342:292|262:315,2,165,4|0|0,0:0|0:0|0:0,0:0:0:0:
500,262,98277,2,0,L|507:93,2,165,4|4|0,0:0|0:0|0:0,0:0:0:0:
419,298,99477,6,0,P|382:294|355:300,1,55,8|8,0:0|0:0,0:0:0:0:
323,311,99777,2,0,P|295:314|268:309,1,55,8|8,0:0|0:0,0:0:0:0:
229,291,100077,2,0,P|192:287|165:293,1,55,8|8,0:0|0:0,0:0:0:0:
133,304,100377,2,0,P|105:307|78:302,1,55,8|8,0:0|0:0,0:0:0:0:
8,248,100827,6,0,P|6:214|9:187,1,55,8|8,0:0|0:0,0:0:0:0:
16,105,101277,2,0,P|57:64|121:61,1,110,0|0,0:0|0:0,0:0:0:0:
180,105,101877,6,0,P|192:167|177:232,1,110,4|8,0:0|0:0,0:0:0:0:
174,255,102327,2,0,P|158:318|174:360,1,110
246,308,102927,2,0,P|302:298|360:309,1,110
395,324,103377,2,0,P|451:341|504:322,2,110,8|8|8,0:0|0:0|0:0,0:0:0:0:
448,253,104277,6,0,P|457:199|446:142,1,110,4|8,0:0|0:0,0:0:0:0:
421,109,104727,2,0,P|366:117|313:110,1,110,4|0,0:0|0:0,0:0:0:0:
270,97,105177,2,0,P|235:93|209:98,1,55,0|12,0:0|0:0,0:0:0:0:
128,116,105627,1,0,0:0:0:0:
132,160,105777,2,0,L|120:280,1,110,8|4,0:0|0:0,0:0:0:0:
78,278,106227,1,0,0:0:0:0:
30,200,106527,6,0,L|39:86,1,110,12|0,0:0|0:0,0:0:0:0:
28,47,106977,2,0,P|58:40|86:41,1,55,0|8,0:0|0:0,0:0:0:0:
168,55,107427,1,0,0:0:0:0:
168,55,107577,2,0,P|195:58|222:56,1,55,0|0,0:0|0:0,0:0:0:0:
264,44,107877,2,0,P|321:34|387:56,1,110,12|0,0:0|0:0,0:0:0:0:
406,72,108327,1,12,0:0:0:0:
454,145,108627,1,8,0:0:0:0:
417,273,109077,6,0,P|325:297|200:275,1,220,8|8,0:0|0:0,0:0:0:0:
84,218,110127,1,8,0:0:0:0:
88,130,110427,2,0,P|88:93|97:64,2,55,8|8|8,0:0|0:0|0:0,0:0:0:0:
44,130,110877,2,0,P|24:97|0:33,2,82.5,8|8|8,0:0|0:0|0:0,0:0:0:0:
10,158,111477,6,0,P|9:276|104:311,1,220,0|0,0:0|0:0,0:0:0:0:
177,298,112377,1,0,0:0:0:0:
252,343,112677,2,0,P|377:361|453:298,1,220
445,220,113577,1,0,0:0:0:0:
379,161,113877,6,0,P|359:211|370:265,1,110,8|8,0:0|0:0,0:0:0:0:
445,220,114477,2,0,P|464:169|453:115,1,110,8|8,0:0|0:0,0:0:0:0:
376,76,115077,2,0,L|382:15,2,55,8|8|8,0:0|0:0|0:0,0:0:0:0:
296,112,115677,2,0,L|300:172,2,55,8|8|8,0:0|0:0|0:0,0:0:0:0:
224,60,116277,6,0,L|164:63,1,55,10|10,0:0|0:0,0:0:0:0:
