osu file format v14

[General]
AudioFilename: Wish upon Twin Stars.mp3
AudioLeadIn: 1000
PreviewTime: 53415
Countdown: 0
SampleSet: Soft
StackLeniency: 0.7
Mode: 0
LetterboxInBreaks: 0
WidescreenStoryboard: 0

[Editor]
DistanceSpacing: 1.2
BeatDivisor: 4
GridSize: 4
TimelineZoom: 2.1

[Metadata]
Title:Wish upon Twin Stars
TitleUnicode:Wish upon Twin Stars
Artist:xi
ArtistUnicode:xi
Creator:Chaoslitz
Version:HYPER
Source:SOUND VOLTEX II -infinite infection-
Tags:sdvx Gaia ニア ノア NEAR NOAH
BeatmapID:739212
BeatmapSetID:242462

[Difficulty]
HPDrainRate:5
CircleSize:4
OverallDifficulty:7
ApproachRate:8.5
SliderMultiplier:1.35
SliderTickRate:1

[Events]
//Background and Video events
0,0,"bg.jpg",0,0
//Break Periods
2,75465,80802
//Storyboard Layer 0 (Background)
//Storyboard Layer 1 (Fail)
//Storyboard Layer 2 (Pass)
//Storyboard Layer 3 (Foreground)
//Storyboard Sound Samples

[TimingPoints]
-123,300,4,2,2,40,1,0
4977,-100,4,2,1,40,0,0
5877,-100,4,2,1,50,0,0
13077,-100,4,2,1,40,0,0
20277,-100,4,2,1,60,0,0
22077,-100,4,2,1,60,0,0
22527,-100,4,2,1,60,0,0
22677,-100,4,2,15,40,0,0
22977,-100,4,2,1,60,0,0
27102,-100,4,3,1,60,0,0
27477,-100,4,2,1,60,0,0
29877,-100,4,2,1,60,0,0
31227,-100,4,2,1,50,0,0
32277,-100,4,2,1,60,0,0
33027,-100,4,2,1,60,0,0
34677,-100,4,2,1,60,0,0
41727,-100,4,2,1,65,0,0
43227,-100,4,2,15,65,0,0
44427,-100,4,2,1,65,0,0
45477,-100,4,2,15,65,0,0
49077,-100,4,2,1,65,0,0
51177,-100,4,2,2,60,0,0
53277,-100,4,2,15,50,0,0
53427,-100,4,2,15,60,0,0
53877,-83.3333333333333,4,2,1,70,0,1
58677,-83.3333333333333,4,2,2,40,0,1
58752,-83.3333333333333,4,2,1,70,0,1
58827,-83.3333333333333,4,2,15,70,0,1
59877,-83.3333333333333,4,2,2,40,0,1
59952,-83.3333333333333,4,2,15,70,0,1
61077,-83.3333333333333,4,2,1,70,0,1
62127,-100,4,2,1,70,0,0
62427,-100,4,2,2,70,0,0
63177,-100,4,2,2,40,0,0
63477,-83.3333333333333,4,2,15,70,0,1
64977,-83.3333333333333,4,2,1,70,0,1
68127,-83.3333333333333,4,2,2,40,0,1
68277,-83.3333333333333,4,2,15,70,0,1
70677,-100,4,2,15,70,0,0
81477,-111.111111111111,4,3,18,60,0,0
82677,-83.3333333333333,4,2,1,60,0,0
91827,-133.333333333333,4,2,1,40,0,0
91977,-133.333333333333,4,2,2,40,0,0
92277,-133.333333333333,4,2,2,40,0,0
95727,-83.3333333333333,4,2,1,50,0,1
97077,-83.3333333333333,4,2,1,70,0,1
97152,-83.3333333333333,4,2,1,60,0,1
100827,-100,4,2,15,60,0,0
101877,-83.3333333333333,4,2,15,70,0,1
109077,-100,4,2,1,50,0,0
110427,-100,4,2,1,60,0,0
111102,-100,4,2,1,70,0,0
111477,-100,4,2,1,60,0,0
115077,-100,4,2,1,80,0,0

[Colours]
Combo1 : 15,50,249
Combo2 : 4,215,204
Combo3 : 62,172,253

[HitObjects]
120,316,627,6,0,P|128:277|128:240,1,67.5,0|0,0:0|0:0,0:0:0:0:
92,168,927,1,0,0:0:0:0:
190,124,1077,2,0,P|226:122|263:121,2,67.5,2|0|0,0:0|0:0|0:0,0:0:0:0:
145,43,1527,2,0,P|213:42|301:35,1,135,2|2,0:0|0:0,0:0:0:0:
456,128,2127,6,0,P|462:194|418:243,1,135,2|0,0:0|0:0,0:0:0:0:
326,242,2577,2,0,P|329:284|331:323,1,67.5,2|0,0:0|0:0,0:0:0:0:
247,341,2877,2,0,P|174:338|97:338,1,135,2|2,0:0|0:0,0:0:0:0:
113,142,3477,6,0,P|180:141|247:138,1,135,2|2,0:0|0:0,0:0:0:0:
300,56,3927,2,0,P|232:55|165:52,1,135,2|2,0:0|0:0,0:0:0:0:
74,55,4377,1,2,0:0:0:0:
404,44,4977,5,8,0:0:0:0:
407,185,5277,2,0,P|411:248|416:299,2,101.25,0|0|0,0:0|0:0|0:0,0:0:0:0:
321,158,5877,6,0,P|286:162|250:175,1,67.5,4|0,0:0|0:0,0:0:0:0:
297,252,6177,2,0,P|268:272|244:302,1,67.5,8|0,0:0|0:0,0:0:0:0:
165,260,6477,2,0,P|115:258|53:262,2,101.25,0|8|0,0:0|0:0|0:0,0:0:0:0:
167,134,7077,6,0,L|173:50,1,67.5,4|0,0:0|0:0,0:0:0:0:
263,18,7377,2,0,L|258:85,1,67.5,8|0,0:0|0:0,0:0:0:0:
321,158,7677,2,0,P|376:159|435:147,2,101.25,8|0|8,0:0|0:0|0:0,0:0:0:0:
261,262,8277,6,0,P|269:314|272:344,2,67.5,12|0|0,0:0|0:0|0:0,0:0:0:0:
157,200,8727,2,0,P|165:148|168:118,2,67.5,12|0|0,0:0|0:0|0:0,0:0:0:0:
80,272,9177,2,0,P|86:305|90:338,1,67.5,12|8,0:0|0:0,0:0:0:0:
69,150,9627,5,8,0:0:0:0:
157,200,9777,1,8,0:0:0:0:
256,183,9927,1,8,0:0:0:0:
339,240,10077,1,8,0:0:0:0:
308,40,10377,5,12,0:0:0:0:
256,183,10677,1,0,0:0:0:0:
256,192,10827,12,0,13077,0:0:0:0:
114,302,13377,6,0,L|110:268,3,33.75,0|0|0|0,0:0|0:0|0:0|0:0,0:0:0:0:
88,242,13677,2,0,P|156:241|216:209,1,135,2|0,0:0|0:0,0:0:0:0:
297,173,14127,2,0,P|357:142|424:142,1,135,2|0,0:0|0:0,0:0:0:0:
482,217,14577,2,0,P|478:266|477:303,1,67.5,0|0,0:0|0:0,0:0:0:0:
380,242,14877,5,2,0:0:0:0:
297,173,15027,2,0,L|296:95,1,67.5,2|0,0:0|0:0,0:0:0:0:
390,41,15327,2,0,L|391:119,1,67.5,0|2,0:0|0:0,0:0:0:0:
191,128,15777,6,0,P|163:126|142:126,3,33.75,0|0|0|0,0:0|0:0|0:0|0:0,0:0:0:0:
126,113,16077,2,0,P|131:160|133:196,1,67.5,0|2,0:0|0:0,0:0:0:0:
213,244,16377,1,0,0:0:0:0:
297,173,16527,2,0,P|310:234|321:318,1,135,2|0,0:0|0:0,0:0:0:0:
414,353,16977,2,0,P|459:341|492:335,1,67.5,2|0,0:0|0:0,0:0:0:0:
508,236,17277,5,2,0:0:0:0:
408,208,17427,2,0,L|401:132,1,67.5,0|2,0:0|0:0,0:0:0:0:
324,69,17727,1,0,0:0:0:0:
202,81,17877,6,0,P|161:91|55:94,1,135,6|0,0:0|0:0,0:0:0:0:
0,207,18327,2,0,P|41:197|147:194,1,135,6|0,0:0|0:0,0:0:0:0:
214,243,18777,2,0,P|226:190|261:148,1,101.25,2|0,0:0|0:0,0:0:0:0:
277,128,19077,6,0,P|345:142|395:93,1,135,2|2,0:0|0:0,0:0:0:0:
176,124,19677,2,0,P|126:119|66:139,1,101.25,2|0,0:0|0:0,0:0:0:0:
50,155,19977,2,0,L|54:203,3,33.75
58,221,20277,6,0,L|213:230,1,135,4|0,0:0|0:0,0:0:0:0:
273,283,20727,2,0,L|407:275,1,135,4|0,0:0|0:0,0:0:0:0:
508,236,21177,2,0,L|511:189,3,33.75,0|0|0|0,0:0|0:0|0:0|0:0,0:0:0:0:
482,183,21477,6,0,P|460:123|460:50,1,135,4|0,0:0|0:0,0:0:0:0:
346,50,21927,1,0,0:0:0:0:
346,50,22002,1,0,0:0:0:0:
346,50,22077,2,0,P|295:61|235:55,2,101.25,4|4|4,0:0|0:0|0:0,0:0:0:0:
371,175,22677,6,0,L|376:252,1,67.5,12|8,0:0|0:0,0:0:0:0:
275,234,22977,2,0,L|231:238,3,33.75
211,220,23277,2,0,P|152:194|80:212,1,135,4|0,0:0|0:0,0:0:0:0:
44,315,23727,2,0,P|102:340|174:322,1,135,4|0,0:0|0:0,0:0:0:0:
276,301,24177,2,0,L|280:267,3,33.75
275,234,24477,2,0,L|270:122,1,101.25,2|0,0:0|0:0,0:0:0:0:
245,109,24777,2,0,P|290:114|332:110,1,67.5,2|0,0:0|0:0,0:0:0:0:
411,144,25077,6,0,L|401:288,1,135,0|2,0:0|0:0,0:0:0:0:
319,335,25527,2,0,P|261:331|182:341,1,135,2|0,0:0|0:0,0:0:0:0:
89,362,25977,1,2,0:0:0:0:
89,362,26127,2,0,L|86:289,1,67.5
90,207,26427,1,0,0:0:0:0:
185,243,26577,2,0,P|184:203|181:164,1,67.5
169,152,26802,1,0,0:0:0:0:
169,152,26877,2,0,L|283:157,2,101.25,4|8|12,0:0|0:0|0:0,0:0:0:0:
98,70,27477,6,0,L|176:66,1,67.5
260,41,27777,1,4,0:0:0:0:
340,100,27927,2,0,P|412:88|492:96,1,135,0|0,0:0|0:0,0:0:0:0:
504,192,28377,2,0,P|500:236|500:268,1,67.5,4|0,0:0|0:0,0:0:0:0:
392,316,28677,6,0,P|388:272|388:240,1,67.5,0|0,0:0|0:0,0:0:0:0:
304,192,28977,1,4,0:0:0:0:
204,192,29127,2,0,P|208:268|208:340,1,135,0|0,0:0|0:0,0:0:0:0:
112,312,29577,2,0,L|36:316,1,67.5,4|0,0:0|0:0,0:0:0:0:
8,212,29877,5,4,0:0:0:0:
47,203,30177,1,4,0:0:0:0:
86,194,30477,1,4,0:0:0:0:
204,192,30627,2,0,L|205:225,3,33.75,0|0|0|0,0:0|0:0|0:0|0:0,0:0:0:0:
198,259,30927,2,0,L|281:256,1,67.5,4|0,0:0|0:0,0:0:0:0:
394,226,31277,6,0,P|390:271|392:316,2,90
423,85,31877,2,0,P|378:92|319:94,1,90
181,64,32277,5,4,0:0:0:0:
145,149,32427,1,0,0:0:0:0:
145,149,32502,1,0,0:0:0:0:
145,149,32577,2,0,P|194:166|228:181,1,67.5,0|4,0:0|0:0,0:0:0:0:
293,123,32877,1,0,0:0:0:0:
298,218,33027,2,0,P|295:251|290:285,1,67.5,0|4,0:0|0:0,0:0:0:0:
53,198,33777,5,2,0:0:0:0:
193,289,34077,2,0,L|187:347,3,45,0|0|0|2,0:0|0:0|0:0|0:0,0:0:0:0:
337,141,34677,6,0,L|344:282,1,135,4|0,0:0|0:0,0:0:0:0:
425,322,35127,1,4,0:0:0:0:
425,322,35202,1,0,0:0:0:0:
425,322,35277,2,0,L|472:321,2,33.75,0|0|0,0:0|0:0|0:0,0:0:0:0:
291,351,35577,1,4,0:0:0:0:
74,302,36027,5,0,0:0:0:0:
211,253,36177,1,0,0:0:0:0:
211,253,36252,1,0,0:0:0:0:
211,253,36327,1,0,0:0:0:0:
211,253,36402,1,0,0:0:0:0:
211,253,36477,2,0,L|326:262,2,101.25,4|4|4,0:0|0:0|0:0,0:0:0:0:
145,132,37077,5,4,0:0:0:0:
229,64,37227,2,0,P|276:67|314:68,1,67.5,0|0,0:0|0:0,0:0:0:0:
404,83,37527,1,4,0:0:0:0:
404,83,37602,1,0,0:0:0:0:
404,83,37677,2,0,L|411:37,2,33.75,0|0|0,0:0|0:0|0:0,0:0:0:0:
449,194,37977,1,4,0:0:0:0:
302,198,38577,6,0,P|292:246|291:311,1,101.25,2|0,0:0|0:0,0:0:0:0:
295,331,38877,2,0,L|328:328,4,33.75,2|2|2|0|2,0:0|0:0|0:0|0:0|0:0,0:0:0:0:
193,342,39327,1,2,0:0:0:0:
108,258,39477,6,0,P|178:239|215:186,1,135,4|0,0:0|0:0,0:0:0:0:
164,84,39927,2,0,P|236:90|310:89,1,135,6|0,0:0|0:0,0:0:0:0:
409,53,40377,1,4,0:0:0:0:
463,242,40827,5,6,0:0:0:0:
375,312,40977,1,4,0:0:0:0:
283,251,41127,1,4,0:0:0:0:
283,251,41202,1,4,0:0:0:0:
283,251,41277,2,0,P|249:251|211:254,1,67.5,2|6,0:0|0:0,0:0:0:0:
5,158,41727,6,0,P|80:152|155:151,1,135,4|0,0:0|0:0,0:0:0:0:
214,77,42177,2,0,L|247:79,3,33.75,0|0|0|0,0:0|0:0|0:0|0:0,0:0:0:0:
280,66,42477,2,0,L|312:74,3,33.75,0|0|0|0,0:0|0:0|0:0|0:0,0:0:0:0:
346,69,42777,2,0,P|344:113|346:146,1,67.5,0|0,0:0|0:0,0:0:0:0:
421,213,43077,5,0,0:0:0:0:
320,249,43227,2,0,L|319:328,1,67.5,10|10,0:0|0:0,0:0:0:0:
203,296,43527,1,10,0:0:0:0:
203,296,43602,1,10,0:0:0:0:
203,296,43677,2,0,P|165:297|119:305,1,67.5,10|10,0:0|0:0,0:0:0:0:
39,116,44127,6,0,P|114:110|189:109,1,135,4|0,0:0|0:0,0:0:0:0:
280,66,44577,2,0,L|283:106,3,33.75,0|0|0|0,0:0|0:0|0:0|0:0,0:0:0:0:
302,126,44877,2,0,L|301:166,3,33.75,0|0|0|0,0:0|0:0|0:0|0:0,0:0:0:0:
299,193,45177,2,0,P|342:201|385:198,1,67.5,0|0,0:0|0:0,0:0:0:0:
436,126,45477,6,0,P|438:83|440:48,2,67.5,10|10|10,0:0|0:0|0:0,0:0:0:0:
471,237,45927,1,10,0:0:0:0:
471,237,46002,1,10,0:0:0:0:
471,237,46077,2,0,P|469:293|466:323,1,67.5,10|10,0:0|0:0,0:0:0:0:
231,335,46527,6,0,P|206:273|201:199,1,135,4|0,0:0|0:0,0:0:0:0:
301,159,46977,2,0,L|291:243,1,67.5,0|0,0:0|0:0,0:0:0:0:
389,269,47277,2,0,L|385:201,1,67.5,8|0,0:0|0:0,0:0:0:0:
433,125,47577,2,0,P|395:111|356:100,1,67.5,0|0,0:0|0:0,0:0:0:0:
297,48,47877,2,0,P|246:61|155:53,1,135,4|0,0:0|0:0,0:0:0:0:
68,182,48477,5,8,0:0:0:0:
151,231,48627,2,0,L|145:291,2,33.75,0|0|8,0:0|0:0|0:0,0:0:0:0:
164,141,48927,1,8,0:0:0:0:
241,226,49077,6,0,L|247:313,2,67.5,4|0|0,0:0|0:0|0:0,0:0:0:0:
314,174,49527,2,0,L|335:258,2,67.5,4|0|0,0:0|0:0|0:0,0:0:0:0:
271,88,49977,2,0,P|318:87|354:85,1,67.5,4|0,0:0|0:0,0:0:0:0:
457,210,50427,5,8,0:0:0:0:
314,174,50577,1,8,0:0:0:0:
388,292,50727,1,8,0:0:0:0:
242,249,50877,1,8,0:0:0:0:
117,205,51177,6,0,L|75:206,3,33.75,4|0|0|0,0:0|0:0|0:0|0:0,0:0:0:0:
50,196,51477,2,0,P|76:249|76:308,1,101.25,2|0,0:0|0:0,0:0:0:0:
72,323,51777,2,0,P|114:320|150:321,1,67.5,2|2,0:0|0:0,0:0:0:0:
246,351,52077,2,0,L|243:250,1,101.25,2|0,0:0|0:0,0:0:0:0:
214,231,52377,2,0,L|216:163,1,67.5,2|2,0:0|0:0,0:0:0:0:
158,79,52677,1,2,0:0:0:0:
158,79,52752,1,2,0:0:0:0:
158,79,52827,6,0,P|237:68|312:134,1,168.75,2|0,0:0|0:0,0:0:0:0:
320,143,53277,5,8,0:0:0:0:
420,101,53427,2,0,L|501:97,2,67.5,8|8|8,0:0|0:0|0:0,0:0:0:0:
399,202,53877,6,0,L|402:287,1,80.9999975280763,4|0,0:0|0:0,0:0:0:0:
330,338,54177,1,0,0:0:0:0:
256,271,54327,2,0,L|90:277,1,161.999995056153,4|0,0:0|0:0,0:0:0:0:
7,203,54777,1,0,0:0:0:0:
91,129,54927,2,0,L|84:83,2,40.4999987640381,4|0|0,0:0|0:0|0:0,0:0:0:0:
177,190,55227,5,0,0:0:0:0:
286,154,55377,2,0,P|286:114|283:74,1,80.9999975280763,4|0,0:0|0:0,0:0:0:0:
283,74,55602,1,0,0:0:0:0:
283,74,55677,1,4,0:0:0:0:
188,57,55827,2,0,L|184:16,2,40.4999987640381,0|0|4,0:0|0:0|0:0,0:0:0:0:
66,47,56127,1,0,0:0:0:0:
26,162,56277,6,0,P|88:196|181:188,1,161.999995056153,4|0,0:0|0:0,0:0:0:0:
188,57,56727,2,0,P|268:54|348:70,1,161.999995056153,4|0,0:0|0:0,0:0:0:0:
448,152,57177,5,0,0:0:0:0:
448,152,57252,1,0,0:0:0:0:
448,152,57326,2,0,P|367:151|287:155,1,161.999995056153,4|0,0:0|0:0,0:0:0:0:
179,201,57777,2,0,P|190:260|191:294,1,80.9999975280763,4|0,0:0|0:0,0:0:0:0:
281,316,58077,2,0,P|326:276|355:259,1,80.9999975280763,4|4,0:0|0:0,0:0:0:0:
441,291,58377,2,0,P|442:270|444:250,3,40.4999987640381,0|0|0|0,0:0|0:0|0:0|0:0,0:0:0:0:
467,217,58677,6,0,P|447:148|446:55,1,161.999995056153,4|12,0:0|0:0,0:0:0:0:
347,93,59127,2,0,P|282:100|186:95,1,161.999995056153,0|8,0:0|0:0,0:0:0:0:
57,75,59577,2,0,P|67:132|66:169,1,80.9999975280763,0|0,0:0|0:0,0:0:0:0:
63,194,59802,1,0,0:0:0:0:
63,194,59877,6,0,P|163:206|229:221,1,161.999995056153,4|12,0:0|0:0,0:0:0:0:
316,290,60327,2,0,P|317:241|322:198,1,80.9999975280763,0|0,0:0|0:0,0:0:0:0:
347,93,60627,2,0,L|403:89,4,40.4999987640381,8|0|8|0|8,0:0|0:0|0:0|0:0|0:0,0:0:0:0:
244,46,61077,6,0,L|248:144,1,80.9999975280763,8|8,0:0|0:0,0:0:0:0:
148,223,61377,2,0,L|144:125,1,80.9999975280763,8|8,0:0|0:0,0:0:0:0:
72,48,61677,2,0,P|124:47|164:38,1,80.9999975280763,8|8,0:0|0:0,0:0:0:0:
247,126,61977,1,8,0:0:0:0:
371,73,62127,1,8,0:0:0:0:
256,292,62427,6,0,P|296:293|331:296,1,67.5
156,215,62877,2,0,P|230:209|309:211,1,135,0|4,0:0|0:0,0:0:0:0:
148,89,63477,6,0,P|114:87|66:84,2,80.9999975280763,12|0|0,0:0|0:0|0:0,0:0:0:0:
232,43,63927,2,0,P|312:39|395:43,1,161.999995056153,8|0,0:0|0:0,0:0:0:0:
460,114,64377,1,0,0:0:0:0:
365,135,64527,2,0,P|330:205|363:286,1,161.999995056153,8|0,0:0|0:0,0:0:0:0:
437,333,64977,6,0,P|471:305|499:267,1,80.9999975280763,4|0,0:0|0:0,0:0:0:0:
493,276,65202,1,0,0:0:0:0:
493,276,65277,1,4,0:0:0:0:
415,214,65427,1,0,0:0:0:0:
460,114,65577,2,0,P|453:72|441:21,1,80.9999975280763,4|0,0:0|0:0,0:0:0:0:
328,57,65877,6,0,L|166:63,1,161.999995056153,4|0,0:0|0:0,0:0:0:0:
61,135,66327,2,0,P|143:141|218:175,1,161.999995056153,4|0,0:0|0:0,0:0:0:0:
310,242,66777,5,0,0:0:0:0:
310,242,66852,1,0,0:0:0:0:
310,242,66927,2,0,P|378:198|470:183,1,161.999995056153,4|0,0:0|0:0,0:0:0:0:
502,69,67377,2,0,P|455:67|410:59,1,80.9999975280763,4|0,0:0|0:0,0:0:0:0:
312,31,67677,2,0,L|317:116,1,80.9999975280763,0|4,0:0|0:0,0:0:0:0:
46,124,68127,5,4,0:0:0:0:
92,220,68277,1,0,0:0:0:0:
92,220,68352,1,0,0:0:0:0:
92,220,68427,1,0,0:0:0:0:
92,220,68502,1,0,0:0:0:0:
92,220,68577,2,0,P|141:215|187:214,1,80.9999975280763,8|0,0:0|0:0,0:0:0:0:
267,265,68877,2,0,P|316:264|362:267,1,80.9999975280763
449,297,69177,5,8,0:0:0:0:
446,264,69252,1,0,0:0:0:0:
445,231,69327,1,0,0:0:0:0:
446,199,69402,1,0,0:0:0:0:
445,166,69477,2,0,P|443:120|432:78,2,80.9999975280763,4|8|0,0:0|0:0|0:0,0:0:0:0:
307,138,69927,1,4,0:0:0:0:
157,61,70227,2,0,L|59:68,2,80.9999975280763
260,55,70677,6,0,P|336:51|408:67,1,135,12|0,0:0|0:0,0:0:0:0:
445,231,71277,2,0,P|377:235|311:223,1,135,12|0,0:0|0:0,0:0:0:0:
307,138,71727,1,12,0:0:0:0:
177,200,72027,2,0,L|182:284,2,67.5,0|0|0,0:0|0:0|0:0,0:0:0:0:
91,156,72477,2,0,P|92:99|91:50,2,101.25,4|4|4,0:0|0:0|0:0,0:0:0:0:
15,225,73077,5,4,0:0:0:0:
256,329,81477,6,0,P|389:292|379:138,1,303.749990730286,4|0,0:0|0:0,0:0:0:0:
316,57,82377,5,0,0:0:0:0:
316,57,82452,1,0,0:0:0:0:
316,57,82527,1,0,0:0:0:0:
316,57,82602,1,0,0:0:0:0:
316,57,82677,2,0,P|230:69|141:72,1,161.999995056153,2|0,0:0|0:0,0:0:0:0:
51,148,83127,2,0,P|137:160|226:163,1,161.999995056153,2|0,0:0|0:0,0:0:0:0:
282,216,83577,6,0,P|335:182|446:194,1,161.999995056153,2|2,0:0|0:0,0:0:0:0:
426,305,84027,2,0,P|372:338|261:326,1,161.999995056153,2|0,0:0|0:0,0:0:0:0:
175,322,84477,2,0,P|134:319|85:323,1,80.9999975280763,2|2,0:0|0:0,0:0:0:0:
66,339,84702,1,0,0:0:0:0:
66,339,84777,2,0,P|60:284|54:249,1,80.9999975280763,2|0,0:0|0:0,0:0:0:0:
51,148,85077,6,0,P|92:96|191:96,1,161.999995056153,0|2,0:0|0:0,0:0:0:0:
264,136,85527,1,0,0:0:0:0:
336,72,85677,2,0,L|388:64,3,40.4999987640381,0|0|0|0,0:0|0:0|0:0|0:0,0:0:0:0:
396,40,85977,2,0,L|448:41,3,40.4999987640381,0|0|0|0,0:0|0:0|0:0|0:0,0:0:0:0:
461,61,86277,5,2,0:0:0:0:
458,94,86352,1,2,0:0:0:0:
457,126,86427,1,2,0:0:0:0:
456,158,86502,1,2,0:0:0:0:
455,191,86577,1,2,0:0:0:0:
397,279,86727,2,0,L|400:321,2,40.4999987640381,0|0|0,0:0|0:0|0:0,0:0:0:0:
292,216,87027,1,2,0:0:0:0:
292,216,87102,1,2,0:0:0:0:
292,216,87177,2,0,L|288:160,3,40.4999987640381,2|2|2|2,0:0|0:0|0:0|0:0,0:0:0:0:
292,144,87477,6,0,P|253:151|200:148,1,80.9999975280763,4|0,0:0|0:0,0:0:0:0:
87,118,87777,2,0,L|92:158,3,40.4999987640381,0|0|0|0,0:0|0:0|0:0|0:0,0:0:0:0:
74,185,88077,2,0,P|86:258|89:317,2,121.499996292114,0|8|0,0:0|0:0|0:0,0:0:0:0:
29,61,88677,6,0,P|69:40|113:41,1,80.9999975280763,4|0,0:0|0:0,0:0:0:0:
135,47,88902,1,0,0:0:0:0:
164,60,88977,2,0,P|164:91|165:112,3,40.4999987640381,0|0|0|0,0:0|0:0|0:0|0:0,0:0:0:0:
189,122,89277,2,0,L|318:125,2,121.499996292114,8|0|8,0:0|0:0|0:0,0:0:0:0:
178,225,89877,6,0,P|174:278|175:323,2,80.9999975280763,12|0|0,0:0|0:0|0:0,0:0:0:0:
264,271,90327,2,0,P|311:247|350:224,2,80.9999975280763,12|0|0,0:0|0:0|0:0,0:0:0:0:
257,164,90777,2,0,P|212:135|173:113,1,80.9999975280763,8|0,0:0|0:0,0:0:0:0:
381,46,91227,5,8,0:0:0:0:
333,207,91377,1,8,0:0:0:0:
273,124,91527,1,8,0:0:0:0:
419,185,91677,1,8,0:0:0:0:
507,83,91827,6,0,L|512:139,1,50.6250019311906,0|4,0:0|0:0,0:0:0:0:
501,227,92127,1,0,0:0:0:0:
419,185,92277,2,0,L|417:130,2,50.6250019311906,0|0|0,0:0|0:0|0:0,0:0:0:0:
381,271,92727,2,0,P|330:264|268:262,1,101.250003862381,0|0,0:0|0:0,0:0:0:0:
77,224,93327,6,0,P|132:208|194:206,1,101.250003862381,0|0,0:0|0:0,0:0:0:0:
239,131,93777,2,0,P|297:132|351:121,2,101.250003862381,0|0|0,0:0|0:0|0:0,0:0:0:0:
60,118,94677,6,0,L|57:230,1,101.250003862381,0|0,0:0|0:0,0:0:0:0:
1,303,95127,2,0,P|51:306|106:338,1,101.250003862381,0|0,0:0|0:0,0:0:0:0:
117,342,95502,1,0,0:0:0:0:
141,335,95577,1,0,0:0:0:0:
166,331,95652,1,0,0:0:0:0:
191,332,95727,6,0,P|261:342|358:302,1,161.999995056153,4|0,0:0|0:0,0:0:0:0:
367,288,96102,1,0,0:0:0:0:
367,288,96177,2,0,P|364:231|363:198,1,80.9999975280763,4|0,0:0|0:0,0:0:0:0:
272,66,96477,2,0,P|275:123|276:156,1,80.9999975280763,0|4,0:0|0:0,0:0:0:0:
180,213,96777,1,0,0:0:0:0:
180,213,96852,1,0,0:0:0:0:
180,213,96927,1,0,0:0:0:0:
180,213,97002,1,0,0:0:0:0:
180,213,97077,6,0,P|137:217|89:221,2,80.9999975280763,4|0|0,0:0|0:0|0:0,0:0:0:0:
275,146,97527,2,0,P|337:159|447:148,1,161.999995056153
508,233,97977,1,0,0:0:0:0:
508,233,98052,1,0,0:0:0:0:
508,233,98127,1,0,0:0:0:0:
508,233,98202,1,0,0:0:0:0:
508,233,98277,6,0,P|508:286|510:322,2,80.9999975280763,4|0|0,0:0|0:0|0:0,0:0:0:0:
377,275,98727,2,0,P|336:275|287:266,1,80.9999975280763,4|0,0:0|0:0,0:0:0:0:
180,213,99027,2,0,L|177:255,4,40.4999987640381,4|0|0|0|0,0:0|0:0|0:0|0:0|0:0,0:0:0:0:
110,127,99477,6,0,L|106:33,1,80.9999975280763,8|8,0:0|0:0,0:0:0:0:
9,82,99777,2,0,L|13:163,1,80.9999975280763,8|8,0:0|0:0,0:0:0:0:
75,242,100077,2,0,P|117:233|170:233,1,80.9999975280763,8|8,0:0|0:0,0:0:0:0:
252,166,100377,1,8,0:0:0:0:
283,298,100527,1,8,0:0:0:0:
361,102,100827,6,0,L|354:186,1,67.5,8|8,0:0|0:0,0:0:0:0:
446,343,101277,2,0,L|439:205,1,135
431,37,101877,6,0,P|489:34|523:28,2,80.9999975280763,4|0|8,0:0|0:0|0:0,0:0:0:0:
316,83,102327,2,0,P|265:71|142:59,1,161.999995056153,0|0,0:0|0:0,0:0:0:0:
43,117,102777,1,8,0:0:0:0:
115,206,102927,2,0,P|183:185|286:183,1,161.999995056153,0|0,0:0|0:0,0:0:0:0:
380,216,103377,6,0,P|384:262|384:313,1,80.9999975280763,8|0,0:0|0:0,0:0:0:0:
384,296,103602,1,0,0:0:0:0:
384,296,103677,1,8,0:0:0:0:
272,340,103827,1,0,0:0:0:0:
164,292,103977,2,0,P|160:246|160:195,1,80.9999975280763,8|0,0:0|0:0,0:0:0:0:
264,137,104277,6,0,P|346:128|441:123,1,161.999995056153,4|8,0:0|0:0,0:0:0:0:
355,27,104727,2,0,P|285:48|190:46,1,161.999995056153,4|0,0:0|0:0,0:0:0:0:
80,28,105177,1,0,0:0:0:0:
80,28,105252,1,0,0:0:0:0:
80,28,105327,2,0,P|107:89|112:185,1,161.999995056153,12|8,0:0|0:0,0:0:0:0:
61,294,105777,2,0,P|116:286|156:284,1,80.9999975280763,8|0,0:0|0:0,0:0:0:0:
253,246,106077,2,0,L|264:353,1,80.9999975280763,4|0,0:0|0:0,0:0:0:0:
254,92,106527,5,12,0:0:0:0:
349,180,106677,1,0,0:0:0:0:
349,180,106752,1,0,0:0:0:0:
349,180,106827,1,0,0:0:0:0:
349,180,106902,1,0,0:0:0:0:
349,180,106977,2,0,P|383:142|416:113,1,80.9999975280763,0|8,0:0|0:0,0:0:0:0:
486,37,107277,2,0,P|441:39|393:39,1,80.9999975280763,0|0,0:0|0:0,0:0:0:0:
284,78,107577,5,0,0:0:0:0:
254,92,107652,1,0,0:0:0:0:
223,101,107727,1,0,0:0:0:0:
191,104,107802,1,0,0:0:0:0:
159,101,107877,2,0,P|142:153|133:191,2,80.9999975280763,12|0|0,0:0|0:0|0:0,0:0:0:0:
55,60,108327,1,12,0:0:0:0:
13,259,108627,6,0,P|65:259|106:263,1,80.9999975280763,8|8,0:0|0:0,0:0:0:0:
187,306,108927,1,8,0:0:0:0:
244,197,109077,6,0,P|291:243|309:313,1,135,8|0,0:0|0:0,0:0:0:0:
159,101,109677,2,0,P|239:99|306:91,1,135,8|0,0:0|0:0,0:0:0:0:
382,55,110127,1,8,0:0:0:0:
479,222,110427,2,0,L|473:308,2,67.5,8|8|8,0:0|0:0|0:0,0:0:0:0:
383,255,110877,2,0,P|388:306|390:361,2,101.25,8|8|8,0:0|0:0|0:0,0:0:0:0:
382,166,111477,6,0,P|347:160|315:163,1,67.5
239,218,111777,2,0,P|205:220|172:214,1,67.5
83,177,112077,2,0,P|84:225|88:258,1,67.5
1,264,112377,2,0,P|18:308|33:338,1,67.5
120,343,112677,6,0,P|170:335|210:334,1,67.5
279,338,112977,1,0,0:0:0:0:
362,295,113127,1,0,0:0:0:0:
277,227,113277,2,0,P|287:180|291:138,1,67.5
345,84,113577,1,0,0:0:0:0:
427,151,113727,1,0,0:0:0:0:
508,221,113877,6,0,L|512:78,1,135,8|8,0:0|0:0,0:0:0:0:
345,84,114477,2,0,L|350:164,1,67.5,8|0,0:0|0:0,0:0:0:0:
227,214,114777,2,0,L|232:147,1,67.5,8|0,0:0|0:0,0:0:0:0:
156,68,115077,6,0,P|110:72|72:82,1,67.5,8|8,0:0|0:0,0:0:0:0:
130,157,115377,2,0,P|88:176|55:198,1,67.5,8|8,0:0|0:0,0:0:0:0:
23,270,115677,2,0,L|30:309,6,33.75,2|2|2|2|2|2|2,0:0|0:0|0:0|0:0|0:0|0:0|0:0,0:0:0:0:
109,343,116277,5,10,0:0:0:0:
243,329,116427,1,10,0:0:0:0:
