osu file format v14

[General]
AudioFilename: Wish upon Twin Stars.mp3
AudioLeadIn: 1000
PreviewTime: 53415
Countdown: 0
SampleSet: Soft
StackLeniency: 0.7
Mode: 0
LetterboxInBreaks: 0
WidescreenStoryboard: 0

[Editor]
DistanceSpacing: 0.8
BeatDivisor: 4
GridSize: 4
TimelineZoom: 2.1

[Metadata]
Title:Wish upon Twin Stars
TitleUnicode:Wish upon Twin Stars
Artist:xi
ArtistUnicode:xi
Creator:Chaoslitz
Version:EXHAUST
Source:SOUND VOLTEX II -infinite infection-
Tags:sdvx Gaia ニア ノア NEAR NOAH
BeatmapID:571591
BeatmapSetID:242462

[Difficulty]
HPDrainRate:6
CircleSize:4
OverallDifficulty:7.5
ApproachRate:9
SliderMultiplier:1.5
SliderTickRate:1

[Events]
//Background and Video events
0,0,"bg.jpg",0,0
//Break Periods
2,75465,80877
//Storyboard Layer 0 (Background)
//Storyboard Layer 1 (Fail)
//Storyboard Layer 2 (Pass)
//Storyboard Layer 3 (Foreground)
//Storyboard Sound Samples

[TimingPoints]
-123,300,4,2,2,40,1,0
4977,-100,4,2,1,40,0,0
5877,-100,4,2,1,50,0,0
13077,-100,4,2,1,40,0,0
20277,-83.3333333333333,4,2,1,60,0,0
22677,-83.3333333333333,4,2,15,40,0,0
22977,-83.3333333333333,4,2,1,60,0,0
27102,-83.3333333333333,4,3,1,60,0,0
27477,-83.3333333333333,4,2,1,60,0,0
31227,-83.3333333333333,4,2,1,50,0,0
32277,-83.3333333333333,4,2,1,60,0,0
41727,-100,4,2,1,65,0,0
43227,-100,4,2,15,65,0,0
44427,-100,4,2,1,65,0,0
45477,-100,4,2,15,65,0,0
49077,-100,4,2,1,65,0,0
51177,-100,4,2,2,60,0,0
53277,-100,4,2,15,50,0,0
53427,-100,4,2,15,60,0,0
53877,-83.3333333333333,4,2,1,70,0,1
58677,-83.3333333333333,4,2,2,40,0,1
58752,-83.3333333333333,4,2,1,70,0,1
58827,-83.3333333333333,4,2,15,70,0,1
59877,-83.3333333333333,4,2,2,40,0,1
59952,-83.3333333333333,4,2,15,70,0,1
61077,-83.3333333333333,4,2,1,70,0,1
62127,-83.3333333333333,4,2,1,70,0,0
62427,-83.3333333333333,4,2,2,70,0,0
63177,-83.3333333333333,4,2,2,40,0,0
63477,-83.3333333333333,4,2,15,70,0,1
64977,-83.3333333333333,4,2,1,70,0,1
68127,-83.3333333333333,4,2,2,40,0,1
68277,-83.3333333333333,4,2,15,70,0,1
70677,-100,4,2,15,70,0,0
81477,-111.111111111111,4,3,18,60,0,0
82677,-83.3333333333333,4,2,1,60,0,0
91827,-133.333333333333,4,2,1,40,0,0
91977,-133.333333333333,4,2,2,40,0,0
92277,-133.333333333333,4,2,2,40,0,0
95727,-83.3333333333333,4,2,1,50,0,1
97077,-83.3333333333333,4,2,1,70,0,1
97153,-83.3333333333333,4,2,1,60,0,1
100827,-83.3333333333333,4,2,15,60,0,0
101877,-83.3333333333333,4,2,15,70,0,1
109077,-100,4,2,1,50,0,0
110427,-100,4,2,1,60,0,0
111102,-100,4,2,1,70,0,0
111477,-100,4,2,1,60,0,0
115077,-100,4,2,1,80,0,0

[Colours]
Combo1 : 15,50,249
Combo2 : 4,215,204
Combo3 : 62,172,253

[HitObjects]
204,118,627,6,0,L|201:207,2,75,0|0|0,0:0|0:0|0:0,0:0:0:0:
292,78,1077,2,0,P|340:81|379:63,1,75,2|0,0:0|0:0,0:0:0:0:
459,39,1377,1,0,0:0:0:0:
459,39,1527,2,0,P|455:110|461:197,1,150,2|2,0:0|0:0,0:0:0:0:
404,295,2127,6,0,P|331:303|259:346,1,150,2|0,0:0|0:0,0:0:0:0:
171,302,2577,1,2,0:0:0:0:
65,271,2727,1,0,0:0:0:0:
136,150,2877,2,0,P|140:211|126:249,1,75,2|0,0:0|0:0,0:0:0:0:
56,123,3177,2,0,P|52:62|66:24,1,75,2|0,0:0|0:0,0:0:0:0:
175,67,3477,6,0,L|249:63,1,75,2|0,0:0|0:0,0:0:0:0:
353,84,3777,1,2,0:0:0:0:
221,146,3927,2,0,L|295:142,1,75,2|0,0:0|0:0,0:0:0:0:
399,163,4227,1,2,0:0:0:0:
506,107,4377,1,2,0:0:0:0:
452,339,4977,5,8,0:0:0:0:
307,307,5277,2,0,P|242:298|198:310,2,112.5,0|0|0,0:0|0:0|0:0,0:0:0:0:
364,228,5877,6,0,P|364:184|363:141,1,75,4|0,0:0|0:0,0:0:0:0:
258,117,6177,2,0,L|252:69,3,37.5,8|0|0|0,0:0|0:0|0:0|0:0,0:0:0:0:
222,58,6477,2,0,P|170:71|106:60,2,112.5,0|8|0,0:0|0:0|0:0,0:0:0:0:
363,49,7077,6,0,P|366:94|366:139,1,75,4|0,0:0|0:0,0:0:0:0:
404,255,7377,2,0,L|396:292,3,37.5,8|0|0|0,0:0|0:0|0:0|0:0,0:0:0:0:
362,307,7677,2,0,B|299:313|299:313|239:285,2,112.5,0|8|0,0:0|0:0|0:0,0:0:0:0:
321,186,8277,6,0,L|326:93,2,75,12|0|0,0:0|0:0|0:0,0:0:0:0:
218,155,8727,2,0,L|213:68,2,75,12|0|0,0:0|0:0|0:0,0:0:0:0:
127,260,9177,1,12,0:0:0:0:
127,260,9252,1,0,0:0:0:0:
127,260,9327,2,0,L|132:199,1,37.5,8|0,0:0|0:0,0:0:0:0:
164,72,9627,5,8,0:0:0:0:
272,44,9777,1,8,0:0:0:0:
380,56,9927,1,8,0:0:0:0:
472,120,10077,1,8,0:0:0:0:
416,328,10377,5,12,0:0:0:0:
256,192,10677,1,0,0:0:0:0:
256,192,10827,12,0,13077,0:0:0:0:
260,96,13377,5,0,0:0:0:0:
260,96,13452,1,0,0:0:0:0:
260,96,13527,1,0,0:0:0:0:
260,96,13602,1,0,0:0:0:0:
260,96,13677,2,0,P|194:114|110:82,1,150,2|0,0:0|0:0,0:0:0:0:
4,192,14127,2,0,P|70:174|154:206,1,150,2|0,0:0|0:0,0:0:0:0:
216,265,14577,6,0,L|323:261,1,75,0|0,0:0|0:0,0:0:0:0:
437,291,14877,1,2,0:0:0:0:
316,345,15027,1,2,0:0:0:0:
357,199,15177,1,0,0:0:0:0:
437,291,15327,2,0,P|441:242|438:190,1,75,0|2,0:0|0:0,0:0:0:0:
361,49,15777,5,0,0:0:0:0:
361,49,15852,1,0,0:0:0:0:
361,49,15927,1,0,0:0:0:0:
361,49,16002,1,0,0:0:0:0:
361,49,16077,2,0,L|453:53,1,75,0|2,0:0|0:0,0:0:0:0:
477,144,16377,1,0,0:0:0:0:
366,167,16527,2,0,L|274:163,1,75,2|0,0:0|0:0,0:0:0:0:
80,107,16977,6,0,P|83:144|82:182,1,75,2|0,0:0|0:0,0:0:0:0:
50,329,17277,1,2,0:0:0:0:
139,246,17427,1,0,0:0:0:0:
154,339,17577,2,0,P|209:339|256:341,1,75,2|0,0:0|0:0,0:0:0:0:
347,329,17877,6,0,L|335:284,4,37.5,6|0|0|0|0,0:0|0:0|0:0|0:0|0:0,0:0:0:0:
426,280,18327,2,0,L|436:244,4,37.5,6|0|0|0|0,0:0|0:0|0:0|0:0|0:0,0:0:0:0:
346,219,18777,6,0,P|340:180|405:120,1,112.5,2|0,0:0|0:0,0:0:0:0:
345,122,19077,2,0,P|304:125|253:102,1,75,2|0,0:0|0:0,0:0:0:0:
204,32,19377,1,2,0:0:0:0:
107,81,19527,1,0,0:0:0:0:
186,161,19677,2,0,P|187:208|183:254,1,75,2|0,0:0|0:0,0:0:0:0:
143,330,19977,1,0,0:0:0:0:
172,324,20052,1,0,0:0:0:0:
201,325,20127,1,0,0:0:0:0:
230,330,20202,1,0,0:0:0:0:
264,340,20277,6,0,P|343:353|404:332,1,134.999995880127,4|0,0:0|0:0,0:0:0:0:
285,201,20727,2,0,P|316:271|375:221,1,179.999994506836,4|0,0:0|0:0,0:0:0:0:
333,117,21177,1,0,0:0:0:0:
333,117,21252,1,0,0:0:0:0:
333,117,21327,1,0,0:0:0:0:
333,117,21402,1,0,0:0:0:0:
333,117,21477,6,0,P|261:113|193:205,1,179.999994506836,4|0,0:0|0:0,0:0:0:0:
138,324,21927,1,0,0:0:0:0:
127,289,22002,1,0,0:0:0:0:
118,254,22077,2,0,P|114:190|134:118,2,134.999995880127,4|4|4,0:0|0:0|0:0,0:0:0:0:
138,324,22677,6,0,P|190:320|246:324,1,89.9999972534181,12|8,0:0|0:0,0:0:0:0:
332,336,22977,1,0,0:0:0:0:
367,328,23052,1,0,0:0:0:0:
398,311,23127,1,0,0:0:0:0:
424,286,23202,1,0,0:0:0:0:
444,256,23277,2,0,P|461:208|439:137,1,89.9999972534181,4|0,0:0|0:0,0:0:0:0:
391,48,23577,1,0,0:0:0:0:
244,124,23727,2,0,L|343:116,1,89.9999972534181,4|0,0:0|0:0,0:0:0:0:
464,86,24027,6,0,L|472:41,4,44.999998626709,0|0|2|2|2,0:0|0:0|0:0|0:0|0:0,0:0:0:0:
369,200,24477,2,0,P|328:200|268:267,1,134.999995880127,2|0,0:0|0:0,0:0:0:0:
233,236,24777,2,0,L|109:238,1,89.9999972534181,2|0,0:0|0:0,0:0:0:0:
59,167,25077,2,0,L|50:64,2,89.9999972534181,0|0|2,0:0|0:0|0:0,0:0:0:0:
58,265,25527,2,0,L|48:367,2,89.9999972534181,2|0|0,0:0|0:0|0:0,0:0:0:0:
59,167,25977,5,2,0:0:0:0:
96,60,26127,2,0,L|192:65,1,89.9999972534181,0|0,0:0|0:0,0:0:0:0:
229,148,26427,1,0,0:0:0:0:
297,39,26577,1,0,0:0:0:0:
402,104,26727,1,0,0:0:0:0:
402,104,26802,1,0,0:0:0:0:
402,104,26877,2,0,P|392:170|405:239,2,134.999995880127,4|8|12,0:0|0:0|0:0,0:0:0:0:
484,35,27477,6,0,L|479:134,1,89.9999972534181,0|0,0:0|0:0,0:0:0:0:
318,57,27777,2,0,L|313:146,1,89.9999972534181,4|0,0:0|0:0,0:0:0:0:
211,240,28077,1,0,0:0:0:0:
274,331,28227,2,0,L|325:331|375:334,2,89.9999972534181
122,239,28677,6,0,L|222:241,1,89.9999972534181
153,339,28977,2,0,L|53:337,1,89.9999972534181,4|0,0:0|0:0,0:0:0:0:
0,217,29277,1,0,0:0:0:0:
111,140,29427,2,0,P|119:83|115:42,2,89.9999972534181,0|4|0,0:0|0:0|0:0,0:0:0:0:
85,234,29877,5,4,0:0:0:0:
122,239,30177,1,4,0:0:0:0:
159,244,30477,1,4,0:0:0:0:
254,216,30627,6,0,L|261:171,3,44.999998626709
233,139,30927,2,0,P|280:149|333:143,1,89.9999972534181
375,262,31277,6,0,P|435:258|503:296,2,119.999996337891,8|8|8,0:0|0:0|0:0,0:0:0:0:
240,328,31877,1,8,0:0:0:0:
240,180,32077,1,8,0:0:0:0:
345,131,32277,5,4,0:0:0:0:
276,64,32427,1,0,0:0:0:0:
276,64,32502,1,0,0:0:0:0:
276,64,32577,2,0,P|225:50|178:64,1,89.9999972534181,0|4,0:0|0:0,0:0:0:0:
72,108,32877,1,0,0:0:0:0:
76,144,32952,1,0,0:0:0:0:
80,180,33027,2,0,L|88:276,1,89.9999972534181,0|4,0:0|0:0,0:0:0:0:
324,332,33777,6,0,P|324:276|436:288,1,179.999994506836,2|0,0:0|0:0,0:0:0:0:
464,292,34177,2,0,L|471:233,2,59.9999981689454,0|2|2,0:0|0:0|0:0,0:0:0:0:
292,184,34677,6,0,P|288:140|320:82,1,89.9999972534181,4|0,0:0|0:0,0:0:0:0:
360,28,34977,1,0,0:0:0:0:
232,56,35127,1,4,0:0:0:0:
160,160,35277,1,0,0:0:0:0:
157,189,35352,1,0,0:0:0:0:
162,219,35427,1,0,0:0:0:0:
175,246,35502,1,0,0:0:0:0:
193,270,35577,1,4,0:0:0:0:
433,330,36027,5,0,0:0:0:0:
278,310,36177,1,0,0:0:0:0:
278,310,36252,1,0,0:0:0:0:
278,310,36327,1,0,0:0:0:0:
278,310,36402,1,0,0:0:0:0:
278,310,36477,2,0,P|230:304|117:342,2,134.999995880127,4|4|4,0:0|0:0|0:0,0:0:0:0:
368,208,37077,5,4,0:0:0:0:
279,83,37227,2,0,L|231:77,2,44.999998626709,0|0|0,0:0|0:0|0:0,0:0:0:0:
371,51,37527,2,0,L|400:13,2,44.999998626709,4|0|0,0:0|0:0|0:0,0:0:0:0:
352,146,37827,2,0,L|370:187,2,44.999998626709,0|0|4,0:0|0:0|0:0,0:0:0:0:
184,40,38577,5,2,0:0:0:0:
64,108,38877,1,2,0:0:0:0:
79,140,38952,1,2,0:0:0:0:
85,175,39027,1,2,0:0:0:0:
82,210,39102,1,0,0:0:0:0:
71,244,39177,2,0,P|58:291|65:333,1,89.9999972534181,2|2,0:0|0:0,0:0:0:0:
156,295,39477,6,0,B|228:278|266:320|266:320|303:305|340:325,1,179.999994506836,4|0,0:0|0:0,0:0:0:0:
460,244,39927,2,0,B|388:261|350:219|350:219|313:234|276:214,1,179.999994506836,6|0,0:0|0:0,0:0:0:0:
168,136,40377,1,4,0:0:0:0:
361,43,40827,5,6,0:0:0:0:
420,156,40977,1,4,0:0:0:0:
293,149,41127,1,4,0:0:0:0:
293,149,41202,1,4,0:0:0:0:
293,149,41277,2,0,L|198:143,1,89.9999972534181,2|6,0:0|0:0,0:0:0:0:
67,80,41727,6,0,P|44:142|74:234,1,150,4|0,0:0|0:0,0:0:0:0:
147,284,42177,2,0,L|216:284,3,37.5,0|0|0|0,0:0|0:0|0:0|0:0,0:0:0:0:
211,297,42477,2,0,L|280:297,3,37.5,0|0|0|0,0:0|0:0|0:0|0:0,0:0:0:0:
277,305,42777,2,0,P|273:254|299:210,1,75,0|0,0:0|0:0,0:0:0:0:
357,126,43077,6,0,P|361:176|335:221,1,75,0|10,0:0|0:0,0:0:0:0:
200,214,43377,1,10,0:0:0:0:
253,119,43527,1,10,0:0:0:0:
253,119,43602,1,10,0:0:0:0:
253,119,43677,2,0,L|162:118,1,75,10|10,0:0|0:0,0:0:0:0:
374,33,44127,6,0,P|297:45|228:23,1,150,4|0,0:0|0:0,0:0:0:0:
128,44,44577,2,0,L|115:79,3,37.5,0|0|0|0,0:0|0:0|0:0|0:0,0:0:0:0:
136,99,44877,2,0,L|129:135,3,37.5,0|0|0|0,0:0|0:0|0:0|0:0,0:0:0:0:
153,152,45177,2,0,P|201:147|242:153,1,75,0|0,0:0|0:0,0:0:0:0:
325,192,45477,5,10,0:0:0:0:
202,261,45627,1,10,0:0:0:0:
78,208,45777,1,10,0:0:0:0:
153,152,45927,1,10,0:0:0:0:
153,152,46002,1,10,0:0:0:0:
153,152,46077,2,0,P|201:147|242:153,1,75,10|10,0:0|0:0,0:0:0:0:
473,59,46527,6,0,L|310:51,1,150,4|0,0:0|0:0,0:0:0:0:
136,72,46977,2,0,L|230:77,1,75,0|0,0:0|0:0,0:0:0:0:
68,24,47277,1,8,0:0:0:0:
57,137,47427,1,0,0:0:0:0:
104,240,47577,2,0,L|96:341,1,75,0|0,0:0|0:0,0:0:0:0:
210,254,47877,2,0,P|220:213|257:183,1,75,4|0,0:0|0:0,0:0:0:0:
242,190,48102,1,0,0:0:0:0:
242,190,48177,1,0,0:0:0:0:
443,74,48477,5,8,0:0:0:0:
384,151,48627,2,0,L|389:199,2,37.5,0|8|0,0:0|0:0|0:0,0:0:0:0:
302,53,48927,1,8,0:0:0:0:
168,64,49077,2,0,P|108:65|70:57,2,75,4|0|0,0:0|0:0|0:0,0:0:0:0:
224,161,49527,2,0,P|167:182|129:187,2,75,4|0|0,0:0|0:0|0:0,0:0:0:0:
327,229,49977,2,0,P|281:268|247:286,2,75,4|0|0,0:0|0:0|0:0,0:0:0:0:
404,140,50427,5,8,0:0:0:0:
248,284,50577,1,8,0:0:0:0:
270,153,50727,1,8,0:0:0:0:
383,306,50877,1,8,0:0:0:0:
164,340,51177,6,0,L|108:336,3,37.5,4|0|0|0,0:0|0:0|0:0|0:0,0:0:0:0:
104,316,51477,2,0,L|68:304,3,37.5,2|0|2|0,0:0|0:0|0:0|0:0,0:0:0:0:
77,275,51777,2,0,P|86:232|79:194,1,75,2|2,0:0|0:0,0:0:0:0:
49,103,52077,5,2,0:0:0:0:
49,103,52152,1,0,0:0:0:0:
49,103,52227,1,2,0:0:0:0:
49,103,52302,1,0,0:0:0:0:
49,103,52377,2,0,L|150:104,1,75,2|2,0:0|0:0,0:0:0:0:
236,54,52677,6,0,P|310:50|273:180,1,262.5,2|2,0:0|0:0,0:0:0:0:
274,179,53277,5,8,0:0:0:0:
383,147,53427,2,0,L|480:151,2,75,8|8|8,0:0|0:0|0:0,0:0:0:0:
337,55,53877,5,4,0:0:0:0:
348,244,54027,1,0,0:0:0:0:
187,114,54177,2,0,L|277:111,1,89.9999972534181,0|4,0:0|0:0,0:0:0:0:
369,169,54477,1,0,0:0:0:0:
275,300,54627,2,0,B|255:247|285:195,1,89.9999972534181
338,65,54927,2,0,L|399:62,2,44.999998626709,4|0|0,0:0|0:0|0:0,0:0:0:0:
218,16,55227,1,0,0:0:0:0:
85,74,55377,6,0,P|88:135|85:189,1,89.9999972534181,4|0,0:0|0:0,0:0:0:0:
87,163,55602,1,0,0:0:0:0:
87,163,55677,1,4,0:0:0:0:
118,305,55827,2,0,L|110:373,2,44.999998626709,0|0|4,0:0|0:0|0:0,0:0:0:0:
163,195,56127,2,0,L|162:261,1,44.999998626709
200,264,56277,2,0,P|255:247|376:304,1,179.999994506836,4|0,0:0|0:0,0:0:0:0:
468,333,56727,2,0,B|450:241|450:241|473:154,1,179.999994506836,4|0,0:0|0:0,0:0:0:0:
415,56,57177,5,0,0:0:0:0:
415,56,57252,1,0,0:0:0:0:
415,56,57327,2,0,P|364:140|292:123,1,179.999994506836,4|0,0:0|0:0,0:0:0:0:
180,48,57777,2,0,L|288:40,1,89.9999972534181,4|0,0:0|0:0,0:0:0:0:
216,156,58077,2,0,L|108:164,1,89.9999972534181,4|4,0:0|0:0,0:0:0:0:
24,100,58377,5,0,0:0:0:0:
24,100,58452,1,0,0:0:0:0:
24,100,58527,1,0,0:0:0:0:
24,100,58602,1,0,0:0:0:0:
24,100,58677,2,0,P|35:146|32:209,1,89.9999972534181,4|0,0:0|0:0,0:0:0:0:
35,297,58977,1,12,0:0:0:0:
157,253,59127,1,0,0:0:0:0:
256,335,59277,1,0,0:0:0:0:
373,289,59427,1,8,0:0:0:0:
324,174,59577,6,0,P|322:121|326:74,1,89.9999972534181,0|0,0:0|0:0,0:0:0:0:
324,84,59802,1,0,0:0:0:0:
324,84,59877,1,4,0:0:0:0:
429,36,60027,1,0,0:0:0:0:
239,36,60177,2,0,P|241:94|236:143,1,89.9999972534181,12|0,0:0|0:0,0:0:0:0:
203,242,60477,1,0,0:0:0:0:
97,275,60627,2,0,L|24:269,4,44.999998626709,8|0|8|0|8,0:0|0:0|0:0|0:0|0:0,0:0:0:0:
184,344,61077,6,0,L|276:340,1,89.9999972534181,8|8,0:0|0:0,0:0:0:0:
348,248,61377,1,8,0:0:0:0:
388,360,61527,1,8,0:0:0:0:
260,256,61677,2,0,P|256:208|256:160,1,89.9999972534181,8|8,0:0|0:0,0:0:0:0:
304,44,61977,1,8,0:0:0:0:
388,144,62127,1,8,0:0:0:0:
177,139,62427,6,0,P|178:74|180:42,1,89.9999972534181
25,115,62802,1,0,0:0:0:0:
32,150,62877,1,0,0:0:0:0:
39,185,62952,1,0,0:0:0:0:
45,220,63027,1,0,0:0:0:0:
50,255,63102,1,0,0:0:0:0:
53,292,63177,2,0,L|48:340,3,44.999998626709,4|0|0|0,0:0|0:0|0:0|0:0,0:0:0:0:
153,287,63477,6,0,P|201:283|257:303,1,89.9999972534181,12|0,0:0|0:0,0:0:0:0:
348,344,63777,1,0,0:0:0:0:
444,260,63927,2,0,L|448:164,1,89.9999972534181,8|0,0:0|0:0,0:0:0:0:
356,176,64227,2,0,L|352:60,1,89.9999972534181,0|0,0:0|0:0,0:0:0:0:
436,37,64527,6,0,L|445:83,2,44.999998626709,8|0|0,0:0|0:0|0:0,0:0:0:0:
301,18,64827,1,0,0:0:0:0:
188,152,64977,2,0,P|184:92|196:60,1,89.9999972534181,4|0,0:0|0:0,0:0:0:0:
193,64,65202,1,0,0:0:0:0:
193,64,65277,1,4,0:0:0:0:
272,204,65427,1,0,0:0:0:0:
272,204,65502,1,0,0:0:0:0:
272,204,65577,2,0,P|283:160|277:116,1,89.9999972534181,4|0,0:0|0:0,0:0:0:0:
118,40,65877,6,0,L|222:36,1,89.9999972534181,4|0,0:0|0:0,0:0:0:0:
287,92,66177,1,0,0:0:0:0:
98,156,66327,2,0,L|187:152,1,89.9999972534181,4|0,0:0|0:0,0:0:0:0:
287,92,66627,1,0,0:0:0:0:
442,53,66777,5,0,0:0:0:0:
450,88,66852,1,0,0:0:0:0:
450,123,66927,2,0,B|415:212|479:212|431:320,1,179.999994506836,4|0,0:0|0:0,0:0:0:0:
282,250,67377,2,0,L|372:248,1,89.9999972534181,4|0,0:0|0:0,0:0:0:0:
248,328,67677,1,0,0:0:0:0:
195,167,67827,2,0,L|285:165,1,89.9999972534181,4|0,0:0|0:0,0:0:0:0:
116,232,68127,5,4,0:0:0:0:
45,129,68277,1,0,0:0:0:0:
48,93,68352,1,0,0:0:0:0:
67,63,68427,1,0,0:0:0:0:
99,46,68502,1,0,0:0:0:0:
134,39,68577,2,0,B|249:41,1,89.9999972534181,8|0,0:0|0:0,0:0:0:0:
403,41,68877,1,0,0:0:0:0:
461,189,69027,5,0,0:0:0:0:
439,217,69102,1,0,0:0:0:0:
408,234,69177,1,8,0:0:0:0:
372,235,69252,1,0,0:0:0:0:
340,221,69327,1,0,0:0:0:0:
317,193,69402,1,0,0:0:0:0:
310,158,69477,2,0,L|313:65,1,89.9999972534181,4|8,0:0|0:0,0:0:0:0:
204,203,69777,2,0,L|201:312,1,89.9999972534181,0|4,0:0|0:0,0:0:0:0:
51,339,70227,6,0,L|43:245,2,89.9999972534181,0|0|0,0:0|0:0|0:0,0:0:0:0:
129,260,70677,6,0,B|103:202|127:153|127:153|86:132,1,150,12|0,0:0|0:0,0:0:0:0:
276,51,71277,2,0,P|223:95|135:58,1,150,12|0,0:0|0:0,0:0:0:0:
149,76,71727,1,12,0:0:0:0:
365,68,72027,6,0,L|469:74,2,75,0|0|0,0:0|0:0|0:0,0:0:0:0:
295,159,72477,2,0,P|285:219|295:278,2,112.5,4|4|4,0:0|0:0|0:0,0:0:0:0:
408,151,73077,1,4,0:0:0:0:
44,265,81477,6,0,P|210:310|251:177,1,337.499989700318,4|0,0:0|0:0,0:0:0:0:
151,129,82377,5,0,0:0:0:0:
151,129,82452,1,0,0:0:0:0:
151,129,82527,1,0,0:0:0:0:
151,129,82602,1,0,0:0:0:0:
151,129,82677,2,0,P|140:178|149:226,1,89.9999972534181,2|0,0:0|0:0,0:0:0:0:
256,292,82977,1,0,0:0:0:0:
347,223,83127,2,0,L|399:221,2,44.999998626709,2|0|0,0:0|0:0|0:0,0:0:0:0:
292,136,83427,1,0,0:0:0:0:
361,34,83577,5,2,0:0:0:0:
396,29,83652,1,2,0:0:0:0:
431,38,83727,1,2,0:0:0:0:
460,60,83802,1,2,0:0:0:0:
478,90,83877,1,2,0:0:0:0:
467,209,84027,2,0,L|513:207,2,44.999998626709,2|2|2,0:0|0:0|0:0,0:0:0:0:
392,124,84327,1,0,0:0:0:0:
347,223,84477,2,0,P|350:298|314:367,1,134.999995880127,2|0,0:0|0:0,0:0:0:0:
290,356,84777,2,0,L|178:360,1,89.9999972534181,2|2,0:0|0:0,0:0:0:0:
116,280,85077,6,0,P|104:220|116:140,1,134.999995880127,0|2,0:0|0:0,0:0:0:0:
124,112,85377,2,0,P|132:68|124:20,1,89.9999972534181,2|0,0:0|0:0,0:0:0:0:
40,72,85677,1,0,0:0:0:0:
34,107,85752,1,0,0:0:0:0:
41,142,85827,1,0,0:0:0:0:
60,172,85902,1,0,0:0:0:0:
89,193,85977,1,0,0:0:0:0:
124,202,86052,1,0,0:0:0:0:
159,198,86127,1,0,0:0:0:0:
191,182,86202,1,0,0:0:0:0:
223,161,86277,6,0,L|220:205,3,44.999998626709,2|2|2|2,0:0|0:0|0:0|0:0,0:0:0:0:
245,236,86577,2,0,L|243:281,3,44.999998626709,2|2|2|2,0:0|0:0|0:0|0:0,0:0:0:0:
279,313,86877,1,0,0:0:0:0:
384,268,87027,5,2,0:0:0:0:
382,231,87102,1,2,0:0:0:0:
381,195,87177,1,2,0:0:0:0:
380,159,87252,1,2,0:0:0:0:
379,123,87327,1,2,0:0:0:0:
378,87,87402,1,2,0:0:0:0:
377,52,87477,2,0,L|280:55,1,89.9999972534181,4|0,0:0|0:0,0:0:0:0:
136,42,87777,1,0,0:0:0:0:
136,42,87852,1,0,0:0:0:0:
136,42,87927,1,0,0:0:0:0:
136,42,88002,1,0,0:0:0:0:
136,42,88077,2,0,P|76:73|-4:61,2,134.999995880127,0|0|0,0:0|0:0|0:0,0:0:0:0:
195,142,88677,6,0,L|204:248,1,89.9999972534181,4|0,0:0|0:0,0:0:0:0:
214,266,88902,1,0,0:0:0:0:
234,295,88977,1,0,0:0:0:0:
264,314,89052,1,0,0:0:0:0:
299,319,89127,1,0,0:0:0:0:
333,307,89202,1,0,0:0:0:0:
365,292,89277,2,0,P|433:282|496:316,2,134.999995880127,8|0|8,0:0|0:0|0:0,0:0:0:0:
278,168,89877,6,0,P|277:114|286:67,2,89.9999972534181,12|0|0,0:0|0:0|0:0,0:0:0:0:
361,106,90327,2,0,P|378:54|403:13,2,89.9999972534181,12|0|0,0:0|0:0|0:0,0:0:0:0:
373,206,90777,1,8,0:0:0:0:
373,206,90852,1,0,0:0:0:0:
373,206,90927,2,0,L|380:272,1,44.999998626709,0|0,0:0|0:0,0:0:0:0:
266,69,91227,5,8,0:0:0:0:
447,148,91377,1,8,0:0:0:0:
278,168,91527,1,8,0:0:0:0:
361,106,91677,1,8,0:0:0:0:
211,232,91827,6,0,L|217:288,1,56.2500021457673,0|4,0:0|0:0,0:0:0:0:
216,287,92127,1,0,0:0:0:0:
286,181,92277,6,0,L|292:237,1,56.2500021457673,0|0,0:0|0:0,0:0:0:0:
253,323,92577,1,0,0:0:0:0:
166,357,92727,2,0,P|123:323|102:252,1,112.500004291535
50,31,93327,6,0,P|106:32|187:31,1,112.500004291535
146,111,93777,2,0,P|164:143|190:161,1,56.2500021457673
224,87,94077,2,0,L|298:85,1,56.2500021457673,0|0,0:0|0:0,0:0:0:0:
368,104,94377,2,0,P|408:104|444:108,1,56.2500021457673
457,205,94677,6,0,P|416:263|361:262,1,112.500004291535
300,214,95127,2,0,B|283:190|283:190|378:185,1,112.500004291535
379,267,95502,5,0,0:0:0:0:
350,291,95577,1,0,0:0:0:0:
314,301,95652,1,0,0:0:0:0:
277,296,95727,2,0,P|196:283|102:311,1,179.999994506836,4|0,0:0|0:0,0:0:0:0:
124,200,96177,2,0,P|121:145|93:98,1,89.9999972534181,4|0,0:0|0:0,0:0:0:0:
208,138,96477,2,0,P|256:128|291:91,1,89.9999972534181,0|4,0:0|0:0,0:0:0:0:
364,31,96777,1,0,0:0:0:0:
364,31,96852,1,0,0:0:0:0:
364,31,96927,1,0,0:0:0:0:
364,31,97002,1,0,0:0:0:0:
364,31,97077,6,0,L|368:146,1,89.9999972534181,4|0,0:0|0:0,0:0:0:0:
473,106,97377,2,0,L|456:219,1,89.9999972534181,0|0,0:0|0:0,0:0:0:0:
494,295,97677,5,4,0:0:0:0:
380,199,97827,1,0,0:0:0:0:
322,292,97977,1,0,0:0:0:0:
322,292,98052,1,0,0:0:0:0:
322,292,98127,1,0,0:0:0:0:
322,292,98202,1,0,0:0:0:0:
322,292,98277,6,0,P|270:275|231:272,1,89.9999972534181,4|0,0:0|0:0,0:0:0:0:
205,103,98577,2,0,P|211:163|197:202,1,89.9999972534181,0|4,0:0|0:0,0:0:0:0:
153,351,98877,2,0,P|147:291|161:252,1,89.9999972534181,0|4,0:0|0:0,0:0:0:0:
61,195,99177,1,0,0:0:0:0:
95,185,99252,1,0,0:0:0:0:
132,181,99327,1,0,0:0:0:0:
167,183,99402,1,0,0:0:0:0:
202,190,99477,6,0,P|263:193|304:188,1,89.9999972534181,8|8,0:0|0:0,0:0:0:0:
419,117,99777,1,8,0:0:0:0:
397,213,99927,1,8,0:0:0:0:
327,117,100077,2,0,L|316:18,1,89.9999972534181,8|8,0:0|0:0,0:0:0:0:
233,26,100377,1,8,0:0:0:0:
401,37,100527,1,8,0:0:0:0:
340,328,100827,6,0,P|390:324|445:335,1,89.9999972534181,8|8,0:0|0:0,0:0:0:0:
411,178,101202,1,0,0:0:0:0:
418,143,101277,1,0,0:0:0:0:
419,107,101352,1,0,0:0:0:0:
413,71,101427,1,0,0:0:0:0:
401,37,101502,1,0,0:0:0:0:
370,20,101577,2,0,P|342:16|314:16,3,44.999998626709,0|0|0|0,0:0|0:0|0:0|0:0,0:0:0:0:
256,65,101877,6,0,P|211:78|154:66,1,89.9999972534181,4|0,0:0|0:0,0:0:0:0:
68,24,102177,1,8,0:0:0:0:
68,24,102327,2,0,P|83:125|76:207,1,179.999994506836,0|0,0:0|0:0,0:0:0:0:
136,273,102777,1,8,0:0:0:0:
300,327,102927,5,0,0:0:0:0:
174,341,103077,2,0,P|184:291|221:259,1,89.9999972534181,0|0,0:0|0:0,0:0:0:0:
311,208,103377,1,8,0:0:0:0:
183,182,103527,2,0,L|132:189,2,44.999998626709,0|0|8,0:0|0:0|0:0,0:0:0:0:
233,53,103827,1,0,0:0:0:0:
339,126,103977,2,0,L|334:15,1,89.9999972534181,8|0,0:0|0:0,0:0:0:0:
139,106,104277,6,0,P|229:108|272:189,1,179.999994506836,4|8,0:0|0:0,0:0:0:0:
218,308,104727,2,0,B|193:329|193:329|202:245|184:183,1,179.999994506836,4|0,0:0|0:0,0:0:0:0:
92,266,105177,1,0,0:0:0:0:
92,266,105252,1,0,0:0:0:0:
92,266,105327,6,0,P|29:210|66:126,1,179.999994506836,12|8,0:0|0:0,0:0:0:0:
140,19,105777,2,0,B|162:70|136:112,1,89.9999972534181,8|0,0:0|0:0,0:0:0:0:
242,93,106077,2,0,B|245:148|206:179,1,89.9999972534181,4|0,0:0|0:0,0:0:0:0:
340,61,106377,1,0,0:0:0:0:
321,156,106527,5,12,0:0:0:0:
423,211,106677,1,0,0:0:0:0:
425,175,106752,1,0,0:0:0:0:
427,139,106827,1,0,0:0:0:0:
429,104,106902,1,0,0:0:0:0:
429,67,106977,2,0,L|340:61,1,89.9999972534181,0|8,0:0|0:0,0:0:0:0:
242,93,107277,2,0,L|152:86,1,89.9999972534181,0|0,0:0|0:0,0:0:0:0:
29,52,107577,1,0,0:0:0:0:
48,82,107652,1,0,0:0:0:0:
59,117,107727,1,0,0:0:0:0:
61,152,107802,1,0,0:0:0:0:
54,188,107877,6,0,L|153:183,1,89.9999972534181,12|0,0:0|0:0,0:0:0:0:
242,93,108177,1,0,0:0:0:0:
287,218,108327,1,12,0:0:0:0:
410,142,108627,6,0,L|320:136,2,89.9999972534181,8|8|8,0:0|0:0|0:0,0:0:0:0:
242,93,109077,6,0,P|237:165|296:222,1,150,8|0,0:0|0:0,0:0:0:0:
317,47,109677,2,0,P|257:6|180:28,1,150,8|0,0:0|0:0,0:0:0:0:
93,101,110127,1,8,0:0:0:0:
131,260,110427,6,0,L|125:349,2,75,8|8|8,0:0|0:0|0:0,0:0:0:0:
214,233,110877,2,0,P|202:161|198:121,2,112.5,8|8|8,0:0|0:0|0:0,0:0:0:0:
224,328,111477,6,0,P|265:326|298:326,1,75
372,274,111777,2,0,L|464:271,1,75,4|0,0:0|0:0,0:0:0:0:
494,191,112077,2,0,L|491:99,1,75
407,113,112377,2,0,L|404:21,1,75,4|0,0:0|0:0,0:0:0:0:
307,41,112677,6,0,P|269:48|233:50,1,75
186,150,112977,2,0,P|224:143|260:141,1,75,4|0,0:0|0:0,0:0:0:0:
336,213,113277,2,0,P|341:265|346:307,1,75
221,253,113577,2,0,L|224:345,1,75,4|0,0:0|0:0,0:0:0:0:
120,277,113877,6,0,P|80:275|26:295,1,75,8|0,0:0|0:0,0:0:0:0:
107,187,114177,2,0,P|99:150|102:107,1,75,8|0,0:0|0:0,0:0:0:0:
182,59,114477,2,0,L|228:56,3,37.5,8|0|0|0,0:0|0:0|0:0|0:0,0:0:0:0:
249,81,114777,2,0,L|295:78,3,37.5,8|0|0|0,0:0|0:0|0:0|0:0,0:0:0:0:
320,103,115077,6,0,L|382:98,1,37.5,8|0,0:0|0:0,0:0:0:0:
357,22,115227,2,0,L|419:17,1,37.5,8|0,0:0|0:0,0:0:0:0:
466,70,115377,2,0,L|462:107,1,37.5,8|0,0:0|0:0,0:0:0:0:
407,173,115527,2,0,L|403:210,1,37.5,8|0,0:0|0:0,0:0:0:0:
445,291,115677,5,2,0:0:0:0:
407,288,115752,1,2,0:0:0:0:
370,285,115827,1,2,0:0:0:0:
332,283,115902,1,2,0:0:0:0:
295,280,115977,1,2,0:0:0:0:
257,278,116052,1,2,0:0:0:0:
220,275,116127,1,2,0:0:0:0:
183,273,116202,1,0,0:0:0:0:
140,282,116277,5,8,0:0:0:0:
80,146,116427,1,8,0:0:0:0:
