osu file format v14

[General]
AudioFilename: Wish upon Twin Stars.mp3
AudioLeadIn: 1000
PreviewTime: 53415
Countdown: 0
SampleSet: Soft
StackLeniency: 0.7
Mode: 0
LetterboxInBreaks: 0
WidescreenStoryboard: 0

[Editor]
DistanceSpacing: 1.1
BeatDivisor: 4
GridSize: 4
TimelineZoom: 2.1

[Metadata]
Title:Wish upon Twin Stars
TitleUnicode:Wish upon Twin Stars
Artist:xi
ArtistUnicode:xi
Creator:Chaoslitz
Version:BASIC
Source:SOUND VOLTEX II -infinite infection-
Tags:sdvx Gaia ニア ノア NEAR NOAH
BeatmapID:688683
BeatmapSetID:242462

[Difficulty]
HPDrainRate:2
CircleSize:3
OverallDifficulty:2
ApproachRate:3
SliderMultiplier:0.8
SliderTickRate:1

[Events]
//Background and Video events
0,0,"bg.jpg",0,0
//Break Periods
2,75465,80037
//Storyboard Layer 0 (Background)
//Storyboard Layer 1 (Fail)
//Storyboard Layer 2 (Pass)
//Storyboard Layer 3 (Foreground)
//Storyboard Sound Samples

[TimingPoints]
-123,300,4,2,2,40,1,0
4977,-100,4,2,1,40,0,0
5877,-100,4,2,1,50,0,0
13077,-100,4,2,1,40,0,0
20277,-100,4,2,1,60,0,0
22077,-100,4,2,1,60,0,0
22527,-100,4,2,1,60,0,0
22677,-100,4,2,15,40,0,0
22977,-100,4,2,1,60,0,0
27102,-100,4,3,1,60,0,0
27477,-100,4,2,1,60,0,0
29877,-100,4,2,1,60,0,0
31227,-100,4,2,1,50,0,0
32277,-100,4,2,1,60,0,0
33027,-100,4,2,1,60,0,0
34677,-100,4,2,1,60,0,0
41727,-100,4,2,1,65,0,0
43227,-100,4,2,15,65,0,0
44427,-100,4,2,1,65,0,0
45477,-100,4,2,15,65,0,0
49077,-100,4,2,1,65,0,0
51177,-100,4,2,2,60,0,0
53277,-100,4,2,15,50,0,0
53427,-100,4,2,15,60,0,0
53877,-100,4,2,1,70,0,1
58677,-100,4,2,2,40,0,1
58752,-100,4,2,1,70,0,1
58827,-100,4,2,15,70,0,1
59877,-100,4,2,2,40,0,1
59952,-100,4,2,15,70,0,1
61077,-100,4,2,1,70,0,1
62127,-100,4,2,1,70,0,0
62427,-100,4,2,2,70,0,0
63177,-100,4,2,2,40,0,0
63477,-100,4,2,15,70,0,1
64977,-100,4,2,1,70,0,1
68127,-100,4,2,2,40,0,1
68277,-100,4,2,15,70,0,1
70677,-100,4,2,15,70,0,0
81477,-100,4,3,18,60,0,0
82677,-100,4,2,1,60,0,0
91827,-100,4,2,1,40,0,0
91977,-100,4,2,2,40,0,0
92277,-100,4,2,2,40,0,0
95727,-100,4,2,1,50,0,1
97077,-100,4,2,1,70,0,1
97153,-100,4,2,1,60,0,1
100827,-100,4,2,15,60,0,0
101877,-100,4,2,15,70,0,1
109077,-100,4,2,1,50,0,0
110427,-100,4,2,1,60,0,0
111102,-100,4,2,1,70,0,0
111477,-100,4,2,1,60,0,0
115077,-100,4,2,1,80,0,0

[Colours]
Combo1 : 15,50,249
Combo2 : 4,215,204
Combo3 : 62,172,253

[HitObjects]
60,312,1077,6,0,P|124:325|179:300,1,120,2|2,0:0|0:0,0:0:0:0:
244,144,2127,2,0,P|299:123|359:144,1,120,2|2,0:0|0:0,0:0:0:0:
418,202,2877,1,2,0:0:0:0:
305,335,3477,6,0,P|299:275|302:216,2,120,2|2|2,0:0|0:0|0:0,0:0:0:0:
418,202,4977,1,8,0:0:0:0:
355,141,5277,2,0,P|348:101|351:51,1,80,0|0,0:0|0:0,0:0:0:0:
274,15,5877,6,0,L|96:19,1,160,4|0,0:0|0:0,0:0:0:0:
48,182,7077,2,0,L|207:178,1,160,4|0,0:0|0:0,0:0:0:0:
384,185,8277,6,0,P|376:246|341:293,2,120,12|12|12,0:0|0:0|0:0,0:0:0:0:
277,106,9627,1,8,0:0:0:0:
394,45,10077,2,0,P|435:40|490:50,1,80,0|8,0:0|0:0,0:0:0:0:
256,192,10677,12,0,11877,0:0:0:0:
428,337,13677,6,0,L|295:341,1,120,2|0,0:0|0:0,0:0:0:0:
182,298,14577,1,0,0:0:0:0:
122,232,14877,2,0,P|109:192|122:140,1,80,2|0,0:0|0:0,0:0:0:0:
197,186,15477,2,0,P|203:146|191:108,1,80,2|0,0:0|0:0,0:0:0:0:
115,64,16077,6,0,P|165:24|232:30,1,120
324,96,16977,1,2,0:0:0:0:
365,173,17277,2,0,L|361:252,1,80,2|2,0:0|0:0,0:0:0:0:
425,313,17877,6,0,P|385:337|283:295,1,160,6|0,0:0|0:0,0:0:0:0:
213,249,18777,1,2,0:0:0:0:
130,216,19077,2,0,P|92:207|53:214,1,80,2|2,0:0|0:0,0:0:0:0:
14,296,19677,2,0,P|53:302|92:294,1,80,2|0,0:0|0:0,0:0:0:0:
131,217,20277,6,0,L|140:93,1,120,4|0,0:0|0:0,0:0:0:0:
219,15,21177,1,0,0:0:0:0:
300,48,21477,2,0,L|395:44,1,80,4|0,0:0|0:0,0:0:0:0:
411,126,22077,2,0,L|316:130,1,80,4|0,0:0|0:0,0:0:0:0:
247,157,22677,6,0,L|167:160,1,80,12|0,0:0|0:0,0:0:0:0:
132,79,23277,2,0,P|84:131|84:187,1,120,4|0,0:0|0:0,0:0:0:0:
146,288,24177,1,2,0:0:0:0:
233,286,24477,2,0,P|279:283|320:268,1,80,2|2,0:0|0:0,0:0:0:0:
395,247,25077,6,0,P|389:308|397:378,2,120,0|2|0,0:0|0:0|0:0,0:0:0:0:
361,73,26577,1,0,0:0:0:0:
274,86,26877,2,0,L|194:87,1,80,4|0,0:0|0:0,0:0:0:0:
130,26,27477,6,0,P|106:94|162:168,1,160,0|0,0:0|0:0,0:0:0:0:
237,181,28377,1,0,0:0:0:0:
323,196,28677,2,0,P|367:259|346:334,1,160
260,356,29577,1,0,0:0:0:0:
172,358,29877,6,0,L|83:360,1,80,4|4,0:0|0:0,0:0:0:0:
39,288,30477,2,0,P|16:219|28:162,1,120,4|0,0:0|0:0,0:0:0:0:
60,76,31277,2,0,L|223:70,1,160
335,50,32277,6,0,P|393:39|454:47,2,120,4|4|4,0:0|0:0|0:0,0:0:0:0:
196,159,33777,1,2,0:0:0:0:
184,246,34077,2,0,L|187:338,1,80,0|2,0:0|0:0,0:0:0:0:
275,351,34677,6,0,P|334:358|392:347,2,120,4|4|4,0:0|0:0|0:0,0:0:0:0:
117,273,36177,1,0,0:0:0:0:
111,185,36477,2,0,L|108:105,1,80,4|0,0:0|0:0,0:0:0:0:
173,45,37077,6,0,B|231:32|231:32|305:40,2,120,4|4|4,0:0|0:0|0:0,0:0:0:0:
16,126,38577,1,2,0:0:0:0:
22,214,38877,2,0,L|24:293,1,80,2|2,0:0|0:0,0:0:0:0:
93,347,39477,6,0,B|153:355|153:355|210:340,2,120,4|6|4,0:0|0:0|0:0,0:0:0:0:
103,171,40977,2,0,P|150:165|196:165,1,80,4|0,0:0|0:0,0:0:0:0:
317,157,41727,6,0,P|377:192|431:182,1,120
390,102,42477,2,0,P|387:59|391:18,1,80
478,24,43077,2,0,P|481:67|477:108,1,80,0|10,0:0|0:0,0:0:0:0:
430,179,43677,1,10,0:0:0:0:
363,292,44127,6,0,L|234:294,1,120
161,260,44877,2,0,P|151:214|158:172,1,80,0|0,0:0|0:0,0:0:0:0:
167,94,45477,2,0,P|170:54|160:15,2,80,10|10|10,0:0|0:0|0:0,0:0:0:0:
56,165,46527,6,0,P|56:231|85:295,1,120
132,354,47277,2,0,P|177:359|222:347,1,80,8|0,0:0|0:0,0:0:0:0:
280,296,47877,2,0,P|319:292|358:300,1,80,4|0,0:0|0:0,0:0:0:0:
435,344,48477,2,0,P|446:303|437:261,1,80,8|0,0:0|0:0,0:0:0:0:
416,178,49077,6,0,P|409:119|413:57,2,120,4|4|4,0:0|0:0|0:0,0:0:0:0:
285,199,50427,1,8,0:0:0:0:
157,231,50877,2,0,L|66:233,1,80,8|4,0:0|0:0,0:0:0:0:
50,148,51477,6,0,L|141:146,1,80,2|2,0:0|0:0,0:0:0:0:
207,104,52077,2,0,L|298:102,1,80,2|2,0:0|0:0,0:0:0:0:
365,60,52677,2,0,P|475:68|497:181,1,240,2|8,0:0|0:0,0:0:0:0:
415,139,53877,6,0,P|399:210|404:272,1,120,4|0,0:0|0:0,0:0:0:0:
351,329,54627,1,0,0:0:0:0:
263,338,54927,2,0,L|131:341,1,120,0|4,0:0|0:0,0:0:0:0:
65,291,55677,2,0,P|58:252|62:213,1,80,4|4,0:0|0:0,0:0:0:0:
0,151,56277,6,0,P|50:124|122:145,1,120,4|0,0:0|0:0,0:0:0:0:
180,188,57027,1,0,0:0:0:0:
252,240,57327,2,0,P|314:246|382:234,1,120,4|4,0:0|0:0,0:0:0:0:
452,208,58077,2,0,L|455:115,1,80,4|0,0:0|0:0,0:0:0:0:
396,60,58677,6,0,P|452:40|512:57,2,120,4|0|0,0:0|0:0|0:0,0:0:0:0:
364,144,59877,2,0,L|359:282,2,120,4|0|8,0:0|0:0|0:0,0:0:0:0:
396,60,61077,6,0,P|244:84|228:206,1,280,8|0,0:0|0:0,0:0:0:0:
304,296,62577,1,0,0:0:0:0:
392,316,62877,2,0,L|479:319,1,80,0|4,0:0|0:0,0:0:0:0:
499,231,63477,6,0,L|363:226,1,120,12|0,0:0|0:0,0:0:0:0:
294,202,64227,1,0,0:0:0:0:
227,143,64527,2,0,L|92:147,1,120,0|4,0:0|0:0,0:0:0:0:
30,190,65277,2,0,P|25:229|32:268,1,80,4|4,0:0|0:0,0:0:0:0:
72,348,65877,6,0,P|133:357|190:335,1,120,4|0,0:0|0:0,0:0:0:0:
224,260,66628,1,0,0:0:0:0:
264,184,66927,2,0,P|324:172|388:188,1,120,0|4,0:0|0:0,0:0:0:0:
458,224,67677,1,0,0:0:0:0:
408,346,68127,6,0,L|286:343,1,120,0|8,0:0|0:0,0:0:0:0:
209,306,68877,2,0,L|121:308,1,80,0|8,0:0|0:0,0:0:0:0:
64,248,69477,2,0,P|67:307|56:366,2,120,4|0|0,0:0|0:0|0:0,0:0:0:0:
48,160,70677,6,0,P|128:132|204:164,1,160,12|0,0:0|0:0,0:0:0:0:
280,258,71727,2,0,P|281:209|284:133,1,120
318,57,72477,2,0,P|364:72|484:68,1,160,4|4,0:0|0:0,0:0:0:0:
296,331,81477,6,0,B|169:333|169:333|103:327|78:274,1,240,4|0,0:0|0:0,0:0:0:0:
36,197,82677,6,0,P|35:127|66:73,1,120,2|0,0:0|0:0,0:0:0:0:
172,45,83577,2,0,P|221:69|291:73,1,120
398,25,84477,2,0,P|440:17|477:25,1,80,2|2,0:0|0:0,0:0:0:0:
438,105,85077,6,0,P|448:176|430:273,1,160,0|0,0:0|0:0,0:0:0:0:
370,322,85977,1,0,0:0:0:0:
282,332,86277,2,0,L|184:334,1,80,2|2,0:0|0:0,0:0:0:0:
133,277,86877,2,0,L|35:279,1,80,0|2,0:0|0:0,0:0:0:0:
0,207,87477,6,0,P|-14:148|33:58,1,160,4|0,0:0|0:0,0:0:0:0:
114,42,88377,1,0,0:0:0:0:
197,69,88677,2,0,P|277:80|367:66,1,160,4|8,0:0|0:0,0:0:0:0:
432,26,89577,1,8,0:0:0:0:
483,97,89877,6,0,L|481:222,2,120,12|12|8,0:0|0:0|0:0,0:0:0:0:
361,147,91227,1,8,0:0:0:0:
237,194,91677,2,0,L|157:196,1,80,8|4,0:0|0:0,0:0:0:0:
98,130,92277,6,0,P|70:203|85:247,1,120
156,285,93027,1,0,0:0:0:0:
240,308,93327,2,0,P|313:280|440:313,1,200
510,325,94377,1,0,0:0:0:0:
490,239,94677,6,0,P|503:176|499:107,1,120,0|0,0:0|0:0,0:0:0:0:
480,36,95427,1,0,0:0:0:0:
394,45,95727,6,0,P|342:58|267:41,1,120,0|4,0:0|0:0,0:0:0:0:
183,30,96477,2,0,P|141:21|105:30,1,80,0|0,0:0|0:0,0:0:0:0:
38,86,97077,2,0,L|29:215,2,120,4|0|0,0:0|0:0|0:0,0:0:0:0:
105,29,98277,2,0,P|165:22|234:48,2,120,4|4|0,0:0|0:0|0:0,0:0:0:0:
38,86,99477,6,0,P|5:177|124:312,1,280,8|0,0:0|0:0,0:0:0:0:
232,284,100977,1,8,0:0:0:0:
314,315,101277,2,0,L|403:312,1,80,0|0,0:0|0:0,0:0:0:0:
474,276,101877,6,0,P|492:203|484:143,1,120,4|0,0:0|0:0,0:0:0:0:
436,87,102627,1,8,0:0:0:0:
359,43,102927,2,0,P|296:32|236:46,1,120,0|8,0:0|0:0,0:0:0:0:
283,121,103677,2,0,P|242:130|203:121,1,80,8|8,0:0|0:0,0:0:0:0:
142,60,104277,6,0,P|121:139|142:184,1,120,4|0,0:0|0:0,0:0:0:0:
186,242,105027,1,0,0:0:0:0:
262,285,105327,2,0,L|394:282,1,120,0|8,0:0|0:0,0:0:0:0:
469,279,106077,1,0,0:0:0:0:
492,149,106527,6,0,P|454:81|399:73,1,120
354,132,107277,2,0,L|258:135,1,80
227,59,107877,2,0,L|94:63,1,120,12|0,0:0|0:0,0:0:0:0:
19,71,108627,1,8,0:0:0:0:
51,198,109077,6,0,P|38:271|56:360,1,160,8|8,0:0|0:0,0:0:0:0:
140,368,109977,1,0,0:0:0:0:
227,365,110277,2,0,L|323:364,1,80,0|8,0:0|0:0,0:0:0:0:
275,281,110877,2,0,L|371:280,1,80,8|0,0:0|0:0,0:0:0:0:
394,358,111477,6,0,P|433:318|409:213,1,160,0|0,0:0|0:0,0:0:0:0:
239,203,112677,2,0,P|200:243|224:348,1,160,0|0,0:0|0:0,0:0:0:0:
394,358,113877,6,0,L|400:261,1,80,8|8,0:0|0:0,0:0:0:0:
473,231,114477,2,0,L|479:134,1,80,8|8,0:0|0:0,0:0:0:0:
478,62,115077,2,0,P|403:45|308:58,1,160,8|2,0:0|0:0,0:0:0:0:
159,123,116277,5,10,0:0:0:0:
