osu file format v14

[General]
AudioFilename: Valhalla.mp3
AudioLeadIn: 0
PreviewTime: 117934
Countdown: 0
SampleSet: Soft
StackLeniency: 0.7
Mode: 3
LetterboxInBreaks: 0
SpecialStyle: 0
WidescreenStoryboard: 0

[Editor]
DistanceSpacing: 1
BeatDivisor: 4
GridSize: 8
TimelineZoom: 1.1

[Metadata]
Title:Valhalla
TitleUnicode:Valhalla
Artist:xi
ArtistUnicode:xi
Creator:Remillion Cross
Version:Hyper
Source:BMS
Tags:agartha bof2012 of fighters -ein neuer heiliger krieg- lordraika exusagi norse mythology
BeatmapID:588729
BeatmapSetID:257079

[Difficulty]
HPDrainRate:7.5
CircleSize:7
OverallDifficulty:7
ApproachRate:9
SliderMultiplier:1.4
SliderTickRate:1

[Events]
//Background and Video events
0,0,"BG.jpg",0,0
//Break Periods
//Storyboard Layer 0 (Background)
//Storyboard Layer 1 (Fail)
//Storyboard Layer 2 (Pass)
//Storyboard Layer 3 (Foreground)
//Storyboard Sound Samples

[TimingPoints]
1383,344.827586206897,4,2,1,30,1,0
1383,-125,4,2,1,30,0,0
6725,-111.111111111111,4,2,1,30,0,0
8277,-100,4,2,1,30,0,0
26210,-100,4,2,1,30,0,1
51038,-100,4,2,1,15,0,0
62072,-100,4,2,1,30,0,0
73107,-100,4,2,1,30,0,1
73193,-100,4,2,1,30,0,0
122762,-100,4,2,1,30,0,1
140693,-100,4,2,1,30,0,0

[HitObjects]
256,192,1383,5,4,0:0:0:0:
475,192,1383,1,4,0:0:0:0:
36,192,1383,1,0,0:0:0:0:
475,192,2072,128,0,2762:0:0:0:0:
329,192,2762,128,0,3451:0:0:0:0:
182,192,3451,128,0,4141:0:0:0:0:
36,192,4141,128,0,4831:0:0:0:0:
182,192,4831,128,0,5693:0:0:0:0:
329,192,5693,128,0,6727:0:0:0:0:
475,192,6727,128,0,11038:0:0:0:0:
36,192,10693,1,0,1:0:0:0:
182,192,10750,1,0,1:0:0:0:
329,192,10808,1,0,1:0:0:0:
109,192,10865,1,0,1:0:0:0:
256,192,10923,1,0,1:0:0:0:
402,192,10980,1,0,1:0:0:0:
36,192,11038,1,4,0:0:0:0:
182,192,11038,1,0,0:0:0:0:
256,192,11210,1,8,0:0:0:0:
329,192,11383,1,8,0:0:0:0:
475,192,11383,1,0,0:0:0:0:
36,192,11555,1,4,0:0:0:0:
182,192,11555,1,0,0:0:0:0:
256,192,11727,1,8,0:0:0:0:
329,192,11900,1,0,0:0:0:0:
475,192,11900,1,8,0:0:0:0:
182,192,12072,1,4,0:0:0:0:
36,192,12072,1,0,0:0:0:0:
329,192,12245,1,8,0:0:0:0:
182,192,12331,1,8,0:0:0:0:
36,192,12417,1,8,0:0:0:0:
475,192,12417,1,0,0:0:0:0:
109,192,12589,1,0,0:0:0:0:
402,192,12589,1,4,0:0:0:0:
402,192,12762,1,4,0:0:0:0:
109,192,12762,1,0,0:0:0:0:
109,192,12934,1,0,0:0:0:0:
402,192,12934,1,4,0:0:0:0:
109,192,13107,1,0,0:0:0:0:
402,192,13107,1,4,0:0:0:0:
182,192,13279,1,8,0:0:0:0:
329,192,13279,1,0,0:0:0:0:
36,192,13365,1,8,0:0:0:50:LR_Clap Loud L.wav
475,192,13365,1,0,0:0:0:0:
256,192,13365,1,0,0:0:0:0:
256,192,13624,128,0,14141:0:0:0:30:LR_CymbalSSF.wav
36,192,13624,1,0,0:0:0:0:
475,192,13624,1,0,0:0:0:0:
36,192,14141,1,0,0:0:0:0:
182,192,14227,1,0,0:0:0:0:
329,192,14486,1,0,0:0:0:0:
475,192,14486,1,8,0:0:0:0:
402,192,14831,128,8,15089:0:0:0:0:
109,192,15089,1,8,0:0:0:0:
329,192,15520,128,8,15779:0:0:0:0:
182,192,15779,1,8,0:0:0:0:
402,192,16210,1,0,0:0:0:0:
109,192,16296,1,0,0:0:0:0:
329,192,16383,1,0,0:0:0:0:
182,192,16469,1,8,0:0:0:0:
475,192,16900,1,8,0:0:0:0:
402,192,17245,1,8,0:0:0:0:
109,192,17331,1,0,0:0:0:0:
256,192,17417,1,0,0:0:0:0:
402,192,17503,1,8,0:0:0:0:
256,192,17762,128,8,18624:0:0:0:0:
36,192,17762,1,0,0:0:0:0:
475,192,18020,1,0,0:0:0:0:
36,192,18107,1,0,0:0:0:0:
402,192,18193,1,0,0:0:0:0:
109,192,18279,1,8,0:0:0:0:
329,192,18365,1,0,0:0:0:0:
182,192,18451,1,0,0:0:0:0:
402,192,18538,1,0,0:0:0:0:
109,192,18624,1,8,0:0:0:0:
36,192,18624,1,0,0:0:0:0:
402,192,18883,1,8,0:0:0:0:
475,192,18883,1,0,0:0:0:0:
36,192,19141,1,0,0:0:0:0:
109,192,19141,1,0,0:0:0:0:
256,192,19141,128,8,19745:0:0:0:0:
475,192,19745,1,8,0:0:0:0:
36,192,19917,1,8,0:0:0:0:
475,192,20176,1,0,0:0:0:0:
402,192,20262,1,0,0:0:0:0:
329,192,20348,1,0,0:0:0:0:
256,192,20434,1,0,0:0:0:0:
182,192,20520,1,0,0:0:0:0:
109,192,20607,1,0,0:0:0:0:
36,192,20693,1,8,0:0:0:0:
329,192,20693,1,0,0:0:0:0:
109,192,20951,1,8,0:0:0:0:
402,192,20951,1,0,0:0:0:0:
475,192,21210,1,0,0:0:0:0:
182,192,21210,1,8,0:0:0:0:
475,192,21469,128,0,22072:0:0:0:0:
36,192,21727,1,8,0:0:0:0:
256,192,21727,1,0,0:0:0:0:
109,192,21814,1,8,0:0:0:0:
329,192,21900,1,8,0:0:0:0:
256,192,21986,1,8,0:0:0:0:
36,192,22072,1,0,0:0:0:0:
182,192,22072,1,4,0:0:0:0:
402,192,22072,1,0,0:0:0:0:
256,192,22331,1,8,0:0:0:0:
36,192,22417,1,8,0:0:0:0:
182,192,22417,1,0,0:0:0:0:
109,192,22676,1,0,0:0:0:0:
402,192,22676,1,4,0:0:0:0:
475,192,22676,1,0,0:0:0:0:
36,192,22934,1,8,0:0:0:0:
182,192,22934,1,0,0:0:0:0:
109,192,23107,1,4,0:0:0:0:
256,192,23107,1,0,0:0:0:0:
402,192,23107,1,0,0:0:0:0:
36,192,23451,1,0,0:0:0:20:LR_Clap Loud L.wav
182,192,23451,1,0,0:0:0:0:
475,192,23451,1,0,0:0:0:0:
329,192,23451,1,0,0:0:0:0:
402,192,23624,1,8,0:0:0:0:
109,192,23710,1,8,0:0:0:0:
329,192,23883,1,8,0:0:0:0:
109,192,24055,1,8,0:0:0:0:
402,192,24141,1,8,0:0:0:0:
256,192,24141,128,0,24831:0:0:0:0:
36,192,24831,1,4,0:0:0:0:
475,192,24831,1,0,0:0:0:0:
109,192,25003,1,4,0:0:0:0:
402,192,25089,1,4,0:0:0:0:
182,192,25262,1,4,0:0:0:0:
402,192,25463,1,4,0:0:0:0:
109,192,25520,1,4,0:0:0:0:
256,192,25520,128,0,26210:0:0:0:0:
475,192,25779,1,4,0:0:0:0:
36,192,26038,1,8,0:0:0:0:
475,192,26210,1,0,0:0:0:30:LR_CymbalSSF.wav
109,192,26210,1,0,0:0:0:0:
402,192,26210,1,0,0:0:0:0:
182,192,26383,1,0,0:0:0:0:
256,192,26555,1,8,0:0:0:0:
36,192,26555,1,0,0:0:0:0:
329,192,26727,128,8,27072:0:0:0:0:
109,192,26727,1,8,0:0:0:0:
475,192,26727,1,0,0:0:0:0:
256,192,27072,128,8,27417:0:0:0:0:
36,192,27072,1,8,0:0:0:0:
475,192,27072,1,0,0:0:0:0:
182,192,27417,128,8,27934:0:0:0:0:
36,192,27417,1,8,0:0:0:0:
475,192,27417,1,0,0:0:0:0:
402,192,27762,1,8,0:0:0:0:
36,192,27934,1,8,0:0:0:0:
329,192,27934,1,0,0:0:0:0:
402,192,28107,1,8,0:0:0:0:
329,192,28164,1,8,0:0:0:0:
256,192,28222,1,8,0:0:0:0:
182,192,28279,1,4,0:0:0:0:
36,192,28279,128,0,28538:0:0:0:0:
329,192,28538,128,0,28796:0:0:0:0:
475,192,28538,1,4,0:0:0:0:
36,192,28796,128,0,28969:0:0:0:0:
182,192,28796,1,4,0:0:0:0:
256,192,28969,1,4,0:0:0:0:
475,192,28969,128,0,29314:0:0:0:0:
329,192,29141,1,0,0:0:0:0:
182,192,29314,1,4,0:0:0:0:
36,192,29314,1,0,0:0:0:0:
329,192,29486,1,0,0:0:0:0:
402,192,29572,1,0,0:0:0:0:
475,192,29658,1,0,0:0:0:0:
36,192,29658,128,4,29917:0:0:0:0:
182,192,29917,128,4,30176:0:0:0:0:
475,192,29917,1,0,0:0:0:0:
329,192,30176,128,4,30348:0:0:0:0:
475,192,30176,1,0,0:0:0:0:
36,192,30348,1,4,0:0:0:0:
109,192,30391,1,4,0:0:0:0:
182,192,30434,1,4,0:0:0:0:
256,192,30477,1,4,0:0:0:0:
329,192,30520,1,4,0:0:0:0:
475,192,30520,1,0,0:0:0:0:
36,192,30693,1,4,0:0:0:0:
475,192,30693,1,0,0:0:0:0:
402,192,31038,128,8,31296:0:0:0:0:
36,192,31038,1,8,0:0:0:0:
182,192,31210,1,0,0:0:0:0:
256,192,31296,128,8,31555:0:0:0:0:
36,192,31469,1,0,0:0:0:0:
109,192,31555,128,8,31727:0:0:0:0:
329,192,31727,128,8,31986:0:0:0:0:
256,192,31727,1,8,0:0:0:0:
475,192,31727,1,4,0:0:0:0:
109,192,31900,1,0,0:0:0:0:
182,192,31986,128,12,32245:0:0:0:0:
475,192,32158,1,0,0:0:0:0:
402,192,32245,128,8,32762:0:0:0:0:
36,192,32245,1,4,0:0:0:0:
36,192,32503,1,0,0:0:0:0:
256,192,32589,1,8,0:0:0:0:
36,192,32762,1,0,0:0:0:0:
475,192,32762,1,8,0:0:0:0:
329,192,32934,1,0,0:0:0:0:
182,192,33020,1,0,0:0:0:0:
36,192,33107,1,8,0:0:0:0:
475,192,33107,1,8,0:0:0:0:
182,192,33365,1,8,0:0:0:0:
475,192,33365,1,8,0:0:0:0:
475,192,33624,128,8,34486:0:0:0:0:
329,192,33624,1,8,0:0:0:0:
36,192,33969,128,0,34486:0:0:0:0:
109,192,33969,1,4,0:0:0:0:
329,192,34055,1,0,0:0:0:0:
256,192,34141,1,4,0:0:0:0:
182,192,34227,1,0,0:0:0:0:
402,192,34314,1,8,0:0:0:0:
109,192,34486,1,8,0:0:0:0:
402,192,34486,1,8,0:0:0:0:
182,192,34658,1,0,0:0:0:0:
256,192,34745,1,8,0:0:0:0:
329,192,34831,1,8,0:0:0:0:
475,192,34831,1,0,0:0:0:0:
109,192,35003,128,4,35348:0:0:0:0:
402,192,35003,1,0,0:0:0:0:
256,192,35348,128,4,35693:0:0:0:0:
475,192,35348,1,0,0:0:0:0:
182,192,35520,1,4,0:0:0:0:
402,192,35693,128,4,35865:0:0:0:0:
36,192,35693,1,0,0:0:0:0:
475,192,35865,1,4,0:0:0:0:
182,192,35865,1,0,0:0:0:0:
329,192,35951,1,0,0:0:0:0:
109,192,36038,1,0,0:0:0:0:
402,192,36124,1,4,0:0:0:0:
36,192,36210,1,0,0:0:0:0:
475,192,36296,1,0,0:0:0:0:
109,192,36383,1,4,0:0:0:0:
402,192,36469,1,0,0:0:0:0:
36,192,36555,1,0,0:0:0:0:
182,192,36555,1,4,0:0:0:0:
256,192,36641,1,0,0:0:0:0:
329,192,36727,1,8,0:0:0:0:
402,192,36814,1,0,0:0:0:0:
475,192,36900,1,8,0:0:0:0:
402,192,36986,128,8,37245:0:0:0:0:
36,192,37158,1,8,0:0:0:0:
109,192,37245,1,4,0:0:0:0:
256,192,37245,128,0,37589:0:0:0:0:
36,192,37589,1,8,0:0:0:0:
475,192,37589,1,0,0:0:0:0:
182,192,37762,128,8,38107:0:0:0:0:
36,192,37762,1,8,0:0:0:0:
475,192,38107,128,8,38969:0:0:0:0:
329,192,38107,1,8,0:0:0:0:
182,192,38451,128,8,38969:0:0:0:0:
36,192,38451,1,8,0:0:0:0:
329,192,38796,1,0,0:0:0:0:
36,192,38969,1,8,0:0:0:0:
256,192,38969,1,0,0:0:0:0:
329,192,39141,1,8,0:0:0:0:
256,192,39199,1,8,0:0:0:0:
182,192,39256,1,8,0:0:0:0:
109,192,39314,1,8,0:0:0:0:
475,192,39314,1,4,0:0:0:0:
402,192,39572,1,4,0:0:0:0:
36,192,39572,1,0,0:0:0:0:
109,192,39831,1,4,0:0:0:0:
475,192,39831,1,0,0:0:0:0:
402,192,40003,1,0,0:0:0:0:
36,192,40003,1,4,0:0:0:0:
182,192,40176,1,0,0:0:0:0:
329,192,40348,1,0,0:0:0:0:
475,192,40348,1,4,0:0:0:0:
36,192,40520,1,0,0:0:0:0:
182,192,40607,1,0,0:0:0:0:
329,192,40693,1,0,0:0:0:0:
475,192,40693,128,4,40951:0:0:0:0:
402,192,40951,128,4,41210:0:0:0:0:
256,192,40951,1,0,0:0:0:0:
182,192,41210,1,0,0:0:0:0:
329,192,41210,128,4,41555:0:0:0:0:
36,192,41555,1,4,0:0:0:0:
182,192,41555,1,0,0:0:0:0:
475,192,41555,1,0,0:0:0:0:
475,192,41727,1,4,0:0:0:0:
109,192,41727,1,0,0:0:0:0:
256,192,41727,1,0,0:0:0:0:
36,192,42072,128,8,42331:0:0:0:0:
475,192,42072,1,8,0:0:0:0:
256,192,42245,1,0,0:0:0:0:
109,192,42331,128,8,42589:0:0:0:0:
329,192,42503,1,0,0:0:0:0:
182,192,42589,128,8,42762:0:0:0:0:
329,192,42762,1,4,0:0:0:0:
475,192,42762,128,8,43020:0:0:0:0:
402,192,43020,128,8,43279:0:0:0:0:
256,192,43020,1,4,0:0:0:0:
329,192,43279,128,4,43796:0:0:0:0:
182,192,43279,1,8,0:0:0:0:
109,192,43538,1,8,0:0:0:0:
256,192,43624,1,8,0:0:0:0:
402,192,43624,1,8,0:0:0:0:
36,192,43796,1,8,0:0:0:0:
475,192,43796,1,0,0:0:0:0:
256,192,43883,1,0,0:0:0:0:
182,192,43969,1,0,0:0:0:0:
109,192,44055,1,0,0:0:0:0:
36,192,44141,1,8,0:0:0:0:
182,192,44227,1,0,0:0:0:0:
109,192,44314,1,0,0:0:0:0:
329,192,44400,1,8,0:0:0:0:
256,192,44486,1,0,0:0:0:0:
402,192,44572,1,0,0:0:0:0:
475,192,44658,128,8,45520:0:0:0:0:
36,192,44658,1,8,0:0:0:0:
182,192,44658,1,0,0:0:0:0:
36,192,45003,128,4,45520:0:0:0:0:
109,192,45003,1,0,0:0:0:0:
402,192,45003,1,0,0:0:0:0:
256,192,45176,1,4,0:0:0:0:
329,192,45262,1,0,0:0:0:0:
402,192,45348,1,8,0:0:0:0:
109,192,45348,1,8,0:0:0:0:
182,192,45520,1,8,0:0:0:0:
329,192,45520,1,8,0:0:0:0:
109,192,45779,1,8,0:0:0:0:
329,192,45779,1,8,0:0:0:0:
402,192,45865,1,8,0:0:0:0:
182,192,45865,1,8,0:0:0:0:
36,192,46038,1,4,0:0:0:0:
256,192,46038,1,0,0:0:0:0:
109,192,46383,1,4,0:0:0:0:
329,192,46383,1,4,0:0:0:0:
36,192,46555,128,4,46727:0:0:0:0:
402,192,46727,1,4,0:0:0:0:
256,192,46727,128,4,46900:0:0:0:0:
36,192,46900,1,8,0:0:0:0:
475,192,46900,1,8,0:0:0:0:
109,192,46986,1,8,0:0:0:0:
402,192,46986,1,8,0:0:0:0:
182,192,47158,1,8,0:0:0:0:
329,192,47158,1,8,0:0:0:0:
109,192,47331,1,8,0:0:0:0:
402,192,47331,1,8,0:0:0:0:
36,192,47503,1,8,0:0:0:0:
475,192,47503,1,8,0:0:0:0:
109,192,47589,1,8,0:0:0:0:
402,192,47589,1,0,0:0:0:0:
256,192,47676,1,8,0:0:0:0:
36,192,47762,1,8,0:0:0:0:
182,192,47848,1,8,0:0:0:0:
329,192,47848,1,8,0:0:0:0:
475,192,47934,1,8,0:0:0:0:
256,192,48020,1,8,0:0:0:0:
109,192,48107,1,8,0:0:0:0:
402,192,48107,1,0,0:0:0:0:
256,192,48193,1,8,0:0:0:0:
182,192,48279,1,8,0:0:0:0:
329,192,48279,1,0,0:0:0:0:
36,192,48451,1,0,0:0:0:30:LR_CymbalSSF.wav
475,192,48451,1,0,0:0:0:0:
256,192,48451,128,0,48796:0:0:0:0:
329,192,48796,1,8,0:0:0:0:
182,192,48883,1,0,0:0:0:0:
36,192,48969,1,8,0:0:0:0:
329,192,49055,1,8,0:0:0:0:
475,192,49141,1,8,0:0:0:0:
329,192,49199,1,0,0:0:0:0:
182,192,49256,1,0,0:0:0:0:
36,192,49314,1,0,0:0:0:0:
475,192,49371,1,0,0:0:0:0:
329,192,49428,1,0,0:0:0:0:
182,192,49486,1,0,0:0:0:0:
36,192,49543,1,0,0:0:0:0:
475,192,49601,1,0,0:0:0:0:
329,192,49658,128,0,51038:0:0:0:0:
182,192,49658,1,0,0:0:0:0:
36,192,50348,128,0,51038:1:0:0:0:
182,192,50693,128,0,51038:1:0:0:0:
475,192,51038,1,0,0:0:0:20:LR_CymbalSSF.wav
475,192,51900,1,0,0:0:0:0:
329,192,52072,1,0,0:0:0:0:
109,192,52245,1,0,0:0:0:0:
256,192,52417,1,0,0:0:0:0:
402,192,52589,1,0,0:0:0:0:
182,192,52934,1,0,0:0:0:0:
329,192,53107,1,0,0:0:0:0:
109,192,53279,1,0,0:0:0:0:
182,192,53365,1,0,0:0:0:0:
402,192,53624,1,0,0:0:0:0:
329,192,53710,1,0,0:0:0:0:
256,192,53796,1,0,0:0:0:0:
36,192,53796,1,0,0:0:0:0:
256,192,54141,1,0,0:0:0:0:
109,192,54314,1,0,0:0:0:0:
329,192,54486,1,0,0:0:0:0:
402,192,54716,1,0,0:0:0:0:
475,192,54946,1,0,0:0:0:0:
36,192,55176,1,0,0:0:0:0:
329,192,55176,1,0,0:0:0:0:
36,192,55693,1,0,0:0:0:0:
182,192,55865,1,0,0:0:0:0:
475,192,55865,1,0,0:0:0:0:
329,192,56124,1,0,0:0:0:0:
182,192,56383,1,0,0:0:0:0:
36,192,56555,1,0,0:0:0:40:soft-hitclap.wav
475,192,56555,1,0,0:0:0:0:
256,192,56727,1,0,0:0:0:0:
36,192,56900,1,0,0:0:0:40:soft-hitclap.wav
475,192,56900,1,0,0:0:0:0:
475,192,57245,1,0,0:0:0:40:soft-hitclap.wav
36,192,57245,1,0,0:0:0:0:
329,192,57474,1,0,0:0:0:40:soft-hitclap.wav
36,192,57704,1,0,0:0:0:40:soft-hitclap.wav
182,192,57934,1,0,0:0:0:40:soft-hitclap.wav
475,192,57934,1,0,0:0:0:0:
329,192,58107,1,0,0:0:0:0:
36,192,58279,1,0,0:0:0:40:soft-hitclap.wav
182,192,58451,1,0,0:0:0:0:
329,192,58624,1,0,0:0:0:40:soft-hitclap.wav
475,192,58624,1,0,0:0:0:0:
256,192,58710,1,0,0:0:0:0:
36,192,58969,1,0,0:0:0:40:soft-hitclap.wav
36,192,59141,1,0,0:0:0:0:
182,192,59227,1,0,0:0:0:0:
329,192,59314,1,0,0:0:0:40:soft-hitclap.wav
475,192,59314,128,0,59658:0:0:0:0:
256,192,59658,1,0,0:0:0:40:soft-hitclap.wav
36,192,59831,1,0,0:0:0:40:soft-hitclap.wav
402,192,60003,128,0,60348:0:0:0:40:soft-hitclap.wav
256,192,60003,1,0,0:0:0:0:
182,192,60233,1,0,0:0:0:40:soft-hitclap.wav
109,192,60463,1,0,0:0:0:40:soft-hitclap.wav
329,192,60693,128,0,61038:0:0:0:40:soft-hitclap.wav
36,192,60693,1,0,0:0:0:0:
256,192,61038,128,0,61383:0:0:0:40:soft-hitclap.wav
36,192,61038,1,0,0:0:0:0:
475,192,61210,1,0,0:0:0:0:
182,192,61383,128,0,61727:0:0:0:40:soft-hitclap.wav
402,192,61383,1,0,0:0:0:0:
36,192,61727,1,0,0:0:0:20:soft-hitfinish.wav
475,192,61785,1,0,0:0:0:20:soft-hitfinish.wav
109,192,61842,1,0,0:0:0:20:soft-hitfinish.wav
402,192,61900,1,0,0:0:0:20:soft-hitfinish.wav
182,192,61957,1,0,0:0:0:20:soft-hitfinish.wav
329,192,62015,1,0,0:0:0:20:soft-hitfinish.wav
475,192,62072,1,0,0:0:0:30:LR_CymbalSSF.wav
36,192,62072,1,0,0:0:0:0:
109,192,62417,1,8,0:0:0:0:
402,192,62417,1,0,0:0:0:0:
256,192,62589,1,0,0:0:0:0:
402,192,62762,1,8,0:0:0:0:
182,192,63020,1,0,0:0:0:0:
329,192,63279,1,8,0:0:0:0:
475,192,63279,1,0,0:0:0:0:
36,192,63624,1,0,0:0:0:0:
329,192,63624,1,8,0:0:0:0:
256,192,63796,1,8,0:0:0:0:
36,192,63969,1,8,0:0:0:0:
182,192,63969,1,0,0:0:0:0:
475,192,64141,1,0,0:0:0:0:
329,192,64227,1,0,0:0:0:0:
182,192,64314,1,0,0:0:0:0:
36,192,64400,1,0,0:0:0:0:
329,192,64486,1,8,0:0:0:0:
475,192,64486,1,0,0:0:0:0:
36,192,64601,1,0,0:0:0:0:
182,192,64716,1,8,0:0:0:0:
475,192,64831,1,8,0:0:0:30:LR_CymbalSSF.wav
36,192,64831,1,8,0:0:0:0:
329,192,65176,1,8,0:0:0:0:
475,192,65176,1,0,0:0:0:0:
182,192,65520,128,8,65750:0:0:0:0:
402,192,65520,1,0,0:0:0:0:
36,192,65750,128,8,66038:0:0:0:0:
329,192,65750,1,0,0:0:0:0:
329,192,66038,1,8,0:0:0:0:
475,192,66038,1,0,0:0:0:0:
36,192,66383,1,8,0:0:0:0:
182,192,66383,1,0,0:0:0:0:
36,192,66555,1,8,0:0:0:0:
182,192,66555,1,0,0:0:0:0:
402,192,66727,1,8,0:0:0:0:
329,192,66785,1,8,0:0:0:0:
256,192,66842,1,8,0:0:0:0:
182,192,66900,1,8,0:0:0:0:
475,192,66900,128,8,67130:0:0:0:0:
402,192,67130,128,8,67360:0:0:0:0:
256,192,67130,1,8,0:0:0:0:
36,192,67245,1,0,0:0:0:0:
109,192,67360,1,8,0:0:0:0:
329,192,67360,128,8,67589:0:0:0:0:
182,192,67474,1,0,0:0:0:0:
475,192,67589,1,0,0:0:0:30:LR_CymbalSSF.wav
36,192,67589,1,4,0:0:0:0:
182,192,67762,1,0,0:0:0:0:
329,192,67934,1,12,0:0:0:0:
475,192,68107,1,8,0:0:0:0:
36,192,68279,128,4,68509:0:0:0:0:
329,192,68279,1,8,0:0:0:0:
329,192,68509,1,4,0:0:0:0:
402,192,68566,1,4,0:0:0:0:
109,192,68566,128,0,68796:0:0:0:0:
182,192,68796,128,8,68969:0:0:0:0:
475,192,68796,1,4,0:0:0:0:
36,192,68969,1,0,0:0:0:30:LR_CymbalSSF.wav
329,192,68969,1,4,0:0:0:0:
36,192,69314,1,4,0:0:0:0:
475,192,69314,1,0,0:0:0:0:
182,192,69486,1,8,0:0:0:0:
329,192,69658,1,8,0:0:0:0:
475,192,69658,1,4,0:0:0:0:
36,192,69917,1,4,0:0:0:0:
182,192,69917,1,8,0:0:0:0:
329,192,70176,1,8,0:0:0:0:
475,192,70176,1,4,0:0:0:0:
182,192,70348,1,4,0:0:0:30:LR_CymbalSSF.wav
36,192,70348,1,4,0:0:0:0:
329,192,70520,1,0,0:0:0:0:
475,192,70693,1,4,0:0:0:0:
182,192,70865,1,0,0:0:0:0:
329,192,70951,1,0,0:0:0:0:
256,192,71038,1,4,0:0:0:0:
109,192,71210,1,4,0:0:0:0:
402,192,71383,1,4,0:0:0:0:
329,192,71469,1,0,0:0:0:0:
256,192,71555,1,4,0:0:0:0:
329,192,71641,1,0,0:0:0:0:
402,192,71727,1,4,0:0:0:30:LR_CymbalSSF.wav
36,192,71727,1,4,0:0:0:0:
182,192,71900,1,0,0:0:0:0:
256,192,71986,1,4,0:0:0:0:
329,192,72072,1,0,0:0:0:0:
475,192,72158,1,0,0:0:0:0:
256,192,72245,1,4,0:0:0:0:
402,192,72331,1,0,0:0:0:0:
182,192,72417,1,12,0:0:0:0:
329,192,72503,1,12,0:0:0:0:
109,192,72589,1,12,0:0:0:0:
256,192,72676,1,12,0:0:0:0:
402,192,72762,1,4,0:0:0:20:LR_Clap Loud L.wav
36,192,72762,1,0,0:0:0:0:
475,192,72762,1,0,0:0:0:0:
36,192,73107,1,0,0:0:0:30:LR_CymbalSSF.wav
475,192,73107,1,4,0:0:0:0:
36,192,73451,1,0,0:0:0:0:
475,192,73451,1,4,0:0:0:0:
109,192,73796,1,8,0:0:0:0:
402,192,73969,1,8,0:0:0:0:
256,192,74141,1,4,0:0:0:0:
475,192,74141,1,0,0:0:0:0:
36,192,74141,1,0,0:0:0:0:
109,192,74486,1,0,0:0:0:0:
329,192,74486,1,0,0:0:0:0:
475,192,74658,1,0,0:0:0:0:
256,192,74658,1,4,0:0:0:0:
256,192,74831,1,4,0:0:0:0:
475,192,74831,1,0,0:0:0:0:
36,192,75003,1,8,0:0:0:0:
109,192,75089,1,8,0:0:0:0:
182,192,75176,1,0,0:0:0:0:
475,192,75176,128,4,75434:0:0:0:0:
109,192,75434,1,4,0:0:0:0:
402,192,75434,128,0,75693:0:0:0:0:
36,192,75693,1,4,0:0:0:0:
329,192,75693,128,0,75865:0:0:0:0:
36,192,76038,1,4,0:0:0:0:
109,192,76081,1,4,0:0:0:0:
182,192,76124,1,4,0:0:0:0:
256,192,76167,1,4,0:0:0:0:
329,192,76210,1,4,0:0:0:0:
475,192,76210,1,0,0:0:0:0:
36,192,76210,1,0,0:0:0:0:
36,192,76727,1,4,0:0:0:0:
475,192,76727,1,0,0:0:0:0:
182,192,77072,1,4,0:0:0:0:
36,192,77072,1,0,0:0:0:0:
329,192,77245,1,4,0:0:0:0:
475,192,77245,1,0,0:0:0:0:
256,192,77503,1,0,0:0:0:0:
182,192,77589,1,0,0:0:0:0:
36,192,77589,1,4,0:0:0:0:
329,192,77762,1,0,0:0:0:0:
475,192,77934,1,0,0:0:0:0:
402,192,78020,1,0,0:0:0:0:
329,192,78107,1,0,0:0:0:0:
256,192,78193,1,0,0:0:0:0:
402,192,78279,1,8,0:0:0:0:
329,192,78365,1,8,0:0:0:0:
256,192,78451,1,8,0:0:0:0:
182,192,78538,1,8,0:0:0:0:
109,192,78624,128,4,78969:0:0:0:0:
36,192,78969,1,4,0:0:0:0:
329,192,78969,1,0,0:0:0:0:
475,192,78969,1,0,0:0:0:0:
182,192,79314,1,0,0:0:0:0:
36,192,79314,1,0,0:0:0:0:
109,192,79486,1,0,0:0:0:0:
329,192,79486,1,0,0:0:0:0:
475,192,79486,1,4,0:0:0:0:
256,192,79658,1,0,0:0:0:0:
329,192,79831,1,0,0:0:0:0:
36,192,80003,1,4,0:0:0:0:
256,192,80003,1,0,0:0:0:0:
36,192,80176,1,4,0:0:0:0:
256,192,80176,1,0,0:0:0:0:
182,192,80348,1,8,0:0:0:0:
329,192,80434,1,8,0:0:0:0:
475,192,80520,1,8,0:0:0:0:
329,192,80607,1,8,0:0:0:0:
182,192,80693,1,4,0:0:0:0:
36,192,80693,128,0,80951:0:0:0:0:
109,192,80951,128,4,81210:0:0:0:0:
402,192,80951,1,0,0:0:0:0:
182,192,81210,128,4,81383:0:0:0:0:
475,192,81210,1,0,0:0:0:0:
402,192,81555,1,4,0:0:0:0:
329,192,81598,1,4,0:0:0:0:
256,192,81641,1,4,0:0:0:0:
182,192,81684,1,4,0:0:0:0:
109,192,81727,1,4,0:0:0:0:
36,192,81727,1,0,0:0:0:0:
475,192,81727,1,0,0:0:0:0:
36,192,82245,1,4,0:0:0:0:
475,192,82245,1,0,0:0:0:0:
109,192,82245,1,0,0:0:0:0:
182,192,82589,1,4,0:0:0:0:
402,192,82589,1,0,0:0:0:0:
36,192,82762,128,4,83020:0:0:0:0:
256,192,82762,1,0,0:0:0:0:
109,192,83020,128,4,83279:0:0:0:0:
329,192,83020,1,0,0:0:0:0:
182,192,83279,128,4,83538:0:0:0:0:
402,192,83279,1,0,0:0:0:0:
475,192,83538,128,4,83969:0:0:0:0:
329,192,83538,1,0,0:0:0:0:
109,192,83710,1,0,0:0:0:0:
329,192,83796,128,12,83969:0:0:0:20:LR_Clap Loud L.wav
36,192,83796,1,0,0:0:0:0:
256,192,83796,1,0,0:0:0:0:
36,192,83969,1,4,0:0:0:0:
256,192,83969,1,0,0:0:0:0:
256,192,84141,128,4,84486:0:0:0:0:
36,192,84486,1,8,0:0:0:20:LR_CymbalSSF.wav
182,192,84486,1,8,0:0:0:0:
402,192,84486,1,0,0:0:0:0:
182,192,84831,1,4,0:0:0:0:
475,192,85003,128,4,85520:0:0:0:0:
36,192,85003,1,0,0:0:0:0:
182,192,85176,1,0,0:0:0:70:soft-hitclap.wav
329,192,85176,1,0,0:0:0:0:
36,192,85348,1,4,0:0:0:0:
109,192,85348,1,0,0:0:0:0:
182,192,85520,128,4,86555:0:0:0:0:
329,192,85520,1,0,0:0:0:0:
36,192,85693,1,0,0:0:0:70:soft-hitclap.wav
402,192,85693,1,0,0:0:0:0:
329,192,86038,1,4,0:0:0:0:
475,192,86383,1,4,0:0:0:0:
402,192,86555,1,8,0:0:0:70:soft-hitclap.wav
36,192,86555,1,0,0:0:0:0:
256,192,86727,1,4,0:0:0:0:
109,192,86900,1,0,0:0:0:70:soft-hitclap.wav
402,192,87072,128,0,87417:0:0:0:0:
182,192,87245,1,4,0:0:0:0:
36,192,87245,1,0,0:0:0:0:
329,192,87417,128,0,87589:0:0:0:0:
109,192,87417,1,4,0:0:0:0:
182,192,87589,1,0,0:0:0:70:soft-hitclap.wav
256,192,87762,128,0,88107:0:0:0:0:
475,192,87762,1,4,0:0:0:0:
36,192,87762,1,0,0:0:0:0:
182,192,88107,128,0,88279:0:0:0:70:soft-hitclap.wav
475,192,88279,1,0,0:0:0:0:
36,192,88279,1,4,0:0:0:0:
109,192,88451,128,4,88796:0:0:0:0:
329,192,88451,1,0,0:0:0:0:
402,192,88624,1,0,0:0:0:70:soft-hitclap.wav
182,192,88796,128,4,89141:0:0:0:0:
475,192,88796,1,0,0:0:0:0:
36,192,89141,128,4,89486:0:0:0:0:
475,192,89141,1,0,0:0:0:0:
256,192,89314,1,0,0:0:0:70:soft-hitclap.wav
329,192,89400,1,0,0:0:0:70:soft-hitclap.wav
475,192,89486,1,0,0:0:0:70:soft-hitclap.wav
402,192,89572,1,0,0:0:0:70:soft-hitclap.wav
182,192,89658,128,0,90348:0:0:0:70:soft-hitclap.wav
329,192,89658,1,0,0:0:0:0:
36,192,89658,1,0,0:0:0:0:
475,192,89831,1,0,0:0:0:0:
402,192,89917,1,0,0:0:0:0:
329,192,90003,1,0,0:0:0:30:LR_CymbalSSF.wav
109,192,90003,1,0,0:0:0:0:
475,192,90348,1,4,0:0:0:0:
329,192,90348,1,0,0:0:0:0:
256,192,90520,128,4,90693:0:0:0:0:
36,192,90520,1,0,0:0:0:0:
109,192,90693,128,0,90865:0:0:0:70:soft-hitclap.wav
402,192,90693,1,0,0:0:0:0:
475,192,90865,128,4,91038:0:0:0:0:
182,192,90865,1,0,0:0:0:0:
329,192,91038,128,0,91727:0:0:0:0:
36,192,91038,1,4,0:0:0:0:
182,192,91210,1,0,0:0:0:70:soft-hitclap.wav
182,192,91555,1,0,0:0:0:70:soft-hitclap.wav
402,192,91727,128,4,92417:0:0:0:70:soft-hitclap.wav
36,192,91727,1,4,0:0:0:0:
256,192,91727,1,0,0:0:0:0:
109,192,91986,1,4,0:0:0:0:
182,192,92245,1,4,0:0:0:0:
109,192,92331,1,0,0:0:0:0:
475,192,92417,128,0,93796:0:0:0:0:
36,192,92417,1,4,0:0:0:0:
182,192,92589,1,4,0:0:0:0:
109,192,92762,1,0,0:0:0:70:soft-hitclap.wav
256,192,92934,1,0,0:0:0:70:soft-hitclap.wav
402,192,92934,1,0,0:0:0:0:
182,192,93451,1,0,0:0:0:70:soft-hitclap.wav
36,192,93624,1,0,0:0:0:70:soft-hitclap.wav
182,192,93796,128,0,94486:0:0:0:0:
329,192,93796,1,4,0:0:0:0:
402,192,93969,1,0,0:0:0:70:soft-hitclap.wav
256,192,94141,1,4,0:0:0:0:
329,192,94227,1,0,0:0:0:0:
402,192,94314,1,0,0:0:0:70:soft-hitclap.wav
36,192,94486,1,4,0:0:0:0:
475,192,94486,1,0,0:0:0:0:
109,192,94745,1,0,0:0:0:70:soft-hitclap.wav
402,192,94745,1,0,0:0:0:0:
182,192,95003,1,4,0:0:0:0:
329,192,95003,1,0,0:0:0:0:
36,192,95176,128,0,95865:0:0:0:30:LR_CymbalSSF.wav
475,192,95176,1,0,0:0:0:0:
256,192,95176,1,0,0:0:0:0:
256,192,95520,1,0,0:0:0:70:soft-hitclap.wav
475,192,95520,1,0,0:0:0:0:
109,192,95693,1,0,0:0:0:70:soft-hitclap.wav
329,192,95865,1,4,0:0:0:0:
182,192,96038,1,4,0:0:0:0:
402,192,96210,1,0,0:0:0:70:soft-hitclap.wav
329,192,96296,1,0,0:0:0:0:
182,192,96383,1,0,0:0:0:70:soft-hitclap.wav
109,192,96469,1,0,0:0:0:0:
256,192,96555,128,4,97245:0:0:0:0:
36,192,96555,1,0,0:0:0:0:
475,192,96727,1,4,0:0:0:0:
182,192,96900,1,0,0:0:0:70:soft-hitclap.wav
36,192,96900,1,0,0:0:0:0:
475,192,97072,1,0,0:0:0:70:soft-hitclap.wav
402,192,97245,128,0,97934:0:0:0:0:
36,192,97245,1,4,0:0:0:0:
109,192,97474,1,4,0:0:0:0:
182,192,97704,1,4,0:0:0:0:
256,192,97934,128,0,98624:0:0:0:30:LR_CymbalSSF.wav
36,192,97934,1,0,0:0:0:0:
475,192,97934,1,0,0:0:0:0:
402,192,98451,1,0,0:0:0:70:soft-hitclap.wav
36,192,98624,128,4,99084:0:0:0:30:LR_CymbalSSF.wav
182,192,98624,1,0,0:0:0:0:
475,192,98624,1,0,0:0:0:0:
182,192,98854,128,4,99084:0:0:0:0:
329,192,98854,1,0,0:0:0:0:
329,192,99084,128,4,99543:0:0:0:0:
475,192,99084,1,0,0:0:0:0:
475,192,99314,128,4,99543:0:0:0:30:LR_CymbalSSF.wav
36,192,99314,1,0,0:0:0:0:
182,192,99314,1,0,0:0:0:0:
402,192,99543,128,4,100003:0:0:0:0:
109,192,99543,1,0,0:0:0:0:
109,192,99773,128,4,100003:0:0:0:0:
256,192,99773,1,0,0:0:0:0:
36,192,100003,1,4,0:0:0:30:LR_CymbalSSF.wav
475,192,100003,1,0,0:0:0:0:
182,192,100233,1,4,0:0:0:0:
329,192,100233,1,0,0:0:0:0:
36,192,100463,1,4,0:0:0:0:
475,192,100463,1,0,0:0:0:0:
109,192,100693,1,4,0:0:0:30:LR_CymbalSSF.wav
402,192,100693,1,0,0:0:0:0:
256,192,100693,128,0,102072:0:0:0:0:
36,192,101383,1,0,0:0:0:0:
475,192,101555,128,0,102072:0:0:0:0:
329,192,101900,1,0,0:0:0:0:
182,192,101986,1,0,0:0:0:0:
109,192,102072,128,0,102762:0:0:0:30:LR_CymbalSSF.wav
402,192,102072,1,0,0:0:0:0:
36,192,102072,1,0,0:0:0:0:
329,192,102417,1,0,0:0:0:0:
329,192,102762,128,0,103451:0:0:0:30:LR_CymbalSSF.wav
475,192,102762,1,0,0:0:0:0:
182,192,103020,128,0,103451:0:0:0:0:
36,192,103279,128,0,103451:0:0:0:0:
475,192,103279,1,0,0:0:0:0:
256,192,103451,1,0,0:0:0:30:LR_CymbalSSF.wav
402,192,103451,1,0,0:0:0:0:
109,192,103451,1,0,0:0:0:0:
256,192,103710,1,0,0:0:0:0:
329,192,103969,1,0,0:0:0:0:
36,192,104141,1,0,0:0:0:30:LR_CymbalSSF.wav
475,192,104141,1,0,0:0:0:0:
256,192,104314,1,0,0:0:0:0:
182,192,104486,1,0,0:0:0:0:
329,192,104658,1,0,0:0:0:0:
109,192,104831,128,0,105865:0:0:0:30:soft-hitfinish.wav
182,192,104831,1,0,0:0:0:30:LR_CymbalSSF.wav
475,192,104831,1,0,0:0:0:0:
402,192,105089,1,0,0:0:0:70:soft-hitclap.wav
256,192,105348,128,0,105865:0:0:0:70:soft-hitclap.wav
329,192,105348,1,0,0:0:0:0:
402,192,105520,128,0,105865:0:0:0:30:LR_CymbalSSF.wav
36,192,105865,1,0,0:0:0:30:LR_Clap Loud L.wav
475,192,105865,1,0,0:0:0:0:
36,192,106210,1,0,0:0:0:30:LR_CymbalSSF.wav
256,192,106210,1,0,0:0:0:0:
475,192,106210,1,0,0:0:0:0:
182,192,106383,1,0,0:0:0:0:
329,192,106469,1,0,0:0:0:0:
36,192,106555,1,0,0:0:0:70:soft-hitclap.wav
109,192,106555,1,0,0:0:0:0:
256,192,106641,1,0,0:0:0:0:
182,192,106814,1,0,0:0:0:0:
402,192,106900,1,0,0:0:0:70:soft-hitclap.wav
475,192,106900,1,0,0:0:0:0:
109,192,106986,1,0,0:0:0:0:
256,192,107158,1,0,0:0:0:0:
402,192,107245,1,0,0:0:0:70:soft-hitclap.wav
36,192,107245,1,0,0:0:0:0:
475,192,107417,1,0,0:0:0:70:soft-hitclap.wav
36,192,107589,1,0,0:0:0:70:soft-hitclap.wav
182,192,107589,1,0,0:0:0:0:
329,192,107848,1,0,0:0:0:70:soft-hitclap.wav
475,192,107848,1,0,0:0:0:0:
36,192,108107,1,0,0:0:0:70:soft-hitclap.wav
256,192,108107,128,0,108624:0:0:0:0:
475,192,108107,1,0,0:0:0:0:
475,192,108451,1,0,0:0:0:70:soft-hitclap.wav
402,192,108451,1,0,0:0:0:0:
109,192,108624,1,0,0:0:0:70:soft-hitclap.wav
36,192,108624,1,0,0:0:0:0:
182,192,108796,1,0,0:0:0:0:
36,192,108969,1,0,0:0:0:70:soft-hitclap.wav
475,192,108969,1,0,0:0:0:0:
329,192,108969,1,0,0:0:0:0:
182,192,109141,1,0,0:0:0:0:
402,192,109227,1,0,0:0:0:0:
36,192,109314,1,0,0:0:0:70:soft-hitclap.wav
109,192,109314,1,0,0:0:0:0:
329,192,109400,1,0,0:0:0:0:
256,192,109572,1,0,0:0:0:0:
182,192,109745,1,0,0:0:0:40:LR_CymbalSSF.wav
475,192,109745,1,0,0:0:0:0:
402,192,109745,1,0,0:0:0:0:
36,192,109917,1,0,0:0:0:0:
256,192,110003,1,0,0:0:0:70:soft-hitclap.wav
182,192,110003,1,0,0:0:0:0:
329,192,110176,1,0,0:0:0:70:soft-hitclap.wav
36,192,110348,1,0,0:0:0:70:soft-hitclap.wav
475,192,110348,1,0,0:0:0:0:
329,192,110607,1,0,0:0:0:70:soft-hitclap.wav
182,192,110607,1,0,0:0:0:0:
256,192,110865,128,0,111383:0:0:0:70:soft-hitclap.wav
36,192,110865,1,0,0:0:0:0:
475,192,110865,1,0,0:0:0:0:
182,192,110951,1,0,0:0:0:0:
36,192,111038,1,0,0:0:0:0:
329,192,111124,1,0,0:0:0:0:
475,192,111210,1,0,0:0:0:70:soft-hitclap.wav
109,192,111296,1,0,0:0:0:0:
402,192,111383,1,0,0:0:0:70:soft-hitclap.wav
36,192,111555,1,0,0:0:0:0:
109,192,111727,1,0,0:0:0:70:soft-hitclap.wav
475,192,111727,1,0,0:0:0:0:
329,192,111727,1,0,0:0:0:0:
182,192,111900,1,0,0:0:0:0:
402,192,111986,1,0,0:0:0:0:
36,192,112072,1,0,0:0:0:70:soft-hitclap.wav
109,192,112072,1,0,0:0:0:0:
329,192,112158,1,0,0:0:0:0:
256,192,112331,1,0,0:0:0:0:
182,192,112503,1,0,0:0:0:30:LR_CymbalSSF.wav
402,192,112503,1,0,0:0:0:0:
475,192,112503,1,0,0:0:0:0:
36,192,112676,1,0,0:0:0:0:
256,192,112762,1,0,0:0:0:70:soft-hitclap.wav
329,192,112762,1,0,0:0:0:0:
182,192,112934,1,0,0:0:0:70:soft-hitclap.wav
475,192,113107,1,0,0:0:0:70:soft-hitclap.wav
36,192,113107,1,0,0:0:0:0:
182,192,113365,1,0,0:0:0:70:soft-hitclap.wav
329,192,113365,1,0,0:0:0:0:
109,192,113624,1,0,0:0:0:70:soft-hitclap.wav
402,192,113624,1,0,0:0:0:0:
36,192,113624,128,0,113969:0:0:0:0:
475,192,113969,1,0,0:0:0:70:soft-hitclap.wav
402,192,114055,1,0,0:0:0:0:
329,192,114141,1,0,0:0:0:70:soft-hitclap.wav
256,192,114227,1,0,0:0:0:0:
182,192,114314,1,0,0:0:0:0:
109,192,114400,1,0,0:0:0:0:
36,192,114486,1,4,0:0:0:0:
475,192,114486,1,0,0:0:0:0:
182,192,114745,1,0,0:0:0:70:soft-hitclap.wav
329,192,114831,1,0,0:0:0:70:soft-hitclap.wav
36,192,115003,1,4,0:0:0:0:
475,192,115003,1,0,0:0:0:0:
182,192,115176,1,0,0:0:0:70:soft-hitclap.wav
475,192,115348,1,0,0:0:0:70:soft-hitclap.wav
36,192,115348,1,0,0:0:0:0:
109,192,115520,1,4,0:0:0:0:
402,192,115520,1,0,0:0:0:0:
256,192,115520,1,0,0:0:0:0:
36,192,115865,1,0,0:0:0:30:LR_Clap Loud L.wav
256,192,115865,1,0,0:0:0:0:
475,192,115865,1,0,0:0:0:0:
109,192,116038,1,8,0:0:0:0:
329,192,116038,1,0,0:0:0:0:
182,192,116124,1,8,0:0:0:0:
402,192,116124,1,0,0:0:0:0:
256,192,116296,1,8,0:0:0:0:
402,192,116469,1,0,0:0:0:0:
109,192,116469,1,8,0:0:0:0:
36,192,116555,1,8,0:0:0:0:
475,192,116555,1,0,0:0:0:0:
402,192,116727,1,0,1:0:0:0:
329,192,116770,1,0,1:0:0:0:
256,192,116814,1,0,1:0:0:0:
182,192,116857,1,0,1:0:0:0:
109,192,116900,1,0,1:0:0:0:
36,192,116943,1,0,1:0:0:0:
475,192,116986,1,0,1:0:0:0:
402,192,117029,1,0,1:0:0:0:
329,192,117072,1,0,1:0:0:0:
256,192,117115,1,0,1:0:0:0:
182,192,117158,1,0,1:0:0:0:
109,192,117201,1,0,1:0:0:0:
36,192,117245,1,0,0:0:0:30:LR_CymbalSSF.wav
329,192,117245,128,0,118624:0:0:0:0:
475,192,117245,1,0,0:0:0:0:
109,192,118107,1,0,0:0:0:0:
36,192,118365,1,0,0:0:0:0:
182,192,118451,1,0,0:0:0:0:
109,192,118624,1,0,0:0:0:0:
402,192,118624,1,0,0:0:0:0:
182,192,119141,1,0,0:0:0:0:
475,192,119141,1,0,0:0:0:0:
109,192,119486,1,0,0:0:0:0:
329,192,119658,1,0,0:0:0:0:
182,192,119831,1,0,0:0:0:0:
109,192,120176,1,0,0:0:0:0:
182,192,120262,1,0,0:0:0:0:
256,192,120348,1,0,0:0:0:0:
36,192,120348,1,0,0:0:0:0:
475,192,120520,1,0,0:0:0:0:
182,192,120693,1,0,0:0:0:0:
329,192,120693,1,0,0:0:0:0:
256,192,120951,1,0,0:0:0:0:
109,192,120951,1,0,0:0:0:0:
182,192,121210,1,0,0:0:0:0:
36,192,121210,1,0,0:0:0:0:
475,192,121411,1,0,0:0:0:0:
329,192,121411,1,0,0:0:0:0:
36,192,121749,1,0,0:0:0:0:
182,192,121749,1,0,0:0:0:0:
329,192,122072,1,0,0:0:0:0:
475,192,122072,1,0,0:0:0:0:
475,192,122331,1,0,0:0:0:0:
256,192,122331,1,0,0:0:0:0:
182,192,122589,1,0,0:0:0:0:
36,192,122589,1,0,0:0:0:0:
475,192,122589,1,0,0:0:0:0:
109,192,122762,1,0,0:0:0:20:LR_Clap Loud L.wav
256,192,122762,1,0,0:0:0:0:
402,192,122762,1,0,0:0:0:0:
36,192,122934,1,4,0:0:0:0:
475,192,122934,1,0,0:0:0:0:
182,192,123107,1,0,0:0:0:0:
329,192,123107,1,4,0:0:0:0:
36,192,123279,1,0,0:0:0:0:
109,192,123337,1,0,0:0:0:0:
182,192,123394,1,0,0:0:0:0:
256,192,123451,1,8,0:0:0:0:
475,192,123451,1,8,0:0:0:0:
109,192,123624,1,0,0:0:0:0:
402,192,123710,1,8,0:0:0:0:
182,192,123710,1,8,0:0:0:0:
36,192,123883,1,0,0:0:0:0:
329,192,123969,1,8,0:0:0:0:
109,192,123969,1,8,0:0:0:0:
402,192,124141,128,8,124400:0:0:0:0:
475,192,124141,1,4,0:0:0:0:
36,192,124141,1,8,0:0:0:0:
182,192,124400,1,4,0:0:0:0:
329,192,124400,128,8,124658:0:0:0:0:
109,192,124658,1,4,0:0:0:0:
256,192,124658,128,8,125176:0:0:0:0:
36,192,124917,1,8,0:0:0:0:
182,192,125003,1,8,0:0:0:0:
402,192,125003,1,0,0:0:0:0:
475,192,125176,1,8,0:0:0:0:
329,192,125176,1,0,0:0:0:0:
182,192,125348,1,0,0:0:0:0:
109,192,125434,1,0,0:0:0:0:
36,192,125520,1,8,0:0:0:0:
475,192,125520,1,0,0:0:0:0:
256,192,125693,1,0,0:0:0:0:
182,192,125779,1,8,0:0:0:0:
109,192,125865,1,0,0:0:0:0:
402,192,126038,128,8,126900:0:0:0:0:
256,192,126038,1,8,0:0:0:0:
36,192,126038,1,0,0:0:0:0:
109,192,126383,128,4,126900:0:0:0:0:
329,192,126383,1,0,0:0:0:0:
182,192,126469,1,0,0:0:0:0:
256,192,126555,1,4,0:0:0:0:
329,192,126641,1,0,0:0:0:0:
182,192,126727,1,8,0:0:0:0:
256,192,126900,128,8,127417:0:0:0:0:
475,192,126900,1,8,0:0:0:0:
36,192,126900,1,0,0:0:0:0:
329,192,127158,1,8,0:0:0:0:
475,192,127245,1,8,0:0:0:0:
182,192,127417,1,4,0:0:0:0:
36,192,127417,1,0,0:0:0:0:
109,192,127762,128,0,127934:0:0:0:0:
475,192,127762,1,4,0:0:0:0:
402,192,127934,128,4,128107:0:0:0:0:
256,192,128107,128,0,128279:0:0:0:0:
36,192,128107,1,4,0:0:0:0:
329,192,128279,1,4,0:0:0:0:
109,192,128279,1,0,0:0:0:0:
475,192,128365,1,0,0:0:0:0:
182,192,128451,1,0,0:0:0:0:
36,192,128538,1,4,0:0:0:0:
475,192,128624,1,0,0:0:0:0:
329,192,128624,1,0,0:0:0:0:
402,192,128710,1,0,0:0:0:0:
182,192,128796,1,4,0:0:0:0:
109,192,128883,1,0,0:0:0:0:
329,192,128969,1,4,0:0:0:0:
36,192,128969,1,0,0:0:0:0:
475,192,129055,1,0,0:0:0:0:
256,192,129141,1,8,0:0:0:0:
402,192,129227,1,0,0:0:0:0:
182,192,129314,1,8,0:0:0:0:
36,192,129314,1,8,0:0:0:0:
329,192,129400,1,8,0:0:0:0:
182,192,129572,1,8,0:0:0:0:
36,192,129658,1,0,0:0:0:30:LR_CymbalSSF.wav
475,192,129658,1,0,0:0:0:70:soft-hitclap.wav
402,192,129658,1,0,0:0:0:0:
182,192,129831,1,0,0:0:0:70:soft-hitclap.wav
256,192,129831,1,0,0:0:0:0:
329,192,130003,1,0,0:0:0:70:soft-hitclap.wav
475,192,130003,1,0,0:0:0:0:
36,192,130176,128,8,130520:0:0:0:0:
182,192,130176,1,8,0:0:0:0:
402,192,130176,1,0,0:0:0:0:
109,192,130520,128,8,130865:0:0:0:0:
256,192,130520,1,8,0:0:0:0:
475,192,130520,1,0,0:0:0:0:
182,192,130865,128,8,131555:0:0:0:0:
329,192,130865,1,8,0:0:0:0:
475,192,130865,1,0,0:0:0:0:
36,192,131210,1,8,0:0:0:0:
329,192,131383,1,8,0:0:0:0:
475,192,131383,1,0,0:0:0:0:
36,192,131555,1,8,0:0:0:0:
109,192,131612,1,8,0:0:0:0:
182,192,131670,1,8,0:0:0:0:
475,192,131727,128,4,131986:0:0:0:0:
36,192,131727,1,0,0:0:0:0:
256,192,131727,1,0,0:0:0:0:
402,192,131986,128,4,132245:0:0:0:0:
256,192,131986,1,0,0:0:0:0:
36,192,131986,1,0,0:0:0:0:
256,192,132245,128,4,132417:0:0:0:0:
36,192,132245,1,0,0:0:0:0:
182,192,132245,1,0,0:0:0:0:
329,192,132417,128,4,132762:0:0:0:0:
109,192,132417,1,0,0:0:0:0:
475,192,132417,1,0,0:0:0:0:
36,192,132762,1,4,0:0:0:0:
475,192,132762,1,0,0:0:0:0:
402,192,132934,1,0,0:0:0:0:
329,192,133020,1,0,0:0:0:0:
182,192,133107,128,4,133365:0:0:0:0:
256,192,133107,1,0,0:0:0:0:
475,192,133107,1,0,0:0:0:0:
402,192,133365,1,0,0:0:0:0:
109,192,133365,1,4,0:0:0:0:
36,192,133624,1,4,0:0:0:0:
329,192,133624,1,0,0:0:0:0:
182,192,133796,128,4,133969:0:0:0:0:
475,192,133969,1,4,0:0:0:0:
329,192,133969,1,0,0:0:0:0:
256,192,134141,1,4,0:0:0:0:
402,192,134141,1,0,0:0:0:0:
36,192,134486,128,8,134745:0:0:0:0:
256,192,134658,1,0,0:0:0:0:
109,192,134745,128,8,135003:0:0:0:0:
329,192,134917,1,0,0:0:0:0:
182,192,135003,128,8,135176:0:0:0:0:
475,192,135176,128,8,135434:0:0:0:0:
36,192,135176,1,8,0:0:0:0:
329,192,135176,1,4,0:0:0:0:
402,192,135434,128,8,135693:0:0:0:0:
256,192,135434,1,4,0:0:0:0:
36,192,135434,1,8,0:0:0:0:
329,192,135693,128,4,136210:0:0:0:0:
36,192,135693,1,8,0:0:0:0:
182,192,135693,1,8,0:0:0:0:
109,192,135951,1,8,0:0:0:0:
402,192,135951,128,8,136210:0:0:0:0:
182,192,136210,1,8,0:0:0:0:
475,192,136210,1,0,0:0:0:0:
36,192,136383,1,0,0:0:0:0:
109,192,136469,1,0,0:0:0:0:
182,192,136555,1,8,0:0:0:0:
475,192,136555,1,0,0:0:0:0:
402,192,136641,1,0,0:0:0:0:
329,192,136727,1,0,0:0:0:0:
256,192,136814,1,8,0:0:0:0:
182,192,136900,1,0,0:0:0:0:
36,192,136900,1,0,0:0:0:0:
109,192,137072,1,8,0:0:0:0:
329,192,137072,128,8,137417:0:0:0:0:
182,192,137417,128,0,137934:0:0:0:0:
36,192,137417,1,4,0:0:0:0:
475,192,137589,1,4,0:0:0:0:
402,192,137676,1,0,0:0:0:0:
329,192,137762,128,8,137934:0:0:0:0:
475,192,137934,128,8,138451:0:0:0:0:
36,192,137934,1,8,0:0:0:0:
182,192,138107,1,0,0:0:0:0:
256,192,138193,1,8,0:0:0:0:
329,192,138279,1,8,0:0:0:0:
36,192,138451,1,4,0:0:0:0:
256,192,138451,1,0,0:0:0:0:
256,192,138796,1,0,0:0:0:0:
36,192,138796,1,4,0:0:0:0:
475,192,138969,128,0,139314:0:0:0:0:
109,192,138969,1,4,0:0:0:0:
36,192,139141,1,4,0:0:0:0:
256,192,139141,1,0,0:0:0:0:
329,192,139141,128,0,139314:0:0:0:0:
402,192,139314,1,8,0:0:0:0:
182,192,139314,1,0,0:0:0:0:
36,192,139400,1,8,0:0:0:0:
256,192,139400,1,0,0:0:0:0:
182,192,139572,1,0,0:0:0:0:
402,192,139572,1,8,0:0:0:0:
182,192,139745,1,0,0:0:0:0:
402,192,139745,1,8,0:0:0:0:
182,192,139917,1,8,0:0:0:0:
402,192,139917,1,0,0:0:0:0:
109,192,140003,1,8,0:0:0:0:
475,192,140003,1,0,0:0:0:0:
256,192,140089,1,8,0:0:0:0:
402,192,140176,1,8,0:0:0:0:
182,192,140262,1,8,0:0:0:0:
329,192,140348,1,8,0:0:0:0:
109,192,140434,1,8,0:0:0:0:
256,192,140520,1,8,0:0:0:0:
402,192,140607,1,8,0:0:0:0:
182,192,140693,1,0,0:0:0:20:LR_CymbalSSF.wav
36,192,140693,1,0,0:0:0:0:
475,192,140693,1,0,0:0:0:0:
329,192,140693,128,0,140951:0:0:0:0:
182,192,140951,128,0,141210:0:0:0:0:
36,192,141210,128,0,141383:0:0:0:0:
402,192,141383,128,0,141641:0:0:0:0:
256,192,141641,128,0,141900:0:0:0:0:
109,192,141900,128,8,142072:0:0:0:0:
475,192,141900,1,0,0:0:0:0:
402,192,141957,1,0,0:0:0:0:
329,192,142015,1,0,0:0:0:0:
256,192,142072,1,8,0:0:0:0:
36,192,142072,1,0,0:0:0:0:
182,192,142072,128,0,143451:0:0:0:0:
475,192,142245,1,0,0:0:0:0:
329,192,142331,1,8,0:0:0:0:
256,192,142503,1,0,0:0:0:0:
402,192,142589,1,8,0:0:0:0:
36,192,142762,1,8,0:0:0:0:
256,192,142934,1,0,0:0:0:0:
402,192,143020,1,8,0:0:0:0:
475,192,143193,1,0,0:0:0:0:
36,192,143279,1,8,0:0:0:0:
329,192,143279,1,0,0:0:0:0:
329,192,143451,128,8,144831:0:0:0:0:
475,192,143451,1,0,0:0:0:0:
109,192,143451,1,0,0:0:0:0:
256,192,143624,1,0,0:0:0:0:
109,192,143710,1,8,0:0:0:0:
36,192,143883,1,0,0:0:0:0:
182,192,143969,1,8,0:0:0:0:
475,192,144141,1,8,0:0:0:0:
36,192,144314,1,0,0:0:0:0:
182,192,144400,1,8,0:0:0:0:
256,192,144572,1,0,0:0:0:0:
109,192,144658,1,8,0:0:0:0:
36,192,144831,1,0,0:0:0:20:LR_CymbalSSF.wav
475,192,144831,1,0,0:0:0:0:
109,192,144946,1,8,0:0:0:0:
402,192,144946,1,0,0:0:0:0:
109,192,145089,1,8,0:0:0:0:
402,192,145089,1,0,0:0:0:0:
109,192,145291,1,8,0:0:0:0:
402,192,145291,1,0,0:0:0:0:
109,192,145405,1,8,0:0:0:0:
402,192,145405,1,0,0:0:0:0:
36,192,145520,1,8,0:0:0:0:
475,192,145520,1,0,0:0:0:0:
402,192,145779,1,8,0:0:0:0:
109,192,145779,1,0,0:0:0:0:
36,192,146038,1,8,0:0:0:0:
475,192,146038,1,8,0:0:0:0:
36,192,146383,1,8,0:0:0:0:
109,192,146426,1,8,0:0:0:0:
256,192,146469,1,8,0:0:0:0:
402,192,146512,1,8,0:0:0:0:
475,192,146555,1,8,0:0:0:0:
36,192,146641,1,8,0:0:0:0:
182,192,146727,1,8,0:0:0:0:
475,192,146814,1,8,0:0:0:0:
329,192,146900,1,8,0:0:0:0:
109,192,146986,1,8,0:0:0:0:
402,192,147072,1,8,0:0:0:0:
182,192,147158,1,8,0:0:0:0:
36,192,147245,1,0,0:0:0:20:LR_Clap Loud L.wav
475,192,147245,1,0,0:0:0:0:
256,192,147245,1,0,0:0:0:0:
36,192,147417,128,0,150348:0:0:0:0:
475,192,147417,128,0,150176:0:0:0:0:
256,192,147546,128,0,150262:1:0:0:0:
