osu file format v14

[General]
AudioFilename: xi - Parousia (Long Version).mp3
AudioLeadIn: 1500
PreviewTime: 163887
Countdown: 0
SampleSet: Normal
StackLeniency: 0.7
Mode: 3
LetterboxInBreaks: 0
SpecialStyle: 0
WidescreenStoryboard: 1

[Editor]
Bookmarks: 62125,138075,214024
DistanceSpacing: 0.8
BeatDivisor: 4
GridSize: 8
TimelineZoom: 1.8

[Metadata]
Title:Parousia (Long Version)
TitleUnicode:Parousia (Long Version)
Artist:xi
ArtistUnicode:xi
Creator:monizotic
Version:Reincarnation
Source:BMS
Tags:parousia bms of fighters 2011
BeatmapID:651449
BeatmapSetID:288917

[Difficulty]
HPDrainRate:8
CircleSize:7
OverallDifficulty:7
ApproachRate:8
SliderMultiplier:2
SliderTickRate:1

[Events]
//Background and Video events
0,0,"hQENW.jpg",0,0
//Break Periods
//Storyboard Layer 0 (Background)
//Storyboard Layer 1 (Fail)
//Storyboard Layer 2 (Pass)
//Storyboard Layer 3 (Foreground)
//Storyboard Sound Samples

[TimingPoints]
1075,810.810810810811,4,1,0,5,1,0
10804,1071.42857142857,4,1,0,30,1,0
15089,705.882352941176,4,1,0,10,1,0
17912,714.285714285714,4,1,0,10,1,0
20769,705.882352941176,4,1,0,10,1,0
24955,631.578947368421,4,1,0,10,1,0
26218,652.173913043478,4,1,0,15,1,0
28609,731.707317073171,4,1,0,15,1,0
28852,631.578947368421,4,1,0,15,1,0
31167,750,4,1,0,15,1,0
31417,545.454545454546,4,1,0,15,1,0
33622,631.578947368421,4,1,0,15,1,0
34885,600,4,1,0,15,1,0
35485,666.666666666667,4,1,0,15,1,0
36151,655.737704918033,4,1,0,15,1,0
38773,701.754385964912,4,1,0,20,1,0
41580,655.737704918033,4,1,0,20,1,0
44202,625,4,1,0,20,1,0
45452,618.556701030928,4,1,0,20,1,0
46689,604.534005037783,4,1,0,20,1,0
48905,631.578947368421,4,1,0,20,1,0
49115,566.037735849057,4,1,0,20,1,0
51190,851.063829787234,4,1,0,20,1,0
51473,594.059405940594,4,1,0,20,1,0
52661,545.454545454546,4,1,0,20,1,0
53751,591.133004926108,4,1,0,20,1,0
56070,379.746835443038,4,1,0,30,1,0
138095,377.358490566038,4,1,0,30,1,0
143755,400,4,1,0,30,1,0
144155,377.358490566038,4,1,0,30,1,0
145664,370.37037037037,4,1,0,30,1,0
147145,382.165605095541,4,1,0,30,1,0
148673,379.746835443038,4,1,0,30,1,0
149052,387.096774193548,4,1,0,30,1,0
149826,382.165605095541,4,1,0,30,1,0
150208,379.746835443038,4,1,0,30,1,0
242885,451.807228915663,4,1,0,40,1,0
244692,434.782608695652,4,1,0,40,1,0
245561,447.761194029851,4,1,0,40,1,0
246456,413.793103448276,4,1,0,40,1,0
248938,428.571428571429,4,1,0,40,1,0
249795,425.531914893617,4,1,0,40,1,0
251497,447.761194029851,4,1,0,40,1,0
255079,458.015267175573,4,1,0,40,1,0
258743,465.116279069767,4,1,0,40,1,0
260603,472.44094488189,4,1,0,40,1,0
261547,500,4,1,0,40,1,0
262047,495.867768595041,4,1,0,40,1,0
263038,521.739130434783,4,1,0,40,1,0
263559,545.454545454546,4,1,0,40,1,0
264104,681.818181818182,4,1,0,40,1,0
264785,740.740740740741,4,1,0,40,1,0
265525,800,4,1,0,40,1,0

[HitObjects]
256,192,1075,128,0,2696:0:0:0:0:
182,192,4318,128,0,5939:0:0:0:0:
329,192,4318,128,0,5939:0:0:0:0:
109,192,7561,128,0,9183:0:0:0:0:
256,192,7561,128,0,9183:0:0:0:0:
402,192,7561,128,0,9183:0:0:0:0:
182,192,10804,128,0,12411:0:0:0:0:
329,192,10804,128,0,12678:0:0:0:0:
475,192,10804,128,0,12946:0:0:0:0:
36,192,10804,128,0,12143:0:0:0:0:
109,192,15089,1,0,0:0:0:0:
329,192,15089,1,0,0:0:0:0:
475,192,17912,1,0,0:0:0:0:
256,192,17912,1,0,0:0:0:0:
402,192,20769,1,0,0:0:0:0:
182,192,20769,1,0,0:0:0:0:
109,192,23592,1,0,0:0:0:0:
329,192,23592,1,0,0:0:0:0:
182,192,24955,1,0,0:0:0:0:
402,192,24955,1,0,0:0:0:0:
109,192,26218,1,0,0:0:0:0:
329,192,26218,1,0,0:0:0:0:
109,192,28609,1,0,0:0:0:0:
475,192,28852,1,0,0:0:0:0:
256,192,28852,1,0,0:0:0:0:
109,192,31167,1,0,0:0:0:0:
329,192,31167,1,0,0:0:0:0:
475,192,31417,1,0,0:0:0:0:
329,192,31417,1,0,0:0:0:0:
182,192,31417,1,0,0:0:0:0:
256,192,32507,1,0,0:0:0:0:
329,192,32871,1,0,0:0:0:0:
402,192,33235,1,0,0:0:0:0:
475,192,33622,1,0,0:0:0:0:
256,192,33622,1,0,0:0:0:0:
109,192,33622,1,0,0:0:0:0:
256,192,34779,1,0,0:0:0:0:
182,192,34832,1,0,0:0:0:0:
109,192,34885,1,0,0:0:0:0:
36,192,35485,1,0,0:0:0:0:
182,192,35651,1,0,0:0:0:0:
329,192,35818,1,0,0:0:0:0:
475,192,35985,1,0,0:0:0:0:
402,192,36151,1,0,0:0:0:0:
256,192,36151,1,0,0:0:0:0:
109,192,36151,1,0,0:0:0:0:
329,192,38773,1,0,0:0:0:0:
182,192,38773,1,0,0:0:0:0:
36,192,38773,1,0,0:0:0:0:
475,192,41580,1,0,0:0:0:0:
329,192,41580,1,0,0:0:0:0:
182,192,41580,1,0,0:0:0:0:
402,192,44202,1,0,0:0:0:0:
256,192,44202,1,0,0:0:0:0:
109,192,44202,1,0,0:0:0:0:
182,192,45452,1,0,0:0:0:0:
329,192,45452,1,0,0:0:0:0:
256,192,46689,1,0,0:0:0:0:
402,192,46689,1,0,0:0:0:0:
475,192,46689,1,0,0:0:0:0:
256,192,48905,1,0,0:0:0:0:
109,192,48905,1,0,0:0:0:0:
182,192,49115,1,0,0:0:0:0:
329,192,49115,1,0,0:0:0:0:
475,192,49115,1,0,0:0:0:0:
182,192,51190,1,0,0:0:0:0:
329,192,51190,1,0,0:0:0:0:
36,192,51473,1,0,0:0:0:0:
256,192,51473,1,0,0:0:0:0:
109,192,51473,1,0,0:0:0:0:
256,192,52562,1,0,0:0:0:0:
329,192,52611,1,0,0:0:0:0:
402,192,52661,1,0,0:0:0:0:
475,192,53751,1,0,0:0:0:0:
329,192,53751,1,0,0:0:0:0:
182,192,53751,1,0,0:0:0:0:
36,192,53751,1,0,0:0:0:0:
256,192,54933,1,0,0:0:0:0:
402,192,56687,1,0,0:0:0:0:
329,192,56876,1,0,0:0:0:0:
256,192,57019,1,0,0:0:0:0:
182,192,57161,1,0,0:0:0:0:
109,192,57304,1,0,0:0:0:0:
182,192,57446,1,0,0:0:0:0:
256,192,57588,1,0,0:0:0:0:
36,192,57588,1,0,0:0:0:0:
329,192,57715,1,0,0:0:0:0:
402,192,57842,1,0,0:0:0:0:
475,192,57968,1,0,0:0:0:0:
329,192,58095,1,0,0:0:0:0:
182,192,58158,1,0,0:0:0:0:
36,192,58221,1,0,0:0:0:0:
402,192,58316,1,0,0:0:0:0:
256,192,58380,1,0,0:0:0:0:
109,192,58443,1,0,0:0:0:0:
36,192,58538,1,0,0:0:0:0:
182,192,58633,1,0,0:0:0:0:
329,192,58728,1,0,0:0:0:0:
475,192,58823,1,0,0:0:0:0:
402,192,58918,1,0,0:0:0:0:
256,192,58981,1,0,0:0:0:0:
109,192,59044,1,0,0:0:0:0:
182,192,59107,1,0,0:0:0:0:
475,192,59107,1,0,0:0:0:0:
329,192,59171,1,0,0:0:0:0:
402,192,59234,1,0,0:0:0:0:
256,192,59329,1,0,0:0:0:0:
109,192,59424,1,0,0:0:0:0:
329,192,59519,1,0,0:0:0:0:
109,192,59614,1,0,0:0:0:0:
256,192,59709,1,0,0:0:0:0:
36,192,59772,1,0,0:0:0:0:
182,192,59835,1,0,0:0:0:0:
329,192,59899,1,0,0:0:0:0:
109,192,59962,1,0,0:0:0:0:
256,192,60025,1,0,0:0:0:0:
475,192,60088,1,0,0:0:0:0:
329,192,60183,1,0,0:0:0:0:
182,192,60278,1,0,0:0:0:0:
109,192,60373,1,0,0:0:0:0:
329,192,60500,1,0,0:0:0:0:
475,192,60595,1,0,0:0:0:0:
36,192,60595,128,0,61766:0:0:0:0:
256,192,60658,1,0,0:0:0:0:
109,192,60721,128,0,61861:0:0:0:0:
402,192,60721,1,0,0:0:0:0:
182,192,60816,128,0,61671:0:0:0:0:
329,192,60816,1,0,0:0:0:0:
475,192,60975,1,0,0:0:0:0:
256,192,60975,128,0,61576:0:0:0:0:
329,192,61101,128,0,62051:0:0:0:0:
402,192,61354,128,0,61861:0:0:0:0:
475,192,61544,128,0,62145:0:0:0:0:
36,192,62145,1,0,0:0:0:0:
109,192,62145,1,0,0:0:0:0:
182,192,62145,1,0,0:0:0:0:
256,192,62145,1,0,0:0:0:0:
329,192,62145,1,0,0:0:0:0:
402,192,62145,128,0,63664:0:0:0:0:
256,192,62905,1,0,0:0:0:0:
182,192,62905,128,0,63664:0:0:0:0:
36,192,63664,128,0,65183:0:0:0:0:
329,192,63664,1,0,0:0:0:0:
402,192,64424,1,0,0:0:0:0:
182,192,64424,128,0,65183:0:0:0:0:
475,192,65183,128,0,66702:0:0:0:0:
329,192,65183,1,0,0:0:0:0:
256,192,65183,128,0,65943:0:0:0:0:
182,192,65943,128,0,66702:0:0:0:0:
36,192,65943,1,0,0:0:0:0:
36,192,66702,128,0,67462:0:0:0:0:
329,192,66702,1,0,0:0:0:0:
256,192,67462,1,0,0:0:0:0:
182,192,67462,128,0,68221:0:0:0:0:
402,192,67842,1,0,0:0:0:0:
329,192,67842,128,0,68221:0:0:0:0:
36,192,68221,128,0,69740:0:0:0:0:
256,192,68221,128,0,69361:0:0:0:0:
475,192,68221,1,0,0:0:0:0:
475,192,69361,1,0,0:0:0:0:
329,192,69361,128,0,69740:0:0:0:0:
402,192,69740,128,0,71259:0:0:0:0:
109,192,69740,128,0,70500:0:0:0:0:
256,192,69740,1,0,0:0:0:0:
182,192,70500,128,0,71259:0:0:0:0:
329,192,70500,1,0,0:0:0:0:
475,192,71259,128,0,72778:0:0:0:0:
256,192,71259,128,0,72778:0:0:0:0:
36,192,71259,1,0,0:0:0:0:
329,192,72778,128,0,73443:0:0:0:0:
182,192,72778,128,0,73823:0:0:0:0:
36,192,72778,128,0,74107:0:0:0:0:
329,192,73538,128,0,73633:0:0:0:0:
475,192,73633,128,0,73728:0:0:0:0:
256,192,73728,128,0,73823:0:0:0:0:
402,192,73823,128,0,73918:0:0:0:0:
182,192,73918,128,0,74013:0:0:0:0:
329,192,74013,128,0,74107:0:0:0:0:
109,192,74107,128,0,74202:0:0:0:0:
256,192,74202,128,0,74297:0:0:0:0:
475,192,74297,128,0,74582:0:0:0:0:
329,192,74297,1,0,0:0:0:0:
109,192,74297,1,0,0:0:0:0:
36,192,74297,128,0,74962:0:0:0:0:
182,192,74487,1,0,0:0:0:0:
329,192,74487,128,0,74962:0:0:0:0:
109,192,74677,1,0,0:0:0:0:
256,192,74677,1,0,0:0:0:0:
475,192,74677,128,0,74962:0:0:0:0:
182,192,74867,1,0,0:0:0:0:
256,192,75057,128,0,75342:0:0:0:0:
109,192,75057,1,0,0:0:0:0:
36,192,75057,128,0,75721:0:0:0:0:
329,192,75057,1,0,0:0:0:0:
402,192,75152,128,0,75342:0:0:0:0:
182,192,75247,128,0,75626:0:0:0:0:
475,192,75247,1,0,0:0:0:0:
329,192,75342,128,0,75626:0:0:0:0:
475,192,75437,128,0,75626:0:0:0:0:
109,192,75437,1,0,0:0:0:0:
256,192,75437,1,0,0:0:0:0:
402,192,75532,128,0,75626:0:0:0:0:
256,192,75626,128,0,75816:0:0:0:0:
402,192,75721,128,0,75816:0:0:0:0:
475,192,75816,128,0,76481:0:0:0:0:
182,192,75816,128,0,76006:0:0:0:0:
36,192,75816,1,0,0:0:0:0:
109,192,75816,128,0,76481:0:0:0:0:
329,192,75911,128,0,76006:0:0:0:0:
256,192,75911,1,0,0:0:0:0:
402,192,76006,1,0,0:0:0:0:
182,192,76196,1,0,0:0:0:0:
36,192,76196,128,0,76481:0:0:0:0:
256,192,76196,1,0,0:0:0:0:
402,192,76196,1,0,0:0:0:0:
329,192,76386,1,0,0:0:0:0:
182,192,76386,128,0,76861:0:0:0:0:
36,192,76576,128,0,77240:0:0:0:0:
109,192,76576,1,0,0:0:0:0:
256,192,76576,1,0,0:0:0:0:
329,192,76576,128,0,76766:0:0:0:0:
475,192,76576,1,0,0:0:0:0:
402,192,76671,128,0,76766:0:0:0:0:
256,192,76766,128,0,76956:0:0:0:0:
475,192,76766,1,0,0:0:0:0:
329,192,76861,128,0,76956:0:0:0:0:
182,192,76956,128,0,77145:0:0:0:0:
402,192,76956,1,0,0:0:0:0:
256,192,77051,128,0,77145:0:0:0:0:
329,192,77145,1,0,0:0:0:0:
109,192,77145,128,0,77335:0:0:0:0:
182,192,77240,128,0,77335:0:0:0:0:
475,192,77335,128,0,77620:0:0:0:0:
402,192,77335,1,0,0:0:0:0:
256,192,77335,1,0,0:0:0:0:
36,192,77335,128,0,78000:0:0:0:0:
329,192,77525,128,0,78000:0:0:0:0:
182,192,77525,1,0,0:0:0:0:
475,192,77715,128,0,78000:0:0:0:0:
256,192,77715,1,0,0:0:0:0:
109,192,77715,1,0,0:0:0:0:
182,192,77905,1,0,0:0:0:0:
36,192,78095,128,0,78759:0:0:0:0:
109,192,78095,1,0,0:0:0:0:
256,192,78095,1,0,0:0:0:0:
475,192,78095,128,0,78285:0:0:0:0:
329,192,78190,128,0,78380:0:0:0:0:
402,192,78190,1,0,0:0:0:0:
256,192,78285,1,0,0:0:0:0:
182,192,78285,128,0,78475:0:0:0:0:
475,192,78380,1,0,0:0:0:0:
402,192,78380,128,0,78570:0:0:0:0:
256,192,78475,128,0,78664:0:0:0:0:
329,192,78475,1,0,0:0:0:0:
475,192,78570,128,0,78759:0:0:0:0:
109,192,78570,1,0,0:0:0:0:
329,192,78664,128,0,78854:0:0:0:0:
402,192,78664,1,0,0:0:0:0:
182,192,78759,128,0,78949:0:0:0:0:
256,192,78759,1,0,0:0:0:0:
475,192,78854,128,0,79044:0:0:0:0:
36,192,78854,128,0,79139:0:0:0:0:
109,192,78854,1,0,0:0:0:0:
329,192,78949,128,0,79044:0:0:0:0:
402,192,78949,1,0,0:0:0:0:
182,192,79044,1,0,0:0:0:0:
256,192,79139,1,0,0:0:0:0:
475,192,79234,128,0,79519:0:0:0:0:
109,192,79234,128,0,79519:0:0:0:0:
329,192,79234,1,0,0:0:0:0:
256,192,79329,1,0,0:0:0:0:
329,192,79424,128,0,79804:0:0:0:0:
182,192,79424,1,0,0:0:0:0:
36,192,79424,128,0,79519:0:0:0:0:
36,192,79614,128,0,79804:0:0:0:0:
182,192,79614,1,0,0:0:0:0:
256,192,79614,128,0,80183:0:0:0:0:
475,192,79614,128,0,79804:0:0:0:0:
402,192,79614,128,0,79899:0:0:0:0:
109,192,79709,128,0,79804:0:0:0:0:
182,192,79804,128,0,79994:0:0:0:0:
475,192,79899,1,0,0:0:0:0:
329,192,79899,128,0,80088:0:0:0:0:
36,192,79899,128,0,79994:0:0:0:0:
402,192,79994,128,0,80088:0:0:0:0:
109,192,79994,128,0,80278:0:0:0:0:
475,192,80088,128,0,80278:0:0:0:0:
402,192,80183,128,0,80278:0:0:0:0:
329,192,80183,1,0,0:0:0:0:
36,192,80183,128,0,80278:0:0:0:0:
182,192,80183,1,0,0:0:0:0:
256,192,80278,1,0,0:0:0:0:
109,192,80373,128,0,81829:0:0:0:0:
475,192,80373,128,0,80437:0:0:0:0:
402,192,80373,128,0,80437:0:0:0:0:
329,192,80373,128,0,80437:0:0:0:0:
36,192,80373,128,0,80437:0:0:0:0:
182,192,80373,128,0,80437:0:0:0:0:
402,192,80563,128,0,80611:0:0:0:0:
256,192,80563,128,0,80611:0:0:0:0:
256,192,80753,128,0,80816:0:0:0:0:
475,192,80753,128,0,80816:0:0:0:0:
402,192,80753,128,0,80816:0:0:0:0:
182,192,80753,128,0,80816:0:0:0:0:
36,192,80753,128,0,80816:0:0:0:0:
182,192,80943,128,0,80990:0:0:0:0:
329,192,80943,128,0,80990:0:0:0:0:
36,192,81133,128,0,81196:0:0:0:0:
475,192,81133,128,0,81196:0:0:0:0:
329,192,81133,128,0,81196:0:0:0:0:
256,192,81133,128,0,81196:0:0:0:0:
182,192,81133,128,0,81196:0:0:0:0:
402,192,81323,128,0,81370:0:0:0:0:
256,192,81323,128,0,81370:0:0:0:0:
256,192,81513,128,0,81536:0:0:0:0:
475,192,81513,128,0,81576:0:0:0:0:
402,192,81513,128,0,81576:0:0:0:0:
36,192,81513,128,0,81576:0:0:0:0:
329,192,81513,128,0,81576:0:0:0:0:
182,192,81607,128,0,81631:0:0:0:0:
329,192,81702,128,0,81726:0:0:0:0:
256,192,81797,128,0,81821:0:0:0:0:
475,192,81892,128,0,83348:0:0:0:0:
402,192,81892,128,0,81956:0:0:0:0:
329,192,81892,128,0,81956:0:0:0:0:
36,192,81892,128,0,81956:0:0:0:0:
109,192,81892,128,0,81956:0:0:0:0:
182,192,81892,128,0,81956:0:0:0:0:
329,192,82082,128,0,82130:0:0:0:0:
109,192,82082,128,0,82130:0:0:0:0:
36,192,82272,128,0,82335:0:0:0:0:
109,192,82272,128,0,82335:0:0:0:0:
402,192,82272,128,0,82335:0:0:0:0:
329,192,82272,128,0,82335:0:0:0:0:
256,192,82272,128,0,82335:0:0:0:0:
402,192,82462,128,0,82509:0:0:0:0:
182,192,82462,128,0,82509:0:0:0:0:
329,192,82652,128,0,82676:0:0:0:0:
256,192,82652,128,0,82715:0:0:0:0:
182,192,82652,128,0,82715:0:0:0:0:
36,192,82652,128,0,82715:0:0:0:0:
402,192,82747,128,0,82770:0:0:0:0:
256,192,82842,128,0,82865:0:0:0:0:
329,192,82937,128,0,82960:0:0:0:0:
182,192,83032,128,0,83055:0:0:0:0:
402,192,83032,128,0,83348:0:0:0:0:
36,192,83032,128,0,83095:0:0:0:0:
109,192,83032,128,0,83095:0:0:0:0:
256,192,83126,128,0,83150:0:0:0:0:
109,192,83221,128,0,83245:0:0:0:0:
182,192,83316,128,0,83340:0:0:0:0:
36,192,83411,128,0,84867:0:0:0:0:
475,192,83411,128,0,83475:0:0:0:0:
402,192,83411,128,0,83475:0:0:0:0:
329,192,83411,128,0,83475:0:0:0:0:
256,192,83411,128,0,83475:0:0:0:0:
109,192,83411,128,0,83475:0:0:0:0:
182,192,83601,128,0,83649:0:0:0:0:
182,192,83696,1,0,0:0:0:0:
475,192,83791,128,0,83854:0:0:0:0:
402,192,83791,128,0,83854:0:0:0:0:
329,192,83791,128,0,83854:0:0:0:0:
256,192,83791,128,0,83854:0:0:0:0:
109,192,83791,128,0,83854:0:0:0:0:
402,192,83981,128,0,84028:0:0:0:0:
402,192,84076,1,0,0:0:0:0:
475,192,84171,128,0,84234:0:0:0:0:
329,192,84171,128,0,84234:0:0:0:0:
256,192,84171,128,0,84234:0:0:0:0:
182,192,84171,128,0,84234:0:0:0:0:
109,192,84171,128,0,84234:0:0:0:0:
329,192,84361,128,0,84408:0:0:0:0:
256,192,84361,128,0,84408:0:0:0:0:
329,192,84456,1,0,0:0:0:0:
256,192,84456,1,0,0:0:0:0:
402,192,84551,1,0,0:0:0:0:
475,192,84551,128,0,84867:0:0:0:0:
109,192,84551,1,0,0:0:0:0:
182,192,84551,1,0,0:0:0:0:
329,192,84614,1,0,0:0:0:0:
256,192,84677,1,0,0:0:0:0:
182,192,84740,1,0,0:0:0:0:
402,192,84804,1,0,0:0:0:0:
109,192,84804,1,0,0:0:0:0:
256,192,84867,1,0,0:0:0:0:
36,192,84930,128,0,85595:0:0:0:0:
475,192,84930,128,0,85595:0:0:0:0:
109,192,84930,1,0,0:0:0:0:
402,192,84930,1,0,0:0:0:0:
182,192,85025,1,0,0:0:0:0:
256,192,85120,1,0,0:0:0:0:
329,192,85215,1,0,0:0:0:0:
402,192,85310,1,0,0:0:0:0:
109,192,85405,1,0,0:0:0:0:
182,192,85500,1,0,0:0:0:0:
329,192,85595,1,0,0:0:0:0:
256,192,85690,1,0,0:0:0:0:
402,192,85690,128,0,85975:0:0:0:0:
109,192,85690,128,0,85975:0:0:0:0:
36,192,85785,1,0,0:0:0:0:
182,192,85880,1,0,0:0:0:0:
475,192,85975,1,0,0:0:0:0:
329,192,86070,1,0,0:0:0:0:
402,192,86070,128,0,86354:0:0:0:0:
109,192,86070,128,0,86354:0:0:0:0:
182,192,86164,1,0,0:0:0:0:
36,192,86259,1,0,0:0:0:0:
256,192,86354,1,0,0:0:0:0:
36,192,86449,1,0,0:0:0:0:
109,192,86449,128,0,86513:0:0:0:0:
402,192,86449,128,0,86513:0:0:0:0:
475,192,86449,1,0,0:0:0:0:
256,192,86513,1,0,0:0:0:0:
329,192,86513,128,0,86576:0:0:0:0:
109,192,86576,1,0,0:0:0:0:
182,192,86576,128,0,86639:0:0:0:0:
402,192,86639,128,0,86702:0:0:0:0:
329,192,86639,1,0,0:0:0:0:
36,192,86702,1,0,0:0:0:0:
109,192,86702,128,0,86766:0:0:0:0:
402,192,86766,1,0,0:0:0:0:
475,192,86766,128,0,86829:0:0:0:0:
36,192,86829,128,0,87462:0:0:0:0:
182,192,86892,128,0,87082:0:0:0:0:
109,192,86892,1,0,0:0:0:0:
329,192,86956,128,0,87145:0:0:0:0:
256,192,86956,1,0,0:0:0:0:
402,192,87019,1,0,0:0:0:0:
475,192,87019,128,0,87525:0:0:0:0:
109,192,87082,128,0,87272:0:0:0:0:
256,192,87145,128,0,87335:0:0:0:0:
182,192,87145,1,0,0:0:0:0:
402,192,87209,128,0,87399:0:0:0:0:
329,192,87209,1,0,0:0:0:0:
182,192,87272,128,0,87335:0:0:0:0:
329,192,87335,128,0,87399:0:0:0:0:
109,192,87399,128,0,87462:0:0:0:0:
182,192,87399,1,0,0:0:0:0:
329,192,87462,1,0,0:0:0:0:
402,192,87462,128,0,87525:0:0:0:0:
182,192,87525,128,0,87588:0:0:0:0:
36,192,87525,1,0,0:0:0:0:
329,192,87588,128,0,87652:0:0:0:0:
475,192,87588,1,0,0:0:0:0:
36,192,87652,128,0,87715:0:0:0:0:
182,192,87715,128,0,88032:0:0:0:0:
109,192,87778,1,0,0:0:0:0:
36,192,87778,128,0,87968:0:0:0:0:
475,192,87842,128,0,87905:0:0:0:0:
329,192,87905,128,0,88095:0:0:0:0:
475,192,87968,128,0,88158:0:0:0:0:
402,192,87968,1,0,0:0:0:0:
36,192,88032,128,0,88095:0:0:0:0:
256,192,88095,1,0,0:0:0:0:
182,192,88095,128,0,88158:0:0:0:0:
329,192,88158,128,0,88221:0:0:0:0:
36,192,88158,1,0,0:0:0:0:
475,192,88221,128,0,88285:0:0:0:0:
182,192,88221,1,0,0:0:0:0:
256,192,88285,128,0,88348:0:0:0:0:
329,192,88285,1,0,0:0:0:0:
109,192,88348,128,0,88411:0:0:0:0:
475,192,88348,1,0,0:0:0:0:
402,192,88411,128,0,88475:0:0:0:0:
36,192,88475,128,0,88538:0:0:0:0:
182,192,88475,1,0,0:0:0:0:
475,192,88538,128,0,88601:0:0:0:0:
329,192,88538,1,0,0:0:0:0:
256,192,88601,128,0,88664:0:0:0:0:
109,192,88601,1,0,0:0:0:0:
402,192,88664,1,0,0:0:0:0:
36,192,88680,128,0,89440:0:0:0:0:
182,192,88728,128,0,88791:0:0:0:0:
109,192,88728,1,0,0:0:0:0:
402,192,88791,1,0,0:0:0:0:
256,192,88791,128,0,88854:0:0:0:0:
329,192,88854,128,0,88918:0:0:0:0:
109,192,88918,128,0,89107:0:0:0:0:
475,192,88918,128,0,89440:0:0:0:0:
182,192,88965,128,0,89155:0:0:0:0:
256,192,89013,128,0,89202:0:0:0:0:
329,192,89060,128,0,89250:0:0:0:0:
402,192,89107,128,0,89297:0:0:0:0:
109,192,89155,128,0,89345:0:0:0:0:
182,192,89202,128,0,89487:0:0:0:0:
256,192,89250,128,0,89392:0:0:0:0:
329,192,89297,128,0,89487:0:0:0:0:
402,192,89345,128,0,89440:0:0:0:0:
109,192,89392,128,0,89440:0:0:0:0:
256,192,89440,128,0,89487:0:0:0:0:
475,192,89487,128,0,89804:0:0:0:0:
36,192,89487,128,0,89804:0:0:0:0:
109,192,89487,1,0,0:0:0:0:
402,192,89487,1,0,0:0:0:0:
329,192,89677,1,0,0:0:0:0:
182,192,89677,1,0,0:0:0:0:
36,192,89867,128,0,90183:0:0:0:0:
475,192,89867,128,0,90183:0:0:0:0:
109,192,89867,1,0,0:0:0:0:
402,192,89867,1,0,0:0:0:0:
256,192,90057,1,0,0:0:0:0:
36,192,90247,128,0,90943:0:0:0:0:
109,192,90247,128,0,90626:0:0:0:0:
329,192,90247,128,0,90310:0:0:0:0:
475,192,90247,128,0,90310:0:0:0:0:
256,192,90373,128,0,90437:0:0:0:0:
402,192,90373,128,0,90437:0:0:0:0:
182,192,90500,128,0,90563:0:0:0:0:
329,192,90500,128,0,90563:0:0:0:0:
256,192,90626,128,0,90880:0:0:0:0:
475,192,90626,128,0,90880:0:0:0:0:
182,192,90753,128,0,91006:0:0:0:0:
402,192,90753,128,0,91006:0:0:0:0:
329,192,90880,128,0,90943:0:0:0:0:
109,192,90880,128,0,90943:0:0:0:0:
256,192,91006,1,0,0:0:0:0:
475,192,91006,128,0,91702:0:0:0:0:
329,192,91006,128,0,91133:0:0:0:0:
36,192,91006,1,0,0:0:0:0:
109,192,91196,1,0,0:0:0:0:
182,192,91196,128,0,91323:0:0:0:0:
402,192,91196,1,0,0:0:0:0:
329,192,91196,128,0,91702:0:0:0:0:
256,192,91386,1,0,0:0:0:0:
36,192,91386,128,0,91513:0:0:0:0:
182,192,91386,128,0,91702:0:0:0:0:
36,192,91576,128,0,91702:0:0:0:0:
402,192,91576,1,0,0:0:0:0:
109,192,91576,1,0,0:0:0:0:
36,192,91766,128,0,92145:0:0:0:0:
475,192,91766,128,0,92145:0:0:0:0:
256,192,91766,1,0,0:0:0:0:
329,192,91766,1,0,0:0:0:0:
182,192,91766,1,0,0:0:0:0:
182,192,92145,1,0,0:0:0:0:
329,192,92145,1,0,0:0:0:0:
402,192,92145,128,0,92462:0:0:0:0:
109,192,92145,128,0,92462:0:0:0:0:
475,192,92525,128,0,92573:0:0:0:0:
36,192,92525,128,0,93221:0:0:0:0:
109,192,92525,128,0,92842:0:0:0:0:
329,192,92573,128,0,92620:0:0:0:0:
182,192,92620,128,0,92668:0:0:0:0:
402,192,92668,128,0,92715:0:0:0:0:
256,192,92715,128,0,92763:0:0:0:0:
475,192,92763,128,0,92810:0:0:0:0:
329,192,92810,128,0,92857:0:0:0:0:
182,192,92905,128,0,92968:0:0:0:0:
109,192,92905,1,0,0:0:0:0:
329,192,92968,128,0,93032:0:0:0:0:
475,192,93032,128,0,93095:0:0:0:0:
109,192,93095,128,0,93142:0:0:0:0:
329,192,93142,128,0,93190:0:0:0:0:
182,192,93190,128,0,93237:0:0:0:0:
402,192,93237,128,0,93285:0:0:0:0:
109,192,93285,128,0,93411:0:0:0:0:
256,192,93285,128,0,93348:0:0:0:0:
329,192,93285,128,0,93538:0:0:0:0:
475,192,93285,128,0,94044:0:0:0:0:
182,192,93411,128,0,93475:0:0:0:0:
36,192,93411,128,0,93538:0:0:0:0:
256,192,93538,128,0,93601:0:0:0:0:
109,192,93538,128,0,93664:0:0:0:0:
329,192,93664,128,0,93728:0:0:0:0:
182,192,93664,128,0,93791:0:0:0:0:
36,192,93664,128,0,94044:0:0:0:0:
402,192,93791,128,0,93854:0:0:0:0:
256,192,93791,128,0,93918:0:0:0:0:
109,192,93791,128,0,94044:0:0:0:0:
329,192,93918,128,0,93981:0:0:0:0:
182,192,93918,128,0,94044:0:0:0:0:
256,192,94044,128,0,94092:0:0:0:0:
402,192,94044,128,0,94092:0:0:0:0:
329,192,94234,128,0,94282:0:0:0:0:
182,192,94234,128,0,94282:0:0:0:0:
402,192,94614,128,0,94661:0:0:0:0:
182,192,94614,128,0,94661:0:0:0:0:
109,192,94804,128,0,94851:0:0:0:0:
329,192,94804,128,0,94851:0:0:0:0:
402,192,94994,128,0,95041:0:0:0:0:
182,192,94994,128,0,95041:0:0:0:0:
329,192,95183,128,0,95231:0:0:0:0:
109,192,95183,128,0,95468:0:0:0:0:
256,192,95373,128,0,95468:0:0:0:0:
475,192,95373,128,0,95421:0:0:0:0:
329,192,95563,128,0,95943:0:0:0:0:
256,192,95563,1,0,0:0:0:0:
109,192,95563,1,0,0:0:0:0:
402,192,95563,128,0,96987:0:0:0:0:
109,192,95753,128,0,95801:0:0:0:0:
256,192,95753,128,0,95801:0:0:0:0:
256,192,95848,128,0,95895:0:0:0:0:
109,192,95848,128,0,95895:0:0:0:0:
475,192,95943,1,0,0:0:0:0:
182,192,95943,128,0,95967:0:0:0:0:
36,192,95943,128,0,95967:0:0:0:0:
36,192,96070,1,0,0:0:0:0:
182,192,96070,1,0,0:0:0:0:
256,192,96196,1,0,0:0:0:0:
109,192,96196,1,0,0:0:0:0:
109,192,96323,128,0,96346:0:0:0:0:
329,192,96323,128,0,96607:0:0:0:0:
36,192,96323,128,0,96607:0:0:0:0:
182,192,96394,128,0,96418:0:0:0:0:
256,192,96441,128,0,96465:0:0:0:0:
109,192,96513,128,0,96536:0:0:0:0:
475,192,96513,128,0,96987:0:0:0:0:
182,192,96584,128,0,96607:0:0:0:0:
256,192,96655,128,0,96679:0:0:0:0:
36,192,96702,128,0,96766:0:0:0:0:
109,192,96702,128,0,96766:0:0:0:0:
329,192,96702,128,0,96987:0:0:0:0:
256,192,96829,128,0,96892:0:0:0:0:
182,192,96829,128,0,96892:0:0:0:0:
36,192,96956,128,0,97019:0:0:0:0:
109,192,96956,128,0,97019:0:0:0:0:
182,192,97082,1,0,0:0:0:0:
402,192,97082,128,0,97145:0:0:0:0:
329,192,97082,128,0,97145:0:0:0:0:
256,192,97082,128,0,97335:0:0:0:0:
36,192,97272,128,0,97525:0:0:0:0:
109,192,97272,128,0,97335:0:0:0:0:
182,192,97272,128,0,97335:0:0:0:0:
402,192,97272,1,0,0:0:0:0:
329,192,97462,128,0,97525:0:0:0:0:
256,192,97462,128,0,97525:0:0:0:0:
182,192,97462,128,0,97715:0:0:0:0:
109,192,97462,1,0,0:0:0:0:
475,192,97652,128,0,97715:0:0:0:0:
402,192,97652,128,0,97715:0:0:0:0:
329,192,97652,128,0,97905:0:0:0:0:
256,192,97652,1,0,0:0:0:0:
256,192,97842,1,0,0:0:0:0:
182,192,97842,128,0,97905:0:0:0:0:
402,192,97905,1,0,0:0:0:0:
475,192,97905,128,0,98601:0:0:0:0:
36,192,97968,1,0,0:0:0:0:
109,192,97968,128,0,98032:0:0:0:0:
329,192,98032,1,0,0:0:0:0:
402,192,98032,128,0,98475:0:0:0:0:
109,192,98095,1,0,0:0:0:0:
182,192,98095,128,0,98158:0:0:0:0:
256,192,98158,1,0,0:0:0:0:
329,192,98158,128,0,98348:0:0:0:0:
36,192,98221,128,0,98601:0:0:0:0:
182,192,98411,128,0,98601:0:0:0:0:
256,192,98601,1,0,0:0:0:0:
109,192,98601,128,0,98649:0:0:0:0:
402,192,98601,128,0,98791:0:0:0:0:
36,192,98696,128,0,98886:0:0:0:0:
329,192,98696,128,0,98791:0:0:0:0:
182,192,98696,128,0,98744:0:0:0:0:
109,192,98791,128,0,98886:0:0:0:0:
256,192,98791,128,0,98838:0:0:0:0:
475,192,98791,128,0,98981:0:0:0:0:
329,192,98886,128,0,98933:0:0:0:0:
402,192,98886,128,0,98981:0:0:0:0:
109,192,98981,128,0,99044:0:0:0:0:
36,192,98981,1,0,0:0:0:0:
256,192,99044,128,0,99107:0:0:0:0:
182,192,99044,1,0,0:0:0:0:
402,192,99107,128,0,99171:0:0:0:0:
329,192,99107,1,0,0:0:0:0:
36,192,99171,128,0,99218:0:0:0:0:
475,192,99171,1,0,0:0:0:0:
182,192,99218,128,0,99266:0:0:0:0:
109,192,99218,1,0,0:0:0:0:
475,192,99266,128,0,99313:0:0:0:0:
256,192,99266,1,0,0:0:0:0:
402,192,99313,1,0,0:0:0:0:
329,192,99313,128,0,99361:0:0:0:0:
36,192,99361,128,0,99424:0:0:0:0:
109,192,99361,128,0,99424:0:0:0:0:
182,192,99361,128,0,99487:0:0:0:0:
475,192,99487,128,0,99551:0:0:0:0:
402,192,99487,128,0,99551:0:0:0:0:
256,192,99487,128,0,99614:0:0:0:0:
36,192,99614,128,0,99677:0:0:0:0:
109,192,99614,128,0,99677:0:0:0:0:
329,192,99614,128,0,99740:0:0:0:0:
475,192,99740,128,0,99804:0:0:0:0:
402,192,99740,128,0,99804:0:0:0:0:
109,192,99740,128,0,99930:0:0:0:0:
182,192,99867,128,0,99930:0:0:0:0:
256,192,99867,128,0,99930:0:0:0:0:
475,192,99930,128,0,99994:0:0:0:0:
402,192,99930,128,0,99994:0:0:0:0:
329,192,99930,128,0,100120:0:0:0:0:
109,192,100057,128,0,100120:0:0:0:0:
182,192,100057,128,0,100120:0:0:0:0:
256,192,100120,1,0,0:0:0:0:
402,192,100120,1,0,0:0:0:0:
36,192,100120,128,0,100405:0:0:0:0:
475,192,100310,128,0,100357:0:0:0:0:
329,192,100310,128,0,100357:0:0:0:0:
182,192,100310,128,0,100405:0:0:0:0:
109,192,100310,1,0,0:0:0:0:
256,192,100405,128,0,100452:0:0:0:0:
402,192,100405,128,0,100452:0:0:0:0:
182,192,100500,128,0,100547:0:0:0:0:
329,192,100500,128,0,100547:0:0:0:0:
109,192,100595,128,0,100642:0:0:0:0:
256,192,100595,128,0,100642:0:0:0:0:
475,192,100690,128,0,101402:0:0:0:0:
329,192,100690,128,0,100975:0:0:0:0:
36,192,100690,128,0,100737:0:0:0:0:
182,192,100690,128,0,100737:0:0:0:0:
109,192,100785,128,0,100832:0:0:0:0:
402,192,100785,128,0,101212:0:0:0:0:
256,192,100880,128,0,101022:0:0:0:0:
182,192,100927,128,0,101070:0:0:0:0:
109,192,100975,128,0,101117:0:0:0:0:
36,192,101022,128,0,101164:0:0:0:0:
329,192,101070,128,0,101259:0:0:0:0:
256,192,101117,128,0,101307:0:0:0:0:
182,192,101164,128,0,101354:0:0:0:0:
109,192,101212,128,0,101544:0:0:0:0:
36,192,101259,128,0,101497:0:0:0:0:
402,192,101307,128,0,101449:0:0:0:0:
329,192,101354,128,0,101497:0:0:0:0:
256,192,101402,128,0,101544:0:0:0:0:
182,192,101449,128,0,101592:0:0:0:0:
475,192,101497,128,0,101639:0:0:0:0:
402,192,101544,128,0,101639:0:0:0:0:
329,192,101592,128,0,101639:0:0:0:0:
36,192,101592,128,0,101639:0:0:0:0:
109,192,101639,1,0,0:0:0:0:
182,192,101639,1,0,0:0:0:0:
