osu file format v14

[General]
AudioFilename: xi - Parousia.mp3
AudioLeadIn: 0
PreviewTime: 82574
Countdown: 0
SampleSet: None
StackLeniency: 0.6
Mode: 0
LetterboxInBreaks: 0
WidescreenStoryboard: 1

[Editor]
DistanceSpacing: 1.1
BeatDivisor: 4
GridSize: 4
TimelineZoom: 2.4

[Metadata]
Title:Parousia
TitleUnicode:Parousia
Artist:xi
ArtistUnicode:xi
Creator:Heatherfield
Version:Another
Source:BMS
Tags:Cytus Chapter 4 The Silence BOF 2011 of Fighters
BeatmapID:761543
BeatmapSetID:344777

[Difficulty]
HPDrainRate:7
CircleSize:4
OverallDifficulty:8
ApproachRate:9
SliderMultiplier:1.7
SliderTickRate:1

[Events]
//Background and Video events
0,0,"parousia.jpg",0,0
//Break Periods
2,56571,67163
//Storyboard Layer 0 (Background)
//Storyboard Layer 1 (Fail)
//Storyboard Layer 2 (Pass)
//Storyboard Layer 3 (Foreground)
//Storyboard Sound Samples

[TimingPoints]
4726,379.746835443038,4,2,1,40,1,0
4726,-133.333333333333,4,2,1,40,0,0
16877,-100,4,1,1,40,0,0
27510,-100,4,2,1,50,0,0
28080,-100,4,2,1,35,0,0
29219,-100,4,2,1,50,0,0
105169,-100,4,2,1,35,0,0
105738,-100,4,2,1,50,0,0
106593,-100,4,2,1,35,0,0
108017,-100,4,2,1,45,0,0
121688,389.61038961039,4,2,1,60,1,0
123246,400,4,2,1,40,1,0
124846,410.958904109589,4,2,1,30,1,0
126489,422.535211267606,4,2,1,20,1,0
127334,454.545454545455,4,2,1,10,1,0
128243,379.746835443038,4,2,1,5,1,0

[Colours]
Combo1 : 253,100,100
Combo2 : 132,193,255
Combo3 : 255,255,255
Combo4 : 196,255,255

[HitObjects]
200,104,4726,6,0,P|160:152|272:288,2,255.000009727478,0|0|0,0:2|0:2|0:2,0:2:0:0:
432,84,7004,2,0,L|400:348,1,255.000009727478,0|0,0:2|0:2,0:2:0:0:
280,320,8523,2,0,P|152:300|16:364,1,255.000009727478,0|0,0:2|0:2,0:2:0:0:
64,128,10042,5,0,0:2:0:0:
188,156,10422,1,0,0:2:0:0:
256,44,10801,2,0,L|320:32,3,42.5000016212464,0|0|0|0,0:2|0:2|0:2|0:2,0:2:0:0:
256,44,11941,5,0,0:2:0:0:
356,120,12320,2,0,L|420:108,3,42.5000016212464,0|0|0|0,0:2|0:2|0:2|0:2,0:2:0:0:
356,120,13080,2,0,P|344:212|312:276,1,127.500004863739,0|0,0:2|0:2,0:2:0:0:
249,296,13839,2,0,L|193:288,3,42.5000016212464,0|0|0|0,0:2|0:2|0:2|0:2,0:2:0:0:
256,192,14409,12,0,15928,0:2:0:0:
260,296,16118,5,0,0:2:0:0:
284,264,16213,1,0,0:2:0:0:
324,264,16308,1,0,0:2:0:0:
360,252,16403,1,0,0:2:0:0:
356,212,16498,1,0,0:2:0:0:
368,176,16593,1,0,0:2:0:0:
353,137,16688,1,0,0:2:0:0:
397,131,16782,1,0,0:2:0:0:
423,101,16877,6,0,L|431:-3,1,95.6250036478044,0|0,0:2|0:2,0:2:0:0:
264,87,17257,1,0,0:2:0:0:
466,217,17447,1,0,0:2:0:0:
466,217,17542,1,0,0:2:0:0:
466,217,17637,1,0,0:2:0:0:
463,66,17827,1,0,0:2:0:0:
296,188,18017,1,0,0:2:0:0:
308,216,18112,1,0,0:2:0:0:
232,280,18301,1,0,0:2:0:0:
188,284,18396,1,0,0:2:0:0:
144,288,18491,1,0,0:2:0:0:
100,292,18586,1,0,0:2:0:0:
316,344,18776,6,0,P|328:296|324:248,1,85,0|0,0:2|0:2,0:2:0:0:
140,180,19156,1,0,0:2:0:0:
356,92,19346,1,0,0:2:0:0:
356,92,19441,1,0,0:2:0:0:
356,92,19536,1,0,0:2:0:0:
356,92,19631,1,0,0:2:0:0:
356,92,19726,1,0,0:2:0:0:
408,288,19915,6,0,P|424:216|452:192,1,85,0|0,0:2|0:2,0:2:0:0:
488,364,20295,1,0,0:2:0:0:
260,276,20485,1,0,0:2:0:0:
260,276,20580,1,0,0:2:0:0:
260,276,20675,1,0,0:2:0:0:
156,356,20865,1,0,0:2:0:0:
68,260,21055,1,0,0:2:0:0:
52,292,21150,1,0,0:2:0:0:
36,164,21339,1,0,0:2:0:0:
76,156,21434,1,0,0:2:0:0:
116,148,21529,1,0,0:2:0:0:
156,140,21624,1,0,0:2:0:0:
136,340,21814,2,0,L|156:228,1,85,0|0,0:2|0:2,0:2:0:0:
344,384,22194,6,0,P|336:336|264:304,1,127.5,0|0,0:2|0:2,0:2:0:0:
224,308,22574,1,0,0:2:0:0:
480,164,22763,1,0,0:2:0:0:
480,164,22858,1,0,0:2:0:0:
480,164,22953,2,0,L|380:144,1,85,0|0,0:2|0:2,0:2:0:0:
216,52,23333,2,0,P|216:101|228:164,1,85,0|0,0:2|0:2,0:2:0:0:
432,316,23713,2,0,L|340:344,1,85,0|0,0:2|0:2,0:2:0:0:
100,252,24093,2,0,P|92:288|100:337,1,85,0|0,0:2|0:2,0:2:0:0:
188,352,24377,1,0,0:2:0:0:
188,352,24472,6,0,B|216:336|216:336|248:344|248:344|288:320,1,85,0|0,0:2|0:2,0:2:0:0:
448,244,24852,2,0,L|480:56,1,170,0|0,0:2|0:2,0:2:0:0:
436,60,25327,1,0,0:2:0:0:
392,64,25422,1,2,0:2:0:0:
348,68,25517,1,0,0:2:0:0:
276,112,25612,1,0,0:2:0:0:
236,100,25707,1,0,0:2:0:0:
196,88,25801,1,2,0:2:0:0:
156,76,25896,1,2,0:2:0:0:
116,64,25991,5,6,0:2:0:0:
92,212,26181,1,2,0:2:0:0:
200,328,26371,1,2,0:2:0:0:
212,208,26561,1,2,0:2:0:0:
68,320,26751,1,2,0:2:0:0:
376,344,26941,1,2,0:2:0:0:
448,128,27131,2,0,L|419:124,1,21.25,0|0,0:2|0:2,0:2:0:0:
439,158,27226,2,0,L|410:154,1,21.25,0|0,0:2|0:2,0:2:0:0:
430,189,27320,2,0,L|401:185,1,21.25,0|0,0:2|0:2,0:2:0:0:
421,220,27415,2,0,L|392:216,1,21.25,0|0,0:2|0:2,0:2:0:0:
412,251,27510,5,4,0:2:0:0:
284,320,27700,1,8,0:2:0:0:
280,276,27795,1,8,0:2:0:0:
276,232,27890,1,8,0:2:0:0:
164,120,28080,1,8,0:2:0:0:
120,122,28175,1,8,0:2:0:0:
84,145,28270,1,8,0:2:0:0:
65,183,28365,1,8,0:2:0:0:
68,226,28460,1,8,0:2:0:0:
91,261,28555,1,8,0:2:0:0:
129,281,28650,1,8,0:2:0:0:
171,278,28744,1,8,0:2:0:0:
204,308,28839,1,8,0:2:0:0:
204,352,28934,1,8,0:2:0:0:
168,376,29029,5,0,0:2:0:0:
308,337,29219,5,2,0:2:0:0:
349,328,29314,1,0,0:2:0:0:
388,344,29409,1,2,0:2:0:0:
421,369,29504,1,0,0:2:0:0:
433,328,29599,1,2,0:2:0:0:
436,285,29694,1,2,0:2:0:0:
455,247,29789,1,2,0:2:0:0:
442,206,29884,1,0,0:2:0:0:
464,169,29979,1,2,0:2:0:0:
446,130,30074,1,0,0:2:0:0:
470,95,30169,2,0,L|456:58,1,28.3333333333333,2|0,0:2|0:2,0:2:0:0:
357,82,30358,6,0,L|296:69,1,42.5,0|0,0:2|0:2,0:2:0:0:
253,29,30548,1,2,0:2:0:0:
232,41,30643,1,0,0:2:0:0:
168,88,30738,1,2,0:2:0:0:
142,81,30833,1,0,0:2:0:0:
119,74,30928,2,0,L|97:94,2,21.25,2|0|0,0:2|0:2|0:2,0:2:0:0:
123,167,31118,5,2,0:2:0:0:
112,208,31213,1,0,0:2:0:0:
122,249,31308,1,2,0:2:0:0:
153,279,31403,1,0,0:2:0:0:
194,290,31498,1,2,0:2:0:0:
235,279,31593,1,0,0:2:0:0:
265,249,31688,6,0,L|263:187,1,42.5,2|0,0:2|0:2,0:2:0:0:
384,156,31877,2,0,L|365:195,1,42.5,2|0,0:2|0:2,0:2:0:0:
474,232,32067,6,0,P|476:147|476:63,1,170,0|0,1:2|0:2,0:2:0:0:
297,104,32827,1,2,0:2:0:0:
297,104,32890,1,0,0:2:0:0:
297,104,32953,1,2,0:2:0:0:
297,104,33017,1,0,0:2:0:0:
297,104,33080,1,2,0:2:0:0:
297,104,33143,1,0,0:2:0:0:
297,104,33207,2,0,L|219:101,2,56.6666666666667,2|0|0,0:2|0:2|0:2,0:2:0:0:
361,172,33586,6,0,L|347:262,1,85,0|0,1:2|0:2,0:2:0:0:
483,239,33871,2,0,L|487:343,1,85,0|0,1:2|0:2,0:2:0:0:
489,362,34156,1,0,1:2:0:0:
337,336,34346,5,2,0:2:0:0:
315,328,34409,1,0,0:2:0:0:
293,321,34472,1,2,0:2:0:0:
270,315,34536,1,0,0:2:0:0:
247,310,34599,1,2,0:2:0:0:
224,309,34662,1,0,0:2:0:0:
201,309,34726,2,0,B|206:264|206:264|138:284|93:273,1,141.666666666667,2|0,0:2|0:2,0:2:0:0:
41,233,35105,6,0,L|0:220,4,28.3333333333333,2|0|0|0|2,0:2|0:2|0:2|0:2|0:2,0:2:0:0:
123,175,35485,2,0,L|176:166,4,28.3333333333333,2|0|0|0|2,0:2|0:2|0:2|0:2|0:2,0:2:0:0:
234,96,35865,1,2,0:2:0:0:
234,96,35928,1,0,0:2:0:0:
234,96,35991,1,2,0:2:0:0:
234,96,36055,1,0,0:2:0:0:
234,96,36118,1,2,0:2:0:0:
234,96,36181,1,0,0:2:0:0:
234,96,36245,2,0,L|214:43,2,56.6666666666667,2|0|0,0:2|0:2|0:2,0:2:0:0:
331,303,36624,6,0,L|341:201,1,85,0|4,0:2|0:2,0:2:0:0:
419,39,37004,1,0,1:2:0:0:
229,179,37194,1,2,0:2:0:0:
402,352,37384,6,0,L|412:250,1,85,0|4,0:2|0:2,0:2:0:0:
490,88,37763,2,0,L|416:78,1,42.5,0|0,1:2|0:2,0:2:0:0:
291,110,37953,2,0,L|333:115,1,42.5,2|0,0:2|0:2,0:2:0:0:
510,131,38143,2,0,P|507:195|498:242,1,85,4|0,0:2|0:2,0:2:0:0:
474,255,38428,1,0,0:2:0:0:
474,255,38523,1,0,0:2:0:0:
257,339,38903,5,2,0:2:0:0:
257,339,38966,1,0,0:2:0:0:
257,339,39029,1,2,0:2:0:0:
257,339,39093,1,0,0:2:0:0:
257,339,39156,1,2,0:2:0:0:
257,339,39219,1,0,0:2:0:0:
257,339,39283,2,0,L|311:327,2,42.5,2|0|0,0:2|0:2|0:2,0:2:0:0:
100,349,39662,5,0,1:2:0:0:
319,236,39852,1,0,0:2:0:0:
319,236,39947,1,0,1:2:0:0:
419,354,40137,1,0,0:2:0:0:
419,354,40232,1,0,1:2:0:0:
482,161,40422,5,2,0:2:0:0:
466,157,40485,1,0,0:2:0:0:
450,153,40548,1,2,0:2:0:0:
434,149,40612,1,0,0:2:0:0:
418,145,40675,1,2,0:2:0:0:
402,141,40738,1,0,0:2:0:0:
386,137,40801,2,0,P|314:105|302:81,1,85,2|0,0:2|0:2,0:2:0:0:
179,34,41181,5,2,0:2:0:0:
149,90,41276,1,0,0:2:0:0:
157,153,41371,1,2,0:2:0:0:
202,199,41466,1,2,0:2:0:0:
265,210,41561,2,0,L|275:228,7,21.25,0|0|0|0|0|0|0|0,0:2|0:2|0:2|0:2|0:2|0:2|0:2|0:2,0:2:0:0:
303,178,41941,6,0,P|356:153|376:159,1,56.6666666666667,2|0,0:2|0:2,0:2:0:0:
439,188,42131,2,0,P|450:129|449:109,1,56.6666666666667,2|0,0:2|0:2,0:2:0:0:
457,75,42320,1,2,0:2:0:0:
457,75,42415,1,0,0:2:0:0:
457,75,42510,1,2,0:2:0:0:
457,75,42605,1,2,0:2:0:0:
457,75,42700,5,0,1:2:0:0:
431,330,42890,1,4,0:2:0:0:
310,235,43080,2,0,L|215:234,1,85,0|0,0:2|0:2,0:2:0:0:
205,336,43460,2,0,L|210:372,7,21.25,0|0|0|0|0|0|0|0,0:2|0:2|0:2|0:2|0:2|0:2|0:2|0:2,0:2:0:0:
162,355,43839,6,0,L|64:342,1,85,0|0,0:2|0:2,0:2:0:0:
329,289,44219,2,0,P|257:260|228:258,1,85,4|0,0:2|0:2,0:2:0:0:
50,265,44599,1,0,0:2:0:0:
50,265,44694,1,2,0:2:0:0:
154,184,44884,1,2,0:2:0:0:
154,184,44979,1,0,0:2:0:0:
154,184,45074,1,2,0:2:0:0:
64,72,45263,1,2,0:2:0:0:
64,72,45358,2,0,L|149:51,1,85,0|0,0:2|0:2,0:2:0:0:
290,35,45738,6,0,L|272:144,1,85,0|0,1:2|0:2,0:2:0:0:
255,208,46023,2,0,P|321:221|358:210,1,85,0|0,1:2|0:2,0:2:0:0:
438,181,46308,1,0,1:2:0:0:
389,311,46498,2,0,L|466:334,2,56.6666666666667,0|2|2,0:2|0:2|0:2,0:2:0:0:
234,343,46877,2,0,P|274:348|316:340,2,56.6666666666667,0|2|2,0:2|0:2|0:2,0:2:0:0:
48,332,47257,6,0,P|28:284|32:269,1,42.5,0|0,0:2|0:2,0:2:0:0:
127,92,47447,2,0,L|120:266,1,170,4|0,0:2|0:2,0:2:0:0:
385,292,48017,2,0,L|392:118,1,170,4|0,0:2|0:2,0:2:0:0:
256,64,48586,1,2,0:2:0:0:
256,64,48681,1,0,0:2:0:0:
256,64,48776,6,0,L|256:247,1,170,4|0,0:2|0:2,0:2:0:0:
293,317,49282,2,0,L|315:238,1,56.6666666666667,0|0,0:2|0:2,0:2:0:0:
399,184,49536,2,0,P|409:243|414:318,1,113.333333333333,4|0,0:2|0:2,0:2:0:0:
419,355,49915,1,0,1:2:0:0:
129,292,50105,1,2,0:2:0:0:
344,112,50295,2,0,L|356:237,1,85,4|0,0:2|0:2,0:2:0:0:
34,77,50675,2,0,L|132:106,1,85,0|0,0:2|0:2,0:2:0:0:
149,137,50960,1,2,0:2:0:0:
149,137,51055,1,2,0:2:0:0:
372,346,51244,1,0,0:2:0:0:
377,308,51339,1,2,0:2:0:0:
379,269,51434,2,0,P|372:199|365:165,1,85,2|0,0:2|0:2,0:2:0:0:
140,70,51814,6,0,P|132:132|136:177,1,85,0|0,1:2|0:2,0:2:0:0:
150,204,52099,1,0,1:2:0:0:
392,178,52289,1,0,0:2:0:0:
392,178,52384,1,0,1:2:0:0:
35,188,52574,6,2,B|28:157|28:157|49:52,2,127.5,2|2|2,0:2|0:2|0:2,0:2:0:0:
256,192,53333,12,0,54282,0:2:0:0:
256,192,54472,6,0,L|177:208,3,56.6666666666667,0|2|2|0,0:2|0:2|0:2|0:2,0:2:0:0:
256,192,54947,12,0,56371,0:2:0:0:
256,192,67763,12,0,68523,1:2:0:0:
196,92,68713,5,0,0:2:0:0:
196,92,68808,1,0,0:2:0:0:
196,92,68903,2,0,L|316:68,1,85,0|0,1:2|0:2,0:2:0:0:
120,192,69282,2,0,L|24:188,1,85,0|0,1:2|0:2,0:2:0:0:
196,292,69662,2,0,L|316:316,1,85,0|0,1:2|0:2,0:2:0:0:
424,364,70042,6,0,L|440:256,1,85,0|0,1:2|0:2,0:2:0:0:
308,288,70422,2,0,L|288:176,1,85,0|0,1:2|0:2,0:2:0:0:
168,212,70801,2,0,L|184:104,1,85,0|0,1:2|0:2,0:2:0:0:
52,136,71181,2,0,L|32:24,1,85,0|0,1:2|0:2,0:2:0:0:
256,192,71561,12,0,72700,1:2:0:0:
256,192,73080,12,0,74219,1:2:0:0:
148,104,74599,5,6,0:2:0:0:
440,60,74789,1,6,0:2:0:0:
280,124,74979,1,2,0:2:0:0:
276,160,75074,1,2,0:2:0:0:
272,200,75169,1,2,0:2:0:0:
428,208,75358,2,0,P|448:272|448:316,1,85,0|0,1:2|0:2,0:2:0:0:
156,128,75738,2,0,P|176:56|204:16,1,85,0|0,1:2|0:2,0:2:0:0:
360,40,76118,5,6,0:2:0:0:
336,344,76308,1,6,0:2:0:0:
400,236,76498,1,2,0:2:0:0:
436,244,76593,1,2,0:2:0:0:
472,252,76688,1,2,0:2:0:0:
456,24,76877,2,0,P|444:80|424:112,1,85,0|0,1:2|0:2,0:2:0:0:
216,336,77257,2,0,P|168:280|124:256,1,85,0|0,1:2|0:2,0:2:0:0:
116,276,77542,1,0,0:2:0:0:
116,276,77637,5,6,0:2:0:0:
448,188,77827,1,6,0:2:0:0:
220,188,78017,1,2,0:2:0:0:
212,152,78112,1,2,0:2:0:0:
204,116,78207,1,2,0:2:0:0:
388,152,78396,2,0,L|348:296,1,127.5,0|0,1:2|0:2,0:2:0:0:
333,323,78776,2,0,P|306:332|278:330,3,56.6666666666667,0|2|2|0,1:2|0:2|0:2|0:2,0:2:0:0:
256,192,79251,12,4,80675,1:2:0:0:
221,322,81055,5,2,0:2:0:0:
196,278,81150,1,0,0:2:0:0:
209,291,81244,1,2,0:2:0:0:
225,303,81339,1,0,0:2:0:0:
248,308,81434,1,2,0:2:0:0:
274,299,81529,1,0,0:2:0:0:
302,273,81624,1,2,0:2:0:0:
318,238,81719,1,0,0:2:0:0:
324,197,81814,1,2,0:2:0:0:
321,154,81909,1,0,0:2:0:0:
302,113,82004,1,2,0:2:0:0:
272,74,82099,6,2,L|250:59,2,21.25,2|2|2,0:2|0:2|0:2,0:2:0:0:
88,348,82574,5,0,1:2:0:0:
92,324,82669,1,0,0:2:0:0:
96,300,82763,1,2,0:2:0:0:
100,276,82858,1,2,0:2:0:0:
188,254,82953,5,0,1:2:0:0:
184,230,83048,1,0,0:2:0:0:
180,206,83142,1,2,0:2:0:0:
176,182,83237,1,2,0:2:0:0:
92,168,83333,5,0,1:2:0:0:
96,144,83428,1,0,0:2:0:0:
100,120,83522,1,2,1:2:0:0:
104,96,83617,1,2,0:2:0:0:
108,68,83713,6,0,P|180:56|248:64,1,127.5,4|0,1:2|0:2,0:2:0:0:
276,76,84093,1,0,1:2:0:0:
404,296,84282,1,0,0:2:0:0:
404,296,84377,1,0,0:2:0:0:
404,296,84472,1,0,1:2:0:0:
480,60,84662,2,0,L|468:108,1,42.5,0|0,0:2|0:2,0:2:0:0:
472,156,84852,5,0,1:2:0:0:
425,135,84947,1,0,0:2:0:0:
375,145,85042,1,0,0:2:0:0:
326,129,85137,1,0,0:2:0:0:
276,140,85232,5,2,1:2:0:0:
274,136,85327,1,0,0:2:0:0:
272,132,85422,1,0,0:2:0:0:
270,128,85517,1,0,0:2:0:0:
204,172,85612,5,2,1:2:0:0:
200,174,85707,1,0,0:2:0:0:
196,176,85802,1,0,0:2:0:0:
192,178,85897,1,0,0:2:0:0:
236,244,85991,5,2,1:2:0:0:
238,248,86086,1,0,0:2:0:0:
240,252,86181,1,0,0:2:0:0:
242,256,86276,1,0,0:2:0:0:
308,212,86371,5,2,1:2:0:0:
312,210,86466,1,0,0:2:0:0:
316,208,86561,1,2,1:2:0:0:
320,206,86656,1,0,0:2:0:0:
323,204,86751,5,2,1:2:0:0:
55,156,86941,1,0,0:2:0:0:
55,156,87036,1,2,0:2:0:0:
55,156,87131,2,0,P|39:206|38:253,1,85,0|0,1:2|0:2,0:2:0:0:
416,353,87510,1,0,1:2:0:0:
496,123,87700,1,0,0:2:0:0:
496,123,87795,1,2,0:2:0:0:
496,123,87890,2,0,L|403:98,1,85,0|0,1:2|0:2,0:2:0:0:
54,210,88270,5,0,1:2:0:0:
312,49,88460,1,0,0:2:0:0:
312,49,88555,1,2,0:2:0:0:
312,49,88650,2,0,P|308:100|309:146,1,85,0|0,1:2|0:2,0:2:0:0:
333,178,88934,1,2,0:2:0:0:
343,228,89029,1,2,1:2:0:0:
340,278,89124,1,2,0:2:0:0:
324,326,89219,6,0,P|370:325|379:326,1,42.5,0|0,0:2|0:2,0:2:0:0:
443,359,89409,1,0,1:2:0:0:
484,78,89599,1,2,0:2:0:0:
183,307,89789,6,0,L|111:285,2,42.5,4|0|0,1:2|0:2|0:2,0:2:0:0:
329,77,90169,2,0,L|401:99,2,42.5,0|0|0,1:2|0:2|0:2,0:2:0:0:
483,234,90548,1,0,1:2:0:0:
483,234,90643,1,0,0:2:0:0:
483,234,90738,1,0,0:2:0:0:
278,354,90928,2,2,P|265:312|269:258,1,85,2|2,1:2|0:2,0:2:0:0:
160,116,91308,5,2,1:2:0:0:
151,117,91403,1,0,0:2:0:0:
142,119,91498,1,0,1:2:0:0:
134,123,91593,1,0,0:2:0:0:
127,128,91688,1,0,1:2:0:0:
40,52,91877,5,0,0:2:0:0:
48,136,91972,1,2,0:2:0:0:
56,220,92067,2,0,P|116:236|152:264,1,85,6|0,0:2|0:2,0:2:0:0:
184,280,92320,2,0,L|236:196,1,85,4|0,0:2|0:2,0:2:0:0:
312,156,92574,2,0,P|316:228|324:264,1,85,4|0,0:2|0:2,0:2:0:0:
384,336,92827,6,0,B|396:376|396:376|448:292|444:160,1,255,4|0,0:2|0:2,0:2:0:0:
443,200,93491,1,2,0:2:0:0:
434,228,93586,2,0,B|434:154|451:85|451:85|394:124|371:190,1,255,4|0,0:2|0:2,0:2:0:0:
385,138,94251,1,2,0:2:0:0:
385,108,94346,6,0,B|286:100|286:100|246:61,1,127.5,4|0,0:2|0:2,0:2:0:0:
217,50,94726,2,0,L|123:77,1,85,4|0,0:2|0:2,0:2:0:0:
11,119,95105,1,4,0:2:0:0:
181,238,95295,6,0,L|107:251,1,42.5,2|0,0:2|0:2,0:2:0:0:
321,334,95485,2,0,L|315:284,1,42.5,4|0,0:2|0:2,0:2:0:0:
451,181,95675,2,0,L|451:233,1,42.5,2|0,0:2|0:2,0:2:0:0:
360,352,95865,5,2,0:2:0:0:
282,334,95960,1,2,0:2:0:0:
204,316,96055,1,2,0:2:0:0:
126,298,96150,1,2,0:2:0:0:
48,280,96244,6,0,P|36:216|40:208,1,56.6666666666667,2|0,0:2|0:2,0:2:0:0:
78,141,96498,1,2,0:2:0:0:
161,187,96624,2,0,L|311:119,1,127.5,2|0,0:2|0:2,0:2:0:0:
375,76,97004,2,0,P|381:144|376:181,1,85,2|0,0:2|0:2,0:2:0:0:
309,364,97384,5,2,0:2:0:0:
291,286,97479,1,2,0:2:0:0:
273,208,97574,1,2,0:2:0:0:
255,130,97669,1,2,0:2:0:0:
237,52,97763,6,0,P|173:40|165:44,1,56.6666666666667,2|0,0:2|0:2,0:2:0:0:
116,89,98017,1,2,0:2:0:0:
116,89,98143,2,0,P|104:149|116:247,1,127.5,2|0,0:2|0:2,0:2:0:0:
228,196,98523,6,0,L|214:256,1,42.5,2|0,0:2|0:2,0:2:0:0:
276,344,98713,2,0,L|290:284,1,42.5,2|0,0:2|0:2,0:2:0:0:
352,248,98903,5,0,1:2:0:0:
352,248,98998,1,0,1:2:0:0:
424,292,99093,2,0,P|452:252|448:148,1,127.5,4|0,0:2|0:2,0:2:0:0:
416,68,99472,5,0,0:2:0:0:
404,88,99567,1,0,0:2:0:0:
431,111,99662,5,2,1:2:0:0:
444,57,99757,1,2,1:2:0:0:
423,5,99852,2,0,L|322:28,1,85,4|0,0:2|0:2,0:2:0:0:
263,62,100137,5,2,0:2:0:0:
249,146,100232,1,2,0:2:0:0:
323,186,100327,1,2,0:2:0:0:
314,270,100422,2,0,L|304:361,1,85,4|0,0:2|0:2,0:2:0:0:
207,354,100675,6,0,L|198:270,1,85,4|0,0:2|0:2,0:2:0:0:
166,166,100928,6,0,P|109:177|72:187,1,85,4|0,0:2|0:2,0:2:0:0:
346,166,101181,6,0,P|403:177|440:187,1,85,4|0,0:2|0:2,0:2:0:0:
448,292,101434,6,0,L|360:328,1,85,4|0,0:2|0:2,0:2:0:0:
64,292,101688,6,0,L|152:328,1,85,4|0,0:2|0:2,0:2:0:0:
256,368,101941,5,4,1:2:0:0:
256,160,102131,1,0,0:2:0:0:
256,160,102226,1,2,0:2:0:0:
256,160,102320,2,0,P|312:160|356:172,1,85,0|0,1:2|0:2,0:2:0:0:
416,316,102700,1,0,1:2:0:0:
416,316,102795,1,2,0:2:0:0:
416,316,102890,1,2,0:2:0:0:
468,36,103080,1,0,1:2:0:0:
468,36,103175,1,2,0:2:0:0:
468,36,103270,1,2,0:2:0:0:
468,36,103365,1,0,0:2:0:0:
404,80,103460,5,6,1:2:0:0:
352,88,103555,1,0,0:2:0:0:
300,96,103650,1,2,0:2:0:0:
252,104,103744,1,0,0:2:0:0:
180,64,103839,5,2,1:2:0:0:
232,72,103934,1,0,0:2:0:0:
284,80,104029,1,2,0:2:0:0:
332,88,104123,1,0,0:2:0:0:
376,96,104219,5,0,1:2:0:0:
376,348,104409,1,0,1:2:0:0:
452,236,104599,1,0,1:2:0:0:
168,200,104789,1,0,1:2:0:0:
448,84,104979,6,0,L|396:76,1,42.5,0|0,1:2|0:2,0:2:0:0:
356,68,105169,1,8,0:2:0:0:
318,32,105263,1,8,0:2:0:0:
269,21,105358,1,8,0:2:0:0:
220,36,105453,1,8,0:2:0:0:
185,73,105548,1,8,0:2:0:0:
174,122,105643,1,8,0:2:0:0:
189,172,105738,2,0,L|184:200,7,21.25,4|0|0|0|0|0|0|0,0:2|0:2|0:2|0:2|0:2|0:2|0:2|0:2,0:2:0:0:
212,232,106118,2,0,L|217:260,7,21.25,4|0|0|0|0|0|0|0,0:2|0:2|0:2|0:2|0:2|0:2|0:2|0:2,0:2:0:0:
212,300,106498,5,4,0:2:0:0:
255,281,106593,1,0,1:2:0:0:
301,275,106688,1,0,1:2:0:0:
345,281,106782,1,0,1:2:0:0:
387,301,106877,1,0,1:2:0:0:
403,344,106972,1,0,1:2:0:0:
370,377,107067,1,0,1:2:0:0:
327,357,107162,1,0,1:2:0:0:
330,310,107257,5,0,1:2:0:0:
351,268,107352,1,0,1:2:0:0:
362,222,107447,1,0,1:2:0:0:
364,175,107542,1,0,1:2:0:0:
353,129,107637,1,0,1:2:0:0:
331,87,107732,1,0,1:2:0:0:
295,56,107827,1,0,1:2:0:0:
249,45,107922,1,0,1:2:0:0:
202,46,108017,5,2,1:2:0:0:
65,305,108396,6,0,L|48:262,1,42.5,2|0,0:2|0:2,0:2:0:0:
152,282,108586,2,0,L|145:223,1,42.5,2|0,0:2|0:2,0:2:0:0:
247,286,108776,2,0,L|262:148,1,127.5,2|0,0:2|0:2,0:2:0:0:
285,119,109156,2,0,P|344:124|472:82,1,170,0|0,0:2|0:2,0:2:0:0:
499,258,109726,5,0,0:2:0:0:
499,258,109820,1,0,1:2:0:0:
361,358,110010,1,0,0:2:0:0:
361,358,110105,1,0,1:2:0:0:
201,299,110295,2,0,P|124:256|12:254,1,170,2|0,0:2|0:2,0:2:0:0:
162,125,110865,1,0,1:2:0:0:
0,83,111055,5,0,1:2:0:0:
454,30,111244,1,4,0:2:0:0:
333,223,111434,2,0,L|309:116,1,85,0|0,0:2|0:2,0:2:0:0:
151,331,111814,1,0,0:2:0:0:
151,331,111877,6,2,L|89:346,3,56.6666666666667,2|2|2|2,0:2|0:2|0:2|0:2,0:2:0:0:
105,148,112479,1,2,0:2:0:0:
105,148,112574,6,0,L|102:273,1,85,4|0,1:2|0:2,0:2:0:0:
407,236,112953,2,0,L|410:111,1,85,0|0,1:2|0:2,0:2:0:0:
98,196,113333,2,0,L|134:316,1,85,4|0,1:2|0:2,0:2:0:0:
413,187,113712,2,0,L|377:67,1,85,0|0,1:2|0:2,0:2:0:0:
90,53,114093,5,6,0:2:0:0:
107,358,114282,1,6,0:2:0:0:
81,195,114472,1,2,0:2:0:0:
82,198,114567,1,2,0:2:0:0:
83,201,114662,1,2,0:2:0:0:
84,204,114757,1,2,0:2:0:0:
85,207,114852,5,6,0:2:0:0:
442,41,115042,1,6,0:2:0:0:
237,86,115232,1,2,0:2:0:0:
236,82,115327,1,2,0:2:0:0:
235,78,115422,1,2,0:2:0:0:
234,74,115517,1,2,0:2:0:0:
233,70,115612,5,6,0:2:0:0:
176,360,115801,1,6,0:2:0:0:
263,215,115991,1,2,0:2:0:0:
316,230,116086,1,2,0:2:0:0:
367,210,116181,1,2,0:2:0:0:
398,165,116276,1,2,0:2:0:0:
396,109,116371,2,0,P|415:57|444:31,1,85,4|0,1:2|0:2,0:2:0:0:
426,338,116751,2,0,L|321:326,1,85,4|0,1:2|0:2,0:2:0:0:
176,358,117131,5,6,1:2:0:0:
396,240,117320,1,2,1:2:0:0:
36,291,117510,1,2,1:2:0:0:
297,61,117700,1,2,1:2:0:0:
64,113,117890,5,2,1:2:0:0:
448,271,118080,1,2,1:2:0:0:
215,323,118270,1,2,1:2:0:0:
297,61,118460,1,2,1:2:0:0:
467,173,118650,6,0,L|460:72,1,85,4|0,0:2|0:2,0:2:0:0:
146,235,119029,2,0,L|151:319,1,85,4|0,0:2|0:2,0:2:0:0:
331,357,119409,2,0,L|324:256,1,85,4|0,0:2|0:2,0:2:0:0:
40,251,119789,2,0,L|33:150,1,85,4|0,0:2|0:2,0:2:0:0:
124,30,120169,5,0,1:2:0:0:
112,74,120263,1,0,1:2:0:0:
111,122,120358,1,0,1:2:0:0:
130,165,120453,1,0,1:2:0:0:
157,203,120548,1,0,1:2:0:0:
164,249,120643,1,0,1:2:0:0:
156,202,120738,1,0,1:2:0:0:
178,159,120833,1,0,1:2:0:0:
221,138,120928,5,0,1:2:0:0:
269,139,121023,1,0,1:2:0:0:
311,162,121118,1,0,1:2:0:0:
357,175,121213,1,0,1:2:0:0:
404,172,121308,1,0,1:2:0:0:
443,146,121403,1,0,1:2:0:0:
463,103,121498,1,0,1:2:0:0:
460,56,121593,1,0,1:2:0:0:
434,18,121688,5,4,0:2:0:0:
256,192,121712,12,0,128243,0:2:0:0:
