osu file format v14

[General]
AudioFilename: Pandemonium.mp3
AudioLeadIn: 0
PreviewTime: 26200
Countdown: 0
SampleSet: Normal
StackLeniency: 0.7
Mode: 0
LetterboxInBreaks: 0
EpilepsyWarning: 1
WidescreenStoryboard: 1

[Editor]
Bookmarks: 28866,31533,34200,36866,38200,39533,42200,44866,47531,79533,95533
DistanceSpacing: 0.9
BeatDivisor: 4
GridSize: 8
TimelineZoom: 3.1

[Metadata]
Title:Pandemonium
TitleUnicode:Pandemonium
Artist:xi
ArtistUnicode:xi
Creator:small_hins
Version:Hard
Source:BMS
Tags:無調音楽 GENRE-SHUFFLE 1B long stream
BeatmapID:702170
BeatmapSetID:314741

[Difficulty]
HPDrainRate:5
CircleSize:4
OverallDifficulty:5
ApproachRate:6
SliderMultiplier:1.3
SliderTickRate:1

[Events]
//Background and Video events
0,0,"bg_Pandemonium.jpg",0,0
//Break Periods
2,47733,57150
2,90399,94483
2,125066,129149
//Storyboard Layer 0 (Background)
//Storyboard Layer 1 (Fail)
//Storyboard Layer 2 (Pass)
//Storyboard Layer 3 (Foreground)
//Storyboard Sound Samples

[TimingPoints]
26200,333.333333333333,4,1,0,45,1,0
26200,-100,4,1,0,60,0,1
47533,-100,4,2,0,40,0,0
58200,-100,4,2,0,50,0,0
63533,-100,4,2,0,55,0,0
68866,-100,4,1,0,60,0,0
88866,-100,4,2,0,50,0,0
89116,-100,4,2,0,40,0,0
89366,-100,4,2,0,30,0,0
89533,-100,4,1,0,60,0,0
89866,-100,4,2,0,50,0,0
90199,-100,4,2,0,35,0,0
95533,-100,4,2,0,50,0,0
98199,-100,4,2,0,60,0,0
100866,-100,4,2,0,30,0,0
103533,-100,4,1,0,60,0,1
124866,-100,4,1,0,60,0,0
124908,-100,4,2,0,40,0,0
135533,-100,4,1,0,75,0,0
135574,-100,4,2,0,40,0,0

[Colours]
Combo1 : 255,198,26
Combo2 : 142,251,34
Combo3 : 101,146,214
Combo4 : 244,136,117

[HitObjects]
376,296,26200,6,0,P|336:320|296:328,1,65
280,272,26533,1,8,0:0:0:0:
360,192,26866,1,0,0:0:0:0:
256,136,27200,1,8,0:0:0:0:
152,80,27533,1,0,0:0:0:0:
56,144,27866,1,0,0:0:0:0:
152,216,28200,1,0,0:0:0:0:
200,248,28366,6,0,P|240:232|280:208,1,65
248,104,28866,2,0,P|288:128|328:128,1,65
344,176,29200,1,8,0:0:0:0:
408,272,29533,1,0,0:0:0:0:
312,344,29866,1,8,0:0:0:0:
216,272,30200,1,0,0:0:0:0:
128,200,30533,1,8,0:0:0:0:
216,120,30866,1,0,0:0:0:0:
256,160,31033,6,0,L|328:144,1,65
424,96,31533,2,0,P|432:144|432:176,1,65
392,208,31866,1,8,0:0:0:0:
320,304,32200,1,0,0:0:0:0:
200,304,32533,1,8,0:0:0:0:
160,192,32866,1,0,0:0:0:0:
120,80,33200,1,8,0:0:0:0:
240,80,33533,2,0,L|312:80,1,65
480,80,34200,6,0,L|480:152,1,65
432,184,34533,1,8,0:0:0:0:
360,272,34866,1,0,0:0:0:0:
240,272,35200,1,8,0:0:0:0:
136,216,35533,2,0,L|136:80,1,130
240,48,36200,5,0,0:0:0:0:
328,48,36450,1,8,0:0:0:0:
416,48,36700,1,0,0:0:0:0:
416,48,36866,5,0,0:0:0:0:
416,48,37033,1,0,0:0:0:0:
416,48,37200,2,8,L|392:200,2,130
320,112,38200,1,0,0:0:0:0:
320,112,38366,1,0,0:0:0:0:
320,112,38533,2,8,L|288:256,2,130
208,88,39533,6,0,L|128:88,1,65
232,240,40200,2,0,L|304:248,1,65
424,128,40866,2,8,L|488:96,1,65
304,96,41533,2,8,L|288:32,1,65
120,88,42200,6,0,L|56:144,1,65
88,208,42533,2,8,P|152:224|240:200,2,130
200,112,43533,2,0,P|280:112|312:272,1,260
216,216,44533,1,0,0:0:0:0:
256,192,44866,12,0,47533,0:0:0:0:
352,240,58200,5,8,0:0:0:0:
352,240,58533,2,0,L|384:96,1,130
336,80,59033,1,0,0:0:0:0:
280,72,59200,1,8,0:0:0:0:
224,96,59366,1,0,0:0:0:0:
184,144,59533,6,0,L|72:240,1,130
168,312,60200,2,0,L|280:216,1,130
280,112,60866,2,8,P|360:112|400:160,2,130
168,160,61866,1,0,0:0:0:0:
208,272,62200,1,8,0:0:0:0:
328,288,62533,6,0,P|392:304|472:288,1,130
480,184,63200,1,8,0:0:0:0:
256,192,63533,12,0,67533,0:0:0:0:
360,144,68866,6,0,L|304:88,1,65
176,104,69366,1,0,0:0:0:0:
96,184,69700,1,8,0:0:0:0:
168,280,70033,1,8,0:0:0:0:
264,296,70366,2,0,P|296:280|320:256,1,65
376,160,70866,5,0,0:0:0:0:
376,160,71033,1,0,0:0:0:0:
272,104,71366,1,0,0:0:0:0:
152,168,71700,5,0,0:0:0:0:
152,168,71866,1,0,0:0:0:0:
152,168,72033,2,0,L|112:224,1,65
136,280,72366,1,0,0:0:0:0:
248,248,72700,1,0,0:0:0:0:
320,336,73033,6,0,L|384:288,1,65
456,216,73533,1,0,0:0:0:0:
424,168,73700,1,0,0:0:0:0:
384,128,73866,1,0,0:0:0:0:
336,88,74033,2,0,L|272:208,1,130
192,280,74700,5,0,0:0:0:0:
104,208,75033,1,0,0:0:0:0:
168,112,75366,1,0,0:0:0:0:
168,112,75533,2,0,L|240:136,1,65
368,272,76200,5,0,0:0:0:0:
368,272,76366,1,0,0:0:0:0:
304,136,76700,1,0,0:0:0:0:
192,200,77033,2,0,L|136:248,1,65
80,256,77366,2,0,P|56:200|96:136,1,130
176,48,78033,5,0,0:0:0:0:
176,48,78200,1,0,0:0:0:0:
256,104,78450,1,0,0:0:0:0:
240,200,78699,1,0,0:0:0:0:
352,216,78991,1,0,0:0:0:0:
384,144,79199,2,0,L|448:112,1,65
400,64,79533,5,0,0:0:0:0:
400,64,79699,1,0,0:0:0:0:
280,144,80033,2,0,L|152:192,2,130
336,112,80866,2,0,P|344:184|320:240,1,130
192,248,81533,5,0,0:0:0:0:
192,248,81699,1,0,0:0:0:0:
96,160,82033,1,0,0:0:0:0:
232,96,82366,2,0,L|288:80,1,48.75
328,40,82699,2,0,P|344:112|328:168,1,130
272,192,83199,6,0,L|208:240,1,65
104,168,83699,1,0,0:0:0:0:
104,168,83866,1,0,0:0:0:0:
104,168,84033,2,0,P|144:120|248:176,1,195
352,256,84866,5,0,0:0:0:0:
352,256,85033,1,0,0:0:0:0:
208,224,85366,1,0,0:0:0:0:
248,120,85699,1,0,0:0:0:0:
120,96,86033,1,0,0:0:0:0:
120,96,86199,2,0,P|88:184|104:216,1,130
224,168,86866,5,0,0:0:0:0:
224,168,87033,1,0,0:0:0:0:
296,272,87366,1,0,0:0:0:0:
296,272,87699,2,0,P|360:264|416:224,1,130
432,168,88199,2,0,L|488:200,2,65
328,88,88866,5,0,0:0:0:0:
240,136,89116,2,0,P|208:192|176:208,1,97.5
120,176,89533,2,0,P|88:112|128:96,1,130
184,80,90033,1,0,0:0:0:0:
240,56,90199,1,0,0:0:0:0:
128,168,95533,5,0,0:0:0:0:
128,168,95866,2,0,P|136:216|200:272,2,130
248,128,96866,2,0,P|320:104|384:120,2,130
128,168,97908,1,0,0:0:0:0:
256,192,98199,12,0,100866,0:0:0:0:
400,280,101199,5,0,0:0:0:0:
384,160,101533,1,0,0:0:0:0:
288,224,101866,1,0,0:0:0:0:
176,184,102199,1,0,0:0:0:0:
72,232,102533,6,0,P|32:168|40:104,2,130
168,304,103533,6,0,L|232:344,1,65
280,328,103866,2,8,P|304:296|288:208,2,130
392,352,104866,1,0,0:0:0:0:
440,248,105199,2,8,P|424:176|432:120,2,130
376,344,106199,1,0,0:0:0:0:
328,224,106533,6,0,P|328:144|320:80,2,130
200,248,107533,1,0,0:0:0:0:
88,176,107866,1,0,0:0:0:0:
152,64,108199,2,0,P|240:56|288:64,1,130
328,184,108866,6,0,L|376:232,1,65
392,288,109199,2,8,P|344:304|272:272,2,130
432,176,110199,2,0,L|456:112,1,65
424,64,110533,2,8,P|344:56|280:56,2,130
360,160,111533,5,0,0:0:0:0:
360,160,111699,1,0,0:0:0:0:
336,216,111866,2,0,P|304:280|240:280,1,130
168,200,112533,2,0,L|160:136,1,65
208,104,112866,6,0,P|248:88|280:96,1,65
320,112,113199,2,0,L|344:176,1,65
368,224,113533,2,0,P|368:288|344:320,2,97.5
392,176,114199,6,0,L|368:112,1,65
320,80,114533,2,0,P|272:64|184:80,2,130
369,115,115533,2,0,L|392:176,1,65
432,216,115866,2,0,P|424:280|376:320,2,130
448,96,116866,6,0,L|488:32,1,65
320,104,117533,2,0,L|264:64,1,65
144,192,118199,2,0,L|80:232,1,65
256,280,118866,2,0,L|280:344,1,65
400,216,119533,6,0,L|448:168,1,65
440,112,119866,2,0,P|384:96|304:104,2,130
400,216,120866,2,0,P|400:264|336:320,1,130
264,232,121533,2,0,L|128:248,1,130
256,192,122199,12,0,124866,0:0:0:0:
96,192,130199,6,0,B|152:136|152:136|272:96|272:96|336:128,1,260
368,352,131533,2,0,B|296:320|296:320|280:256,1,130
392,216,132199,2,0,B|360:168|360:168|288:144,1,130
208,232,132866,6,0,B|152:176|152:176|160:112|160:112|216:96|216:96|256:48,1,260
368,48,133866,1,0,0:0:0:0:
432,144,134199,2,0,B|432:224|432:224|384:256,1,130
272,248,134866,2,0,B|248:176|248:176|280:112,1,130
256,192,135533,12,0,140199,0:0:0:0:
