osu file format v14

[General]
AudioFilename: Pandemonium.mp3
AudioLeadIn: 0
PreviewTime: 26200
Countdown: 0
SampleSet: Normal
StackLeniency: 0.7
Mode: 0
LetterboxInBreaks: 0
EpilepsyWarning: 1
WidescreenStoryboard: 1

[Editor]
Bookmarks: 28866,31533,34200,36866,38200,39533,42200,44866,47531,79533,95533
DistanceSpacing: 1
BeatDivisor: 2
GridSize: 8
TimelineZoom: 2.8

[Metadata]
Title:Pandemonium
TitleUnicode:Pandemonium
Artist:xi
ArtistUnicode:xi
Creator:small_hins
Version:Beginner
Source:BMS
Tags:無調音楽 GENRE-SHUFFLE 1B long stream
BeatmapID:702098
BeatmapSetID:314741

[Difficulty]
HPDrainRate:2
CircleSize:3
OverallDifficulty:1
ApproachRate:3
SliderMultiplier:1
SliderTickRate:1

[Events]
//Background and Video events
0,0,"bg_Pandemonium.jpg",0,0
//Break Periods
2,47733,56760
2,69066,78093
2,90399,94093
//Storyboard Layer 0 (Background)
//Storyboard Layer 1 (Fail)
//Storyboard Layer 2 (Pass)
//Storyboard Layer 3 (Foreground)
//Storyboard Sound Samples

[TimingPoints]
26200,333.333333333333,4,1,0,45,1,0
26200,-100,4,1,0,60,0,1
47533,-100,4,2,0,40,0,0
58200,-100,4,2,0,50,0,0
63533,-100,4,2,0,55,0,0
68866,-100,4,1,0,60,0,0
88866,-100,4,2,0,50,0,0
89116,-100,4,2,0,40,0,0
89366,-100,4,2,0,30,0,0
89533,-100,4,1,0,60,0,0
89866,-100,4,2,0,50,0,0
90199,-100,4,2,0,35,0,0
95533,-100,4,2,0,50,0,0
98199,-100,4,2,0,60,0,0
100866,-100,4,2,0,30,0,0
103533,-100,4,1,0,60,0,1
124866,-100,4,1,0,60,0,0
124908,-100,4,2,0,40,0,0
135533,-100,4,1,0,75,0,0
135574,-100,4,2,0,40,0,0

[Colours]
Combo1 : 255,198,26
Combo2 : 142,251,34
Combo3 : 101,146,214
Combo4 : 244,136,117

[HitObjects]
64,144,26200,6,0,P|176:88|240:120,1,200
200,312,27533,2,8,P|264:320|384:256,1,200
448,144,28866,6,0,P|336:88|272:120,1,200
232,312,30200,2,8,P|136:352|56:264,1,200
192,120,31533,6,0,P|248:88|392:160,1,200
168,208,32866,2,8,P|192:320|112:336,1,200
88,128,34200,6,0,L|304:72,1,200
432,232,35533,2,8,L|256:328,1,200
72,200,36866,6,0,P|104:120|232:136,2,200
264,256,38866,1,8,0:0:0:0:
448,336,39533,6,0,B|464:240|464:240|440:200|440:200|464:136,1,200
272,72,40866,2,8,B|200:72|200:72|168:96|168:96|80:96,1,200
104,296,42200,6,0,P|192:280|312:232,1,200
472,344,43533,2,8,P|456:256|400:120,1,200
224,112,44866,6,0,P|128:144|64:224,1,200
256,288,46200,2,8,P|344:288|448:192,1,200
264,112,47533,1,8,0:0:0:0:
368,152,58200,6,2,P|392:104|280:72,2,200
184,224,60200,1,0,0:0:0:0:
184,224,60866,2,2,P|232:272|376:304,1,200
440,120,62200,2,0,P|392:112|304:216,1,200
256,192,63533,12,2,68866,0:0:0:0:
368,240,79533,6,8,P|320:288|184:288,2,200
464,64,81533,1,0,0:0:0:0:
272,128,82199,2,8,P|192:128|144:248,1,200
312,320,83533,2,0,P|384:272|424:160,1,200
240,96,84866,5,0,0:0:0:0:
56,336,86199,2,0,P|160:312|272:344,1,200
272,136,87533,5,0,0:0:0:0:
272,136,88199,1,8,0:0:0:0:
80,192,88866,2,2,P|232:296|448:216,1,400
104,328,95533,6,2,P|256:224|416:336,2,400
256,192,99533,12,4,100866,0:0:0:0:
384,296,103533,6,0,P|320:320|184:256,2,200
272,128,105533,1,8,0:0:0:0:
80,80,106199,6,0,B|48:152|96:184|96:184|144:216|104:296,2,200
272,128,108199,1,8,0:0:0:0:
352,312,108866,6,0,P|424:232|416:128,2,200
272,128,110866,1,8,0:0:0:0:
160,288,111533,6,0,B|104:208|144:192|144:192|104:176|160:96,2,200
344,216,113533,1,8,0:0:0:0:
344,216,114199,6,0,P|328:144|56:144,1,400
216,256,116199,1,8,0:0:0:0:
216,256,116866,2,0,B|280:312|336:272|336:240|336:240|368:256|408:336|408:336|432:320|448:264|448:264|472:288|504:280,1,400
432,88,118866,1,8,0:0:0:0:
240,144,119533,6,0,B|136:168|72:104|72:104|32:128|8:160|24:232|80:272|136:264,1,400
304,328,121533,1,8,0:0:0:0:
496,264,122199,2,0,B|512:160|496:112|496:112|496:80|480:40|416:40|416:40|416:64|392:112|320:80,1,400
176,216,124199,1,8,0:0:0:0:
256,192,124866,12,4,127533,0:0:0:0:
352,40,130199,6,0,B|416:88|416:88|456:184|456:184|416:312|416:312|336:344,1,400
328,144,132199,1,0,0:0:0:0:
144,72,132866,2,0,B|88:56|88:56|56:88|56:88|0:104|0:104|-8:144|-8:144|32:192|32:192|32:240|32:240|72:264|72:264|112:256,1,400
272,136,134866,1,0,0:0:0:0:
256,192,135533,12,0,140199,0:0:0:0:
