osu file format v14

[General]
AudioFilename: 04. PEACE BREAKER.mp3
AudioLeadIn: 1500
PreviewTime: 171060
Countdown: 0
SampleSet: Normal
StackLeniency: 0.7
Mode: 3
LetterboxInBreaks: 0
SpecialStyle: 0
WidescreenStoryboard: 0

[Editor]
DistanceSpacing: 1
BeatDivisor: 4
GridSize: 16
TimelineZoom: 1

[Metadata]
Title:PEACE BREAKER
TitleUnicode:PEACE BREAKER
Artist:xi
ArtistUnicode:xi
Creator:Fullerene-
Version:FINAL PUNISHMENT
Source:BMS
Tags:omnipotenx parousia
BeatmapID:777348
BeatmapSetID:352754

[Difficulty]
HPDrainRate:9
CircleSize:4
OverallDifficulty:9
ApproachRate:9
SliderMultiplier:1.4
SliderTickRate:1

[Events]
//Background and Video events
0,0,"bg.png",0,0
//Break Periods
//Storyboard Layer 0 (Background)
//Storyboard Layer 1 (Fail)
//Storyboard Layer 2 (Pass)
//Storyboard Layer 3 (Foreground)
//Storyboard Sound Samples

[TimingPoints]
810.964,375,4,1,0,15,1,0
235748,375,4,1,0,15,1,0
287216,-100,4,1,0,5,0,0

[HitObjects]
64,0,9810,128,0,10560:0:0:0:0:
448,0,10560,128,0,11310:0:0:0:0:
64,0,11310,128,0,12060:0:0:0:0:
192,0,11685,128,0,12060:0:0:0:0:
320,0,12060,1,0,1:0:0:0:
448,0,12060,1,0,1:0:0:0:
64,0,12107,1,0,1:0:0:0:
192,0,12107,1,0,1:0:0:0:
320,0,12154,1,0,1:0:0:0:
448,0,12154,1,0,1:0:0:0:
64,0,12201,1,0,1:0:0:0:
192,0,12201,1,0,1:0:0:0:
320,0,12248,1,0,1:0:0:0:
448,0,12248,1,0,1:0:0:0:
64,0,12295,1,0,1:0:0:0:
192,0,12295,1,0,1:0:0:0:
320,0,12342,1,0,1:0:0:0:
448,0,12342,1,0,1:0:0:0:
64,0,12389,1,0,1:0:0:0:
192,0,12389,1,0,1:0:0:0:
320,0,12435,1,0,1:0:0:0:
448,0,12435,1,0,1:0:0:0:
64,0,12482,1,0,1:0:0:0:
192,0,12482,1,0,1:0:0:0:
320,0,12529,1,0,1:0:0:0:
448,0,12529,1,0,1:0:0:0:
64,0,12576,1,0,1:0:0:0:
192,0,12576,1,0,1:0:0:0:
320,0,12623,1,0,1:0:0:0:
448,0,12623,1,0,1:0:0:0:
64,0,12670,1,0,1:0:0:0:
192,0,12670,1,0,1:0:0:0:
320,0,12717,1,0,1:0:0:0:
448,0,12717,1,0,1:0:0:0:
192,0,12764,1,0,1:0:0:0:
64,0,12810,1,0,1:0:0:0:
320,0,12810,1,0,1:0:0:0:
448,0,12810,1,0,1:0:0:0:
64,0,13092,1,0,1:0:0:0:
320,0,13185,128,0,13467:0:0:0:0:
64,0,13373,1,0,1:0:0:0:
64,0,13560,1,0,1:0:0:0:
320,0,13560,1,0,1:0:0:0:
64,0,13842,1,0,1:0:0:0:
192,0,14029,1,0,1:0:0:0:
320,0,14076,1,0,1:0:0:0:
64,0,14123,1,0,1:0:0:0:
448,0,14123,1,0,1:0:0:0:
64,0,14310,1,0,1:0:0:0:
320,0,14498,1,0,1:0:0:0:
192,0,14545,1,0,1:0:0:0:
64,0,14592,1,0,1:0:0:0:
448,0,14592,1,0,1:0:0:0:
448,0,14748,1,0,1:0:0:0:
320,0,14779,1,0,1:0:0:0:
192,0,14810,1,0,1:0:0:0:
64,0,14873,1,0,1:0:0:0:
64,0,15060,1,0,1:0:0:0:
192,0,15123,1,0,1:0:0:0:
320,0,15154,1,0,1:0:0:0:
448,0,15185,1,0,1:0:0:0:
64,0,15342,1,0,1:0:0:0:
320,0,15435,1,0,1:0:0:0:
448,0,15467,1,0,1:0:0:0:
64,0,15623,1,0,1:0:0:0:
192,0,15623,1,0,1:0:0:0:
320,0,15623,1,0,1:0:0:0:
448,0,15623,1,0,1:0:0:0:
64,0,15810,1,0,1:0:0:0:
192,0,15810,1,0,1:0:0:0:
320,0,15810,1,0,1:0:0:0:
448,0,15810,1,0,1:0:0:0:
64,0,16092,1,0,1:0:0:0:
192,0,16092,1,0,1:0:0:0:
320,0,16092,1,0,1:0:0:0:
448,0,16092,1,0,1:0:0:0:
320,0,16279,1,0,1:0:0:0:
192,0,16326,1,0,1:0:0:0:
64,0,16373,1,0,1:0:0:0:
320,0,16373,1,0,1:0:0:0:
448,0,16373,1,0,1:0:0:0:
64,0,16560,1,0,1:0:0:0:
192,0,16748,1,0,1:0:0:0:
320,0,16748,1,0,1:0:0:0:
64,0,16842,1,0,1:0:0:0:
320,0,16842,1,0,1:0:0:0:
64,0,17123,1,0,1:0:0:0:
192,0,17123,1,0,1:0:0:0:
320,0,17123,1,0,1:0:0:0:
448,0,17123,1,0,1:0:0:0:
64,0,17310,1,0,1:0:0:0:
192,0,17310,1,0,1:0:0:0:
320,0,17310,1,0,1:0:0:0:
448,0,17310,1,0,1:0:0:0:
448,0,17498,1,0,1:0:0:0:
320,0,17545,1,0,1:0:0:0:
64,0,17592,1,0,1:0:0:0:
192,0,17592,1,0,1:0:0:0:
192,0,17873,1,0,1:0:0:0:
64,0,18060,1,0,1:0:0:0:
448,0,18060,1,0,1:0:0:0:
320,0,18123,1,0,1:0:0:0:
448,0,18185,1,0,1:0:0:0:
320,0,18248,1,0,1:0:0:0:
448,0,18310,1,0,1:0:0:0:
192,0,18342,1,0,1:0:0:0:
320,0,18373,1,0,1:0:0:0:
64,0,18435,1,0,1:0:0:0:
448,0,18435,1,0,1:0:0:0:
64,0,18623,1,0,1:0:0:0:
192,0,18623,1,0,1:0:0:0:
320,0,18623,1,0,1:0:0:0:
448,0,18623,1,0,1:0:0:0:
64,0,18810,1,0,1:0:0:0:
192,0,18810,1,0,1:0:0:0:
320,0,18810,1,0,1:0:0:0:
448,0,18810,1,0,1:0:0:0:
448,0,18998,1,0,1:0:0:0:
320,0,19045,1,0,1:0:0:0:
64,0,19092,1,0,1:0:0:0:
192,0,19092,1,0,1:0:0:0:
320,0,19139,1,0,1:0:0:0:
448,0,19185,1,0,1:0:0:0:
64,0,19373,1,0,1:0:0:0:
320,0,19373,1,0,1:0:0:0:
64,0,19560,1,0,1:0:0:0:
192,0,19748,1,0,1:0:0:0:
448,0,19748,1,0,1:0:0:0:
64,0,19842,1,0,1:0:0:0:
320,0,19935,1,0,1:0:0:0:
448,0,19935,1,0,1:0:0:0:
64,0,20123,1,0,1:0:0:0:
192,0,20123,1,0,1:0:0:0:
320,0,20123,1,0,1:0:0:0:
448,0,20123,1,0,1:0:0:0:
64,0,20310,1,0,1:0:0:0:
192,0,20310,1,0,1:0:0:0:
320,0,20310,1,0,1:0:0:0:
448,0,20310,1,0,1:0:0:0:
64,0,20592,1,0,1:0:0:0:
192,0,20685,1,0,1:0:0:0:
64,0,20873,1,0,1:0:0:0:
320,0,20873,1,0,1:0:0:0:
448,0,20967,1,0,1:0:0:0:
320,0,21014,1,0,1:0:0:0:
64,0,21060,1,0,1:0:0:0:
64,0,21248,1,0,1:0:0:0:
192,0,21248,1,0,1:0:0:0:
64,0,21342,1,0,1:0:0:0:
448,0,21342,1,0,1:0:0:0:
320,0,21529,1,0,1:0:0:0:
64,0,21623,1,0,1:0:0:0:
192,0,21623,1,0,1:0:0:0:
320,0,21623,1,0,1:0:0:0:
448,0,21623,1,0,1:0:0:0:
64,0,21810,1,0,1:0:0:0:
192,0,21810,1,0,1:0:0:0:
320,0,21810,1,0,1:0:0:0:
448,0,21810,1,0,1:0:0:0:
320,0,21904,1,0,1:0:0:0:
448,0,21998,1,0,1:0:0:0:
64,0,22092,1,0,1:0:0:0:
192,0,22092,1,0,1:0:0:0:
64,0,22373,1,0,1:0:0:0:
192,0,22373,1,0,1:0:0:0:
320,0,22373,1,0,1:0:0:0:
448,0,22373,1,0,1:0:0:0:
64,0,22560,1,0,1:0:0:0:
192,0,22560,1,0,1:0:0:0:
320,0,22560,1,0,1:0:0:0:
448,0,22560,1,0,1:0:0:0:
64,0,22748,1,0,1:0:0:0:
448,0,22842,1,0,1:0:0:0:
64,0,22935,1,0,1:0:0:0:
64,0,23029,1,0,1:0:0:0:
192,0,23029,1,0,1:0:0:0:
64,0,23123,1,0,1:0:0:0:
192,0,23123,1,0,1:0:0:0:
320,0,23123,1,0,1:0:0:0:
448,0,23123,1,0,1:0:0:0:
64,0,23310,1,0,1:0:0:0:
192,0,23310,1,0,1:0:0:0:
320,0,23310,1,0,1:0:0:0:
448,0,23310,1,0,1:0:0:0:
448,0,23404,1,0,1:0:0:0:
320,0,23498,1,0,1:0:0:0:
192,0,23592,1,0,1:0:0:0:
448,0,23592,1,0,1:0:0:0:
64,0,23685,1,0,1:0:0:0:
320,0,23685,1,0,1:0:0:0:
448,0,23685,1,0,1:0:0:0:
64,0,23779,1,0,1:0:0:0:
192,0,23873,1,0,1:0:0:0:
64,0,23967,1,0,1:0:0:0:
320,0,23967,1,0,1:0:0:0:
64,0,24060,1,0,1:0:0:0:
192,0,24060,1,0,1:0:0:0:
448,0,24060,1,0,1:0:0:0:
192,0,24154,1,0,1:0:0:0:
64,0,24248,1,0,1:0:0:0:
320,0,24248,1,0,1:0:0:0:
448,0,24248,1,0,1:0:0:0:
320,0,24342,1,0,1:0:0:0:
64,0,24435,1,0,1:0:0:0:
192,0,24435,1,0,1:0:0:0:
448,0,24435,1,0,1:0:0:0:
320,0,24529,1,0,1:0:0:0:
448,0,24529,1,0,1:0:0:0:
64,0,24623,1,0,1:0:0:0:
192,0,24623,1,0,1:0:0:0:
320,0,24670,1,0,1:0:0:0:
448,0,24670,1,0,1:0:0:0:
64,0,24717,1,0,1:0:0:0:
192,0,24717,1,0,1:0:0:0:
320,0,24764,1,0,1:0:0:0:
448,0,24764,1,0,1:0:0:0:
64,0,24810,1,0,1:0:0:0:
192,0,24810,1,0,1:0:0:0:
320,0,24904,1,0,1:0:0:0:
192,0,24935,1,0,1:0:0:0:
64,0,24998,1,0,1:0:0:0:
448,0,24998,1,0,1:0:0:0:
320,0,25060,1,0,1:0:0:0:
192,0,25092,1,0,1:0:0:0:
64,0,25185,1,0,1:0:0:0:
448,0,25185,1,0,1:0:0:0:
320,0,25279,1,0,1:0:0:0:
192,0,25310,1,0,1:0:0:0:
64,0,25373,1,0,1:0:0:0:
320,0,25373,1,0,1:0:0:0:
448,0,25373,1,0,1:0:0:0:
192,0,25435,1,0,1:0:0:0:
320,0,25467,1,0,1:0:0:0:
64,0,25560,1,0,1:0:0:0:
448,0,25560,1,0,1:0:0:0:
192,0,25654,1,0,1:0:0:0:
320,0,25685,1,0,1:0:0:0:
64,0,25748,1,0,1:0:0:0:
448,0,25748,1,0,1:0:0:0:
192,0,25810,1,0,1:0:0:0:
320,0,25842,1,0,1:0:0:0:
64,0,25935,1,0,1:0:0:0:
192,0,25935,1,0,1:0:0:0:
448,0,25935,1,0,1:0:0:0:
320,0,26029,1,0,1:0:0:0:
192,0,26060,1,0,1:0:0:0:
64,0,26123,1,0,1:0:0:0:
448,0,26123,1,0,1:0:0:0:
320,0,26185,1,0,1:0:0:0:
192,0,26217,1,0,1:0:0:0:
64,0,26310,1,0,1:0:0:0:
448,0,26310,1,0,1:0:0:0:
320,0,26404,1,0,1:0:0:0:
192,0,26435,1,0,1:0:0:0:
64,0,26498,1,0,1:0:0:0:
320,0,26498,1,0,1:0:0:0:
448,0,26498,1,0,1:0:0:0:
192,0,26560,1,0,1:0:0:0:
320,0,26592,1,0,1:0:0:0:
64,0,26685,1,0,1:0:0:0:
448,0,26685,1,0,1:0:0:0:
192,0,26779,1,0,1:0:0:0:
320,0,26810,1,0,1:0:0:0:
64,0,26873,1,0,1:0:0:0:
448,0,26873,1,0,1:0:0:0:
192,0,26935,1,0,1:0:0:0:
320,0,26967,1,0,1:0:0:0:
64,0,27060,1,0,1:0:0:0:
192,0,27060,1,0,1:0:0:0:
448,0,27060,1,0,1:0:0:0:
320,0,27154,1,0,1:0:0:0:
448,0,27185,1,0,1:0:0:0:
64,0,27248,1,0,1:0:0:0:
192,0,27248,1,0,1:0:0:0:
448,0,27310,1,0,1:0:0:0:
320,0,27342,1,0,1:0:0:0:
64,0,27435,1,0,1:0:0:0:
192,0,27435,1,0,1:0:0:0:
320,0,27482,1,0,1:0:0:0:
448,0,27482,1,0,1:0:0:0:
64,0,27529,1,0,1:0:0:0:
192,0,27529,1,0,1:0:0:0:
320,0,27576,1,0,1:0:0:0:
448,0,27576,1,0,1:0:0:0:
64,0,27623,1,0,1:0:0:0:
192,0,27623,1,0,1:0:0:0:
320,0,27670,1,0,1:0:0:0:
448,0,27670,1,0,1:0:0:0:
64,0,27717,1,0,1:0:0:0:
192,0,27717,1,0,1:0:0:0:
320,0,27764,1,0,1:0:0:0:
448,0,27764,1,0,1:0:0:0:
64,0,27810,1,0,1:0:0:0:
192,0,27810,1,0,1:0:0:0:
448,0,27873,1,0,1:0:0:0:
320,0,27935,1,0,1:0:0:0:
64,0,27998,1,0,1:0:0:0:
448,0,28060,1,0,1:0:0:0:
192,0,28092,1,0,1:0:0:0:
320,0,28123,1,0,1:0:0:0:
64,0,28185,1,0,1:0:0:0:
448,0,28185,1,0,1:0:0:0:
192,0,28248,1,0,1:0:0:0:
320,0,28310,1,0,1:0:0:0:
64,0,28373,1,0,1:0:0:0:
448,0,28435,1,0,1:0:0:0:
192,0,28498,1,0,1:0:0:0:
320,0,28560,1,0,1:0:0:0:
448,0,28560,1,0,1:0:0:0:
64,0,28623,1,0,1:0:0:0:
192,0,28685,1,0,1:0:0:0:
320,0,28748,1,0,1:0:0:0:
64,0,28810,1,0,1:0:0:0:
448,0,28842,1,0,1:0:0:0:
192,0,28873,1,0,1:0:0:0:
64,0,28935,1,0,1:0:0:0:
320,0,28935,1,0,1:0:0:0:
448,0,28998,1,0,1:0:0:0:
320,0,29060,1,0,1:0:0:0:
192,0,29123,1,0,1:0:0:0:
64,0,29185,1,0,1:0:0:0:
320,0,29248,1,0,1:0:0:0:
64,0,29310,1,0,1:0:0:0:
192,0,29310,1,0,1:0:0:0:
448,0,29373,1,0,1:0:0:0:
320,0,29435,1,0,1:0:0:0:
192,0,29498,1,0,1:0:0:0:
448,0,29560,1,0,1:0:0:0:
64,0,29592,1,0,1:0:0:0:
192,0,29623,1,0,1:0:0:0:
320,0,29685,1,0,1:0:0:0:
448,0,29685,1,0,1:0:0:0:
64,0,29748,1,0,1:0:0:0:
192,0,29810,1,0,1:0:0:0:
448,0,29873,1,0,1:0:0:0:
320,0,29935,1,0,1:0:0:0:
192,0,29998,1,0,1:0:0:0:
64,0,30060,1,0,1:0:0:0:
448,0,30060,1,0,1:0:0:0:
320,0,30154,1,0,1:0:0:0:
448,0,30248,1,0,1:0:0:0:
448,0,30342,1,0,1:0:0:0:
192,0,30435,1,0,1:0:0:0:
192,0,30529,1,0,1:0:0:0:
64,0,30623,1,0,1:0:0:0:
448,0,30623,1,0,1:0:0:0:
64,0,30810,1,0,1:0:0:0:
448,0,30810,1,0,1:0:0:0:
320,0,30873,1,0,1:0:0:0:
192,0,30935,1,0,1:0:0:0:
448,0,30998,1,0,1:0:0:0:
64,0,31060,1,0,1:0:0:0:
320,0,31092,1,0,1:0:0:0:
192,0,31123,1,0,1:0:0:0:
64,0,31185,1,0,1:0:0:0:
448,0,31185,1,0,1:0:0:0:
320,0,31248,1,0,1:0:0:0:
192,0,31310,1,0,1:0:0:0:
448,0,31373,1,0,1:0:0:0:
64,0,31435,1,0,1:0:0:0:
320,0,31498,1,0,1:0:0:0:
64,0,31560,1,0,1:0:0:0:
192,0,31560,1,0,1:0:0:0:
448,0,31623,1,0,1:0:0:0:
320,0,31685,1,0,1:0:0:0:
192,0,31748,1,0,1:0:0:0:
448,0,31810,1,0,1:0:0:0:
64,0,31842,1,0,1:0:0:0:
192,0,31873,1,0,1:0:0:0:
320,0,31935,1,0,1:0:0:0:
448,0,31935,1,0,1:0:0:0:
64,0,32029,1,0,1:0:0:0:
64,0,32123,1,0,1:0:0:0:
64,0,32217,1,0,1:0:0:0:
192,0,32310,1,0,1:0:0:0:
320,0,32310,1,0,1:0:0:0:
448,0,32498,1,0,1:0:0:0:
192,0,32592,1,0,1:0:0:0:
448,0,32592,1,0,1:0:0:0:
64,0,32685,1,0,1:0:0:0:
320,0,32685,1,0,1:0:0:0:
64,0,32779,1,0,1:0:0:0:
192,0,32873,1,0,1:0:0:0:
192,0,32967,1,0,1:0:0:0:
320,0,33060,1,0,1:0:0:0:
320,0,33154,1,0,1:0:0:0:
448,0,33248,1,0,1:0:0:0:
448,0,33342,1,0,1:0:0:0:
192,0,33435,1,0,1:0:0:0:
192,0,33529,1,0,1:0:0:0:
64,0,33623,1,0,1:0:0:0:
320,0,33623,1,0,1:0:0:0:
448,0,33623,1,0,1:0:0:0:
64,0,33810,1,0,1:0:0:0:
192,0,33810,1,0,1:0:0:0:
448,0,33810,1,0,1:0:0:0:
320,0,33873,1,0,1:0:0:0:
192,0,33935,1,0,1:0:0:0:
64,0,33998,1,0,1:0:0:0:
448,0,34060,1,0,1:0:0:0:
320,0,34092,1,0,1:0:0:0:
192,0,34123,1,0,1:0:0:0:
64,0,34185,1,0,1:0:0:0:
448,0,34185,1,0,1:0:0:0:
320,0,34248,1,0,1:0:0:0:
192,0,34310,1,0,1:0:0:0:
64,0,34373,1,0,1:0:0:0:
448,0,34435,1,0,1:0:0:0:
320,0,34498,1,0,1:0:0:0:
192,0,34560,1,0,1:0:0:0:
448,0,34560,1,0,1:0:0:0:
64,0,34623,1,0,1:0:0:0:
320,0,34685,1,0,1:0:0:0:
192,0,34748,1,0,1:0:0:0:
64,0,34810,1,0,1:0:0:0:
448,0,34842,1,0,1:0:0:0:
320,0,34873,1,0,1:0:0:0:
64,0,34935,1,0,1:0:0:0:
192,0,34935,1,0,1:0:0:0:
448,0,34998,1,0,1:0:0:0:
192,0,35060,1,0,1:0:0:0:
320,0,35123,1,0,1:0:0:0:
64,0,35185,1,0,1:0:0:0:
192,0,35248,1,0,1:0:0:0:
64,0,35310,1,0,1:0:0:0:
320,0,35310,1,0,1:0:0:0:
448,0,35373,1,0,1:0:0:0:
192,0,35435,1,0,1:0:0:0:
320,0,35498,1,0,1:0:0:0:
448,0,35560,1,0,1:0:0:0:
64,0,35592,1,0,1:0:0:0:
320,0,35623,1,0,1:0:0:0:
192,0,35685,1,0,1:0:0:0:
448,0,35685,1,0,1:0:0:0:
64,0,35748,1,0,1:0:0:0:
320,0,35810,1,0,1:0:0:0:
448,0,35873,1,0,1:0:0:0:
192,0,35935,1,0,1:0:0:0:
320,0,35998,1,0,1:0:0:0:
64,0,36060,1,0,1:0:0:0:
448,0,36060,128,0,36435:0:0:0:0:
192,0,36123,1,0,1:0:0:0:
64,0,36185,1,0,1:0:0:0:
192,0,36248,1,0,1:0:0:0:
320,0,36342,1,0,1:0:0:0:
192,0,36435,1,0,1:0:0:0:
64,0,36435,128,0,36810:0:0:0:0:
320,0,36623,1,0,1:0:0:0:
192,0,36717,1,0,1:0:0:0:
448,0,36810,128,0,36904:0:0:0:0:
64,0,37092,1,0,1:0:0:0:
320,0,37092,1,0,1:0:0:0:
192,0,37185,1,0,1:0:0:0:
448,0,37185,1,0,1:0:0:0:
320,0,37248,1,0,1:0:0:0:
64,0,37310,1,0,1:0:0:0:
192,0,37373,1,0,1:0:0:0:
320,0,37435,1,0,1:0:0:0:
448,0,37467,1,0,1:0:0:0:
64,0,37498,1,0,1:0:0:0:
192,0,37560,1,0,1:0:0:0:
320,0,37560,1,0,1:0:0:0:
64,0,37748,1,0,1:0:0:0:
64,0,37842,1,0,1:0:0:0:
320,0,37935,1,0,1:0:0:0:
320,0,38029,1,0,1:0:0:0:
192,0,38123,1,0,1:0:0:0:
192,0,38217,1,0,1:0:0:0:
448,0,38310,1,0,1:0:0:0:
448,0,38404,1,0,1:0:0:0:
448,0,38498,1,0,1:0:0:0:
448,0,38592,1,0,1:0:0:0:
320,0,38685,1,0,1:0:0:0:
192,0,38709,1,0,1:0:0:0:
64,0,38873,1,0,1:0:0:0:
320,0,38967,1,0,1:0:0:0:
192,0,39060,1,0,1:0:0:0:
192,0,39154,1,0,1:0:0:0:
192,0,39248,1,0,1:0:0:0:
192,0,39342,1,0,1:0:0:0:
320,0,39435,1,0,1:0:0:0:
448,0,39482,1,0,1:0:0:0:
192,0,39529,1,0,1:0:0:0:
320,0,39576,1,0,1:0:0:0:
64,0,39623,1,0,1:0:0:0:
448,0,39623,1,0,1:0:0:0:
192,0,39670,1,0,1:0:0:0:
320,0,39717,1,0,1:0:0:0:
448,0,39764,1,0,1:0:0:0:
64,0,39810,1,0,1:0:0:0:
192,0,39810,1,0,1:0:0:0:
320,0,39810,1,0,1:0:0:0:
448,0,39873,1,0,1:0:0:0:
320,0,39935,1,0,1:0:0:0:
192,0,39998,1,0,1:0:0:0:
64,0,40060,1,0,1:0:0:0:
320,0,40092,1,0,1:0:0:0:
192,0,40123,1,0,1:0:0:0:
320,0,40185,1,0,1:0:0:0:
448,0,40185,1,0,1:0:0:0:
64,0,40248,1,0,1:0:0:0:
192,0,40310,1,0,1:0:0:0:
320,0,40373,1,0,1:0:0:0:
448,0,40435,1,0,1:0:0:0:
64,0,40467,1,0,1:0:0:0:
320,0,40498,1,0,1:0:0:0:
64,0,40560,1,0,1:0:0:0:
192,0,40560,1,0,1:0:0:0:
448,0,40623,1,0,1:0:0:0:
320,0,40685,1,0,1:0:0:0:
192,0,40748,1,0,1:0:0:0:
64,0,40810,1,0,1:0:0:0:
320,0,40842,1,0,1:0:0:0:
192,0,40873,1,0,1:0:0:0:
320,0,40935,1,0,1:0:0:0:
448,0,40935,1,0,1:0:0:0:
64,0,40998,1,0,1:0:0:0:
192,0,41060,1,0,1:0:0:0:
320,0,41123,1,0,1:0:0:0:
448,0,41185,1,0,1:0:0:0:
64,0,41217,1,0,1:0:0:0:
320,0,41248,1,0,1:0:0:0:
64,0,41310,1,0,1:0:0:0:
192,0,41310,1,0,1:0:0:0:
448,0,41373,1,0,1:0:0:0:
320,0,41435,1,0,1:0:0:0:
192,0,41498,1,0,1:0:0:0:
448,0,41560,1,0,1:0:0:0:
64,0,41592,1,0,1:0:0:0:
320,0,41623,1,0,1:0:0:0:
64,0,41685,1,0,1:0:0:0:
192,0,41685,1,0,1:0:0:0:
320,0,41779,1,0,1:0:0:0:
320,0,41873,1,0,1:0:0:0:
192,0,41967,1,0,1:0:0:0:
64,0,42060,1,0,1:0:0:0:
320,0,42060,1,0,1:0:0:0:
320,0,42248,1,0,1:0:0:0:
448,0,42248,1,0,1:0:0:0:
320,0,42342,1,0,1:0:0:0:
448,0,42342,1,0,1:0:0:0:
192,0,42435,1,0,1:0:0:0:
64,0,42482,1,0,1:0:0:0:
320,0,42529,1,0,1:0:0:0:
192,0,42576,1,0,1:0:0:0:
448,0,42623,1,0,1:0:0:0:
320,0,42670,1,0,1:0:0:0:
64,0,42717,1,0,1:0:0:0:
192,0,42764,1,0,1:0:0:0:
320,0,42810,1,0,1:0:0:0:
448,0,42810,1,0,1:0:0:0:
192,0,42873,1,0,1:0:0:0:
64,0,42935,1,0,1:0:0:0:
320,0,42998,1,0,1:0:0:0:
448,0,43060,1,0,1:0:0:0:
192,0,43092,1,0,1:0:0:0:
320,0,43123,1,0,1:0:0:0:
64,0,43185,1,0,1:0:0:0:
192,0,43185,1,0,1:0:0:0:
448,0,43248,1,0,1:0:0:0:
320,0,43310,1,0,1:0:0:0:
192,0,43373,1,0,1:0:0:0:
64,0,43435,1,0,1:0:0:0:
448,0,43467,1,0,1:0:0:0:
192,0,43498,1,0,1:0:0:0:
320,0,43560,1,0,1:0:0:0:
448,0,43560,1,0,1:0:0:0:
64,0,43623,1,0,1:0:0:0:
192,0,43685,1,0,1:0:0:0:
320,0,43748,1,0,1:0:0:0:
448,0,43810,1,0,1:0:0:0:
192,0,43842,1,0,1:0:0:0:
320,0,43873,1,0,1:0:0:0:
64,0,43935,1,0,1:0:0:0:
192,0,43935,1,0,1:0:0:0:
448,0,43998,1,0,1:0:0:0:
320,0,44060,1,0,1:0:0:0:
192,0,44123,1,0,1:0:0:0:
64,0,44185,1,0,1:0:0:0:
448,0,44217,1,0,1:0:0:0:
192,0,44248,1,0,1:0:0:0:
320,0,44310,1,0,1:0:0:0:
448,0,44310,1,0,1:0:0:0:
192,0,44451,1,0,1:0:0:0:
64,0,44498,1,0,1:0:0:0:
64,0,44592,1,0,1:0:0:0:
64,0,44685,1,0,1:0:0:0:
64,0,44779,1,0,1:0:0:0:
448,0,44873,1,0,1:0:0:0:
320,0,44935,1,0,1:0:0:0:
192,0,44998,1,0,1:0:0:0:
64,0,45060,1,0,1:0:0:0:
320,0,45060,1,0,1:0:0:0:
448,0,45060,1,0,1:0:0:0:
320,0,45248,1,0,1:0:0:0:
448,0,45342,1,0,1:0:0:0:
320,0,45435,1,0,1:0:0:0:
320,0,45529,1,0,1:0:0:0:
64,0,45623,1,0,1:0:0:0:
192,0,45623,1,0,1:0:0:0:
448,0,45623,1,0,1:0:0:0:
64,0,45810,1,0,1:0:0:0:
320,0,45810,1,0,1:0:0:0:
448,0,45810,1,0,1:0:0:0:
192,0,45873,1,0,1:0:0:0:
320,0,45935,1,0,1:0:0:0:
64,0,45998,1,0,1:0:0:0:
448,0,46060,1,0,1:0:0:0:
320,0,46092,1,0,1:0:0:0:
192,0,46123,1,0,1:0:0:0:
64,0,46185,1,0,1:0:0:0:
320,0,46185,1,0,1:0:0:0:
448,0,46248,1,0,1:0:0:0:
192,0,46310,1,0,1:0:0:0:
320,0,46373,1,0,1:0:0:0:
64,0,46435,1,0,1:0:0:0:
448,0,46467,1,0,1:0:0:0:
320,0,46498,1,0,1:0:0:0:
192,0,46560,1,0,1:0:0:0:
448,0,46560,1,0,1:0:0:0:
64,0,46623,1,0,1:0:0:0:
320,0,46685,1,0,1:0:0:0:
192,0,46748,1,0,1:0:0:0:
448,0,46810,1,0,1:0:0:0:
320,0,46842,1,0,1:0:0:0:
192,0,46873,1,0,1:0:0:0:
64,0,46935,1,0,1:0:0:0:
320,0,46935,1,0,1:0:0:0:
448,0,46998,1,0,1:0:0:0:
192,0,47060,1,0,1:0:0:0:
320,0,47123,1,0,1:0:0:0:
64,0,47185,1,0,1:0:0:0:
192,0,47217,1,0,1:0:0:0:
320,0,47248,1,0,1:0:0:0:
192,0,47310,1,0,1:0:0:0:
448,0,47310,1,0,1:0:0:0:
64,0,47373,1,0,1:0:0:0:
320,0,47435,1,0,1:0:0:0:
192,0,47498,1,0,1:0:0:0:
448,0,47560,1,0,1:0:0:0:
64,0,47592,1,0,1:0:0:0:
192,0,47623,1,0,1:0:0:0:
64,0,47685,1,0,1:0:0:0:
320,0,47685,1,0,1:0:0:0:
448,0,47748,1,0,1:0:0:0:
192,0,47810,1,0,1:0:0:0:
320,0,47873,1,0,1:0:0:0:
64,0,47935,1,0,1:0:0:0:
192,0,47967,1,0,1:0:0:0:
320,0,47998,1,0,1:0:0:0:
192,0,48060,128,0,48154:0:0:0:0:
448,0,48060,1,0,1:0:0:0:
320,0,48154,128,0,48435:0:0:0:0:
192,0,48342,1,0,1:0:0:0:
448,0,48435,1,0,1:0:0:0:
64,0,48435,128,0,48810:0:0:0:0:
192,0,48529,1,0,1:0:0:0:
192,0,48717,1,0,1:0:0:0:
320,0,48717,1,0,1:0:0:0:
320,0,48810,1,0,1:0:0:0:
448,0,48810,1,0,1:0:0:0:
320,0,48998,1,0,1:0:0:0:
320,0,49092,1,0,1:0:0:0:
64,0,49185,1,0,1:0:0:0:
192,0,49185,1,0,1:0:0:0:
320,0,49342,1,0,1:0:0:0:
448,0,49373,1,0,1:0:0:0:
320,0,49560,1,0,1:0:0:0:
64,0,49607,1,0,1:0:0:0:
192,0,49748,1,0,1:0:0:0:
192,0,49842,1,0,1:0:0:0:
192,0,49935,1,0,1:0:0:0:
192,0,50029,1,0,1:0:0:0:
192,0,50123,1,0,1:0:0:0:
192,0,50217,1,0,1:0:0:0:
320,0,50310,1,0,1:0:0:0:
320,0,50404,1,0,1:0:0:0:
320,0,50498,1,0,1:0:0:0:
320,0,50592,1,0,1:0:0:0:
320,0,50685,1,0,1:0:0:0:
320,0,50779,1,0,1:0:0:0:
448,0,50873,1,0,1:0:0:0:
448,0,50967,1,0,1:0:0:0:
64,0,51060,128,0,51154:0:0:0:0:
320,0,51060,1,0,1:0:0:0:
192,0,51154,1,0,1:0:0:0:
448,0,51248,1,0,1:0:0:0:
192,0,51310,1,0,1:0:0:0:
320,0,51373,1,0,1:0:0:0:
64,0,51435,1,0,1:0:0:0:
192,0,51435,1,0,1:0:0:0:
320,0,51482,1,0,1:0:0:0:
448,0,51482,1,0,1:0:0:0:
64,0,51529,1,0,1:0:0:0:
192,0,51529,1,0,1:0:0:0:
320,0,51576,1,0,1:0:0:0:
448,0,51576,1,0,1:0:0:0:
64,0,51623,1,0,1:0:0:0:
192,0,51623,1,0,1:0:0:0:
320,0,51670,1,0,1:0:0:0:
448,0,51670,1,0,1:0:0:0:
64,0,51717,1,0,1:0:0:0:
192,0,51717,1,0,1:0:0:0:
320,0,51764,1,0,1:0:0:0:
448,0,51764,1,0,1:0:0:0:
64,0,51810,1,0,1:0:0:0:
192,0,51810,1,0,1:0:0:0:
448,0,51873,1,0,1:0:0:0:
320,0,51935,1,0,1:0:0:0:
64,0,51998,1,0,1:0:0:0:
448,0,52060,1,0,1:0:0:0:
192,0,52092,1,0,1:0:0:0:
320,0,52123,1,0,1:0:0:0:
64,0,52185,1,0,1:0:0:0:
448,0,52185,1,0,1:0:0:0:
320,0,52248,1,0,1:0:0:0:
64,0,52310,1,0,1:0:0:0:
192,0,52373,1,0,1:0:0:0:
320,0,52435,1,0,1:0:0:0:
64,0,52467,1,0,1:0:0:0:
192,0,52498,1,0,1:0:0:0:
320,0,52560,1,0,1:0:0:0:
448,0,52560,1,0,1:0:0:0:
64,0,52623,1,0,1:0:0:0:
448,0,52685,1,0,1:0:0:0:
320,0,52748,1,0,1:0:0:0:
192,0,52810,1,0,1:0:0:0:
320,0,52842,1,0,1:0:0:0:
64,0,52873,1,0,1:0:0:0:
192,0,52935,1,0,1:0:0:0:
448,0,52935,1,0,1:0:0:0:
448,0,53029,1,0,1:0:0:0:
64,0,53123,1,0,1:0:0:0:
64,0,53217,1,0,1:0:0:0:
448,0,53310,1,0,1:0:0:0:
320,0,53373,1,0,1:0:0:0:
64,0,53435,1,0,1:0:0:0:
192,0,53498,1,0,1:0:0:0:
448,0,53560,1,0,1:0:0:0:
64,0,53592,1,0,1:0:0:0:
320,0,53623,1,0,1:0:0:0:
64,0,53685,1,0,1:0:0:0:
192,0,53685,1,0,1:0:0:0:
448,0,53732,1,0,1:0:0:0:
320,0,53779,1,0,1:0:0:0:
192,0,53826,1,0,1:0:0:0:
64,0,53873,1,0,1:0:0:0:
448,0,53935,1,0,1:0:0:0:
192,0,53967,1,0,1:0:0:0:
320,0,53998,1,0,1:0:0:0:
64,0,54060,1,0,1:0:0:0:
448,0,54123,1,0,1:0:0:0:
64,0,54185,1,0,1:0:0:0:
448,0,54248,1,0,1:0:0:0:
320,0,54310,1,0,1:0:0:0:
192,0,54373,1,0,1:0:0:0:
64,0,54435,1,0,1:0:0:0:
448,0,54482,1,0,1:0:0:0:
320,0,54529,1,0,1:0:0:0:
192,0,54576,1,0,1:0:0:0:
64,0,54623,1,0,1:0:0:0:
320,0,54623,1,0,1:0:0:0:
448,0,54623,1,0,1:0:0:0:
64,0,54810,1,0,1:0:0:0:
192,0,54810,1,0,1:0:0:0:
448,0,54810,1,0,1:0:0:0:
320,0,54873,1,0,1:0:0:0:
64,0,54935,1,0,1:0:0:0:
448,0,54998,1,0,1:0:0:0:
192,0,55060,1,0,1:0:0:0:
448,0,55092,1,0,1:0:0:0:
320,0,55123,1,0,1:0:0:0:
64,0,55185,1,0,1:0:0:0:
192,0,55185,1,0,1:0:0:0:
448,0,55248,1,0,1:0:0:0:
64,0,55310,1,0,1:0:0:0:
320,0,55373,1,0,1:0:0:0:
192,0,55435,1,0,1:0:0:0:
64,0,55467,1,0,1:0:0:0:
320,0,55498,1,0,1:0:0:0:
192,0,55560,1,0,1:0:0:0:
448,0,55560,1,0,1:0:0:0:
64,0,55623,1,0,1:0:0:0:
448,0,55685,1,0,1:0:0:0:
192,0,55748,1,0,1:0:0:0:
320,0,55810,1,0,1:0:0:0:
192,0,55842,1,0,1:0:0:0:
64,0,55873,1,0,1:0:0:0:
320,0,55935,1,0,1:0:0:0:
448,0,55935,1,0,1:0:0:0:
448,0,56029,1,0,1:0:0:0:
64,0,56123,1,0,1:0:0:0:
64,0,56217,1,0,1:0:0:0:
192,0,56217,1,0,1:0:0:0:
320,0,56310,1,0,1:0:0:0:
448,0,56310,1,0,1:0:0:0:
192,0,56373,1,0,1:0:0:0:
64,0,56435,1,0,1:0:0:0:
320,0,56498,1,0,1:0:0:0:
448,0,56560,1,0,1:0:0:0:
64,0,56592,1,0,1:0:0:0:
192,0,56623,1,0,1:0:0:0:
320,0,56685,1,0,1:0:0:0:
448,0,56685,1,0,1:0:0:0:
64,0,56732,1,0,1:0:0:0:
192,0,56779,1,0,1:0:0:0:
320,0,56826,1,0,1:0:0:0:
64,0,56873,1,0,1:0:0:0:
448,0,56935,1,0,1:0:0:0:
320,0,56967,1,0,1:0:0:0:
192,0,56998,1,0,1:0:0:0:
64,0,57060,1,0,1:0:0:0:
448,0,57060,1,0,1:0:0:0:
320,0,57123,1,0,1:0:0:0:
64,0,57185,1,0,1:0:0:0:
448,0,57248,1,0,1:0:0:0:
192,0,57310,1,0,1:0:0:0:
64,0,57342,1,0,1:0:0:0:
320,0,57373,1,0,1:0:0:0:
192,0,57435,1,0,1:0:0:0:
448,0,57435,1,0,1:0:0:0:
64,0,57482,1,0,1:0:0:0:
320,0,57529,1,0,1:0:0:0:
192,0,57576,1,0,1:0:0:0:
64,0,57623,1,0,1:0:0:0:
320,0,57623,1,0,1:0:0:0:
448,0,57623,1,0,1:0:0:0:
64,0,57810,1,0,1:0:0:0:
192,0,57810,1,0,1:0:0:0:
448,0,57810,1,0,1:0:0:0:
320,0,57873,1,0,1:0:0:0:
192,0,57935,1,0,1:0:0:0:
448,0,57998,1,0,1:0:0:0:
64,0,58060,1,0,1:0:0:0:
192,0,58092,1,0,1:0:0:0:
320,0,58123,1,0,1:0:0:0:
192,0,58185,1,0,1:0:0:0:
448,0,58185,1,0,1:0:0:0:
64,0,58248,1,0,1:0:0:0:
448,0,58310,1,0,1:0:0:0:
320,0,58373,1,0,1:0:0:0:
192,0,58435,1,0,1:0:0:0:
64,0,58467,1,0,1:0:0:0:
320,0,58498,1,0,1:0:0:0:
64,0,58560,1,0,1:0:0:0:
192,0,58560,1,0,1:0:0:0:
448,0,58623,1,0,1:0:0:0:
64,0,58685,1,0,1:0:0:0:
192,0,58748,1,0,1:0:0:0:
320,0,58810,1,0,1:0:0:0:
192,0,58842,1,0,1:0:0:0:
448,0,58873,1,0,1:0:0:0:
64,0,58935,1,0,1:0:0:0:
320,0,58935,1,0,1:0:0:0:
64,0,59029,1,0,1:0:0:0:
320,0,59123,1,0,1:0:0:0:
448,0,59123,1,0,1:0:0:0:
192,0,59217,1,0,1:0:0:0:
448,0,59217,1,0,1:0:0:0:
64,0,59310,1,0,1:0:0:0:
320,0,59310,1,0,1:0:0:0:
192,0,59373,1,0,1:0:0:0:
448,0,59435,1,0,1:0:0:0:
320,0,59498,1,0,1:0:0:0:
192,0,59560,1,0,1:0:0:0:
64,0,59592,1,0,1:0:0:0:
448,0,59623,1,0,1:0:0:0:
192,0,59685,1,0,1:0:0:0:
320,0,59685,1,0,1:0:0:0:
64,0,59732,1,0,1:0:0:0:
448,0,59779,1,0,1:0:0:0:
320,0,59826,1,0,1:0:0:0:
192,0,59873,1,0,1:0:0:0:
64,0,59935,1,0,1:0:0:0:
320,0,59967,1,0,1:0:0:0:
448,0,59998,1,0,1:0:0:0:
64,0,60060,1,0,1:0:0:0:
192,0,60060,1,0,1:0:0:0:
320,0,60123,1,0,1:0:0:0:
448,0,60185,1,0,1:0:0:0:
64,0,60248,1,0,1:0:0:0:
192,0,60310,1,0,1:0:0:0:
448,0,60342,1,0,1:0:0:0:
320,0,60373,1,0,1:0:0:0:
64,0,60435,1,0,1:0:0:0:
448,0,60435,1,0,1:0:0:0:
192,0,60482,1,0,1:0:0:0:
320,0,60529,1,0,1:0:0:0:
448,0,60576,1,0,1:0:0:0:
64,0,60623,1,0,1:0:0:0:
192,0,60717,1,0,1:0:0:0:
64,0,60810,1,0,1:0:0:0:
320,0,60810,1,0,1:0:0:0:
448,0,60810,1,0,1:0:0:0:
192,0,60873,1,0,1:0:0:0:
448,0,60935,1,0,1:0:0:0:
64,0,60998,1,0,1:0:0:0:
320,0,61060,1,0,1:0:0:0:
64,0,61092,1,0,1:0:0:0:
192,0,61123,1,0,1:0:0:0:
320,0,61185,1,0,1:0:0:0:
448,0,61185,1,0,1:0:0:0:
192,0,61279,1,0,1:0:0:0:
448,0,61373,1,0,1:0:0:0:
320,0,61467,1,0,1:0:0:0:
64,0,61560,1,0,1:0:0:0:
64,0,61654,1,0,1:0:0:0:
192,0,61748,1,0,1:0:0:0:
192,0,61842,1,0,1:0:0:0:
64,0,61935,1,0,1:0:0:0:
320,0,61935,1,0,1:0:0:0:
64,0,62029,1,0,1:0:0:0:
320,0,62029,1,0,1:0:0:0:
192,0,62123,1,0,1:0:0:0:
448,0,62123,1,0,1:0:0:0:
192,0,62217,1,0,1:0:0:0:
448,0,62217,1,0,1:0:0:0:
64,0,62310,1,0,1:0:0:0:
320,0,62373,1,0,1:0:0:0:
448,0,62435,1,0,1:0:0:0:
192,0,62498,1,0,1:0:0:0:
64,0,62560,1,0,1:0:0:0:
448,0,62592,1,0,1:0:0:0:
320,0,62623,1,0,1:0:0:0:
64,0,62685,1,0,1:0:0:0:
448,0,62732,1,0,1:0:0:0:
320,0,62779,1,0,1:0:0:0:
192,0,62826,1,0,1:0:0:0:
448,0,62873,1,0,1:0:0:0:
64,0,62935,1,0,1:0:0:0:
192,0,62998,1,0,1:0:0:0:
320,0,63060,1,0,1:0:0:0:
64,0,63123,1,0,1:0:0:0:
448,0,63185,1,0,1:0:0:0:
320,0,63248,1,0,1:0:0:0:
192,0,63310,1,0,1:0:0:0:
64,0,63373,1,0,1:0:0:0:
320,0,63435,1,0,1:0:0:0:
448,0,63435,1,0,1:0:0:0:
64,0,63482,1,0,1:0:0:0:
192,0,63482,1,0,1:0:0:0:
320,0,63529,1,0,1:0:0:0:
448,0,63529,1,0,1:0:0:0:
64,0,63576,1,0,1:0:0:0:
192,0,63576,1,0,1:0:0:0:
320,0,63623,1,0,1:0:0:0:
448,0,63623,1,0,1:0:0:0:
64,0,63670,1,0,1:0:0:0:
192,0,63670,1,0,1:0:0:0:
320,0,63717,1,0,1:0:0:0:
448,0,63717,1,0,1:0:0:0:
64,0,63764,1,0,1:0:0:0:
192,0,63764,1,0,1:0:0:0:
320,0,63810,1,0,1:0:0:0:
448,0,63810,1,0,1:0:0:0:
64,0,63873,1,0,1:0:0:0:
192,0,63935,1,0,1:0:0:0:
320,0,63998,1,0,1:0:0:0:
64,0,64060,1,0,1:0:0:0:
448,0,64092,1,0,1:0:0:0:
320,0,64123,1,0,1:0:0:0:
64,0,64185,1,0,1:0:0:0:
192,0,64185,1,0,1:0:0:0:
448,0,64248,1,0,1:0:0:0:
192,0,64310,1,0,1:0:0:0:
448,0,64373,1,0,1:0:0:0:
64,0,64435,1,0,1:0:0:0:
320,0,64498,1,0,1:0:0:0:
64,0,64560,1,0,1:0:0:0:
192,0,64560,1,0,1:0:0:0:
448,0,64654,1,0,1:0:0:0:
192,0,64701,1,0,1:0:0:0:
448,0,64748,1,0,1:0:0:0:
192,0,64795,1,0,1:0:0:0:
64,0,64842,1,0,1:0:0:0:
320,0,64842,1,0,1:0:0:0:
64,0,64935,1,0,1:0:0:0:
192,0,64935,1,0,1:0:0:0:
192,0,65029,1,0,1:0:0:0:
320,0,65123,1,0,1:0:0:0:
448,0,65123,1,0,1:0:0:0:
320,0,65217,1,0,1:0:0:0:
448,0,65217,1,0,1:0:0:0:
64,0,65310,1,0,1:0:0:0:
192,0,65310,1,0,1:0:0:0:
320,0,65373,1,0,1:0:0:0:
448,0,65435,1,0,1:0:0:0:
192,0,65498,1,0,1:0:0:0:
320,0,65498,1,0,1:0:0:0:
64,0,65560,1,0,1:0:0:0:
192,0,65623,1,0,1:0:0:0:
320,0,65685,1,0,1:0:0:0:
448,0,65685,1,0,1:0:0:0:
64,0,65732,1,0,1:0:0:0:
192,0,65779,1,0,1:0:0:0:
448,0,65779,1,0,1:0:0:0:
320,0,65826,1,0,1:0:0:0:
64,0,65873,1,0,1:0:0:0:
448,0,65935,1,0,1:0:0:0:
320,0,65967,1,0,1:0:0:0:
192,0,65998,1,0,1:0:0:0:
64,0,66060,1,0,1:0:0:0:
448,0,66060,1,0,1:0:0:0:
320,0,66123,1,0,1:0:0:0:
64,0,66185,1,0,1:0:0:0:
192,0,66248,1,0,1:0:0:0:
320,0,66248,1,0,1:0:0:0:
448,0,66310,1,0,1:0:0:0:
192,0,66373,1,0,1:0:0:0:
320,0,66435,1,0,1:0:0:0:
448,0,66435,1,0,1:0:0:0:
64,0,66482,1,0,1:0:0:0:
192,0,66529,1,0,1:0:0:0:
448,0,66529,1,0,1:0:0:0:
320,0,66576,1,0,1:0:0:0:
64,0,66623,1,0,1:0:0:0:
192,0,66623,1,0,1:0:0:0:
320,0,66670,1,0,1:0:0:0:
64,0,66717,1,0,1:0:0:0:
320,0,66764,1,0,1:0:0:0:
64,0,66810,1,0,1:0:0:0:
192,0,66810,1,0,1:0:0:0:
448,0,66810,1,0,1:0:0:0:
320,0,66904,1,0,1:0:0:0:
448,0,66904,1,0,1:0:0:0:
192,0,66998,1,0,1:0:0:0:
320,0,66998,1,0,1:0:0:0:
64,0,67092,1,0,1:0:0:0:
192,0,67092,1,0,1:0:0:0:
320,0,67185,1,0,1:0:0:0:
448,0,67185,1,0,1:0:0:0:
64,0,67248,1,0,1:0:0:0:
448,0,67310,1,0,1:0:0:0:
192,0,67373,1,0,1:0:0:0:
320,0,67435,1,0,1:0:0:0:
192,0,67498,1,0,1:0:0:0:
64,0,67560,1,0,1:0:0:0:
320,0,67560,1,0,1:0:0:0:
448,0,67623,1,0,1:0:0:0:
64,0,67685,1,0,1:0:0:0:
320,0,67748,1,0,1:0:0:0:
192,0,67810,1,0,1:0:0:0:
320,0,67842,1,0,1:0:0:0:
448,0,67873,1,0,1:0:0:0:
64,0,67935,1,0,1:0:0:0:
192,0,67935,1,0,1:0:0:0:
320,0,67998,1,0,1:0:0:0:
64,0,68029,1,0,1:0:0:0:
448,0,68060,1,0,1:0:0:0:
192,0,68076,1,0,1:0:0:0:
64,0,68123,1,0,1:0:0:0:
320,0,68217,1,0,1:0:0:0:
448,0,68217,1,0,1:0:0:0:
64,0,68310,1,0,1:0:0:0:
192,0,68310,1,0,1:0:0:0:
320,0,68373,1,0,1:0:0:0:
448,0,68435,1,0,1:0:0:0:
64,0,68498,1,0,1:0:0:0:
320,0,68498,1,0,1:0:0:0:
192,0,68560,1,0,1:0:0:0:
448,0,68592,1,0,1:0:0:0:
64,0,68623,1,0,1:0:0:0:
192,0,68685,1,0,1:0:0:0:
448,0,68732,1,0,1:0:0:0:
64,0,68779,1,0,1:0:0:0:
320,0,68779,1,0,1:0:0:0:
192,0,68826,1,0,1:0:0:0:
448,0,68873,1,0,1:0:0:0:
64,0,68935,1,0,1:0:0:0:
192,0,68967,1,0,1:0:0:0:
320,0,68998,1,0,1:0:0:0:
64,0,69060,1,0,1:0:0:0:
448,0,69060,1,0,1:0:0:0:
192,0,69154,1,0,1:0:0:0:
320,0,69201,1,0,1:0:0:0:
192,0,69248,1,0,1:0:0:0:
320,0,69342,1,0,1:0:0:0:
448,0,69342,1,0,1:0:0:0:
192,0,69389,1,0,1:0:0:0:
64,0,69435,1,0,1:0:0:0:
320,0,69435,1,0,1:0:0:0:
448,0,69482,1,0,1:0:0:0:
192,0,69529,1,0,1:0:0:0:
64,0,69576,1,0,1:0:0:0:
320,0,69623,1,0,1:0:0:0:
192,0,69670,1,0,1:0:0:0:
320,0,69717,1,0,1:0:0:0:
448,0,69717,1,0,1:0:0:0:
192,0,69764,1,0,1:0:0:0:
64,0,69810,1,0,1:0:0:0:
320,0,69810,1,0,1:0:0:0:
448,0,69810,1,0,1:0:0:0:
192,0,69873,1,0,1:0:0:0:
320,0,69935,1,0,1:0:0:0:
64,0,69998,1,0,1:0:0:0:
448,0,70060,1,0,1:0:0:0:
320,0,70092,1,0,1:0:0:0:
192,0,70123,1,0,1:0:0:0:
64,0,70185,1,0,1:0:0:0:
448,0,70185,1,0,1:0:0:0:
320,0,70248,1,0,1:0:0:0:
64,0,70310,1,0,1:0:0:0:
192,0,70373,1,0,1:0:0:0:
448,0,70373,1,0,1:0:0:0:
320,0,70435,1,0,1:0:0:0:
64,0,70467,1,0,1:0:0:0:
192,0,70498,1,0,1:0:0:0:
320,0,70560,1,0,1:0:0:0:
448,0,70560,1,0,1:0:0:0:
64,0,70623,1,0,1:0:0:0:
192,0,70654,1,0,1:0:0:0:
320,0,70701,1,0,1:0:0:0:
192,0,70748,1,0,1:0:0:0:
320,0,70795,1,0,1:0:0:0:
64,0,70842,1,0,1:0:0:0:
448,0,70842,1,0,1:0:0:0:
192,0,70873,1,0,1:0:0:0:
320,0,70935,1,0,1:0:0:0:
448,0,70935,1,0,1:0:0:0:
320,0,71029,1,0,1:0:0:0:
64,0,71123,1,0,1:0:0:0:
192,0,71123,1,0,1:0:0:0:
64,0,71217,1,0,1:0:0:0:
192,0,71310,1,0,1:0:0:0:
448,0,71310,1,0,1:0:0:0:
320,0,71373,1,0,1:0:0:0:
192,0,71435,1,0,1:0:0:0:
64,0,71498,1,0,1:0:0:0:
448,0,71498,1,0,1:0:0:0:
320,0,71560,1,0,1:0:0:0:
192,0,71592,1,0,1:0:0:0:
64,0,71623,1,0,1:0:0:0:
320,0,71685,1,0,1:0:0:0:
448,0,71685,1,0,1:0:0:0:
192,0,71732,1,0,1:0:0:0:
64,0,71779,1,0,1:0:0:0:
320,0,71779,1,0,1:0:0:0:
448,0,71826,1,0,1:0:0:0:
192,0,71873,1,0,1:0:0:0:
64,0,71935,1,0,1:0:0:0:
192,0,71967,1,0,1:0:0:0:
320,0,71998,1,0,1:0:0:0:
64,0,72060,1,0,1:0:0:0:
448,0,72060,1,0,1:0:0:0:
192,0,72123,1,0,1:0:0:0:
320,0,72185,1,0,1:0:0:0:
64,0,72248,1,0,1:0:0:0:
448,0,72248,1,0,1:0:0:0:
320,0,72310,1,0,1:0:0:0:
192,0,72373,1,0,1:0:0:0:
64,0,72435,1,0,1:0:0:0:
448,0,72435,1,0,1:0:0:0:
320,0,72482,1,0,1:0:0:0:
64,0,72529,1,0,1:0:0:0:
192,0,72529,1,0,1:0:0:0:
448,0,72576,1,0,1:0:0:0:
320,0,72623,1,0,1:0:0:0:
192,0,72670,1,0,1:0:0:0:
320,0,72717,1,0,1:0:0:0:
192,0,72764,1,0,1:0:0:0:
64,0,72810,1,0,1:0:0:0:
320,0,72810,1,0,1:0:0:0:
448,0,72810,1,0,1:0:0:0:
64,0,72904,1,0,1:0:0:0:
192,0,72904,1,0,1:0:0:0:
192,0,72998,1,0,1:0:0:0:
320,0,72998,1,0,1:0:0:0:
320,0,73092,1,0,1:0:0:0:
448,0,73092,1,0,1:0:0:0:
64,0,73185,1,0,1:0:0:0:
192,0,73185,1,0,1:0:0:0:
320,0,73248,1,0,1:0:0:0:
448,0,73310,1,0,1:0:0:0:
320,0,73373,1,0,1:0:0:0:
192,0,73435,1,0,1:0:0:0:
64,0,73467,1,0,1:0:0:0:
320,0,73498,1,0,1:0:0:0:
192,0,73560,1,0,1:0:0:0:
448,0,73560,1,0,1:0:0:0:
64,0,73623,1,0,1:0:0:0:
448,0,73685,1,0,1:0:0:0:
192,0,73748,1,0,1:0:0:0:
320,0,73810,1,0,1:0:0:0:
64,0,73842,1,0,1:0:0:0:
192,0,73873,1,0,1:0:0:0:
320,0,73935,1,0,1:0:0:0:
448,0,73935,1,0,1:0:0:0:
64,0,73998,1,0,1:0:0:0:
192,0,74029,1,0,1:0:0:0:
320,0,74076,1,0,1:0:0:0:
192,0,74123,1,0,1:0:0:0:
448,0,74123,1,0,1:0:0:0:
64,0,74217,1,0,1:0:0:0:
192,0,74217,1,0,1:0:0:0:
320,0,74310,1,0,1:0:0:0:
448,0,74310,1,0,1:0:0:0:
192,0,74373,1,0,1:0:0:0:
64,0,74435,1,0,1:0:0:0:
448,0,74498,1,0,1:0:0:0:
320,0,74545,1,0,1:0:0:0:
64,0,74560,1,0,1:0:0:0:
192,0,74592,1,0,1:0:0:0:
448,0,74623,1,0,1:0:0:0:
320,0,74639,1,0,1:0:0:0:
192,0,74685,1,0,1:0:0:0:
64,0,74732,1,0,1:0:0:0:
320,0,74779,1,0,1:0:0:0:
448,0,74779,1,0,1:0:0:0:
192,0,74826,1,0,1:0:0:0:
64,0,74873,1,0,1:0:0:0:
448,0,74935,1,0,1:0:0:0:
320,0,74967,1,0,1:0:0:0:
192,0,74998,1,0,1:0:0:0:
64,0,75060,1,0,1:0:0:0:
448,0,75060,1,0,1:0:0:0:
320,0,75154,1,0,1:0:0:0:
448,0,75154,1,0,1:0:0:0:
192,0,75201,1,0,1:0:0:0:
320,0,75248,1,0,1:0:0:0:
64,0,75342,1,0,1:0:0:0:
192,0,75342,1,0,1:0:0:0:
320,0,75389,1,0,1:0:0:0:
448,0,75435,1,0,1:0:0:0:
64,0,75482,1,0,1:0:0:0:
192,0,75529,1,0,1:0:0:0:
320,0,75529,1,0,1:0:0:0:
448,0,75576,1,0,1:0:0:0:
64,0,75623,1,0,1:0:0:0:
192,0,75623,1,0,1:0:0:0:
320,0,75670,1,0,1:0:0:0:
64,0,75717,1,0,1:0:0:0:
320,0,75764,1,0,1:0:0:0:
64,0,75810,1,0,1:0:0:0:
192,0,75810,1,0,1:0:0:0:
448,0,75810,1,0,1:0:0:0:
320,0,75873,1,0,1:0:0:0:
192,0,75935,1,0,1:0:0:0:
64,0,75998,1,0,1:0:0:0:
448,0,75998,1,0,1:0:0:0:
192,0,76060,1,0,1:0:0:0:
320,0,76092,1,0,1:0:0:0:
448,0,76123,1,0,1:0:0:0:
64,0,76185,1,0,1:0:0:0:
192,0,76185,1,0,1:0:0:0:
320,0,76248,1,0,1:0:0:0:
64,0,76310,1,0,1:0:0:0:
192,0,76373,1,0,1:0:0:0:
320,0,76373,1,0,1:0:0:0:
448,0,76435,1,0,1:0:0:0:
192,0,76498,1,0,1:0:0:0:
320,0,76560,1,0,1:0:0:0:
448,0,76560,1,0,1:0:0:0:
64,0,76623,1,0,1:0:0:0:
192,0,76654,1,0,1:0:0:0:
448,0,76701,1,0,1:0:0:0:
192,0,76748,1,0,1:0:0:0:
448,0,76795,1,0,1:0:0:0:
320,0,76842,1,0,1:0:0:0:
64,0,76873,1,0,1:0:0:0:
192,0,76935,1,0,1:0:0:0:
448,0,76935,1,0,1:0:0:0:
320,0,76998,1,0,1:0:0:0:
64,0,77060,1,0,1:0:0:0:
320,0,77123,1,0,1:0:0:0:
448,0,77123,1,0,1:0:0:0:
192,0,77185,1,0,1:0:0:0:
64,0,77217,1,0,1:0:0:0:
448,0,77248,1,0,1:0:0:0:
192,0,77310,1,0,1:0:0:0:
320,0,77310,1,0,1:0:0:0:
64,0,77373,1,0,1:0:0:0:
320,0,77435,1,0,1:0:0:0:
192,0,77498,1,0,1:0:0:0:
448,0,77498,1,0,1:0:0:0:
64,0,77560,1,0,1:0:0:0:
320,0,77623,1,0,1:0:0:0:
64,0,77685,1,0,1:0:0:0:
448,0,77685,1,0,1:0:0:0:
320,0,77732,1,0,1:0:0:0:
64,0,77779,1,0,1:0:0:0:
192,0,77779,1,0,1:0:0:0:
320,0,77826,1,0,1:0:0:0:
192,0,77873,1,0,1:0:0:0:
448,0,77920,1,0,1:0:0:0:
192,0,77967,1,0,1:0:0:0:
448,0,78014,1,0,1:0:0:0:
64,0,78060,1,0,1:0:0:0:
320,0,78060,1,0,1:0:0:0:
192,0,78123,1,0,1:0:0:0:
320,0,78185,1,0,1:0:0:0:
192,0,78248,1,0,1:0:0:0:
448,0,78248,1,0,1:0:0:0:
320,0,78310,1,0,1:0:0:0:
64,0,78373,1,0,1:0:0:0:
192,0,78435,1,0,1:0:0:0:
320,0,78435,1,0,1:0:0:0:
448,0,78498,1,0,1:0:0:0:
64,0,78529,1,0,1:0:0:0:
192,0,78560,1,0,1:0:0:0:
320,0,78623,1,0,1:0:0:0:
448,0,78623,1,0,1:0:0:0:
192,0,78670,1,0,1:0:0:0:
320,0,78717,1,0,1:0:0:0:
192,0,78764,1,0,1:0:0:0:
64,0,78810,1,0,1:0:0:0:
320,0,78810,1,0,1:0:0:0:
448,0,78810,1,0,1:0:0:0:
192,0,78904,1,0,1:0:0:0:
320,0,78904,1,0,1:0:0:0:
64,0,78998,1,0,1:0:0:0:
192,0,78998,1,0,1:0:0:0:
192,0,79092,1,0,1:0:0:0:
320,0,79092,1,0,1:0:0:0:
64,0,79185,1,0,1:0:0:0:
448,0,79232,1,0,1:0:0:0:
64,0,79279,1,0,1:0:0:0:
448,0,79326,1,0,1:0:0:0:
192,0,79373,1,0,1:0:0:0:
320,0,79420,1,0,1:0:0:0:
192,0,79467,1,0,1:0:0:0:
320,0,79514,1,0,1:0:0:0:
64,0,79560,1,0,1:0:0:0:
448,0,79560,1,0,1:0:0:0:
192,0,79623,1,0,1:0:0:0:
320,0,79685,1,0,1:0:0:0:
192,0,79748,1,0,1:0:0:0:
448,0,79748,1,0,1:0:0:0:
64,0,79810,1,0,1:0:0:0:
320,0,79842,1,0,1:0:0:0:
448,0,79873,1,0,1:0:0:0:
64,0,79935,1,0,1:0:0:0:
192,0,79935,1,0,1:0:0:0:
448,0,80029,1,0,1:0:0:0:
192,0,80076,1,0,1:0:0:0:
448,0,80123,1,0,1:0:0:0:
320,0,80185,1,0,1:0:0:0:
64,0,80217,1,0,1:0:0:0:
192,0,80248,1,0,1:0:0:0:
320,0,80310,1,0,1:0:0:0:
448,0,80310,1,0,1:0:0:0:
192,0,80373,1,0,1:0:0:0:
64,0,80404,1,0,1:0:0:0:
320,0,80435,1,0,1:0:0:0:
64,0,80498,1,0,1:0:0:0:
448,0,80498,1,0,1:0:0:0:
192,0,80545,1,0,1:0:0:0:
320,0,80592,1,0,1:0:0:0:
448,0,80592,1,0,1:0:0:0:
64,0,80639,1,0,1:0:0:0:
192,0,80685,1,0,1:0:0:0:
320,0,80732,1,0,1:0:0:0:
64,0,80779,1,0,1:0:0:0:
448,0,80779,1,0,1:0:0:0:
192,0,80826,1,0,1:0:0:0:
320,0,80873,1,0,1:0:0:0:
448,0,80935,1,0,1:0:0:0:
64,0,80967,1,0,1:0:0:0:
192,0,80998,1,0,1:0:0:0:
320,0,81060,1,0,1:0:0:0:
448,0,81060,1,0,1:0:0:0:
192,0,81154,1,0,1:0:0:0:
320,0,81201,1,0,1:0:0:0:
64,0,81248,1,0,1:0:0:0:
192,0,81248,1,0,1:0:0:0:
192,0,81342,1,0,1:0:0:0:
320,0,81389,1,0,1:0:0:0:
192,0,81435,1,0,1:0:0:0:
448,0,81482,1,0,1:0:0:0:
64,0,81529,1,0,1:0:0:0:
320,0,81529,1,0,1:0:0:0:
448,0,81576,1,0,1:0:0:0:
64,0,81623,1,0,1:0:0:0:
192,0,81623,1,0,1:0:0:0:
320,0,81670,1,0,1:0:0:0:
448,0,81717,1,0,1:0:0:0:
320,0,81764,1,0,1:0:0:0:
64,0,81810,1,0,1:0:0:0:
192,0,81810,1,0,1:0:0:0:
448,0,81810,1,0,1:0:0:0:
320,0,81873,1,0,1:0:0:0:
192,0,81935,1,0,1:0:0:0:
320,0,81998,1,0,1:0:0:0:
192,0,82060,1,0,1:0:0:0:
64,0,82092,1,0,1:0:0:0:
448,0,82123,1,0,1:0:0:0:
192,0,82185,1,0,1:0:0:0:
320,0,82185,1,0,1:0:0:0:
64,0,82248,1,0,1:0:0:0:
448,0,82310,1,0,1:0:0:0:
64,0,82373,1,0,1:0:0:0:
192,0,82373,1,0,1:0:0:0:
320,0,82435,1,0,1:0:0:0:
192,0,82467,1,0,1:0:0:0:
448,0,82498,1,0,1:0:0:0:
320,0,82560,1,0,1:0:0:0:
192,0,82654,1,0,1:0:0:0:
320,0,82701,1,0,1:0:0:0:
64,0,82748,1,0,1:0:0:0:
448,0,82795,1,0,1:0:0:0:
64,0,82842,1,0,1:0:0:0:
192,0,82842,1,0,1:0:0:0:
320,0,82889,1,0,1:0:0:0:
64,0,82935,1,0,1:0:0:0:
448,0,82935,1,0,1:0:0:0:
192,0,82982,1,0,1:0:0:0:
448,0,83029,1,0,1:0:0:0:
192,0,83076,1,0,1:0:0:0:
320,0,83123,1,0,1:0:0:0:
448,0,83123,1,0,1:0:0:0:
64,0,83170,1,0,1:0:0:0:
320,0,83217,1,0,1:0:0:0:
64,0,83264,1,0,1:0:0:0:
192,0,83310,1,0,1:0:0:0:
320,0,83310,1,0,1:0:0:0:
448,0,83373,1,0,1:0:0:0:
64,0,83435,1,0,1:0:0:0:
192,0,83498,1,0,1:0:0:0:
320,0,83498,1,0,1:0:0:0:
448,0,83560,1,0,1:0:0:0:
192,0,83623,1,0,1:0:0:0:
320,0,83685,1,0,1:0:0:0:
448,0,83685,1,0,1:0:0:0:
64,0,83748,1,0,1:0:0:0:
192,0,83779,1,0,1:0:0:0:
448,0,83779,1,0,1:0:0:0:
320,0,83810,1,0,1:0:0:0:
64,0,83873,1,0,1:0:0:0:
448,0,83935,1,0,1:0:0:0:
320,0,83967,1,0,1:0:0:0:
192,0,83998,1,0,1:0:0:0:
64,0,84060,1,0,1:0:0:0:
448,0,84060,1,0,1:0:0:0:
320,0,84123,1,0,1:0:0:0:
192,0,84185,1,0,1:0:0:0:
64,0,84248,1,0,1:0:0:0:
320,0,84248,1,0,1:0:0:0:
448,0,84310,1,0,1:0:0:0:
64,0,84373,1,0,1:0:0:0:
320,0,84435,1,0,1:0:0:0:
448,0,84435,1,0,1:0:0:0:
192,0,84498,1,0,1:0:0:0:
64,0,84529,1,0,1:0:0:0:
320,0,84529,1,0,1:0:0:0:
448,0,84560,1,0,1:0:0:0:
64,0,84623,1,0,1:0:0:0:
192,0,84623,1,0,1:0:0:0:
320,0,84670,1,0,1:0:0:0:
192,0,84717,1,0,1:0:0:0:
320,0,84764,1,0,1:0:0:0:
64,0,84810,1,0,1:0:0:0:
192,0,84810,1,0,1:0:0:0:
448,0,84810,1,0,1:0:0:0:
320,0,84904,1,0,1:0:0:0:
448,0,84904,1,0,1:0:0:0:
192,0,84998,1,0,1:0:0:0:
320,0,84998,1,0,1:0:0:0:
64,0,85092,1,0,1:0:0:0:
192,0,85092,1,0,1:0:0:0:
64,0,85185,1,0,1:0:0:0:
320,0,85185,1,0,1:0:0:0:
448,0,85248,1,0,1:0:0:0:
192,0,85310,1,0,1:0:0:0:
448,0,85373,1,0,1:0:0:0:
64,0,85435,1,0,1:0:0:0:
192,0,85467,1,0,1:0:0:0:
320,0,85498,1,0,1:0:0:0:
64,0,85560,1,0,1:0:0:0:
448,0,85560,1,0,1:0:0:0:
192,0,85623,1,0,1:0:0:0:
320,0,85685,1,0,1:0:0:0:
64,0,85748,1,0,1:0:0:0:
192,0,85810,1,0,1:0:0:0:
448,0,85842,1,0,1:0:0:0:
320,0,85873,1,0,1:0:0:0:
64,0,85935,1,0,1:0:0:0:
192,0,85935,1,0,1:0:0:0:
448,0,85998,1,0,1:0:0:0:
320,0,86029,1,0,1:0:0:0:
192,0,86076,1,0,1:0:0:0:
320,0,86123,1,0,1:0:0:0:
64,0,86185,1,0,1:0:0:0:
448,0,86217,1,0,1:0:0:0:
192,0,86248,1,0,1:0:0:0:
320,0,86310,1,0,1:0:0:0:
448,0,86310,1,0,1:0:0:0:
64,0,86404,1,0,1:0:0:0:
192,0,86404,1,0,1:0:0:0:
320,0,86498,1,0,1:0:0:0:
448,0,86498,1,0,1:0:0:0:
64,0,86545,1,0,1:0:0:0:
192,0,86545,1,0,1:0:0:0:
320,0,86592,1,0,1:0:0:0:
448,0,86592,1,0,1:0:0:0:
64,0,86639,1,0,1:0:0:0:
192,0,86639,1,0,1:0:0:0:
320,0,86685,1,0,1:0:0:0:
448,0,86685,1,0,1:0:0:0:
64,0,86779,1,0,1:0:0:0:
192,0,86779,1,0,1:0:0:0:
320,0,86810,1,0,1:0:0:0:
64,0,86873,1,0,1:0:0:0:
192,0,86935,1,0,1:0:0:0:
320,0,86967,1,0,1:0:0:0:
448,0,86967,1,0,1:0:0:0:
448,0,87060,1,0,1:0:0:0:
64,0,87154,1,0,1:0:0:0:
192,0,87154,1,0,1:0:0:0:
320,0,87201,1,0,1:0:0:0:
448,0,87201,1,0,1:0:0:0:
64,0,87248,1,0,1:0:0:0:
192,0,87248,1,0,1:0:0:0:
320,0,87342,1,0,1:0:0:0:
448,0,87342,1,0,1:0:0:0:
64,0,87389,1,0,1:0:0:0:
192,0,87389,1,0,1:0:0:0:
320,0,87435,1,0,1:0:0:0:
448,0,87435,1,0,1:0:0:0:
64,0,87529,1,0,1:0:0:0:
192,0,87529,1,0,1:0:0:0:
320,0,87529,1,0,1:0:0:0:
448,0,87529,1,0,1:0:0:0:
64,0,87623,1,0,1:0:0:0:
192,0,87623,1,0,1:0:0:0:
320,0,87670,1,0,1:0:0:0:
448,0,87670,1,0,1:0:0:0:
64,0,87717,1,0,1:0:0:0:
192,0,87717,1,0,1:0:0:0:
320,0,87764,1,0,1:0:0:0:
64,0,87810,1,0,1:0:0:0:
192,0,87810,1,0,1:0:0:0:
448,0,87810,1,0,1:0:0:0:
192,0,88185,1,0,1:0:0:0:
320,0,88185,1,0,1:0:0:0:
320,0,88748,1,0,1:0:0:0:
448,0,88748,1,0,1:0:0:0:
64,0,89310,1,0,1:0:0:0:
192,0,89310,1,0,1:0:0:0:
64,0,89873,1,0,1:0:0:0:
192,0,89873,1,0,1:0:0:0:
192,0,90248,1,0,1:0:0:0:
320,0,90248,1,0,1:0:0:0:
448,0,90623,1,0,1:0:0:0:
320,0,90623,1,0,1:0:0:0:
448,0,91185,1,0,1:0:0:0:
320,0,91185,1,0,1:0:0:0:
448,0,91748,1,0,1:0:0:0:
64,0,91748,1,0,1:0:0:0:
64,0,92310,1,0,1:0:0:0:
192,0,92310,1,0,1:0:0:0:
64,0,92873,1,0,1:0:0:0:
192,0,92873,1,0,1:0:0:0:
192,0,93248,1,0,1:0:0:0:
320,0,93248,1,0,1:0:0:0:
448,0,93623,1,0,1:0:0:0:
320,0,93623,1,0,1:0:0:0:
448,0,94185,1,0,1:0:0:0:
320,0,94185,1,0,1:0:0:0:
64,0,94748,1,0,1:0:0:0:
448,0,94748,1,0,1:0:0:0:
64,0,95310,1,0,1:0:0:0:
192,0,95310,1,0,1:0:0:0:
192,0,95873,1,0,1:0:0:0:
64,0,95873,1,0,1:0:0:0:
320,0,96248,1,0,1:0:0:0:
192,0,96248,1,0,1:0:0:0:
448,0,96623,1,0,1:0:0:0:
320,0,96623,1,0,1:0:0:0:
448,0,97185,1,0,1:0:0:0:
320,0,97185,1,0,1:0:0:0:
448,0,97748,1,0,1:0:0:0:
64,0,97748,1,0,1:0:0:0:
64,0,98310,1,0,1:0:0:0:
448,0,98310,1,0,1:0:0:0:
320,0,98404,1,0,1:0:0:0:
192,0,98498,1,0,1:0:0:0:
192,0,98592,1,0,1:0:0:0:
448,0,98685,1,0,1:0:0:0:
192,0,98779,1,0,1:0:0:0:
64,0,98873,1,0,1:0:0:0:
192,0,98873,1,0,1:0:0:0:
448,0,98967,1,0,1:0:0:0:
320,0,99060,1,0,1:0:0:0:
320,0,99154,1,0,1:0:0:0:
192,0,99248,1,0,1:0:0:0:
448,0,99248,1,0,1:0:0:0:
64,0,99342,1,0,1:0:0:0:
64,0,99435,1,0,1:0:0:0:
192,0,99482,1,0,1:0:0:0:
320,0,99529,1,0,1:0:0:0:
448,0,99576,1,0,1:0:0:0:
64,0,99623,1,0,1:0:0:0:
192,0,99623,1,0,1:0:0:0:
320,0,99670,1,0,1:0:0:0:
448,0,99717,1,0,1:0:0:0:
64,0,99764,1,0,1:0:0:0:
192,0,99810,1,0,1:0:0:0:
320,0,99810,1,0,1:0:0:0:
448,0,99810,1,0,1:0:0:0:
320,0,99904,1,0,1:0:0:0:
64,0,99998,1,0,1:0:0:0:
192,0,100092,1,0,1:0:0:0:
192,0,100185,1,0,1:0:0:0:
320,0,100185,1,0,1:0:0:0:
448,0,100279,1,0,1:0:0:0:
64,0,100373,1,0,1:0:0:0:
64,0,100467,1,0,1:0:0:0:
192,0,100560,1,0,1:0:0:0:
64,0,100654,1,0,1:0:0:0:
64,0,100748,1,0,1:0:0:0:
320,0,100748,1,0,1:0:0:0:
192,0,100842,1,0,1:0:0:0:
320,0,100935,1,0,1:0:0:0:
320,0,101029,1,0,1:0:0:0:
448,0,101123,1,0,1:0:0:0:
448,0,101217,1,0,1:0:0:0:
64,0,101310,1,0,1:0:0:0:
192,0,101310,1,0,1:0:0:0:
192,0,101404,1,0,1:0:0:0:
192,0,101498,1,0,1:0:0:0:
192,0,101592,1,0,1:0:0:0:
320,0,101685,1,0,1:0:0:0:
192,0,101779,1,0,1:0:0:0:
64,0,101873,1,0,1:0:0:0:
448,0,101873,1,0,1:0:0:0:
448,0,101967,1,0,1:0:0:0:
320,0,102060,1,0,1:0:0:0:
192,0,102154,1,0,1:0:0:0:
64,0,102248,1,0,1:0:0:0:
320,0,102248,1,0,1:0:0:0:
192,0,102342,1,0,1:0:0:0:
448,0,102435,1,0,1:0:0:0:
320,0,102482,1,0,1:0:0:0:
448,0,102529,1,0,1:0:0:0:
192,0,102623,1,0,1:0:0:0:
320,0,102623,1,0,1:0:0:0:
192,0,102717,1,0,1:0:0:0:
448,0,102810,1,0,1:0:0:0:
320,0,102904,1,0,1:0:0:0:
448,0,102998,1,0,1:0:0:0:
64,0,103092,1,0,1:0:0:0:
192,0,103185,1,0,1:0:0:0:
320,0,103185,1,0,1:0:0:0:
64,0,103279,1,0,1:0:0:0:
320,0,103373,1,0,1:0:0:0:
320,0,103467,1,0,1:0:0:0:
192,0,103560,1,0,1:0:0:0:
320,0,103654,1,0,1:0:0:0:
320,0,103748,1,0,1:0:0:0:
448,0,103748,1,0,1:0:0:0:
192,0,103842,1,0,1:0:0:0:
64,0,103935,1,0,1:0:0:0:
64,0,104029,1,0,1:0:0:0:
64,0,104123,1,0,1:0:0:0:
64,0,104217,1,0,1:0:0:0:
64,0,104310,1,0,1:0:0:0:
192,0,104310,1,0,1:0:0:0:
448,0,104404,1,0,1:0:0:0:
320,0,104498,1,0,1:0:0:0:
320,0,104592,1,0,1:0:0:0:
448,0,104685,1,0,1:0:0:0:
192,0,104779,1,0,1:0:0:0:
64,0,104873,1,0,1:0:0:0:
192,0,104873,1,0,1:0:0:0:
320,0,104967,1,0,1:0:0:0:
64,0,105060,1,0,1:0:0:0:
448,0,105154,1,0,1:0:0:0:
192,0,105248,1,0,1:0:0:0:
448,0,105248,1,0,1:0:0:0:
448,0,105342,1,0,1:0:0:0:
448,0,105435,1,0,1:0:0:0:
320,0,105529,1,0,1:0:0:0:
64,0,105623,1,0,1:0:0:0:
192,0,105623,1,0,1:0:0:0:
64,0,105810,1,0,1:0:0:0:
64,0,105998,1,0,1:0:0:0:
64,0,106092,1,0,1:0:0:0:
192,0,106185,1,0,1:0:0:0:
320,0,106185,1,0,1:0:0:0:
320,0,106279,1,0,1:0:0:0:
192,0,106373,1,0,1:0:0:0:
448,0,106467,1,0,1:0:0:0:
448,0,106560,1,0,1:0:0:0:
64,0,106654,1,0,1:0:0:0:
320,0,106748,1,0,1:0:0:0:
448,0,106748,1,0,1:0:0:0:
320,0,106842,1,0,1:0:0:0:
64,0,106935,1,0,1:0:0:0:
192,0,106982,1,0,1:0:0:0:
448,0,107029,1,0,1:0:0:0:
320,0,107076,1,0,1:0:0:0:
64,0,107123,1,0,1:0:0:0:
192,0,107170,1,0,1:0:0:0:
448,0,107217,1,0,1:0:0:0:
320,0,107264,1,0,1:0:0:0:
64,0,107310,1,0,1:0:0:0:
192,0,107310,1,0,1:0:0:0:
320,0,107404,1,0,1:0:0:0:
64,0,107498,1,0,1:0:0:0:
64,0,107592,1,0,1:0:0:0:
448,0,107685,1,0,1:0:0:0:
320,0,107779,1,0,1:0:0:0:
64,0,107873,1,0,1:0:0:0:
192,0,107873,1,0,1:0:0:0:
192,0,107967,1,0,1:0:0:0:
448,0,108060,1,0,1:0:0:0:
320,0,108154,1,0,1:0:0:0:
64,0,108248,1,0,1:0:0:0:
320,0,108248,1,0,1:0:0:0:
448,0,108342,1,0,1:0:0:0:
64,0,108435,1,0,1:0:0:0:
64,0,108529,1,0,1:0:0:0:
192,0,108623,1,0,1:0:0:0:
320,0,108623,1,0,1:0:0:0:
320,0,108717,1,0,1:0:0:0:
448,0,109092,1,0,1:0:0:0:
64,0,109185,1,0,1:0:0:0:
320,0,109185,1,0,1:0:0:0:
448,0,109467,1,0,1:0:0:0:
320,0,109560,1,0,1:0:0:0:
192,0,109748,1,0,1:0:0:0:
448,0,109842,1,0,1:0:0:0:
320,0,109935,1,0,1:0:0:0:
448,0,110123,1,0,1:0:0:0:
320,0,110170,1,0,1:0:0:0:
192,0,110217,1,0,1:0:0:0:
64,0,110264,1,0,1:0:0:0:
320,0,110310,1,0,1:0:0:0:
448,0,110310,1,0,1:0:0:0:
192,0,110404,1,0,1:0:0:0:
320,0,110498,1,0,1:0:0:0:
64,0,110545,1,0,1:0:0:0:
192,0,110592,1,0,1:0:0:0:
320,0,110639,1,0,1:0:0:0:
448,0,110685,1,0,1:0:0:0:
64,0,110779,1,0,1:0:0:0:
192,0,110826,1,0,1:0:0:0:
320,0,110873,1,0,1:0:0:0:
448,0,110873,1,0,1:0:0:0:
64,0,110920,1,0,1:0:0:0:
192,0,110967,1,0,1:0:0:0:
320,0,111060,1,0,1:0:0:0:
448,0,111107,1,0,1:0:0:0:
64,0,111154,1,0,1:0:0:0:
192,0,111201,1,0,1:0:0:0:
320,0,111248,1,0,1:0:0:0:
448,0,111248,1,0,1:0:0:0:
64,0,111342,1,0,1:0:0:0:
64,0,111435,1,0,1:0:0:0:
192,0,111435,1,0,1:0:0:0:
192,0,111529,1,0,1:0:0:0:
320,0,111529,1,0,1:0:0:0:
320,0,111623,1,0,1:0:0:0:
448,0,111623,1,0,1:0:0:0:
64,0,111717,1,0,1:0:0:0:
192,0,111717,1,0,1:0:0:0:
64,0,111810,1,0,1:0:0:0:
320,0,111810,1,0,1:0:0:0:
448,0,111810,1,0,1:0:0:0:
448,0,111998,1,0,1:0:0:0:
320,0,112060,1,0,1:0:0:0:
64,0,112092,1,0,1:0:0:0:
192,0,112123,1,0,1:0:0:0:
320,0,112185,1,0,1:0:0:0:
448,0,112185,1,0,1:0:0:0:
64,0,112248,1,0,1:0:0:0:
448,0,112310,1,0,1:0:0:0:
192,0,112373,1,0,1:0:0:0:
64,0,112435,1,0,1:0:0:0:
320,0,112467,1,0,1:0:0:0:
448,0,112498,1,0,1:0:0:0:
64,0,112560,1,0,1:0:0:0:
192,0,112623,1,0,1:0:0:0:
448,0,112685,1,0,1:0:0:0:
192,0,112748,1,0,1:0:0:0:
320,0,112748,1,0,1:0:0:0:
64,0,112810,1,0,1:0:0:0:
448,0,112842,1,0,1:0:0:0:
320,0,112873,1,0,1:0:0:0:
192,0,112935,1,0,1:0:0:0:
64,0,112998,1,0,1:0:0:0:
320,0,113060,1,0,1:0:0:0:
64,0,113123,1,0,1:0:0:0:
448,0,113185,1,0,1:0:0:0:
192,0,113217,1,0,1:0:0:0:
320,0,113248,1,0,1:0:0:0:
64,0,113310,1,0,1:0:0:0:
448,0,113310,1,0,1:0:0:0:
192,0,113373,1,0,1:0:0:0:
320,0,113435,1,0,1:0:0:0:
448,0,113498,1,0,1:0:0:0:
320,0,113560,1,0,1:0:0:0:
192,0,113592,1,0,1:0:0:0:
64,0,113623,1,0,1:0:0:0:
448,0,113685,1,0,1:0:0:0:
192,0,113748,1,0,1:0:0:0:
320,0,113810,1,0,1:0:0:0:
64,0,113873,1,0,1:0:0:0:
192,0,113873,1,0,1:0:0:0:
448,0,113935,1,0,1:0:0:0:
320,0,113967,1,0,1:0:0:0:
64,0,113998,1,0,1:0:0:0:
448,0,114060,1,0,1:0:0:0:
320,0,114123,1,0,1:0:0:0:
192,0,114185,1,0,1:0:0:0:
64,0,114248,1,0,1:0:0:0:
448,0,114248,1,0,1:0:0:0:
320,0,114310,1,0,1:0:0:0:
192,0,114342,1,0,1:0:0:0:
448,0,114373,1,0,1:0:0:0:
64,0,114435,1,0,1:0:0:0:
320,0,114498,1,0,1:0:0:0:
192,0,114560,1,0,1:0:0:0:
64,0,114623,1,0,1:0:0:0:
320,0,114623,1,0,1:0:0:0:
448,0,114623,1,0,1:0:0:0:
192,0,114685,1,0,1:0:0:0:
320,0,114717,1,0,1:0:0:0:
448,0,114748,1,0,1:0:0:0:
64,0,114810,1,0,1:0:0:0:
192,0,114873,1,0,1:0:0:0:
320,0,114935,1,0,1:0:0:0:
64,0,114998,1,0,1:0:0:0:
192,0,115060,1,0,1:0:0:0:
448,0,115092,1,0,1:0:0:0:
320,0,115123,1,0,1:0:0:0:
64,0,115185,1,0,1:0:0:0:
192,0,115185,1,0,1:0:0:0:
448,0,115248,1,0,1:0:0:0:
64,0,115310,1,0,1:0:0:0:
320,0,115373,1,0,1:0:0:0:
448,0,115435,1,0,1:0:0:0:
192,0,115467,1,0,1:0:0:0:
64,0,115498,1,0,1:0:0:0:
448,0,115560,1,0,1:0:0:0:
320,0,115623,1,0,1:0:0:0:
64,0,115685,1,0,1:0:0:0:
192,0,115748,1,0,1:0:0:0:
320,0,115748,1,0,1:0:0:0:
448,0,115810,1,0,1:0:0:0:
64,0,115842,1,0,1:0:0:0:
192,0,115873,1,0,1:0:0:0:
320,0,115935,1,0,1:0:0:0:
448,0,115998,1,0,1:0:0:0:
192,0,116060,1,0,1:0:0:0:
448,0,116123,1,0,1:0:0:0:
64,0,116185,1,0,1:0:0:0:
320,0,116217,1,0,1:0:0:0:
192,0,116248,1,0,1:0:0:0:
64,0,116310,1,0,1:0:0:0:
448,0,116310,1,0,1:0:0:0:
320,0,116373,1,0,1:0:0:0:
192,0,116435,1,0,1:0:0:0:
64,0,116498,1,0,1:0:0:0:
192,0,116560,1,0,1:0:0:0:
320,0,116592,1,0,1:0:0:0:
448,0,116623,1,0,1:0:0:0:
64,0,116685,1,0,1:0:0:0:
320,0,116748,1,0,1:0:0:0:
192,0,116810,1,0,1:0:0:0:
320,0,116873,1,0,1:0:0:0:
448,0,116873,1,0,1:0:0:0:
64,0,116935,1,0,1:0:0:0:
192,0,116967,1,0,1:0:0:0:
320,0,116967,1,0,1:0:0:0:
448,0,116998,1,0,1:0:0:0:
64,0,117060,1,0,1:0:0:0:
192,0,117060,1,0,1:0:0:0:
448,0,117123,1,0,1:0:0:0:
320,0,117185,1,0,1:0:0:0:
64,0,117248,1,0,1:0:0:0:
192,0,117248,1,0,1:0:0:0:
448,0,117310,1,0,1:0:0:0:
320,0,117342,1,0,1:0:0:0:
64,0,117373,1,0,1:0:0:0:
192,0,117435,1,0,1:0:0:0:
448,0,117435,1,0,1:0:0:0:
320,0,117498,1,0,1:0:0:0:
64,0,117529,1,0,1:0:0:0:
192,0,117529,1,0,1:0:0:0:
448,0,117560,1,0,1:0:0:0:
320,0,117623,1,0,1:0:0:0:
192,0,117670,1,0,1:0:0:0:
320,0,117717,1,0,1:0:0:0:
192,0,117764,1,0,1:0:0:0:
64,0,117810,1,0,1:0:0:0:
448,0,117810,1,0,1:0:0:0:
320,0,117873,1,0,1:0:0:0:
192,0,117935,1,0,1:0:0:0:
448,0,117998,1,0,1:0:0:0:
64,0,118060,1,0,1:0:0:0:
192,0,118092,1,0,1:0:0:0:
320,0,118123,1,0,1:0:0:0:
192,0,118185,1,0,1:0:0:0:
448,0,118185,1,0,1:0:0:0:
64,0,118248,1,0,1:0:0:0:
448,0,118310,1,0,1:0:0:0:
320,0,118373,1,0,1:0:0:0:
64,0,118435,1,0,1:0:0:0:
192,0,118467,1,0,1:0:0:0:
448,0,118498,1,0,1:0:0:0:
64,0,118560,1,0,1:0:0:0:
320,0,118623,1,0,1:0:0:0:
448,0,118685,1,0,1:0:0:0:
192,0,118748,1,0,1:0:0:0:
320,0,118748,1,0,1:0:0:0:
64,0,118810,1,0,1:0:0:0:
448,0,118842,1,0,1:0:0:0:
192,0,118873,1,0,1:0:0:0:
320,0,118935,1,0,1:0:0:0:
64,0,118998,1,0,1:0:0:0:
192,0,119060,1,0,1:0:0:0:
64,0,119123,1,0,1:0:0:0:
448,0,119185,1,0,1:0:0:0:
320,0,119217,1,0,1:0:0:0:
192,0,119248,1,0,1:0:0:0:
64,0,119310,1,0,1:0:0:0:
448,0,119310,1,0,1:0:0:0:
320,0,119373,1,0,1:0:0:0:
192,0,119435,1,0,1:0:0:0:
448,0,119498,1,0,1:0:0:0:
192,0,119560,1,0,1:0:0:0:
320,0,119592,1,0,1:0:0:0:
64,0,119623,1,0,1:0:0:0:
448,0,119685,1,0,1:0:0:0:
320,0,119748,1,0,1:0:0:0:
192,0,119810,1,0,1:0:0:0:
64,0,119873,1,0,1:0:0:0:
320,0,119873,1,0,1:0:0:0:
448,0,119935,1,0,1:0:0:0:
192,0,119967,1,0,1:0:0:0:
64,0,119998,1,0,1:0:0:0:
448,0,120060,1,0,1:0:0:0:
192,0,120123,1,0,1:0:0:0:
320,0,120185,1,0,1:0:0:0:
64,0,120248,1,0,1:0:0:0:
448,0,120248,1,0,1:0:0:0:
192,0,120310,1,0,1:0:0:0:
320,0,120342,1,0,1:0:0:0:
448,0,120373,1,0,1:0:0:0:
64,0,120435,1,0,1:0:0:0:
192,0,120498,1,0,1:0:0:0:
320,0,120560,1,0,1:0:0:0:
64,0,120623,1,0,1:0:0:0:
448,0,120623,1,0,1:0:0:0:
192,0,120670,1,0,1:0:0:0:
320,0,120717,1,0,1:0:0:0:
64,0,120810,1,0,1:0:0:0:
192,0,120810,1,0,1:0:0:0:
320,0,120857,1,0,1:0:0:0:
192,0,120904,1,0,1:0:0:0:
320,0,120951,1,0,1:0:0:0:
448,0,120998,1,0,1:0:0:0:
64,0,121092,1,0,1:0:0:0:
320,0,121092,1,0,1:0:0:0:
192,0,121185,1,0,1:0:0:0:
448,0,121185,1,0,1:0:0:0:
320,0,121248,1,0,1:0:0:0:
192,0,121310,1,0,1:0:0:0:
64,0,121373,1,0,1:0:0:0:
448,0,121435,1,0,1:0:0:0:
320,0,121467,1,0,1:0:0:0:
64,0,121498,1,0,1:0:0:0:
192,0,121560,1,0,1:0:0:0:
448,0,121623,1,0,1:0:0:0:
320,0,121685,1,0,1:0:0:0:
64,0,121748,1,0,1:0:0:0:
192,0,121748,1,0,1:0:0:0:
448,0,121795,1,0,1:0:0:0:
192,0,121842,1,0,1:0:0:0:
448,0,121889,1,0,1:0:0:0:
64,0,121935,1,0,1:0:0:0:
320,0,121935,1,0,1:0:0:0:
192,0,121998,1,0,1:0:0:0:
64,0,122060,1,0,1:0:0:0:
320,0,122123,1,0,1:0:0:0:
448,0,122123,1,0,1:0:0:0:
192,0,122185,1,0,1:0:0:0:
320,0,122248,1,0,1:0:0:0:
64,0,122310,1,0,1:0:0:0:
448,0,122310,1,0,1:0:0:0:
192,0,122498,1,0,1:0:0:0:
192,0,122592,1,0,1:0:0:0:
448,0,122685,1,0,1:0:0:0:
320,0,122779,1,0,1:0:0:0:
64,0,122873,1,0,1:0:0:0:
192,0,122873,1,0,1:0:0:0:
64,0,123060,1,0,1:0:0:0:
64,0,123154,1,0,1:0:0:0:
320,0,123248,1,0,1:0:0:0:
448,0,123248,1,0,1:0:0:0:
448,0,123342,1,0,1:0:0:0:
448,0,123435,1,0,1:0:0:0:
192,0,123529,1,0,1:0:0:0:
320,0,123529,1,0,1:0:0:0:
64,0,123623,1,0,1:0:0:0:
192,0,123623,1,0,1:0:0:0:
320,0,123717,1,0,1:0:0:0:
448,0,123717,1,0,1:0:0:0:
64,0,123810,1,0,1:0:0:0:
192,0,123810,1,0,1:0:0:0:
448,0,123810,1,0,1:0:0:0:
64,0,123998,1,0,1:0:0:0:
192,0,124060,1,0,1:0:0:0:
448,0,124092,1,0,1:0:0:0:
320,0,124123,1,0,1:0:0:0:
64,0,124185,1,0,1:0:0:0:
192,0,124185,1,0,1:0:0:0:
448,0,124248,1,0,1:0:0:0:
64,0,124310,1,0,1:0:0:0:
320,0,124373,1,0,1:0:0:0:
448,0,124435,1,0,1:0:0:0:
192,0,124467,1,0,1:0:0:0:
64,0,124498,1,0,1:0:0:0:
320,0,124560,1,0,1:0:0:0:
448,0,124560,1,0,1:0:0:0:
192,0,124623,1,0,1:0:0:0:
64,0,124685,1,0,1:0:0:0:
320,0,124748,1,0,1:0:0:0:
448,0,124810,1,0,1:0:0:0:
192,0,124842,1,0,1:0:0:0:
320,0,124873,1,0,1:0:0:0:
64,0,124935,1,0,1:0:0:0:
448,0,124935,1,0,1:0:0:0:
192,0,124998,1,0,1:0:0:0:
320,0,125060,1,0,1:0:0:0:
448,0,125123,1,0,1:0:0:0:
64,0,125185,1,0,1:0:0:0:
320,0,125217,1,0,1:0:0:0:
192,0,125248,1,0,1:0:0:0:
64,0,125310,1,0,1:0:0:0:
448,0,125310,1,0,1:0:0:0:
320,0,125373,1,0,1:0:0:0:
192,0,125435,1,0,1:0:0:0:
64,0,125498,1,0,1:0:0:0:
448,0,125560,1,0,1:0:0:0:
320,0,125592,1,0,1:0:0:0:
64,0,125623,1,0,1:0:0:0:
192,0,125685,1,0,1:0:0:0:
448,0,125685,1,0,1:0:0:0:
320,0,125748,1,0,1:0:0:0:
64,0,125810,1,0,1:0:0:0:
192,0,125873,1,0,1:0:0:0:
320,0,125935,1,0,1:0:0:0:
192,0,125967,1,0,1:0:0:0:
448,0,125998,1,0,1:0:0:0:
64,0,126060,1,0,1:0:0:0:
320,0,126060,1,0,1:0:0:0:
192,0,126123,1,0,1:0:0:0:
448,0,126185,1,0,1:0:0:0:
320,0,126248,1,0,1:0:0:0:
192,0,126310,1,0,1:0:0:0:
320,0,126342,1,0,1:0:0:0:
448,0,126373,1,0,1:0:0:0:
64,0,126435,1,0,1:0:0:0:
192,0,126435,1,0,1:0:0:0:
448,0,126498,1,0,1:0:0:0:
320,0,126560,1,0,1:0:0:0:
64,0,126623,1,0,1:0:0:0:
192,0,126623,1,0,1:0:0:0:
448,0,126623,1,0,1:0:0:0:
320,0,126685,1,0,1:0:0:0:
192,0,126717,1,0,1:0:0:0:
64,0,126748,1,0,1:0:0:0:
320,0,126810,1,0,1:0:0:0:
448,0,126810,1,0,1:0:0:0:
64,0,126873,1,0,1:0:0:0:
192,0,126935,1,0,1:0:0:0:
448,0,126998,1,0,1:0:0:0:
320,0,127060,1,0,1:0:0:0:
64,0,127092,1,0,1:0:0:0:
192,0,127123,1,0,1:0:0:0:
320,0,127185,1,0,1:0:0:0:
448,0,127185,1,0,1:0:0:0:
64,0,127248,1,0,1:0:0:0:
448,0,127310,1,0,1:0:0:0:
192,0,127373,1,0,1:0:0:0:
64,0,127435,1,0,1:0:0:0:
320,0,127467,1,0,1:0:0:0:
448,0,127498,1,0,1:0:0:0:
192,0,127560,1,0,1:0:0:0:
320,0,127560,1,0,1:0:0:0:
64,0,127623,1,0,1:0:0:0:
448,0,127685,1,0,1:0:0:0:
320,0,127748,1,0,1:0:0:0:
192,0,127810,1,0,1:0:0:0:
448,0,127842,1,0,1:0:0:0:
320,0,127873,1,0,1:0:0:0:
64,0,127935,1,0,1:0:0:0:
192,0,127935,1,0,1:0:0:0:
448,0,127998,1,0,1:0:0:0:
320,0,128060,1,0,1:0:0:0:
64,0,128123,1,0,1:0:0:0:
448,0,128185,1,0,1:0:0:0:
192,0,128217,1,0,1:0:0:0:
320,0,128248,1,0,1:0:0:0:
64,0,128310,1,0,1:0:0:0:
448,0,128310,1,0,1:0:0:0:
192,0,128373,1,0,1:0:0:0:
320,0,128435,1,0,1:0:0:0:
448,0,128498,1,0,1:0:0:0:
192,0,128560,1,0,1:0:0:0:
64,0,128592,1,0,1:0:0:0:
320,0,128623,1,0,1:0:0:0:
64,0,128685,1,0,1:0:0:0:
448,0,128685,1,0,1:0:0:0:
192,0,128748,1,0,1:0:0:0:
320,0,128810,1,0,1:0:0:0:
64,0,128873,1,0,1:0:0:0:
192,0,128873,1,0,1:0:0:0:
448,0,128935,1,0,1:0:0:0:
192,0,128967,1,0,1:0:0:0:
320,0,128967,1,0,1:0:0:0:
64,0,128998,1,0,1:0:0:0:
320,0,129060,1,0,1:0:0:0:
448,0,129060,1,0,1:0:0:0:
64,0,129123,1,0,1:0:0:0:
192,0,129185,1,0,1:0:0:0:
320,0,129248,1,0,1:0:0:0:
448,0,129248,1,0,1:0:0:0:
64,0,129310,1,0,1:0:0:0:
192,0,129342,1,0,1:0:0:0:
448,0,129373,1,0,1:0:0:0:
64,0,129435,1,0,1:0:0:0:
320,0,129435,1,0,1:0:0:0:
192,0,129498,1,0,1:0:0:0:
320,0,129529,1,0,1:0:0:0:
448,0,129529,1,0,1:0:0:0:
64,0,129560,1,0,1:0:0:0:
192,0,129623,1,0,1:0:0:0:
320,0,129670,1,0,1:0:0:0:
192,0,129717,1,0,1:0:0:0:
320,0,129764,1,0,1:0:0:0:
64,0,129810,1,0,1:0:0:0:
448,0,129810,1,0,1:0:0:0:
192,0,129873,1,0,1:0:0:0:
320,0,129935,1,0,1:0:0:0:
64,0,129998,1,0,1:0:0:0:
192,0,130060,1,0,1:0:0:0:
448,0,130092,1,0,1:0:0:0:
320,0,130123,1,0,1:0:0:0:
64,0,130185,1,0,1:0:0:0:
192,0,130185,1,0,1:0:0:0:
448,0,130248,1,0,1:0:0:0:
320,0,130310,1,0,1:0:0:0:
192,0,130373,1,0,1:0:0:0:
448,0,130435,1,0,1:0:0:0:
320,0,130467,1,0,1:0:0:0:
64,0,130498,1,0,1:0:0:0:
192,0,130560,1,0,1:0:0:0:
448,0,130560,1,0,1:0:0:0:
320,0,130623,1,0,1:0:0:0:
64,0,130685,1,0,1:0:0:0:
320,0,130748,1,0,1:0:0:0:
192,0,130810,1,0,1:0:0:0:
64,0,130842,1,0,1:0:0:0:
448,0,130873,1,0,1:0:0:0:
192,0,130935,1,0,1:0:0:0:
320,0,130935,1,0,1:0:0:0:
64,0,130998,1,0,1:0:0:0:
320,0,131060,1,0,1:0:0:0:
448,0,131123,1,0,1:0:0:0:
64,0,131185,1,0,1:0:0:0:
192,0,131217,1,0,1:0:0:0:
320,0,131248,1,0,1:0:0:0:
64,0,131310,1,0,1:0:0:0:
448,0,131310,1,0,1:0:0:0:
192,0,131373,1,0,1:0:0:0:
448,0,131435,1,0,1:0:0:0:
64,0,131498,1,0,1:0:0:0:
320,0,131560,1,0,1:0:0:0:
192,0,131592,1,0,1:0:0:0:
448,0,131623,1,0,1:0:0:0:
64,0,131685,1,0,1:0:0:0:
320,0,131685,1,0,1:0:0:0:
192,0,131748,1,0,1:0:0:0:
448,0,131810,1,0,1:0:0:0:
192,0,131873,1,0,1:0:0:0:
64,0,131935,1,0,1:0:0:0:
320,0,131967,1,0,1:0:0:0:
448,0,131998,1,0,1:0:0:0:
64,0,132060,1,0,1:0:0:0:
192,0,132060,1,0,1:0:0:0:
320,0,132123,1,0,1:0:0:0:
192,0,132185,1,0,1:0:0:0:
448,0,132248,1,0,1:0:0:0:
320,0,132310,1,0,1:0:0:0:
192,0,132342,1,0,1:0:0:0:
64,0,132373,1,0,1:0:0:0:
320,0,132435,1,0,1:0:0:0:
448,0,132435,1,0,1:0:0:0:
192,0,132498,1,0,1:0:0:0:
64,0,132560,1,0,1:0:0:0:
320,0,132623,1,0,1:0:0:0:
448,0,132623,1,0,1:0:0:0:
192,0,132670,1,0,1:0:0:0:
64,0,132717,1,0,1:0:0:0:
448,0,132717,1,0,1:0:0:0:
64,0,132810,1,0,1:0:0:0:
192,0,132810,1,0,1:0:0:0:
192,0,132904,1,0,1:0:0:0:
320,0,132904,1,0,1:0:0:0:
320,0,132998,1,0,1:0:0:0:
448,0,132998,1,0,1:0:0:0:
192,0,133092,1,0,1:0:0:0:
320,0,133092,1,0,1:0:0:0:
64,0,133185,1,0,1:0:0:0:
448,0,133185,1,0,1:0:0:0:
192,0,133279,1,0,1:0:0:0:
448,0,133326,1,0,1:0:0:0:
64,0,133373,1,0,1:0:0:0:
192,0,133373,1,0,1:0:0:0:
320,0,133420,1,0,1:0:0:0:
192,0,133467,1,0,1:0:0:0:
320,0,133560,1,0,1:0:0:0:
448,0,133560,1,0,1:0:0:0:
192,0,133607,1,0,1:0:0:0:
320,0,133654,1,0,1:0:0:0:
192,0,133701,1,0,1:0:0:0:
64,0,133748,1,0,1:0:0:0:
320,0,133748,1,0,1:0:0:0:
192,0,133842,1,0,1:0:0:0:
448,0,133842,1,0,1:0:0:0:
64,0,133935,1,0,1:0:0:0:
320,0,133935,1,0,1:0:0:0:
192,0,134029,1,0,1:0:0:0:
448,0,134029,1,0,1:0:0:0:
64,0,134076,1,0,1:0:0:0:
320,0,134123,1,0,1:0:0:0:
192,0,134170,1,0,1:0:0:0:
448,0,134217,1,0,1:0:0:0:
320,0,134264,1,0,1:0:0:0:
64,0,134310,1,0,1:0:0:0:
192,0,134310,1,0,1:0:0:0:
448,0,134310,1,0,1:0:0:0:
192,0,134498,1,0,1:0:0:0:
320,0,134592,1,0,1:0:0:0:
192,0,134639,1,0,1:0:0:0:
64,0,134685,1,0,1:0:0:0:
320,0,134685,1,0,1:0:0:0:
448,0,134685,1,0,1:0:0:0:
320,0,134873,1,0,1:0:0:0:
448,0,134873,1,0,1:0:0:0:
192,0,134967,1,0,1:0:0:0:
320,0,135014,1,0,1:0:0:0:
64,0,135060,1,0,1:0:0:0:
192,0,135060,1,0,1:0:0:0:
448,0,135060,1,0,1:0:0:0:
64,0,135248,1,0,1:0:0:0:
192,0,135248,1,0,1:0:0:0:
320,0,135342,1,0,1:0:0:0:
192,0,135389,1,0,1:0:0:0:
64,0,135435,1,0,1:0:0:0:
320,0,135435,1,0,1:0:0:0:
448,0,135435,1,0,1:0:0:0:
320,0,135623,1,0,1:0:0:0:
448,0,135623,1,0,1:0:0:0:
192,0,135717,1,0,1:0:0:0:
320,0,135764,1,0,1:0:0:0:
64,0,135810,1,0,1:0:0:0:
192,0,135810,1,0,1:0:0:0:
448,0,135810,1,0,1:0:0:0:
320,0,135873,1,0,1:0:0:0:
192,0,135935,1,0,1:0:0:0:
448,0,135998,1,0,1:0:0:0:
320,0,136060,1,0,1:0:0:0:
64,0,136092,1,0,1:0:0:0:
192,0,136123,1,0,1:0:0:0:
64,0,136185,1,0,1:0:0:0:
448,0,136185,1,0,1:0:0:0:
320,0,136248,1,0,1:0:0:0:
192,0,136310,1,0,1:0:0:0:
320,0,136373,1,0,1:0:0:0:
448,0,136373,1,0,1:0:0:0:
192,0,136435,1,0,1:0:0:0:
64,0,136467,1,0,1:0:0:0:
448,0,136498,1,0,1:0:0:0:
192,0,136560,1,0,1:0:0:0:
320,0,136560,1,0,1:0:0:0:
64,0,136654,1,0,1:0:0:0:
448,0,136701,1,0,1:0:0:0:
64,0,136748,1,0,1:0:0:0:
448,0,136795,1,0,1:0:0:0:
64,0,136842,1,0,1:0:0:0:
320,0,136842,1,0,1:0:0:0:
192,0,136935,1,0,1:0:0:0:
448,0,136935,1,0,1:0:0:0:
320,0,137029,1,0,1:0:0:0:
64,0,137123,1,0,1:0:0:0:
192,0,137123,1,0,1:0:0:0:
192,0,137217,1,0,1:0:0:0:
320,0,137217,1,0,1:0:0:0:
64,0,137310,1,0,1:0:0:0:
448,0,137310,1,0,1:0:0:0:
320,0,137373,1,0,1:0:0:0:
192,0,137435,1,0,1:0:0:0:
64,0,137498,1,0,1:0:0:0:
320,0,137498,1,0,1:0:0:0:
192,0,137560,1,0,1:0:0:0:
448,0,137623,1,0,1:0:0:0:
192,0,137685,1,0,1:0:0:0:
320,0,137685,1,0,1:0:0:0:
64,0,137732,1,0,1:0:0:0:
320,0,137779,1,0,1:0:0:0:
448,0,137779,1,0,1:0:0:0:
192,0,137826,1,0,1:0:0:0:
64,0,137873,1,0,1:0:0:0:
320,0,137935,1,0,1:0:0:0:
192,0,137998,1,0,1:0:0:0:
320,0,138060,1,0,1:0:0:0:
448,0,138060,1,0,1:0:0:0:
64,0,138123,1,0,1:0:0:0:
448,0,138185,1,0,1:0:0:0:
64,0,138248,1,0,1:0:0:0:
320,0,138248,1,0,1:0:0:0:
192,0,138310,1,0,1:0:0:0:
320,0,138373,1,0,1:0:0:0:
64,0,138435,1,0,1:0:0:0:
192,0,138435,1,0,1:0:0:0:
448,0,138482,1,0,1:0:0:0:
192,0,138529,1,0,1:0:0:0:
320,0,138529,1,0,1:0:0:0:
64,0,138576,1,0,1:0:0:0:
448,0,138623,1,0,1:0:0:0:
192,0,138670,1,0,1:0:0:0:
448,0,138717,1,0,1:0:0:0:
192,0,138764,1,0,1:0:0:0:
64,0,138810,1,0,1:0:0:0:
320,0,138810,1,0,1:0:0:0:
192,0,138904,1,0,1:0:0:0:
320,0,138904,1,0,1:0:0:0:
192,0,138998,1,0,1:0:0:0:
448,0,138998,1,0,1:0:0:0:
64,0,139092,1,0,1:0:0:0:
320,0,139092,1,0,1:0:0:0:
192,0,139185,1,0,1:0:0:0:
448,0,139185,1,0,1:0:0:0:
320,0,139248,1,0,1:0:0:0:
192,0,139310,1,0,1:0:0:0:
448,0,139373,1,0,1:0:0:0:
64,0,139435,1,0,1:0:0:0:
320,0,139467,1,0,1:0:0:0:
192,0,139498,1,0,1:0:0:0:
320,0,139560,1,0,1:0:0:0:
448,0,139560,1,0,1:0:0:0:
64,0,139623,1,0,1:0:0:0:
448,0,139685,1,0,1:0:0:0:
192,0,139748,1,0,1:0:0:0:
320,0,139810,1,0,1:0:0:0:
448,0,139842,1,0,1:0:0:0:
64,0,139873,1,0,1:0:0:0:
192,0,139935,1,0,1:0:0:0:
320,0,139935,1,0,1:0:0:0:
448,0,140029,1,0,1:0:0:0:
192,0,140076,1,0,1:0:0:0:
320,0,140123,1,0,1:0:0:0:
64,0,140185,1,0,1:0:0:0:
448,0,140217,1,0,1:0:0:0:
320,0,140248,1,0,1:0:0:0:
64,0,140310,1,0,1:0:0:0:
192,0,140310,1,0,1:0:0:0:
448,0,140373,1,0,1:0:0:0:
192,0,140435,1,0,1:0:0:0:
64,0,140498,1,0,1:0:0:0:
320,0,140498,1,0,1:0:0:0:
448,0,140560,1,0,1:0:0:0:
192,0,140592,1,0,1:0:0:0:
64,0,140623,1,0,1:0:0:0:
320,0,140685,1,0,1:0:0:0:
448,0,140685,1,0,1:0:0:0:
192,0,140732,1,0,1:0:0:0:
64,0,140779,1,0,1:0:0:0:
448,0,140779,1,0,1:0:0:0:
320,0,140826,1,0,1:0:0:0:
192,0,140873,1,0,1:0:0:0:
448,0,140935,1,0,1:0:0:0:
64,0,140998,1,0,1:0:0:0:
192,0,141060,1,0,1:0:0:0:
320,0,141060,1,0,1:0:0:0:
64,0,141107,1,0,1:0:0:0:
448,0,141154,1,0,1:0:0:0:
192,0,141201,1,0,1:0:0:0:
320,0,141248,1,0,1:0:0:0:
448,0,141248,1,0,1:0:0:0:
64,0,141295,1,0,1:0:0:0:
192,0,141342,1,0,1:0:0:0:
448,0,141389,1,0,1:0:0:0:
64,0,141435,1,0,1:0:0:0:
192,0,141435,1,0,1:0:0:0:
320,0,141482,1,0,1:0:0:0:
448,0,141529,1,0,1:0:0:0:
192,0,141576,1,0,1:0:0:0:
64,0,141623,1,0,1:0:0:0:
320,0,141670,1,0,1:0:0:0:
64,0,141717,1,0,1:0:0:0:
320,0,141764,1,0,1:0:0:0:
64,0,141810,1,0,1:0:0:0:
448,0,141810,1,0,1:0:0:0:
192,0,141873,1,0,1:0:0:0:
320,0,141935,1,0,1:0:0:0:
192,0,141998,1,0,1:0:0:0:
64,0,142060,1,0,1:0:0:0:
448,0,142092,1,0,1:0:0:0:
320,0,142123,1,0,1:0:0:0:
192,0,142185,1,0,1:0:0:0:
448,0,142248,1,0,1:0:0:0:
64,0,142310,1,0,1:0:0:0:
192,0,142373,1,0,1:0:0:0:
320,0,142373,1,0,1:0:0:0:
448,0,142435,1,0,1:0:0:0:
192,0,142498,1,0,1:0:0:0:
64,0,142560,1,0,1:0:0:0:
320,0,142560,1,0,1:0:0:0:
192,0,142654,1,0,1:0:0:0:
448,0,142701,1,0,1:0:0:0:
192,0,142748,1,0,1:0:0:0:
448,0,142795,1,0,1:0:0:0:
192,0,142842,1,0,1:0:0:0:
320,0,142842,1,0,1:0:0:0:
64,0,142935,1,0,1:0:0:0:
448,0,142935,1,0,1:0:0:0:
320,0,143029,1,0,1:0:0:0:
64,0,143123,1,0,1:0:0:0:
192,0,143123,1,0,1:0:0:0:
320,0,143217,1,0,1:0:0:0:
448,0,143217,1,0,1:0:0:0:
64,0,143310,1,0,1:0:0:0:
192,0,143310,1,0,1:0:0:0:
320,0,143373,1,0,1:0:0:0:
64,0,143435,1,0,1:0:0:0:
192,0,143498,1,0,1:0:0:0:
448,0,143498,1,0,1:0:0:0:
320,0,143560,1,0,1:0:0:0:
448,0,143623,1,0,1:0:0:0:
64,0,143685,1,0,1:0:0:0:
192,0,143685,1,0,1:0:0:0:
320,0,143732,1,0,1:0:0:0:
64,0,143779,1,0,1:0:0:0:
448,0,143779,1,0,1:0:0:0:
192,0,143826,1,0,1:0:0:0:
320,0,143873,1,0,1:0:0:0:
64,0,143935,1,0,1:0:0:0:
448,0,143998,1,0,1:0:0:0:
192,0,144060,1,0,1:0:0:0:
320,0,144060,1,0,1:0:0:0:
64,0,144123,1,0,1:0:0:0:
320,0,144185,1,0,1:0:0:0:
192,0,144248,1,0,1:0:0:0:
448,0,144248,1,0,1:0:0:0:
64,0,144310,1,0,1:0:0:0:
320,0,144342,1,0,1:0:0:0:
192,0,144373,1,0,1:0:0:0:
64,0,144435,1,0,1:0:0:0:
448,0,144435,1,0,1:0:0:0:
320,0,144482,1,0,1:0:0:0:
64,0,144529,1,0,1:0:0:0:
192,0,144529,1,0,1:0:0:0:
320,0,144576,1,0,1:0:0:0:
448,0,144623,1,0,1:0:0:0:
64,0,144670,1,0,1:0:0:0:
448,0,144717,1,0,1:0:0:0:
64,0,144764,1,0,1:0:0:0:
320,0,144810,1,0,1:0:0:0:
448,0,144810,1,0,1:0:0:0:
192,0,144904,1,0,1:0:0:0:
320,0,144904,1,0,1:0:0:0:
64,0,144998,1,0,1:0:0:0:
192,0,144998,1,0,1:0:0:0:
320,0,145092,1,0,1:0:0:0:
448,0,145092,1,0,1:0:0:0:
192,0,145185,1,0,1:0:0:0:
448,0,145185,1,0,1:0:0:0:
64,0,145279,1,0,1:0:0:0:
320,0,145279,1,0,1:0:0:0:
192,0,145373,1,0,1:0:0:0:
64,0,145435,1,0,1:0:0:0:
320,0,145467,1,0,1:0:0:0:
448,0,145498,1,0,1:0:0:0:
64,0,145560,1,0,1:0:0:0:
192,0,145560,1,0,1:0:0:0:
320,0,145623,1,0,1:0:0:0:
448,0,145685,1,0,1:0:0:0:
64,0,145748,1,0,1:0:0:0:
320,0,145810,1,0,1:0:0:0:
192,0,145842,1,0,1:0:0:0:
448,0,145873,1,0,1:0:0:0:
64,0,145935,1,0,1:0:0:0:
320,0,145935,1,0,1:0:0:0:
192,0,145982,1,0,1:0:0:0:
448,0,146029,1,0,1:0:0:0:
192,0,146076,1,0,1:0:0:0:
320,0,146123,1,0,1:0:0:0:
64,0,146217,1,0,1:0:0:0:
192,0,146217,1,0,1:0:0:0:
320,0,146310,1,0,1:0:0:0:
448,0,146310,1,0,1:0:0:0:
192,0,146373,1,0,1:0:0:0:
64,0,146404,1,0,1:0:0:0:
320,0,146435,1,0,1:0:0:0:
448,0,146435,1,0,1:0:0:0:
64,0,146498,1,0,1:0:0:0:
192,0,146498,1,0,1:0:0:0:
320,0,146560,1,0,1:0:0:0:
448,0,146560,1,0,1:0:0:0:
64,0,146623,1,0,1:0:0:0:
192,0,146623,1,0,1:0:0:0:
320,0,146685,1,0,1:0:0:0:
448,0,146685,1,0,1:0:0:0:
192,0,146732,1,0,1:0:0:0:
64,0,146779,1,0,1:0:0:0:
448,0,146779,1,0,1:0:0:0:
320,0,146826,1,0,1:0:0:0:
192,0,146873,1,0,1:0:0:0:
64,0,146935,1,0,1:0:0:0:
320,0,146967,1,0,1:0:0:0:
448,0,146967,1,0,1:0:0:0:
192,0,146998,1,0,1:0:0:0:
64,0,147060,1,0,1:0:0:0:
448,0,147060,1,0,1:0:0:0:
320,0,147123,1,0,1:0:0:0:
192,0,147154,1,0,1:0:0:0:
64,0,147201,1,0,1:0:0:0:
320,0,147248,1,0,1:0:0:0:
448,0,147248,1,0,1:0:0:0:
192,0,147342,1,0,1:0:0:0:
320,0,147389,1,0,1:0:0:0:
64,0,147435,1,0,1:0:0:0:
192,0,147435,1,0,1:0:0:0:
320,0,147529,1,0,1:0:0:0:
448,0,147529,1,0,1:0:0:0:
192,0,147623,1,0,1:0:0:0:
320,0,147670,1,0,1:0:0:0:
192,0,147717,1,0,1:0:0:0:
320,0,147764,1,0,1:0:0:0:
64,0,147810,1,0,1:0:0:0:
192,0,147810,1,0,1:0:0:0:
448,0,147810,1,0,1:0:0:0:
320,0,147873,1,0,1:0:0:0:
192,0,147935,1,0,1:0:0:0:
64,0,147998,1,0,1:0:0:0:
448,0,147998,1,0,1:0:0:0:
192,0,148060,1,0,1:0:0:0:
320,0,148092,1,0,1:0:0:0:
448,0,148123,1,0,1:0:0:0:
64,0,148185,1,0,1:0:0:0:
192,0,148185,1,0,1:0:0:0:
320,0,148248,1,0,1:0:0:0:
448,0,148310,1,0,1:0:0:0:
192,0,148373,1,0,1:0:0:0:
320,0,148373,1,0,1:0:0:0:
64,0,148435,1,0,1:0:0:0:
448,0,148467,1,0,1:0:0:0:
192,0,148498,1,0,1:0:0:0:
64,0,148560,1,0,1:0:0:0:
320,0,148560,1,0,1:0:0:0:
448,0,148623,1,0,1:0:0:0:
192,0,148685,1,0,1:0:0:0:
320,0,148748,1,0,1:0:0:0:
448,0,148748,1,0,1:0:0:0:
192,0,148810,1,0,1:0:0:0:
64,0,148842,1,0,1:0:0:0:
448,0,148873,1,0,1:0:0:0:
192,0,148935,1,0,1:0:0:0:
320,0,148935,1,0,1:0:0:0:
448,0,148998,1,0,1:0:0:0:
192,0,149029,1,0,1:0:0:0:
64,0,149060,1,0,1:0:0:0:
320,0,149123,1,0,1:0:0:0:
448,0,149123,1,0,1:0:0:0:
64,0,149185,1,0,1:0:0:0:
192,0,149217,1,0,1:0:0:0:
320,0,149217,1,0,1:0:0:0:
64,0,149310,1,0,1:0:0:0:
448,0,149310,1,0,1:0:0:0:
192,0,149373,1,0,1:0:0:0:
320,0,149435,1,0,1:0:0:0:
64,0,149498,1,0,1:0:0:0:
192,0,149498,1,0,1:0:0:0:
320,0,149560,1,0,1:0:0:0:
64,0,149592,1,0,1:0:0:0:
448,0,149623,1,0,1:0:0:0:
192,0,149685,1,0,1:0:0:0:
320,0,149685,1,0,1:0:0:0:
448,0,149732,1,0,1:0:0:0:
64,0,149779,1,0,1:0:0:0:
320,0,149826,1,0,1:0:0:0:
448,0,149873,1,0,1:0:0:0:
192,0,149935,1,0,1:0:0:0:
64,0,149967,1,0,1:0:0:0:
320,0,149998,1,0,1:0:0:0:
64,0,150060,1,0,1:0:0:0:
192,0,150060,1,0,1:0:0:0:
448,0,150123,1,0,1:0:0:0:
320,0,150185,1,0,1:0:0:0:
64,0,150248,1,0,1:0:0:0:
192,0,150248,1,0,1:0:0:0:
320,0,150310,1,0,1:0:0:0:
448,0,150342,1,0,1:0:0:0:
192,0,150373,1,0,1:0:0:0:
64,0,150435,1,0,1:0:0:0:
320,0,150435,1,0,1:0:0:0:
448,0,150482,1,0,1:0:0:0:
192,0,150529,1,0,1:0:0:0:
320,0,150576,1,0,1:0:0:0:
64,0,150623,1,0,1:0:0:0:
192,0,150623,1,0,1:0:0:0:
448,0,150623,1,0,1:0:0:0:
320,0,150685,1,0,1:0:0:0:
64,0,150748,1,0,1:0:0:0:
192,0,150810,1,0,1:0:0:0:
320,0,150810,1,0,1:0:0:0:
448,0,150873,1,0,1:0:0:0:
320,0,150935,1,0,1:0:0:0:
192,0,150998,1,0,1:0:0:0:
448,0,150998,1,0,1:0:0:0:
64,0,151060,1,0,1:0:0:0:
320,0,151092,1,0,1:0:0:0:
192,0,151123,1,0,1:0:0:0:
64,0,151185,1,0,1:0:0:0:
448,0,151185,1,0,1:0:0:0:
192,0,151248,1,0,1:0:0:0:
448,0,151310,1,0,1:0:0:0:
64,0,151373,1,0,1:0:0:0:
320,0,151373,1,0,1:0:0:0:
192,0,151435,1,0,1:0:0:0:
448,0,151467,1,0,1:0:0:0:
320,0,151498,1,0,1:0:0:0:
64,0,151560,1,0,1:0:0:0:
192,0,151560,1,0,1:0:0:0:
448,0,151623,1,0,1:0:0:0:
64,0,151685,1,0,1:0:0:0:
320,0,151748,1,0,1:0:0:0:
448,0,151748,1,0,1:0:0:0:
192,0,151810,1,0,1:0:0:0:
64,0,151842,1,0,1:0:0:0:
448,0,151873,1,0,1:0:0:0:
192,0,151935,1,0,1:0:0:0:
320,0,151935,1,0,1:0:0:0:
448,0,151998,1,0,1:0:0:0:
192,0,152029,1,0,1:0:0:0:
64,0,152060,1,0,1:0:0:0:
320,0,152123,1,0,1:0:0:0:
448,0,152123,1,0,1:0:0:0:
192,0,152217,1,0,1:0:0:0:
448,0,152217,1,0,1:0:0:0:
64,0,152248,1,0,1:0:0:0:
192,0,152310,1,0,1:0:0:0:
320,0,152310,1,0,1:0:0:0:
448,0,152373,1,0,1:0:0:0:
64,0,152435,1,0,1:0:0:0:
192,0,152498,1,0,1:0:0:0:
320,0,152498,1,0,1:0:0:0:
64,0,152560,1,0,1:0:0:0:
448,0,152592,1,0,1:0:0:0:
320,0,152623,1,0,1:0:0:0:
64,0,152685,1,0,1:0:0:0:
192,0,152685,1,0,1:0:0:0:
448,0,152732,1,0,1:0:0:0:
64,0,152779,1,0,1:0:0:0:
192,0,152826,1,0,1:0:0:0:
320,0,152873,1,0,1:0:0:0:
448,0,152873,1,0,1:0:0:0:
64,0,152935,1,0,1:0:0:0:
192,0,152967,1,0,1:0:0:0:
448,0,152967,1,0,1:0:0:0:
320,0,152998,1,0,1:0:0:0:
64,0,153060,1,0,1:0:0:0:
448,0,153060,1,0,1:0:0:0:
192,0,153107,1,0,1:0:0:0:
320,0,153154,1,0,1:0:0:0:
448,0,153201,1,0,1:0:0:0:
64,0,153248,1,0,1:0:0:0:
192,0,153248,1,0,1:0:0:0:
448,0,153310,1,0,1:0:0:0:
320,0,153342,1,0,1:0:0:0:
192,0,153373,1,0,1:0:0:0:
64,0,153435,1,0,1:0:0:0:
448,0,153435,1,0,1:0:0:0:
320,0,153482,1,0,1:0:0:0:
192,0,153529,1,0,1:0:0:0:
448,0,153529,1,0,1:0:0:0:
64,0,153576,1,0,1:0:0:0:
320,0,153623,1,0,1:0:0:0:
448,0,153623,1,0,1:0:0:0:
192,0,153670,1,0,1:0:0:0:
320,0,153717,1,0,1:0:0:0:
192,0,153764,1,0,1:0:0:0:
64,0,153810,1,0,1:0:0:0:
448,0,153810,1,0,1:0:0:0:
320,0,153873,1,0,1:0:0:0:
192,0,153935,1,0,1:0:0:0:
320,0,153998,1,0,1:0:0:0:
448,0,153998,1,0,1:0:0:0:
64,0,154060,1,0,1:0:0:0:
192,0,154092,1,0,1:0:0:0:
320,0,154123,1,0,1:0:0:0:
64,0,154185,1,0,1:0:0:0:
448,0,154185,1,0,1:0:0:0:
192,0,154248,1,0,1:0:0:0:
448,0,154310,1,0,1:0:0:0:
192,0,154373,1,0,1:0:0:0:
320,0,154373,1,0,1:0:0:0:
64,0,154435,1,0,1:0:0:0:
448,0,154467,1,0,1:0:0:0:
320,0,154498,1,0,1:0:0:0:
64,0,154560,1,0,1:0:0:0:
192,0,154560,1,0,1:0:0:0:
448,0,154623,1,0,1:0:0:0:
192,0,154685,1,0,1:0:0:0:
64,0,154748,1,0,1:0:0:0:
320,0,154748,1,0,1:0:0:0:
448,0,154810,1,0,1:0:0:0:
192,0,154842,1,0,1:0:0:0:
320,0,154873,1,0,1:0:0:0:
64,0,154935,1,0,1:0:0:0:
448,0,154935,1,0,1:0:0:0:
320,0,154998,1,0,1:0:0:0:
192,0,155029,1,0,1:0:0:0:
64,0,155060,1,0,1:0:0:0:
192,0,155123,1,0,1:0:0:0:
448,0,155123,1,0,1:0:0:0:
320,0,155170,1,0,1:0:0:0:
64,0,155185,1,0,1:0:0:0:
448,0,155217,1,0,1:0:0:0:
192,0,155248,1,0,1:0:0:0:
320,0,155310,1,0,1:0:0:0:
448,0,155357,1,0,1:0:0:0:
192,0,155373,1,0,1:0:0:0:
64,0,155404,1,0,1:0:0:0:
320,0,155435,1,0,1:0:0:0:
448,0,155451,1,0,1:0:0:0:
192,0,155498,1,0,1:0:0:0:
64,0,155560,1,0,1:0:0:0:
448,0,155592,1,0,1:0:0:0:
320,0,155623,1,0,1:0:0:0:
64,0,155685,1,0,1:0:0:0:
192,0,155685,1,0,1:0:0:0:
448,0,155732,1,0,1:0:0:0:
320,0,155779,1,0,1:0:0:0:
192,0,155826,1,0,1:0:0:0:
64,0,155873,1,0,1:0:0:0:
448,0,155935,1,0,1:0:0:0:
320,0,155967,1,0,1:0:0:0:
64,0,155998,1,0,1:0:0:0:
192,0,156060,1,0,1:0:0:0:
448,0,156060,1,0,1:0:0:0:
320,0,156123,1,0,1:0:0:0:
448,0,156185,1,0,1:0:0:0:
64,0,156248,1,0,1:0:0:0:
192,0,156248,1,0,1:0:0:0:
320,0,156295,1,0,1:0:0:0:
448,0,156310,1,0,1:0:0:0:
64,0,156342,1,0,1:0:0:0:
192,0,156373,1,0,1:0:0:0:
320,0,156389,1,0,1:0:0:0:
64,0,156435,1,0,1:0:0:0:
448,0,156435,1,0,1:0:0:0:
192,0,156482,1,0,1:0:0:0:
320,0,156529,1,0,1:0:0:0:
448,0,156576,1,0,1:0:0:0:
64,0,156623,1,0,1:0:0:0:
320,0,156670,1,0,1:0:0:0:
192,0,156685,1,0,1:0:0:0:
64,0,156717,1,0,1:0:0:0:
448,0,156748,1,0,1:0:0:0:
320,0,156764,1,0,1:0:0:0:
64,0,156810,1,0,1:0:0:0:
192,0,156810,1,0,1:0:0:0:
64,0,156904,1,0,1:0:0:0:
192,0,156904,1,0,1:0:0:0:
320,0,156998,1,0,1:0:0:0:
448,0,156998,1,0,1:0:0:0:
192,0,157092,1,0,1:0:0:0:
320,0,157092,1,0,1:0:0:0:
64,0,157185,1,0,1:0:0:0:
448,0,157185,1,0,1:0:0:0:
320,0,157232,1,0,1:0:0:0:
64,0,157279,1,0,1:0:0:0:
192,0,157279,1,0,1:0:0:0:
320,0,157326,1,0,1:0:0:0:
448,0,157326,1,0,1:0:0:0:
64,0,157373,1,0,1:0:0:0:
192,0,157373,1,0,1:0:0:0:
448,0,157420,1,0,1:0:0:0:
320,0,157467,1,0,1:0:0:0:
64,0,157560,1,0,1:0:0:0:
448,0,157560,1,0,1:0:0:0:
192,0,157607,1,0,1:0:0:0:
448,0,157654,1,0,1:0:0:0:
192,0,157701,1,0,1:0:0:0:
64,0,157748,1,0,1:0:0:0:
320,0,157748,1,0,1:0:0:0:
192,0,157842,1,0,1:0:0:0:
448,0,157842,1,0,1:0:0:0:
64,0,157935,1,0,1:0:0:0:
320,0,157935,1,0,1:0:0:0:
192,0,158029,1,0,1:0:0:0:
448,0,158029,1,0,1:0:0:0:
64,0,158123,1,0,1:0:0:0:
192,0,158123,1,0,1:0:0:0:
320,0,158170,1,0,1:0:0:0:
448,0,158170,1,0,1:0:0:0:
64,0,158217,1,0,1:0:0:0:
192,0,158217,1,0,1:0:0:0:
320,0,158264,1,0,1:0:0:0:
448,0,158264,1,0,1:0:0:0:
64,0,158310,1,0,1:0:0:0:
192,0,158310,1,0,1:0:0:0:
64,0,158404,1,0,1:0:0:0:
448,0,158404,1,0,1:0:0:0:
320,0,158498,1,0,1:0:0:0:
192,0,158545,1,0,1:0:0:0:
320,0,158592,1,0,1:0:0:0:
192,0,158639,1,0,1:0:0:0:
320,0,158685,1,0,1:0:0:0:
448,0,158685,1,0,1:0:0:0:
64,0,158732,1,0,1:0:0:0:
192,0,158779,1,0,1:0:0:0:
448,0,158779,1,0,1:0:0:0:
320,0,158826,1,0,1:0:0:0:
64,0,158873,1,0,1:0:0:0:
192,0,158873,1,0,1:0:0:0:
320,0,158935,1,0,1:0:0:0:
448,0,158935,1,0,1:0:0:0:
64,0,158998,1,0,1:0:0:0:
192,0,158998,1,0,1:0:0:0:
320,0,159060,1,0,1:0:0:0:
448,0,159060,1,0,1:0:0:0:
64,0,159248,1,0,1:0:0:0:
192,0,159248,1,0,1:0:0:0:
320,0,159295,1,0,1:0:0:0:
448,0,159295,1,0,1:0:0:0:
64,0,159342,1,0,1:0:0:0:
192,0,159342,1,0,1:0:0:0:
320,0,159389,1,0,1:0:0:0:
448,0,159389,1,0,1:0:0:0:
64,0,159435,1,0,1:0:0:0:
192,0,159435,1,0,1:0:0:0:
320,0,159529,1,0,1:0:0:0:
448,0,159529,1,0,1:0:0:0:
64,0,159623,1,0,1:0:0:0:
192,0,159623,1,0,1:0:0:0:
448,0,159623,1,0,1:0:0:0:
320,0,159670,1,0,1:0:0:0:
192,0,159717,1,0,1:0:0:0:
320,0,159764,1,0,1:0:0:0:
192,192,159998,128,0,160092:0:0:0:0:
64,192,159998,128,0,160092:0:0:0:0:
448,0,160185,1,0,1:0:0:0:
320,0,160217,1,0,1:0:0:0:
192,0,160248,1,0,1:0:0:0:
64,0,160279,1,0,1:0:0:0:
448,0,160310,1,0,1:0:0:0:
320,0,160342,1,0,1:0:0:0:
192,0,160373,1,0,1:0:0:0:
64,0,160404,1,0,1:0:0:0:
448,0,160435,1,0,1:0:0:0:
320,0,160467,1,0,1:0:0:0:
192,0,160498,1,0,1:0:0:0:
64,0,160529,1,0,1:0:0:0:
448,0,160560,1,0,1:0:0:0:
320,0,160607,1,0,1:0:0:0:
192,0,160654,1,0,1:0:0:0:
64,0,160701,1,0,1:0:0:0:
448,0,160748,1,0,1:0:0:0:
320,0,160795,1,0,1:0:0:0:
64,0,160842,1,0,1:0:0:0:
320,0,160889,1,0,1:0:0:0:
64,0,160935,1,0,1:0:0:0:
320,0,160982,1,0,1:0:0:0:
64,0,161029,1,0,1:0:0:0:
320,0,161076,1,0,1:0:0:0:
192,0,161123,1,0,1:0:0:0:
448,0,161185,1,0,1:0:0:0:
192,0,161217,1,0,1:0:0:0:
320,0,161248,1,0,1:0:0:0:
64,0,161310,1,0,1:0:0:0:
192,0,161357,1,0,1:0:0:0:
320,0,161404,1,0,1:0:0:0:
448,0,161435,1,0,1:0:0:0:
64,0,161451,1,0,1:0:0:0:
192,0,161498,1,0,1:0:0:0:
320,0,161545,1,0,1:0:0:0:
448,0,161560,1,0,1:0:0:0:
64,0,161592,1,0,1:0:0:0:
192,0,161639,1,0,1:0:0:0:
448,0,161685,1,0,1:0:0:0:
320,0,161748,1,0,1:0:0:0:
192,0,161779,1,0,1:0:0:0:
64,0,161810,1,0,1:0:0:0:
320,0,161873,1,0,1:0:0:0:
192,0,161935,1,0,1:0:0:0:
64,0,161998,1,0,1:0:0:0:
320,0,162060,1,0,1:0:0:0:
448,0,162123,1,0,1:0:0:0:
192,0,162154,1,0,1:0:0:0:
320,0,162185,1,0,1:0:0:0:
64,0,162248,1,0,1:0:0:0:
448,0,162295,1,0,1:0:0:0:
192,0,162342,1,0,1:0:0:0:
320,0,162389,1,0,1:0:0:0:
64,0,162435,1,0,1:0:0:0:
192,0,162498,1,0,1:0:0:0:
448,0,162560,1,0,1:0:0:0:
64,0,162592,1,0,1:0:0:0:
320,0,162623,1,0,1:0:0:0:
192,0,162654,1,0,1:0:0:0:
448,0,162685,1,0,1:0:0:0:
64,0,162717,1,0,1:0:0:0:
320,0,162748,1,0,1:0:0:0:
192,0,162779,1,0,1:0:0:0:
448,0,162810,1,0,1:0:0:0:
320,0,162857,1,0,1:0:0:0:
64,0,162904,1,0,1:0:0:0:
192,0,162951,1,0,1:0:0:0:
320,0,162998,1,0,1:0:0:0:
64,0,163060,1,0,1:0:0:0:
448,0,163092,1,0,1:0:0:0:
320,0,163123,1,0,1:0:0:0:
192,0,163185,1,0,1:0:0:0:
64,0,163217,1,0,1:0:0:0:
448,0,163248,1,0,1:0:0:0:
192,0,163310,1,0,1:0:0:0:
320,0,163373,1,0,1:0:0:0:
64,0,163420,1,0,1:0:0:0:
448,0,163435,1,0,1:0:0:0:
320,0,163467,1,0,1:0:0:0:
192,0,163514,1,0,1:0:0:0:
448,0,163560,1,0,1:0:0:0:
192,0,163607,1,0,1:0:0:0:
320,0,163654,1,0,1:0:0:0:
448,0,163685,1,0,1:0:0:0:
64,0,163701,1,0,1:0:0:0:
192,0,163748,1,0,1:0:0:0:
320,0,163810,1,0,1:0:0:0:
192,0,163842,1,0,1:0:0:0:
448,0,163873,1,0,1:0:0:0:
64,0,163935,1,0,1:0:0:0:
320,0,163959,1,0,1:0:0:0:
64,0,164029,1,0,1:0:0:0:
320,0,164053,1,0,1:0:0:0:
64,0,164123,1,0,1:0:0:0:
448,0,164146,1,0,1:0:0:0:
192,0,164170,1,0,1:0:0:0:
320,0,164217,1,0,1:0:0:0:
448,0,164264,1,0,1:0:0:0:
64,0,164310,1,0,1:0:0:0:
320,0,164334,1,0,1:0:0:0:
192,0,164404,1,0,1:0:0:0:
448,0,164451,1,0,1:0:0:0:
64,0,164498,1,0,1:0:0:0:
320,0,164545,1,0,1:0:0:0:
192,0,164592,1,0,1:0:0:0:
448,0,164639,1,0,1:0:0:0:
320,0,164654,1,0,1:0:0:0:
64,0,164685,1,0,1:0:0:0:
448,0,164748,1,0,1:0:0:0:
192,0,164779,1,0,1:0:0:0:
64,0,164810,1,0,1:0:0:0:
448,0,164873,1,0,1:0:0:0:
320,0,164935,1,0,1:0:0:0:
192,0,164998,1,0,1:0:0:0:
64,0,165060,1,0,1:0:0:0:
192,0,165123,1,0,1:0:0:0:
320,0,165185,1,0,1:0:0:0:
448,0,165248,1,0,1:0:0:0:
64,0,165295,1,0,1:0:0:0:
192,0,165342,1,0,1:0:0:0:
320,0,165389,1,0,1:0:0:0:
448,0,165435,1,0,1:0:0:0:
64,0,165467,1,0,1:0:0:0:
192,0,165498,1,0,1:0:0:0:
320,0,165529,1,0,1:0:0:0:
448,0,165560,1,0,1:0:0:0:
64,0,165592,1,0,1:0:0:0:
192,0,165623,1,0,1:0:0:0:
320,0,165654,1,0,1:0:0:0:
448,0,165685,1,0,1:0:0:0:
64,0,165717,1,0,1:0:0:0:
192,0,165764,1,0,1:0:0:0:
448,0,165810,1,0,1:0:0:0:
320,0,165857,1,0,1:0:0:0:
192,0,165904,1,0,1:0:0:0:
64,0,165951,1,0,1:0:0:0:
448,0,165967,1,0,1:0:0:0:
320,0,165998,1,0,1:0:0:0:
192,0,166045,1,0,1:0:0:0:
448,0,166092,1,0,1:0:0:0:
64,0,166139,1,0,1:0:0:0:
320,0,166185,1,0,1:0:0:0:
192,0,166232,1,0,1:0:0:0:
64,0,166248,1,0,1:0:0:0:
320,0,166279,1,0,1:0:0:0:
448,0,166310,1,0,1:0:0:0:
192,0,166326,1,0,1:0:0:0:
64,0,166373,1,0,1:0:0:0:
320,0,166435,1,0,1:0:0:0:
192,0,166498,1,0,1:0:0:0:
448,0,166560,1,0,1:0:0:0:
320,0,166592,1,0,1:0:0:0:
192,0,166623,1,0,1:0:0:0:
64,0,166654,1,0,1:0:0:0:
448,0,166685,1,0,1:0:0:0:
320,0,166748,1,0,1:0:0:0:
192,0,166795,1,0,1:0:0:0:
320,0,166842,1,0,1:0:0:0:
192,0,166889,1,0,1:0:0:0:
64,0,166935,1,0,1:0:0:0:
448,0,166982,1,0,1:0:0:0:
192,0,167029,1,0,1:0:0:0:
320,0,167060,1,0,1:0:0:0:
64,0,167076,1,0,1:0:0:0:
448,0,167123,1,0,1:0:0:0:
192,0,167170,1,0,1:0:0:0:
320,0,167185,1,0,1:0:0:0:
64,0,167217,1,0,1:0:0:0:
448,0,167248,1,0,1:0:0:0:
192,0,167264,1,0,1:0:0:0:
320,0,167310,1,0,1:0:0:0:
64,0,167373,1,0,1:0:0:0:
192,0,167404,1,0,1:0:0:0:
448,0,167435,1,0,1:0:0:0:
320,0,167498,1,0,1:0:0:0:
192,0,167560,1,0,1:0:0:0:
64,0,167592,1,0,1:0:0:0:
448,0,167623,1,0,1:0:0:0:
320,0,167685,1,0,1:0:0:0:
192,0,167732,1,0,1:0:0:0:
64,0,167756,1,0,1:0:0:0:
320,0,167779,1,0,1:0:0:0:
192,0,167826,1,0,1:0:0:0:
448,0,167873,1,0,1:0:0:0:
64,0,167920,1,0,1:0:0:0:
320,0,167943,1,0,1:0:0:0:
448,0,167967,1,0,1:0:0:0:
64,0,168014,1,0,1:0:0:0:
320,0,168060,1,0,1:0:0:0:
192,0,168107,1,0,1:0:0:0:
64,0,168131,1,0,1:0:0:0:
320,0,168154,1,0,1:0:0:0:
192,0,168201,1,0,1:0:0:0:
448,0,168248,1,0,1:0:0:0:
64,0,168295,1,0,1:0:0:0:
320,0,168318,1,0,1:0:0:0:
448,0,168342,1,0,1:0:0:0:
64,0,168389,1,0,1:0:0:0:
320,0,168435,1,0,1:0:0:0:
192,0,168498,1,0,1:0:0:0:
320,0,168560,1,0,1:0:0:0:
64,0,168623,1,0,1:0:0:0:
192,0,168685,1,0,1:0:0:0:
64,0,168748,1,0,1:0:0:0:
320,0,168810,1,0,1:0:0:0:
320,0,168904,1,0,1:0:0:0:
64,0,168998,1,0,1:0:0:0:
448,0,169045,1,0,1:0:0:0:
64,0,169092,1,0,1:0:0:0:
192,0,169139,1,0,1:0:0:0:
320,0,169185,1,0,1:0:0:0:
448,0,169232,1,0,1:0:0:0:
64,0,169279,1,0,1:0:0:0:
448,0,169326,1,0,1:0:0:0:
64,0,169373,1,0,1:0:0:0:
192,0,169420,1,0,1:0:0:0:
320,0,169467,1,0,1:0:0:0:
448,0,169498,1,0,1:0:0:0:
64,0,169514,1,0,1:0:0:0:
192,0,169560,1,0,1:0:0:0:
448,0,169623,1,0,1:0:0:0:
320,0,169654,1,0,1:0:0:0:
192,0,169748,1,0,1:0:0:0:
192,0,169842,1,0,1:0:0:0:
320,0,169935,1,0,1:0:0:0:
64,0,169998,1,0,1:0:0:0:
320,0,170029,1,0,1:0:0:0:
192,0,170060,1,0,1:0:0:0:
64,0,170123,1,0,1:0:0:0:
192,0,170185,1,0,1:0:0:0:
320,0,170217,1,0,1:0:0:0:
448,0,170248,1,0,1:0:0:0:
64,0,170310,1,0,1:0:0:0:
192,0,170357,1,0,1:0:0:0:
320,0,170373,1,0,1:0:0:0:
448,0,170404,1,0,1:0:0:0:
64,0,170435,1,0,1:0:0:0:
192,0,170451,1,0,1:0:0:0:
448,0,170498,1,0,1:0:0:0:
320,0,170545,1,0,1:0:0:0:
192,0,170592,1,0,1:0:0:0:
64,0,170639,1,0,1:0:0:0:
448,0,170685,1,0,1:0:0:0:
192,0,170717,1,0,1:0:0:0:
448,0,170779,1,0,1:0:0:0:
192,0,170810,1,0,1:0:0:0:
448,0,170873,1,0,1:0:0:0:
192,0,170904,1,0,1:0:0:0:
320,0,170967,1,0,1:0:0:0:
64,0,171060,1,0,1:0:0:0:
192,0,171107,1,0,1:0:0:0:
320,0,171131,1,0,1:0:0:0:
448,0,171154,1,0,1:0:0:0:
64,0,171178,1,0,1:0:0:0:
192,0,171201,1,0,1:0:0:0:
320,0,171225,1,0,1:0:0:0:
448,0,171248,1,0,1:0:0:0:
64,0,171271,1,0,1:0:0:0:
192,0,171295,1,0,1:0:0:0:
320,0,171318,1,0,1:0:0:0:
448,0,171342,1,0,1:0:0:0:
64,0,171365,1,0,1:0:0:0:
192,0,171389,1,0,1:0:0:0:
320,0,171412,1,0,1:0:0:0:
448,0,171435,1,0,1:0:0:0:
64,0,171459,1,0,1:0:0:0:
192,0,171482,1,0,1:0:0:0:
320,0,171506,1,0,1:0:0:0:
448,0,171529,1,0,1:0:0:0:
64,0,171553,1,0,1:0:0:0:
192,0,171576,1,0,1:0:0:0:
320,0,171600,1,0,1:0:0:0:
448,0,171623,1,0,1:0:0:0:
64,0,171646,1,0,1:0:0:0:
192,0,171670,1,0,1:0:0:0:
320,0,171693,1,0,1:0:0:0:
448,0,171717,1,0,1:0:0:0:
64,0,171740,1,0,1:0:0:0:
192,0,171764,1,0,1:0:0:0:
320,0,171787,1,0,1:0:0:0:
448,0,171810,1,0,1:0:0:0:
64,0,171873,1,0,1:0:0:0:
448,0,171935,1,0,1:0:0:0:
64,0,171998,1,0,1:0:0:0:
192,0,172060,1,0,1:0:0:0:
448,0,172092,1,0,1:0:0:0:
320,0,172123,1,0,1:0:0:0:
448,0,172185,1,0,1:0:0:0:
64,0,172217,1,0,1:0:0:0:
192,0,172248,1,0,1:0:0:0:
320,0,172279,1,0,1:0:0:0:
448,0,172326,1,0,1:0:0:0:
192,0,172373,1,0,1:0:0:0:
64,0,172435,1,0,1:0:0:0:
192,0,172467,1,0,1:0:0:0:
320,0,172498,1,0,1:0:0:0:
448,0,172560,1,0,1:0:0:0:
320,0,172623,1,0,1:0:0:0:
64,0,172654,1,0,1:0:0:0:
448,0,172701,1,0,1:0:0:0:
192,0,172748,1,0,1:0:0:0:
320,0,172810,1,0,1:0:0:0:
192,0,172842,1,0,1:0:0:0:
448,0,172873,1,0,1:0:0:0:
64,0,172935,1,0,1:0:0:0:
448,0,172967,1,0,1:0:0:0:
192,0,172982,1,0,1:0:0:0:
320,0,173029,1,0,1:0:0:0:
64,0,173076,1,0,1:0:0:0:
448,0,173123,1,0,1:0:0:0:
320,0,173170,1,0,1:0:0:0:
192,0,173217,1,0,1:0:0:0:
448,0,173264,1,0,1:0:0:0:
64,0,173310,1,0,1:0:0:0:
192,0,173342,1,0,1:0:0:0:
320,0,173373,1,0,1:0:0:0:
64,0,173404,1,0,1:0:0:0:
448,0,173435,1,0,1:0:0:0:
192,0,173498,1,0,1:0:0:0:
448,0,173560,1,0,1:0:0:0:
320,0,173592,1,0,1:0:0:0:
192,0,173623,1,0,1:0:0:0:
64,0,173685,1,0,1:0:0:0:
448,0,173732,1,0,1:0:0:0:
64,0,173779,1,0,1:0:0:0:
448,0,173873,1,0,1:0:0:0:
320,0,173904,1,0,1:0:0:0:
192,0,173935,1,0,1:0:0:0:
64,0,173967,1,0,1:0:0:0:
448,0,173998,1,0,1:0:0:0:
320,0,174029,1,0,1:0:0:0:
192,0,174060,1,0,1:0:0:0:
64,0,174107,1,0,1:0:0:0:
448,0,174154,1,0,1:0:0:0:
64,0,174248,1,0,1:0:0:0:
192,0,174295,1,0,1:0:0:0:
320,0,174342,1,0,1:0:0:0:
448,0,174389,1,0,1:0:0:0:
64,0,174435,1,0,1:0:0:0:
320,0,174482,1,0,1:0:0:0:
64,0,174529,1,0,1:0:0:0:
448,0,174576,1,0,1:0:0:0:
64,0,174623,1,0,1:0:0:0:
192,0,174670,1,0,1:0:0:0:
64,0,174748,1,0,1:0:0:0:
448,0,174810,1,0,1:0:0:0:
64,0,174904,1,0,1:0:0:0:
448,0,174998,1,0,1:0:0:0:
192,0,175045,1,0,1:0:0:0:
448,0,175092,1,0,1:0:0:0:
192,0,175139,1,0,1:0:0:0:
448,0,175185,1,0,1:0:0:0:
64,0,175232,1,0,1:0:0:0:
320,0,175279,1,0,1:0:0:0:
64,0,175326,1,0,1:0:0:0:
320,0,175373,1,0,1:0:0:0:
64,0,175420,1,0,1:0:0:0:
448,0,175467,1,0,1:0:0:0:
448,0,175560,1,0,1:0:0:0:
64,0,175654,1,0,1:0:0:0:
64,0,175748,1,0,1:0:0:0:
192,0,175779,1,0,1:0:0:0:
320,0,175810,1,0,1:0:0:0:
448,0,175842,1,0,1:0:0:0:
64,0,175873,1,0,1:0:0:0:
192,0,175904,1,0,1:0:0:0:
320,0,175935,1,0,1:0:0:0:
448,0,175967,1,0,1:0:0:0:
64,0,175998,1,0,1:0:0:0:
192,0,176029,1,0,1:0:0:0:
448,0,176060,1,0,1:0:0:0:
320,0,176092,1,0,1:0:0:0:
64,0,176123,1,0,1:0:0:0:
192,0,176154,1,0,1:0:0:0:
448,0,176185,1,0,1:0:0:0:
320,0,176217,1,0,1:0:0:0:
64,0,176264,1,0,1:0:0:0:
192,0,176310,1,0,1:0:0:0:
64,0,176357,1,0,1:0:0:0:
320,0,176404,1,0,1:0:0:0:
448,0,176435,1,0,1:0:0:0:
192,0,176498,1,0,1:0:0:0:
64,0,176560,1,0,1:0:0:0:
192,0,176592,1,0,1:0:0:0:
320,0,176639,1,0,1:0:0:0:
448,0,176685,1,0,1:0:0:0:
64,0,176779,1,0,1:0:0:0:
448,0,176826,1,0,1:0:0:0:
192,0,176873,1,0,1:0:0:0:
448,0,176920,1,0,1:0:0:0:
320,0,176967,1,0,1:0:0:0:
64,0,176998,1,0,1:0:0:0:
192,0,177060,1,0,1:0:0:0:
320,0,177123,1,0,1:0:0:0:
448,0,177154,1,0,1:0:0:0:
192,0,177185,1,0,1:0:0:0:
64,0,177248,1,0,1:0:0:0:
320,0,177310,1,0,1:0:0:0:
448,0,177342,1,0,1:0:0:0:
192,0,177373,1,0,1:0:0:0:
64,0,177435,1,0,1:0:0:0:
320,0,177482,1,0,1:0:0:0:
448,0,177529,1,0,1:0:0:0:
192,0,177560,1,0,1:0:0:0:
64,0,177576,1,0,1:0:0:0:
320,0,177623,1,0,1:0:0:0:
192,0,177670,1,0,1:0:0:0:
448,0,177685,1,0,1:0:0:0:
64,0,177717,1,0,1:0:0:0:
320,0,177764,1,0,1:0:0:0:
192,0,177810,1,0,1:0:0:0:
448,0,177873,1,0,1:0:0:0:
64,0,177935,1,0,1:0:0:0:
192,0,177998,1,0,1:0:0:0:
448,0,178060,1,0,1:0:0:0:
64,0,178092,1,0,1:0:0:0:
320,0,178123,1,0,1:0:0:0:
192,0,178185,1,0,1:0:0:0:
64,0,178217,1,0,1:0:0:0:
448,0,178248,1,0,1:0:0:0:
320,0,178279,1,0,1:0:0:0:
192,0,178310,1,0,1:0:0:0:
64,0,178373,1,0,1:0:0:0:
320,0,178404,1,0,1:0:0:0:
192,0,178435,1,0,1:0:0:0:
448,0,178467,1,0,1:0:0:0:
64,0,178498,1,0,1:0:0:0:
320,0,178560,1,0,1:0:0:0:
448,0,178623,1,0,1:0:0:0:
192,0,178685,1,0,1:0:0:0:
320,0,178748,1,0,1:0:0:0:
64,0,178810,1,0,1:0:0:0:
448,0,178842,1,0,1:0:0:0:
192,0,178873,1,0,1:0:0:0:
320,0,178935,1,0,1:0:0:0:
64,0,178967,1,0,1:0:0:0:
192,0,178998,1,0,1:0:0:0:
320,0,179060,1,0,1:0:0:0:
64,0,179092,1,0,1:0:0:0:
192,0,179123,1,0,1:0:0:0:
320,0,179185,1,0,1:0:0:0:
64,0,179217,1,0,1:0:0:0:
192,0,179248,1,0,1:0:0:0:
320,0,179310,1,0,1:0:0:0:
64,0,179342,1,0,1:0:0:0:
192,0,179373,1,0,1:0:0:0:
448,0,179404,1,0,1:0:0:0:
320,0,179435,1,0,1:0:0:0:
64,0,179467,1,0,1:0:0:0:
448,0,179498,1,0,1:0:0:0:
192,0,179560,1,0,1:0:0:0:
320,0,179592,1,0,1:0:0:0:
64,0,179623,1,0,1:0:0:0:
448,0,179685,1,0,1:0:0:0:
192,0,179732,1,0,1:0:0:0:
64,0,179779,1,0,1:0:0:0:
320,0,179810,1,0,1:0:0:0:
448,0,179873,1,0,1:0:0:0:
64,0,179920,1,0,1:0:0:0:
320,0,179935,1,0,1:0:0:0:
192,0,179967,1,0,1:0:0:0:
448,0,180060,1,0,1:0:0:0:
320,0,180092,1,0,1:0:0:0:
192,0,180123,1,0,1:0:0:0:
64,0,180154,1,0,1:0:0:0:
448,0,180185,1,0,1:0:0:0:
320,0,180248,1,0,1:0:0:0:
64,0,180310,1,0,1:0:0:0:
192,0,180342,1,0,1:0:0:0:
320,0,180373,1,0,1:0:0:0:
448,0,180389,1,0,1:0:0:0:
64,0,180435,1,0,1:0:0:0:
192,0,180482,1,0,1:0:0:0:
448,0,180529,1,0,1:0:0:0:
320,0,180576,1,0,1:0:0:0:
64,0,180623,1,0,1:0:0:0:
192,0,180670,1,0,1:0:0:0:
448,0,180685,1,0,1:0:0:0:
320,0,180748,1,0,1:0:0:0:
64,0,180810,1,0,1:0:0:0:
448,0,180873,1,0,1:0:0:0:
64,0,180904,1,0,1:0:0:0:
320,0,180935,1,0,1:0:0:0:
64,0,180998,1,0,1:0:0:0:
448,0,181045,1,0,1:0:0:0:
320,0,181060,1,0,1:0:0:0:
64,0,181092,1,0,1:0:0:0:
192,0,181139,1,0,1:0:0:0:
448,0,181185,1,0,1:0:0:0:
192,0,181232,1,0,1:0:0:0:
320,0,181279,1,0,1:0:0:0:
64,0,181326,1,0,1:0:0:0:
192,0,181373,1,0,1:0:0:0:
448,0,181420,1,0,1:0:0:0:
192,0,181467,1,0,1:0:0:0:
320,0,181514,1,0,1:0:0:0:
64,0,181560,1,0,1:0:0:0:
448,0,181592,1,0,1:0:0:0:
320,0,181623,1,0,1:0:0:0:
192,0,181685,1,0,1:0:0:0:
64,0,181717,1,0,1:0:0:0:
448,0,181748,1,0,1:0:0:0:
320,0,181810,1,0,1:0:0:0:
192,0,181842,1,0,1:0:0:0:
64,0,181873,1,0,1:0:0:0:
448,0,181935,1,0,1:0:0:0:
320,0,181967,1,0,1:0:0:0:
192,0,181982,1,0,1:0:0:0:
448,0,182029,1,0,1:0:0:0:
192,0,182076,1,0,1:0:0:0:
320,0,182123,1,0,1:0:0:0:
64,0,182185,1,0,1:0:0:0:
448,0,182217,1,0,1:0:0:0:
320,0,182248,1,0,1:0:0:0:
192,0,182310,1,0,1:0:0:0:
320,0,182357,1,0,1:0:0:0:
64,0,182404,1,0,1:0:0:0:
448,0,182451,1,0,1:0:0:0:
192,0,182475,1,0,1:0:0:0:
64,0,182498,1,0,1:0:0:0:
320,0,182545,1,0,1:0:0:0:
192,0,182592,1,0,1:0:0:0:
448,0,182639,1,0,1:0:0:0:
320,0,182685,1,0,1:0:0:0:
192,0,182748,1,0,1:0:0:0:
64,0,182779,1,0,1:0:0:0:
320,0,182810,1,0,1:0:0:0:
448,0,182873,1,0,1:0:0:0:
192,0,182935,1,0,1:0:0:0:
64,0,182967,1,0,1:0:0:0:
320,0,182998,1,0,1:0:0:0:
448,0,183060,1,0,1:0:0:0:
192,0,183123,1,0,1:0:0:0:
320,0,183154,1,0,1:0:0:0:
64,0,183185,1,0,1:0:0:0:
448,0,183201,1,0,1:0:0:0:
320,0,183248,1,0,1:0:0:0:
192,0,183279,1,0,1:0:0:0:
64,0,183310,1,0,1:0:0:0:
320,0,183342,1,0,1:0:0:0:
192,0,183373,1,0,1:0:0:0:
448,0,183389,1,0,1:0:0:0:
320,0,183435,1,0,1:0:0:0:
192,0,183529,1,0,1:0:0:0:
448,0,183560,1,0,1:0:0:0:
64,0,183576,1,0,1:0:0:0:
320,0,183623,1,0,1:0:0:0:
192,0,183670,1,0,1:0:0:0:
64,0,183685,1,0,1:0:0:0:
320,0,183717,1,0,1:0:0:0:
192,0,183764,1,0,1:0:0:0:
64,0,183810,1,0,1:0:0:0:
320,0,183810,1,0,1:0:0:0:
448,0,183810,1,0,1:0:0:0:
192,0,184185,1,0,1:0:0:0:
320,0,184185,1,0,1:0:0:0:
320,0,184748,1,0,1:0:0:0:
448,0,184748,1,0,1:0:0:0:
192,0,185310,1,0,1:0:0:0:
64,0,185310,1,0,1:0:0:0:
64,0,185873,1,0,1:0:0:0:
192,0,185873,1,0,1:0:0:0:
192,0,186248,1,0,1:0:0:0:
320,0,186248,1,0,1:0:0:0:
448,0,186623,1,0,1:0:0:0:
320,0,186623,1,0,1:0:0:0:
448,0,187185,1,0,1:0:0:0:
320,0,187185,1,0,1:0:0:0:
448,0,187748,1,0,1:0:0:0:
64,0,187748,1,0,1:0:0:0:
64,0,188310,1,0,1:0:0:0:
192,0,188310,1,0,1:0:0:0:
64,0,188873,1,0,1:0:0:0:
192,0,188873,1,0,1:0:0:0:
192,0,189248,1,0,1:0:0:0:
320,0,189248,1,0,1:0:0:0:
448,0,189623,1,0,1:0:0:0:
320,0,189623,1,0,1:0:0:0:
448,0,190185,1,0,1:0:0:0:
320,0,190185,1,0,1:0:0:0:
64,0,190748,1,0,1:0:0:0:
448,0,190748,1,0,1:0:0:0:
64,0,191310,1,0,1:0:0:0:
192,0,191310,1,0,1:0:0:0:
192,0,191873,1,0,1:0:0:0:
64,0,191873,1,0,1:0:0:0:
320,0,192248,1,0,1:0:0:0:
192,0,192248,1,0,1:0:0:0:
448,0,192623,1,0,1:0:0:0:
320,0,192623,1,0,1:0:0:0:
448,0,193185,1,0,1:0:0:0:
320,0,193185,1,0,1:0:0:0:
448,0,193748,1,0,1:0:0:0:
64,0,193748,1,0,1:0:0:0:
64,192,194310,1,0,0:0:0:0:
192,192,194310,1,0,0:0:0:0:
64,192,194873,1,0,0:0:0:0:
192,192,194873,1,0,0:0:0:0:
192,192,195248,1,0,0:0:0:0:
320,192,195248,1,0,0:0:0:0:
320,192,195623,1,0,0:0:0:0:
448,192,195623,128,0,195717:0:0:0:0:
64,0,195810,1,0,1:0:0:0:
192,0,195810,1,0,1:0:0:0:
320,0,195810,1,0,1:0:0:0:
448,0,195810,1,0,1:0:0:0:
192,0,196185,1,0,1:0:0:0:
320,0,196185,1,0,1:0:0:0:
320,0,196748,1,0,1:0:0:0:
448,0,196748,1,0,1:0:0:0:
64,0,197310,1,0,1:0:0:0:
192,0,197310,1,0,1:0:0:0:
64,0,197873,1,0,1:0:0:0:
320,192,197873,1,0,0:0:0:0:
192,0,198248,1,0,1:0:0:0:
448,192,198248,1,0,0:0:0:0:
64,0,198623,1,0,1:0:0:0:
192,0,198623,1,0,1:0:0:0:
320,0,198623,1,0,1:0:0:0:
448,0,198623,1,0,1:0:0:0:
64,0,198810,1,0,1:0:0:0:
192,0,198810,1,0,1:0:0:0:
320,0,198810,1,0,1:0:0:0:
448,0,198810,1,0,1:0:0:0:
64,0,199092,1,0,1:0:0:0:
192,0,199092,1,0,1:0:0:0:
320,0,199092,1,0,1:0:0:0:
448,0,199092,1,0,1:0:0:0:
64,0,199373,1,0,1:0:0:0:
192,0,199373,1,0,1:0:0:0:
320,0,199373,1,0,1:0:0:0:
448,0,199373,1,0,1:0:0:0:
448,0,199748,1,0,1:0:0:0:
320,192,199748,1,0,0:0:0:0:
64,0,200123,1,0,1:0:0:0:
192,0,200123,1,0,1:0:0:0:
320,0,200123,1,0,1:0:0:0:
448,0,200123,1,0,1:0:0:0:
64,0,200310,1,0,1:0:0:0:
192,0,200310,1,0,1:0:0:0:
320,0,200310,1,0,1:0:0:0:
448,0,200310,1,0,1:0:0:0:
64,0,200873,1,0,1:0:0:0:
192,0,200873,1,0,1:0:0:0:
192,0,201248,1,0,1:0:0:0:
320,0,201248,1,0,1:0:0:0:
448,0,201435,128,0,201529:0:0:0:0:
64,0,201623,1,0,1:0:0:0:
192,0,201623,1,0,1:0:0:0:
320,0,201623,1,0,1:0:0:0:
448,0,201623,1,0,1:0:0:0:
64,0,201810,1,0,1:0:0:0:
192,0,201810,1,0,1:0:0:0:
320,0,201810,1,0,1:0:0:0:
448,0,201810,1,0,1:0:0:0:
192,0,202185,1,0,1:0:0:0:
320,0,202185,1,0,1:0:0:0:
320,0,202748,1,0,1:0:0:0:
448,0,202748,1,0,1:0:0:0:
64,0,202935,128,0,203029:0:0:0:0:
64,0,203123,1,0,1:0:0:0:
192,0,203123,1,0,1:0:0:0:
320,0,203123,1,0,1:0:0:0:
448,0,203123,1,0,1:0:0:0:
64,0,203310,1,0,1:0:0:0:
192,0,203310,1,0,1:0:0:0:
320,0,203310,1,0,1:0:0:0:
448,0,203310,1,0,1:0:0:0:
64,0,203873,1,0,1:0:0:0:
192,0,203873,1,0,1:0:0:0:
192,0,204248,1,0,1:0:0:0:
320,0,204248,1,0,1:0:0:0:
64,0,204623,1,0,1:0:0:0:
192,0,204623,1,0,1:0:0:0:
320,0,204623,1,0,1:0:0:0:
448,0,204623,1,0,1:0:0:0:
64,0,204810,128,0,205279:0:0:0:0:
192,0,204810,1,0,1:0:0:0:
320,0,204810,1,0,1:0:0:0:
448,0,204810,1,0,1:0:0:0:
192,0,205185,1,0,1:0:0:0:
320,0,205185,1,0,1:0:0:0:
64,0,205373,1,0,1:0:0:0:
192,0,205373,1,0,1:0:0:0:
320,0,205373,1,0,1:0:0:0:
448,0,205373,1,0,1:0:0:0:
64,0,205560,128,0,206029:0:0:0:0:
192,0,205560,1,0,1:0:0:0:
320,0,205560,1,0,1:0:0:0:
448,0,205560,1,0,1:0:0:0:
192,0,205748,1,0,1:0:0:0:
448,0,205748,1,0,1:0:0:0:
64,0,206123,1,0,1:0:0:0:
192,0,206123,1,0,1:0:0:0:
320,0,206123,1,0,1:0:0:0:
448,0,206123,1,0,1:0:0:0:
64,0,206310,1,0,1:0:0:0:
192,0,206310,1,0,1:0:0:0:
320,0,206310,1,0,1:0:0:0:
448,0,206310,1,0,1:0:0:0:
64,0,206498,1,0,1:0:0:0:
192,0,206498,1,0,1:0:0:0:
320,0,206592,1,0,1:0:0:0:
192,0,206639,1,0,1:0:0:0:
64,0,206685,1,0,1:0:0:0:
320,0,206685,1,0,1:0:0:0:
448,0,206685,1,0,1:0:0:0:
64,0,206873,1,0,1:0:0:0:
320,0,206873,1,0,1:0:0:0:
448,0,206873,1,0,1:0:0:0:
192,0,206967,1,0,1:0:0:0:
320,0,207014,1,0,1:0:0:0:
64,0,207060,1,0,1:0:0:0:
192,0,207060,1,0,1:0:0:0:
448,0,207060,1,0,1:0:0:0:
64,0,207248,1,0,1:0:0:0:
192,0,207248,1,0,1:0:0:0:
448,0,207248,1,0,1:0:0:0:
320,0,207342,1,0,1:0:0:0:
192,0,207389,1,0,1:0:0:0:
64,0,207435,1,0,1:0:0:0:
320,0,207435,1,0,1:0:0:0:
448,0,207435,1,0,1:0:0:0:
64,0,207623,1,0,1:0:0:0:
320,0,207623,1,0,1:0:0:0:
448,0,207623,1,0,1:0:0:0:
192,0,207717,1,0,1:0:0:0:
320,0,207764,1,0,1:0:0:0:
64,0,207810,1,0,1:0:0:0:
192,0,207810,1,0,1:0:0:0:
448,0,207810,1,0,1:0:0:0:
320,0,207904,1,0,1:0:0:0:
64,0,207998,1,0,1:0:0:0:
320,0,208092,1,0,1:0:0:0:
192,0,208185,1,0,1:0:0:0:
320,0,208185,1,0,1:0:0:0:
448,0,208279,1,0,1:0:0:0:
64,0,208373,1,0,1:0:0:0:
64,0,208467,1,0,1:0:0:0:
320,0,208560,1,0,1:0:0:0:
64,0,208654,1,0,1:0:0:0:
64,0,208748,1,0,1:0:0:0:
192,0,208748,1,0,1:0:0:0:
320,0,208842,1,0,1:0:0:0:
192,0,208935,1,0,1:0:0:0:
192,0,209029,1,0,1:0:0:0:
448,0,209123,1,0,1:0:0:0:
448,0,209217,1,0,1:0:0:0:
64,0,209310,1,0,1:0:0:0:
320,0,209310,1,0,1:0:0:0:
320,0,209404,1,0,1:0:0:0:
320,0,209498,1,0,1:0:0:0:
320,0,209592,1,0,1:0:0:0:
192,0,209685,1,0,1:0:0:0:
320,0,209779,1,0,1:0:0:0:
64,0,209873,1,0,1:0:0:0:
448,0,209873,1,0,1:0:0:0:
448,0,209967,1,0,1:0:0:0:
320,0,210060,1,0,1:0:0:0:
192,0,210154,1,0,1:0:0:0:
64,0,210248,1,0,1:0:0:0:
192,0,210248,1,0,1:0:0:0:
320,0,210342,1,0,1:0:0:0:
448,0,210435,1,0,1:0:0:0:
192,0,210482,1,0,1:0:0:0:
448,0,210529,1,0,1:0:0:0:
192,0,210623,1,0,1:0:0:0:
320,0,210623,1,0,1:0:0:0:
320,0,210717,1,0,1:0:0:0:
448,0,210810,1,0,1:0:0:0:
192,0,210904,1,0,1:0:0:0:
448,0,210998,1,0,1:0:0:0:
64,0,211092,1,0,1:0:0:0:
192,0,211185,1,0,1:0:0:0:
320,0,211185,1,0,1:0:0:0:
64,0,211279,1,0,1:0:0:0:
192,0,211373,1,0,1:0:0:0:
192,0,211467,1,0,1:0:0:0:
320,0,211560,1,0,1:0:0:0:
192,0,211654,1,0,1:0:0:0:
192,0,211748,1,0,1:0:0:0:
448,0,211748,1,0,1:0:0:0:
320,0,211842,1,0,1:0:0:0:
64,0,211935,1,0,1:0:0:0:
64,0,212029,1,0,1:0:0:0:
64,0,212123,1,0,1:0:0:0:
64,0,212217,1,0,1:0:0:0:
64,0,212310,1,0,1:0:0:0:
320,0,212310,1,0,1:0:0:0:
448,0,212404,1,0,1:0:0:0:
192,0,212498,1,0,1:0:0:0:
192,0,212592,1,0,1:0:0:0:
448,0,212685,1,0,1:0:0:0:
320,0,212779,1,0,1:0:0:0:
64,0,212873,1,0,1:0:0:0:
320,0,212873,1,0,1:0:0:0:
192,0,212967,1,0,1:0:0:0:
64,0,213060,1,0,1:0:0:0:
448,0,213154,1,0,1:0:0:0:
320,0,213248,1,0,1:0:0:0:
448,0,213248,1,0,1:0:0:0:
448,0,213342,1,0,1:0:0:0:
448,0,213435,1,0,1:0:0:0:
192,0,213529,1,0,1:0:0:0:
64,0,213623,1,0,1:0:0:0:
320,0,213623,1,0,1:0:0:0:
64,0,213810,1,0,1:0:0:0:
64,0,213998,1,0,1:0:0:0:
64,0,214092,1,0,1:0:0:0:
192,0,214185,1,0,1:0:0:0:
320,0,214185,1,0,1:0:0:0:
448,0,214279,1,0,1:0:0:0:
320,0,214373,1,0,1:0:0:0:
320,0,214467,1,0,1:0:0:0:
192,0,214560,1,0,1:0:0:0:
320,0,214654,1,0,1:0:0:0:
320,0,214748,1,0,1:0:0:0:
448,0,214748,1,0,1:0:0:0:
192,0,214842,1,0,1:0:0:0:
64,0,214935,1,0,1:0:0:0:
320,0,214982,1,0,1:0:0:0:
448,0,215029,1,0,1:0:0:0:
192,0,215076,1,0,1:0:0:0:
64,0,215123,1,0,1:0:0:0:
320,0,215170,1,0,1:0:0:0:
448,0,215217,1,0,1:0:0:0:
192,0,215264,1,0,1:0:0:0:
64,0,215310,1,0,1:0:0:0:
320,0,215310,1,0,1:0:0:0:
192,0,215404,1,0,1:0:0:0:
64,0,215498,1,0,1:0:0:0:
64,0,215592,1,0,1:0:0:0:
448,0,215685,1,0,1:0:0:0:
192,0,215779,1,0,1:0:0:0:
64,0,215873,1,0,1:0:0:0:
320,0,215873,1,0,1:0:0:0:
320,0,215967,1,0,1:0:0:0:
448,0,216060,1,0,1:0:0:0:
320,0,216154,1,0,1:0:0:0:
64,0,216248,1,0,1:0:0:0:
192,0,216248,1,0,1:0:0:0:
448,0,216342,1,0,1:0:0:0:
64,0,216435,1,0,1:0:0:0:
64,0,216529,1,0,1:0:0:0:
192,0,216623,1,0,1:0:0:0:
320,0,216623,1,0,1:0:0:0:
192,0,216717,1,0,1:0:0:0:
448,0,216810,1,0,1:0:0:0:
320,0,216873,1,0,1:0:0:0:
448,0,216935,1,0,1:0:0:0:
64,0,216998,1,0,1:0:0:0:
192,0,217060,1,0,1:0:0:0:
64,0,217123,1,0,1:0:0:0:
320,0,217185,1,0,1:0:0:0:
448,0,217185,1,0,1:0:0:0:
320,0,217279,1,0,1:0:0:0:
192,0,217373,1,0,1:0:0:0:
192,0,217467,1,0,1:0:0:0:
320,0,217560,1,0,1:0:0:0:
64,0,217654,1,0,1:0:0:0:
64,0,217748,1,0,1:0:0:0:
192,0,217748,1,0,1:0:0:0:
320,0,217935,1,0,1:0:0:0:
448,0,218029,1,0,1:0:0:0:
320,0,218076,1,0,1:0:0:0:
192,0,218123,1,0,1:0:0:0:
64,0,218185,1,0,1:0:0:0:
448,0,218248,1,0,1:0:0:0:
192,0,218310,1,0,1:0:0:0:
320,0,218310,1,0,1:0:0:0:
64,0,218373,1,0,1:0:0:0:
192,0,218435,1,0,1:0:0:0:
320,0,218498,1,0,1:0:0:0:
448,0,218560,1,0,1:0:0:0:
320,0,218623,1,0,1:0:0:0:
192,0,218685,1,0,1:0:0:0:
64,0,218873,1,0,1:0:0:0:
320,0,218873,1,0,1:0:0:0:
192,0,218967,1,0,1:0:0:0:
448,0,219060,1,0,1:0:0:0:
448,0,219154,1,0,1:0:0:0:
192,0,219248,1,0,1:0:0:0:
320,0,219248,1,0,1:0:0:0:
320,0,219342,1,0,1:0:0:0:
64,0,219435,1,0,1:0:0:0:
192,0,219529,1,0,1:0:0:0:
320,0,219623,1,0,1:0:0:0:
448,0,219623,1,0,1:0:0:0:
64,0,219810,1,0,1:0:0:0:
192,0,219810,1,0,1:0:0:0:
320,0,219810,1,0,1:0:0:0:
448,0,219810,1,0,1:0:0:0:
64,0,219904,1,0,1:0:0:0:
448,0,220092,1,0,1:0:0:0:
320,0,220185,1,0,1:0:0:0:
448,0,220185,1,0,1:0:0:0:
64,0,220279,1,0,1:0:0:0:
192,0,220373,1,0,1:0:0:0:
192,0,220467,1,0,1:0:0:0:
448,0,220560,1,0,1:0:0:0:
64,0,220654,1,0,1:0:0:0:
64,0,220748,1,0,1:0:0:0:
320,0,220748,1,0,1:0:0:0:
192,0,220842,1,0,1:0:0:0:
320,0,220935,1,0,1:0:0:0:
448,0,221029,1,0,1:0:0:0:
448,0,221123,1,0,1:0:0:0:
320,0,221170,1,0,1:0:0:0:
448,0,221217,1,0,1:0:0:0:
64,0,221310,1,0,1:0:0:0:
192,0,221310,1,0,1:0:0:0:
448,0,221357,1,0,1:0:0:0:
320,0,221404,1,0,1:0:0:0:
192,0,221498,1,0,1:0:0:0:
320,0,221545,1,0,1:0:0:0:
64,0,221592,1,0,1:0:0:0:
448,0,221685,1,0,1:0:0:0:
320,0,221732,1,0,1:0:0:0:
192,0,221779,1,0,1:0:0:0:
64,0,221873,1,0,1:0:0:0:
320,0,221873,1,0,1:0:0:0:
192,0,221967,1,0,1:0:0:0:
320,0,222060,1,0,1:0:0:0:
448,0,222154,1,0,1:0:0:0:
320,0,222201,1,0,1:0:0:0:
64,0,222248,1,0,1:0:0:0:
192,0,222248,1,0,1:0:0:0:
448,0,222295,1,0,1:0:0:0:
320,0,222342,1,0,1:0:0:0:
192,0,222435,1,0,1:0:0:0:
64,0,222623,1,0,1:0:0:0:
192,0,222623,1,0,1:0:0:0:
320,0,222623,1,0,1:0:0:0:
448,0,222623,1,0,1:0:0:0:
64,0,222810,1,0,1:0:0:0:
192,0,222810,1,0,1:0:0:0:
320,0,222810,1,0,1:0:0:0:
448,0,222810,1,0,1:0:0:0:
64,0,223092,1,0,1:0:0:0:
192,0,223092,1,0,1:0:0:0:
320,0,223092,1,0,1:0:0:0:
448,0,223092,1,0,1:0:0:0:
64,0,223373,1,0,1:0:0:0:
192,0,223373,1,0,1:0:0:0:
320,0,223373,1,0,1:0:0:0:
448,0,223373,1,0,1:0:0:0:
64,0,223560,1,0,1:0:0:0:
64,0,223654,1,0,1:0:0:0:
192,0,223748,1,0,1:0:0:0:
448,0,223748,1,0,1:0:0:0:
64,0,223842,1,0,1:0:0:0:
320,0,223935,1,0,1:0:0:0:
448,0,223935,1,0,1:0:0:0:
192,0,224029,1,0,1:0:0:0:
320,0,224029,1,0,1:0:0:0:
448,0,224029,1,0,1:0:0:0:
64,0,224123,1,0,1:0:0:0:
192,0,224123,1,0,1:0:0:0:
320,0,224123,1,0,1:0:0:0:
448,0,224123,1,0,1:0:0:0:
64,0,224310,1,0,1:0:0:0:
192,0,224310,1,0,1:0:0:0:
320,0,224310,1,0,1:0:0:0:
448,0,224310,1,0,1:0:0:0:
192,0,224498,1,0,1:0:0:0:
320,0,224592,1,0,1:0:0:0:
448,0,224685,1,0,1:0:0:0:
64,0,224779,1,0,1:0:0:0:
192,0,224873,1,0,1:0:0:0:
320,0,224873,1,0,1:0:0:0:
64,0,224967,1,0,1:0:0:0:
448,0,225060,1,0,1:0:0:0:
320,0,225154,1,0,1:0:0:0:
64,0,225248,1,0,1:0:0:0:
192,0,225248,1,0,1:0:0:0:
64,0,225342,1,0,1:0:0:0:
64,0,225435,1,0,1:0:0:0:
64,0,225529,1,0,1:0:0:0:
320,0,225623,1,0,1:0:0:0:
448,0,225623,1,0,1:0:0:0:
64,0,225810,128,0,225857:0:0:0:0:
192,0,225810,128,0,225857:0:0:0:0:
320,0,225810,128,0,225857:0:0:0:0:
448,0,225810,128,0,225857:0:0:0:0:
64,0,226185,1,0,1:0:0:0:
448,0,226185,1,0,1:0:0:0:
320,0,226279,1,0,1:0:0:0:
192,0,226373,1,0,1:0:0:0:
448,0,226467,1,0,1:0:0:0:
64,0,226560,1,0,1:0:0:0:
192,0,226654,1,0,1:0:0:0:
320,0,226748,1,0,1:0:0:0:
448,0,226748,1,0,1:0:0:0:
320,0,226842,1,0,1:0:0:0:
448,0,226935,128,0,227029:0:0:0:0:
64,0,227123,1,0,1:0:0:0:
192,0,227123,1,0,1:0:0:0:
320,0,227123,1,0,1:0:0:0:
448,0,227123,1,0,1:0:0:0:
64,0,227310,1,0,1:0:0:0:
192,0,227310,1,0,1:0:0:0:
320,0,227310,1,0,1:0:0:0:
448,0,227310,1,0,1:0:0:0:
192,0,227498,1,0,1:0:0:0:
192,0,227592,1,0,1:0:0:0:
320,0,227685,1,0,1:0:0:0:
320,0,227779,1,0,1:0:0:0:
64,0,227873,1,0,1:0:0:0:
64,0,227967,1,0,1:0:0:0:
448,0,228060,1,0,1:0:0:0:
320,0,228248,1,0,1:0:0:0:
64,0,228342,1,0,1:0:0:0:
64,0,228435,1,0,1:0:0:0:
192,0,228435,1,0,1:0:0:0:
448,0,228529,1,0,1:0:0:0:
64,0,228623,1,0,1:0:0:0:
192,0,228623,1,0,1:0:0:0:
320,0,228623,1,0,1:0:0:0:
448,0,228623,1,0,1:0:0:0:
448,0,229092,1,0,1:0:0:0:
64,0,229185,1,0,1:0:0:0:
320,0,229185,1,0,1:0:0:0:
448,0,229467,1,0,1:0:0:0:
320,0,229560,1,0,1:0:0:0:
192,0,229748,1,0,1:0:0:0:
448,0,229842,1,0,1:0:0:0:
320,0,229935,1,0,1:0:0:0:
448,0,230123,1,0,1:0:0:0:
448,0,230217,1,0,1:0:0:0:
64,0,230310,1,0,1:0:0:0:
192,0,230310,1,0,1:0:0:0:
320,0,230310,1,0,1:0:0:0:
64,0,230404,1,0,1:0:0:0:
192,0,230498,1,0,1:0:0:0:
192,0,230592,1,0,1:0:0:0:
320,0,230685,1,0,1:0:0:0:
320,0,230779,1,0,1:0:0:0:
64,0,230873,1,0,1:0:0:0:
192,0,230873,1,0,1:0:0:0:
448,0,230873,1,0,1:0:0:0:
448,0,230967,1,0,1:0:0:0:
448,0,231060,1,0,1:0:0:0:
320,0,231107,1,0,1:0:0:0:
64,0,231154,1,0,1:0:0:0:
192,0,231201,1,0,1:0:0:0:
448,0,231248,1,0,1:0:0:0:
320,0,231295,1,0,1:0:0:0:
64,0,231342,1,0,1:0:0:0:
192,0,231389,1,0,1:0:0:0:
320,0,231435,1,0,1:0:0:0:
448,0,231435,1,0,1:0:0:0:
64,0,231482,1,0,1:0:0:0:
192,0,231482,1,0,1:0:0:0:
320,0,231529,1,0,1:0:0:0:
448,0,231529,1,0,1:0:0:0:
64,0,231576,1,0,1:0:0:0:
192,0,231576,1,0,1:0:0:0:
320,0,231623,1,0,1:0:0:0:
448,0,231623,1,0,1:0:0:0:
64,0,231670,1,0,1:0:0:0:
192,0,231670,1,0,1:0:0:0:
320,0,231717,1,0,1:0:0:0:
448,0,231717,1,0,1:0:0:0:
64,0,231764,1,0,1:0:0:0:
192,0,231764,1,0,1:0:0:0:
320,0,231810,1,0,1:0:0:0:
448,0,231810,1,0,1:0:0:0:
192,0,231904,1,0,1:0:0:0:
320,0,231935,1,0,1:0:0:0:
64,0,231998,1,0,1:0:0:0:
448,0,231998,1,0,1:0:0:0:
192,0,232060,1,0,1:0:0:0:
320,0,232092,1,0,1:0:0:0:
64,0,232185,1,0,1:0:0:0:
448,0,232185,1,0,1:0:0:0:
192,0,232279,1,0,1:0:0:0:
320,0,232310,1,0,1:0:0:0:
64,0,232373,1,0,1:0:0:0:
192,0,232373,1,0,1:0:0:0:
448,0,232373,1,0,1:0:0:0:
320,0,232435,1,0,1:0:0:0:
192,0,232467,1,0,1:0:0:0:
64,0,232560,1,0,1:0:0:0:
448,0,232560,1,0,1:0:0:0:
320,0,232654,1,0,1:0:0:0:
192,0,232685,1,0,1:0:0:0:
64,0,232748,1,0,1:0:0:0:
448,0,232748,1,0,1:0:0:0:
320,0,232810,1,0,1:0:0:0:
192,0,232842,1,0,1:0:0:0:
64,0,232935,1,0,1:0:0:0:
320,0,232935,1,0,1:0:0:0:
448,0,232935,1,0,1:0:0:0:
192,0,233029,1,0,1:0:0:0:
320,0,233060,1,0,1:0:0:0:
64,0,233123,1,0,1:0:0:0:
448,0,233123,1,0,1:0:0:0:
192,0,233185,1,0,1:0:0:0:
320,0,233217,1,0,1:0:0:0:
64,0,233310,1,0,1:0:0:0:
448,0,233310,1,0,1:0:0:0:
192,0,233404,1,0,1:0:0:0:
320,0,233435,1,0,1:0:0:0:
64,0,233498,1,0,1:0:0:0:
192,0,233498,1,0,1:0:0:0:
448,0,233498,1,0,1:0:0:0:
320,0,233560,1,0,1:0:0:0:
192,0,233592,1,0,1:0:0:0:
64,0,233685,1,0,1:0:0:0:
448,0,233685,1,0,1:0:0:0:
320,0,233779,1,0,1:0:0:0:
192,0,233810,1,0,1:0:0:0:
64,0,233873,1,0,1:0:0:0:
448,0,233873,1,0,1:0:0:0:
320,0,233935,1,0,1:0:0:0:
192,0,233967,1,0,1:0:0:0:
64,0,234060,1,0,1:0:0:0:
320,0,234060,1,0,1:0:0:0:
448,0,234060,1,0,1:0:0:0:
192,0,234154,1,0,1:0:0:0:
320,0,234185,1,0,1:0:0:0:
64,0,234248,1,0,1:0:0:0:
448,0,234248,1,0,1:0:0:0:
192,0,234310,1,0,1:0:0:0:
320,0,234342,1,0,1:0:0:0:
64,0,234435,1,0,1:0:0:0:
448,0,234435,1,0,1:0:0:0:
192,0,234529,1,0,1:0:0:0:
320,0,234560,1,0,1:0:0:0:
64,0,234623,1,0,1:0:0:0:
192,0,234623,1,0,1:0:0:0:
448,0,234623,1,0,1:0:0:0:
320,0,234685,1,0,1:0:0:0:
192,0,234717,1,0,1:0:0:0:
64,0,234810,1,0,1:0:0:0:
448,0,234810,1,0,1:0:0:0:
320,0,234904,1,0,1:0:0:0:
192,0,234935,1,0,1:0:0:0:
64,0,234998,1,0,1:0:0:0:
448,0,234998,1,0,1:0:0:0:
320,0,235060,1,0,1:0:0:0:
192,0,235092,1,0,1:0:0:0:
64,0,235185,1,0,1:0:0:0:
320,0,235185,1,0,1:0:0:0:
448,0,235185,1,0,1:0:0:0:
192,0,235279,1,0,1:0:0:0:
320,0,235310,1,0,1:0:0:0:
64,0,235373,1,0,1:0:0:0:
448,0,235373,1,0,1:0:0:0:
192,0,235435,1,0,1:0:0:0:
320,0,235467,1,0,1:0:0:0:
64,0,235560,1,0,1:0:0:0:
448,0,235560,1,0,1:0:0:0:
192,0,235623,1,0,1:0:0:0:
320,0,235654,1,0,1:0:0:0:
64,0,235748,1,0,1:0:0:0:
192,0,235748,1,0,1:0:0:0:
448,0,235748,1,0,1:0:0:0:
320,0,235795,1,0,1:0:0:0:
192,0,235842,1,0,1:0:0:0:
448,0,235889,1,0,1:0:0:0:
320,0,235935,1,0,1:0:0:0:
64,0,235982,1,0,1:0:0:0:
192,0,236029,1,0,1:0:0:0:
320,0,236076,1,0,1:0:0:0:
448,0,236123,1,0,1:0:0:0:
320,0,236170,1,0,1:0:0:0:
192,0,236217,1,0,1:0:0:0:
64,0,236264,1,0,1:0:0:0:
320,0,236310,1,0,1:0:0:0:
448,0,236310,1,0,1:0:0:0:
192,0,236357,1,0,1:0:0:0:
64,0,236404,1,0,1:0:0:0:
448,0,236451,1,0,1:0:0:0:
320,0,236498,1,0,1:0:0:0:
64,0,236545,1,0,1:0:0:0:
192,0,236592,1,0,1:0:0:0:
320,0,236639,1,0,1:0:0:0:
448,0,236685,1,0,1:0:0:0:
64,0,236732,1,0,1:0:0:0:
192,0,236779,1,0,1:0:0:0:
448,0,236826,1,0,1:0:0:0:
64,0,236873,1,0,1:0:0:0:
320,0,236873,1,0,1:0:0:0:
192,0,236920,1,0,1:0:0:0:
448,0,236967,1,0,1:0:0:0:
320,0,237014,1,0,1:0:0:0:
64,0,237060,1,0,1:0:0:0:
192,0,237060,1,0,1:0:0:0:
448,0,237107,1,0,1:0:0:0:
320,0,237154,1,0,1:0:0:0:
64,0,237201,1,0,1:0:0:0:
192,0,237248,1,0,1:0:0:0:
448,0,237248,1,0,1:0:0:0:
320,0,237295,1,0,1:0:0:0:
64,0,237342,1,0,1:0:0:0:
192,0,237389,1,0,1:0:0:0:
320,0,237435,1,0,1:0:0:0:
448,0,237435,1,0,1:0:0:0:
64,0,237482,1,0,1:0:0:0:
192,0,237529,1,0,1:0:0:0:
320,0,237576,1,0,1:0:0:0:
64,0,237623,1,0,1:0:0:0:
448,0,237623,1,0,1:0:0:0:
320,0,237670,1,0,1:0:0:0:
192,0,237717,1,0,1:0:0:0:
64,0,237764,1,0,1:0:0:0:
320,0,237810,1,0,1:0:0:0:
448,0,237810,1,0,1:0:0:0:
192,0,237857,1,0,1:0:0:0:
64,0,237904,1,0,1:0:0:0:
320,0,237951,1,0,1:0:0:0:
192,0,237998,1,0,1:0:0:0:
448,0,237998,1,0,1:0:0:0:
64,0,238045,1,0,1:0:0:0:
320,0,238092,1,0,1:0:0:0:
448,0,238139,1,0,1:0:0:0:
64,0,238185,1,0,1:0:0:0:
192,0,238185,1,0,1:0:0:0:
320,0,238232,1,0,1:0:0:0:
448,0,238279,1,0,1:0:0:0:
192,0,238326,1,0,1:0:0:0:
64,0,238373,1,0,1:0:0:0:
320,0,238373,1,0,1:0:0:0:
192,0,238420,1,0,1:0:0:0:
448,0,238467,1,0,1:0:0:0:
320,0,238514,1,0,1:0:0:0:
192,0,238560,1,0,1:0:0:0:
64,0,238607,1,0,1:0:0:0:
320,0,238654,1,0,1:0:0:0:
192,0,238701,1,0,1:0:0:0:
64,0,238748,1,0,1:0:0:0:
320,0,238748,1,0,1:0:0:0:
448,0,238748,1,0,1:0:0:0:
192,0,238842,1,0,1:0:0:0:
448,0,238935,1,0,1:0:0:0:
320,0,238998,1,0,1:0:0:0:
64,0,239029,1,0,1:0:0:0:
192,0,239060,1,0,1:0:0:0:
320,0,239123,1,0,1:0:0:0:
448,0,239123,1,0,1:0:0:0:
64,0,239185,1,0,1:0:0:0:
192,0,239217,1,0,1:0:0:0:
448,0,239248,1,0,1:0:0:0:
192,0,239310,1,0,1:0:0:0:
64,0,239373,1,0,1:0:0:0:
320,0,239404,1,0,1:0:0:0:
448,0,239435,1,0,1:0:0:0:
64,0,239498,1,0,1:0:0:0:
192,0,239498,1,0,1:0:0:0:
320,0,239560,1,0,1:0:0:0:
448,0,239623,1,0,1:0:0:0:
192,0,239685,1,0,1:0:0:0:
64,0,239748,1,0,1:0:0:0:
320,0,239779,1,0,1:0:0:0:
192,0,239810,1,0,1:0:0:0:
64,0,239873,1,0,1:0:0:0:
448,0,239873,1,0,1:0:0:0:
320,0,239935,1,0,1:0:0:0:
448,0,239967,1,0,1:0:0:0:
192,0,239998,1,0,1:0:0:0:
64,0,240060,1,0,1:0:0:0:
448,0,240123,1,0,1:0:0:0:
192,0,240154,1,0,1:0:0:0:
320,0,240185,1,0,1:0:0:0:
64,0,240248,1,0,1:0:0:0:
448,0,240248,1,0,1:0:0:0:
192,0,240310,1,0,1:0:0:0:
320,0,240373,1,0,1:0:0:0:
448,0,240435,1,0,1:0:0:0:
64,0,240498,1,0,1:0:0:0:
192,0,240529,1,0,1:0:0:0:
448,0,240560,1,0,1:0:0:0:
64,0,240623,1,0,1:0:0:0:
320,0,240623,1,0,1:0:0:0:
192,0,240685,1,0,1:0:0:0:
64,0,240717,1,0,1:0:0:0:
448,0,240748,1,0,1:0:0:0:
320,0,240810,1,0,1:0:0:0:
192,0,240873,1,0,1:0:0:0:
320,0,240904,1,0,1:0:0:0:
64,0,240935,1,0,1:0:0:0:
192,0,240998,1,0,1:0:0:0:
448,0,240998,1,0,1:0:0:0:
320,0,241060,1,0,1:0:0:0:
64,0,241123,1,0,1:0:0:0:
192,0,241185,1,0,1:0:0:0:
320,0,241248,1,0,1:0:0:0:
192,0,241279,1,0,1:0:0:0:
64,0,241310,1,0,1:0:0:0:
320,0,241373,1,0,1:0:0:0:
448,0,241373,1,0,1:0:0:0:
64,0,241435,1,0,1:0:0:0:
448,0,241467,1,0,1:0:0:0:
192,0,241498,1,0,1:0:0:0:
64,0,241560,1,0,1:0:0:0:
320,0,241560,1,0,1:0:0:0:
192,0,241623,1,0,1:0:0:0:
320,0,241654,1,0,1:0:0:0:
448,0,241685,1,0,1:0:0:0:
64,0,241748,1,0,1:0:0:0:
192,0,241748,1,0,1:0:0:0:
448,0,241810,1,0,1:0:0:0:
320,0,241873,1,0,1:0:0:0:
64,0,241935,1,0,1:0:0:0:
192,0,241998,1,0,1:0:0:0:
448,0,242029,1,0,1:0:0:0:
320,0,242060,1,0,1:0:0:0:
64,0,242123,1,0,1:0:0:0:
192,0,242123,1,0,1:0:0:0:
448,0,242185,1,0,1:0:0:0:
320,0,242217,1,0,1:0:0:0:
64,0,242248,1,0,1:0:0:0:
320,0,242310,1,0,1:0:0:0:
448,0,242373,1,0,1:0:0:0:
192,0,242404,1,0,1:0:0:0:
64,0,242435,1,0,1:0:0:0:
192,0,242498,1,0,1:0:0:0:
320,0,242498,1,0,1:0:0:0:
448,0,242560,1,0,1:0:0:0:
64,0,242623,1,0,1:0:0:0:
320,0,242685,1,0,1:0:0:0:
448,0,242748,1,0,1:0:0:0:
64,0,242779,1,0,1:0:0:0:
192,0,242810,1,0,1:0:0:0:
320,0,242873,1,0,1:0:0:0:
448,0,242873,1,0,1:0:0:0:
64,0,242935,1,0,1:0:0:0:
320,0,242967,1,0,1:0:0:0:
192,0,242998,1,0,1:0:0:0:
448,0,243060,1,0,1:0:0:0:
64,0,243123,1,0,1:0:0:0:
320,0,243154,1,0,1:0:0:0:
192,0,243185,1,0,1:0:0:0:
64,0,243248,1,0,1:0:0:0:
448,0,243248,1,0,1:0:0:0:
320,0,243310,1,0,1:0:0:0:
192,0,243373,1,0,1:0:0:0:
64,0,243435,1,0,1:0:0:0:
320,0,243498,1,0,1:0:0:0:
448,0,243529,1,0,1:0:0:0:
192,0,243560,1,0,1:0:0:0:
64,0,243623,1,0,1:0:0:0:
448,0,243623,1,0,1:0:0:0:
320,0,243685,1,0,1:0:0:0:
64,0,243717,1,0,1:0:0:0:
192,0,243748,1,0,1:0:0:0:
320,0,243810,1,0,1:0:0:0:
448,0,243810,1,0,1:0:0:0:
64,0,243873,1,0,1:0:0:0:
192,0,243904,1,0,1:0:0:0:
320,0,243904,1,0,1:0:0:0:
448,0,243935,1,0,1:0:0:0:
64,0,243998,1,0,1:0:0:0:
192,0,243998,1,0,1:0:0:0:
448,0,244060,1,0,1:0:0:0:
320,0,244123,1,0,1:0:0:0:
64,0,244185,1,0,1:0:0:0:
192,0,244185,1,0,1:0:0:0:
448,0,244248,1,0,1:0:0:0:
320,0,244279,1,0,1:0:0:0:
64,0,244310,1,0,1:0:0:0:
192,0,244373,1,0,1:0:0:0:
448,0,244373,1,0,1:0:0:0:
320,0,244435,1,0,1:0:0:0:
64,0,244467,1,0,1:0:0:0:
192,0,244467,1,0,1:0:0:0:
448,0,244498,1,0,1:0:0:0:
320,0,244560,1,0,1:0:0:0:
192,0,244607,1,0,1:0:0:0:
320,0,244654,1,0,1:0:0:0:
192,0,244701,1,0,1:0:0:0:
64,0,244748,1,0,1:0:0:0:
320,0,244748,1,0,1:0:0:0:
448,0,244748,1,0,1:0:0:0:
192,0,244810,1,0,1:0:0:0:
320,0,244873,1,0,1:0:0:0:
448,0,244935,1,0,1:0:0:0:
192,0,244998,1,0,1:0:0:0:
64,0,245029,1,0,1:0:0:0:
320,0,245060,1,0,1:0:0:0:
192,0,245123,1,0,1:0:0:0:
448,0,245123,1,0,1:0:0:0:
64,0,245185,1,0,1:0:0:0:
320,0,245217,1,0,1:0:0:0:
448,0,245248,1,0,1:0:0:0:
320,0,245310,1,0,1:0:0:0:
64,0,245373,1,0,1:0:0:0:
192,0,245404,1,0,1:0:0:0:
448,0,245435,1,0,1:0:0:0:
64,0,245498,1,0,1:0:0:0:
320,0,245498,1,0,1:0:0:0:
192,0,245560,1,0,1:0:0:0:
448,0,245623,1,0,1:0:0:0:
192,0,245685,1,0,1:0:0:0:
320,0,245748,1,0,1:0:0:0:
448,0,245779,1,0,1:0:0:0:
64,0,245810,1,0,1:0:0:0:
192,0,245873,1,0,1:0:0:0:
320,0,245873,1,0,1:0:0:0:
448,0,245935,1,0,1:0:0:0:
320,0,245967,1,0,1:0:0:0:
192,0,245998,1,0,1:0:0:0:
64,0,246060,1,0,1:0:0:0:
448,0,246123,1,0,1:0:0:0:
320,0,246154,1,0,1:0:0:0:
192,0,246185,1,0,1:0:0:0:
64,0,246248,1,0,1:0:0:0:
448,0,246248,1,0,1:0:0:0:
320,0,246310,1,0,1:0:0:0:
64,0,246373,1,0,1:0:0:0:
448,0,246435,1,0,1:0:0:0:
192,0,246498,1,0,1:0:0:0:
320,0,246529,1,0,1:0:0:0:
64,0,246560,1,0,1:0:0:0:
192,0,246623,1,0,1:0:0:0:
448,0,246623,1,0,1:0:0:0:
320,0,246685,1,0,1:0:0:0:
192,0,246717,1,0,1:0:0:0:
64,0,246748,1,0,1:0:0:0:
320,0,246810,1,0,1:0:0:0:
448,0,246873,1,0,1:0:0:0:
192,0,246904,1,0,1:0:0:0:
64,0,246935,1,0,1:0:0:0:
320,0,246998,1,0,1:0:0:0:
448,0,246998,1,0,1:0:0:0:
192,0,247060,1,0,1:0:0:0:
320,0,247123,1,0,1:0:0:0:
64,0,247185,1,0,1:0:0:0:
448,0,247248,1,0,1:0:0:0:
320,0,247279,1,0,1:0:0:0:
192,0,247310,1,0,1:0:0:0:
64,0,247373,1,0,1:0:0:0:
448,0,247373,1,0,1:0:0:0:
320,0,247435,1,0,1:0:0:0:
192,0,247467,1,0,1:0:0:0:
448,0,247498,1,0,1:0:0:0:
64,0,247560,1,0,1:0:0:0:
192,0,247560,1,0,1:0:0:0:
320,0,247607,1,0,1:0:0:0:
448,0,247607,1,0,1:0:0:0:
64,0,247654,1,0,1:0:0:0:
192,0,247654,1,0,1:0:0:0:
320,0,247748,1,0,1:0:0:0:
448,0,247748,1,0,1:0:0:0:
192,0,247795,1,0,1:0:0:0:
320,0,247842,1,0,1:0:0:0:
192,0,247889,1,0,1:0:0:0:
64,0,247935,1,0,1:0:0:0:
320,0,247998,1,0,1:0:0:0:
448,0,248029,1,0,1:0:0:0:
192,0,248060,1,0,1:0:0:0:
64,0,248123,1,0,1:0:0:0:
320,0,248123,1,0,1:0:0:0:
448,0,248185,1,0,1:0:0:0:
320,0,248217,1,0,1:0:0:0:
192,0,248248,1,0,1:0:0:0:
64,0,248310,1,0,1:0:0:0:
320,0,248373,1,0,1:0:0:0:
192,0,248404,1,0,1:0:0:0:
64,0,248435,1,0,1:0:0:0:
320,0,248498,1,0,1:0:0:0:
448,0,248498,1,0,1:0:0:0:
192,0,248560,1,0,1:0:0:0:
448,0,248623,1,0,1:0:0:0:
64,0,248685,1,0,1:0:0:0:
192,0,248732,1,0,1:0:0:0:
320,0,248779,1,0,1:0:0:0:
448,0,248826,1,0,1:0:0:0:
64,0,248873,1,0,1:0:0:0:
192,0,248873,1,0,1:0:0:0:
320,0,248935,1,0,1:0:0:0:
448,0,248998,1,0,1:0:0:0:
192,0,249060,1,0,1:0:0:0:
320,0,249060,1,0,1:0:0:0:
64,0,249123,1,0,1:0:0:0:
448,0,249154,1,0,1:0:0:0:
192,0,249185,1,0,1:0:0:0:
64,0,249248,1,0,1:0:0:0:
320,0,249248,1,0,1:0:0:0:
448,0,249248,1,0,1:0:0:0:
320,0,249435,1,0,1:0:0:0:
320,0,249529,1,0,1:0:0:0:
64,0,249623,1,0,1:0:0:0:
448,0,249685,1,0,1:0:0:0:
192,0,249717,1,0,1:0:0:0:
320,0,249748,1,0,1:0:0:0:
64,0,249810,1,0,1:0:0:0:
448,0,249998,1,0,1:0:0:0:
448,0,250092,1,0,1:0:0:0:
64,0,250185,1,0,1:0:0:0:
64,0,250279,1,0,1:0:0:0:
64,0,250373,1,0,1:0:0:0:
192,0,250467,1,0,1:0:0:0:
64,0,250560,1,0,1:0:0:0:
320,0,250560,1,0,1:0:0:0:
448,0,250560,1,0,1:0:0:0:
192,0,250748,1,0,1:0:0:0:
320,0,250748,1,0,1:0:0:0:
448,0,250748,1,0,1:0:0:0:
64,0,250842,1,0,1:0:0:0:
192,0,250935,1,0,1:0:0:0:
448,0,250935,1,0,1:0:0:0:
320,0,250998,1,0,1:0:0:0:
64,0,251029,1,0,1:0:0:0:
192,0,251060,1,0,1:0:0:0:
320,0,251123,1,0,1:0:0:0:
448,0,251123,1,0,1:0:0:0:
64,0,251185,1,0,1:0:0:0:
192,0,251217,1,0,1:0:0:0:
448,0,251248,1,0,1:0:0:0:
192,0,251310,1,0,1:0:0:0:
320,0,251310,1,0,1:0:0:0:
64,0,251373,1,0,1:0:0:0:
320,0,251404,1,0,1:0:0:0:
448,0,251435,1,0,1:0:0:0:
64,0,251498,1,0,1:0:0:0:
192,0,251498,1,0,1:0:0:0:
320,0,251560,1,0,1:0:0:0:
448,0,251623,1,0,1:0:0:0:
192,0,251685,1,0,1:0:0:0:
320,0,251685,1,0,1:0:0:0:
64,0,251748,1,0,1:0:0:0:
320,0,251779,1,0,1:0:0:0:
192,0,251810,1,0,1:0:0:0:
64,0,251873,1,0,1:0:0:0:
448,0,251873,1,0,1:0:0:0:
320,0,251935,1,0,1:0:0:0:
448,0,251967,1,0,1:0:0:0:
192,0,251998,1,0,1:0:0:0:
64,0,252060,1,0,1:0:0:0:
320,0,252060,1,0,1:0:0:0:
448,0,252123,1,0,1:0:0:0:
192,0,252154,1,0,1:0:0:0:
320,0,252185,1,0,1:0:0:0:
64,0,252248,1,0,1:0:0:0:
448,0,252248,1,0,1:0:0:0:
192,0,252310,1,0,1:0:0:0:
320,0,252373,1,0,1:0:0:0:
192,0,252435,1,0,1:0:0:0:
448,0,252435,1,0,1:0:0:0:
64,0,252498,1,0,1:0:0:0:
192,0,252529,1,0,1:0:0:0:
448,0,252560,1,0,1:0:0:0:
64,0,252623,1,0,1:0:0:0:
320,0,252623,1,0,1:0:0:0:
192,0,252685,1,0,1:0:0:0:
64,0,252717,1,0,1:0:0:0:
320,0,252748,1,0,1:0:0:0:
192,0,252810,1,0,1:0:0:0:
448,0,252810,1,0,1:0:0:0:
64,0,252873,1,0,1:0:0:0:
320,0,252904,1,0,1:0:0:0:
192,0,252935,1,0,1:0:0:0:
64,0,252998,1,0,1:0:0:0:
448,0,252998,1,0,1:0:0:0:
320,0,253060,1,0,1:0:0:0:
64,0,253123,1,0,1:0:0:0:
192,0,253185,1,0,1:0:0:0:
448,0,253185,1,0,1:0:0:0:
320,0,253248,1,0,1:0:0:0:
192,0,253279,1,0,1:0:0:0:
64,0,253310,1,0,1:0:0:0:
320,0,253373,1,0,1:0:0:0:
448,0,253373,1,0,1:0:0:0:
64,0,253435,1,0,1:0:0:0:
192,0,253467,1,0,1:0:0:0:
320,0,253498,1,0,1:0:0:0:
64,0,253560,1,0,1:0:0:0:
192,0,253560,1,0,1:0:0:0:
448,0,253560,1,0,1:0:0:0:
320,0,253623,1,0,1:0:0:0:
448,0,253654,1,0,1:0:0:0:
64,0,253685,1,0,1:0:0:0:
192,0,253748,1,0,1:0:0:0:
320,0,253748,1,0,1:0:0:0:
448,0,253810,1,0,1:0:0:0:
320,0,253873,1,0,1:0:0:0:
64,0,253935,1,0,1:0:0:0:
448,0,253935,1,0,1:0:0:0:
192,0,253998,1,0,1:0:0:0:
448,0,254029,1,0,1:0:0:0:
320,0,254060,1,0,1:0:0:0:
64,0,254123,1,0,1:0:0:0:
192,0,254123,1,0,1:0:0:0:
448,0,254185,1,0,1:0:0:0:
320,0,254217,1,0,1:0:0:0:
64,0,254248,1,0,1:0:0:0:
192,0,254310,1,0,1:0:0:0:
320,0,254310,1,0,1:0:0:0:
448,0,254373,1,0,1:0:0:0:
192,0,254404,1,0,1:0:0:0:
64,0,254435,1,0,1:0:0:0:
320,0,254498,1,0,1:0:0:0:
448,0,254498,1,0,1:0:0:0:
192,0,254560,1,0,1:0:0:0:
64,0,254623,1,0,1:0:0:0:
192,0,254685,1,0,1:0:0:0:
320,0,254685,1,0,1:0:0:0:
448,0,254748,1,0,1:0:0:0:
64,0,254779,1,0,1:0:0:0:
192,0,254810,1,0,1:0:0:0:
320,0,254873,1,0,1:0:0:0:
448,0,254873,1,0,1:0:0:0:
64,0,254935,1,0,1:0:0:0:
192,0,254967,1,0,1:0:0:0:
320,0,254998,1,0,1:0:0:0:
64,0,255060,1,0,1:0:0:0:
448,0,255060,1,0,1:0:0:0:
192,0,255123,1,0,1:0:0:0:
320,0,255154,1,0,1:0:0:0:
64,0,255185,1,0,1:0:0:0:
192,0,255248,1,0,1:0:0:0:
448,0,255248,1,0,1:0:0:0:
320,0,255310,1,0,1:0:0:0:
192,0,255373,1,0,1:0:0:0:
64,0,255435,1,0,1:0:0:0:
448,0,255435,1,0,1:0:0:0:
320,0,255498,1,0,1:0:0:0:
448,0,255529,1,0,1:0:0:0:
192,0,255560,1,0,1:0:0:0:
64,0,255623,1,0,1:0:0:0:
320,0,255623,1,0,1:0:0:0:
448,0,255685,1,0,1:0:0:0:
64,0,255717,1,0,1:0:0:0:
192,0,255748,1,0,1:0:0:0:
320,0,255810,1,0,1:0:0:0:
448,0,255810,1,0,1:0:0:0:
64,0,255873,1,0,1:0:0:0:
192,0,255904,1,0,1:0:0:0:
320,0,255904,1,0,1:0:0:0:
448,0,255935,1,0,1:0:0:0:
64,0,255998,1,0,1:0:0:0:
192,0,255998,1,0,1:0:0:0:
448,0,256060,1,0,1:0:0:0:
320,0,256123,1,0,1:0:0:0:
64,0,256185,1,0,1:0:0:0:
192,0,256185,1,0,1:0:0:0:
448,0,256248,1,0,1:0:0:0:
320,0,256279,1,0,1:0:0:0:
64,0,256310,1,0,1:0:0:0:
192,0,256373,1,0,1:0:0:0:
448,0,256373,1,0,1:0:0:0:
320,0,256435,1,0,1:0:0:0:
64,0,256467,1,0,1:0:0:0:
192,0,256467,1,0,1:0:0:0:
448,0,256498,1,0,1:0:0:0:
320,0,256560,1,0,1:0:0:0:
192,0,256607,1,0,1:0:0:0:
320,0,256654,1,0,1:0:0:0:
192,0,256701,1,0,1:0:0:0:
64,0,256748,1,0,1:0:0:0:
320,0,256748,1,0,1:0:0:0:
448,0,256748,1,0,1:0:0:0:
192,0,256810,1,0,1:0:0:0:
320,0,256873,1,0,1:0:0:0:
64,0,256935,1,0,1:0:0:0:
448,0,256935,1,0,1:0:0:0:
192,0,256998,1,0,1:0:0:0:
64,0,257029,1,0,1:0:0:0:
320,0,257060,1,0,1:0:0:0:
192,0,257123,1,0,1:0:0:0:
448,0,257123,1,0,1:0:0:0:
64,0,257185,1,0,1:0:0:0:
320,0,257217,1,0,1:0:0:0:
448,0,257248,1,0,1:0:0:0:
192,0,257310,1,0,1:0:0:0:
320,0,257310,1,0,1:0:0:0:
64,0,257373,1,0,1:0:0:0:
192,0,257404,1,0,1:0:0:0:
448,0,257435,1,0,1:0:0:0:
64,0,257498,1,0,1:0:0:0:
320,0,257498,1,0,1:0:0:0:
192,0,257560,1,0,1:0:0:0:
448,0,257623,1,0,1:0:0:0:
64,0,257685,1,0,1:0:0:0:
192,0,257685,1,0,1:0:0:0:
320,0,257748,1,0,1:0:0:0:
448,0,257779,1,0,1:0:0:0:
64,0,257810,1,0,1:0:0:0:
192,0,257873,1,0,1:0:0:0:
320,0,257873,1,0,1:0:0:0:
448,0,257935,1,0,1:0:0:0:
64,0,257967,1,0,1:0:0:0:
192,0,257998,1,0,1:0:0:0:
64,0,258060,1,0,1:0:0:0:
320,0,258060,1,0,1:0:0:0:
448,0,258123,1,0,1:0:0:0:
320,0,258154,1,0,1:0:0:0:
192,0,258185,1,0,1:0:0:0:
64,0,258248,1,0,1:0:0:0:
448,0,258248,1,0,1:0:0:0:
320,0,258310,1,0,1:0:0:0:
64,0,258373,1,0,1:0:0:0:
320,0,258435,1,0,1:0:0:0:
448,0,258435,1,0,1:0:0:0:
192,0,258498,1,0,1:0:0:0:
320,0,258529,1,0,1:0:0:0:
64,0,258560,1,0,1:0:0:0:
192,0,258623,1,0,1:0:0:0:
448,0,258623,1,0,1:0:0:0:
320,0,258685,1,0,1:0:0:0:
448,0,258717,1,0,1:0:0:0:
64,0,258748,1,0,1:0:0:0:
192,0,258810,1,0,1:0:0:0:
320,0,258810,1,0,1:0:0:0:
448,0,258873,1,0,1:0:0:0:
192,0,258904,1,0,1:0:0:0:
64,0,258935,1,0,1:0:0:0:
320,0,258998,1,0,1:0:0:0:
448,0,258998,1,0,1:0:0:0:
192,0,259060,1,0,1:0:0:0:
320,0,259123,1,0,1:0:0:0:
64,0,259185,1,0,1:0:0:0:
448,0,259185,1,0,1:0:0:0:
192,0,259248,1,0,1:0:0:0:
320,0,259279,1,0,1:0:0:0:
448,0,259310,1,0,1:0:0:0:
64,0,259373,1,0,1:0:0:0:
192,0,259373,1,0,1:0:0:0:
320,0,259435,1,0,1:0:0:0:
448,0,259467,1,0,1:0:0:0:
64,0,259498,1,0,1:0:0:0:
192,0,259560,1,0,1:0:0:0:
320,0,259560,1,0,1:0:0:0:
448,0,259607,1,0,1:0:0:0:
64,0,259654,1,0,1:0:0:0:
192,0,259654,1,0,1:0:0:0:
64,0,259748,1,0,1:0:0:0:
320,0,259748,1,0,1:0:0:0:
448,0,259748,1,0,1:0:0:0:
192,0,259842,1,0,1:0:0:0:
448,0,259842,1,0,1:0:0:0:
64,0,259935,1,0,1:0:0:0:
320,0,259935,1,0,1:0:0:0:
192,0,260029,1,0,1:0:0:0:
448,0,260029,1,0,1:0:0:0:
64,0,260123,1,0,1:0:0:0:
448,0,260123,1,0,1:0:0:0:
320,0,260170,1,0,1:0:0:0:
64,0,260217,1,0,1:0:0:0:
192,0,260217,1,0,1:0:0:0:
320,0,260264,1,0,1:0:0:0:
448,0,260264,1,0,1:0:0:0:
64,0,260310,1,0,1:0:0:0:
192,0,260310,1,0,1:0:0:0:
320,0,260357,1,0,1:0:0:0:
64,0,260404,1,0,1:0:0:0:
448,0,260404,1,0,1:0:0:0:
64,0,260498,1,0,1:0:0:0:
192,0,260498,1,0,1:0:0:0:
448,0,260498,1,0,1:0:0:0:
320,0,260545,1,0,1:0:0:0:
192,0,260592,1,0,1:0:0:0:
320,0,260639,1,0,1:0:0:0:
192,0,260685,1,0,1:0:0:0:
448,0,260685,1,0,1:0:0:0:
64,0,260779,1,0,1:0:0:0:
320,0,260779,1,0,1:0:0:0:
192,0,260873,1,0,1:0:0:0:
448,0,260873,1,0,1:0:0:0:
64,0,260967,1,0,1:0:0:0:
320,0,260967,1,0,1:0:0:0:
192,0,261060,1,0,1:0:0:0:
448,0,261060,1,0,1:0:0:0:
64,0,261107,1,0,1:0:0:0:
320,0,261107,1,0,1:0:0:0:
192,0,261154,1,0,1:0:0:0:
448,0,261154,1,0,1:0:0:0:
320,0,261201,1,0,1:0:0:0:
64,0,261248,1,0,1:0:0:0:
192,0,261248,1,0,1:0:0:0:
448,0,261248,1,0,1:0:0:0:
64,0,261435,1,0,1:0:0:0:
320,0,261435,1,0,1:0:0:0:
192,0,261529,1,0,1:0:0:0:
320,0,261576,1,0,1:0:0:0:
64,0,261623,1,0,1:0:0:0:
192,0,261623,1,0,1:0:0:0:
448,0,261623,1,0,1:0:0:0:
64,0,261810,1,0,1:0:0:0:
192,0,261810,1,0,1:0:0:0:
448,0,261810,1,0,1:0:0:0:
320,0,261904,1,0,1:0:0:0:
192,0,261951,1,0,1:0:0:0:
64,0,261998,1,0,1:0:0:0:
320,0,261998,1,0,1:0:0:0:
448,0,261998,1,0,1:0:0:0:
64,0,262185,1,0,1:0:0:0:
320,0,262185,1,0,1:0:0:0:
448,0,262185,1,0,1:0:0:0:
192,0,262279,1,0,1:0:0:0:
320,0,262326,1,0,1:0:0:0:
64,0,262373,1,0,1:0:0:0:
192,0,262373,1,0,1:0:0:0:
448,0,262373,1,0,1:0:0:0:
64,0,262560,1,0,1:0:0:0:
192,0,262560,1,0,1:0:0:0:
448,0,262560,1,0,1:0:0:0:
320,0,262654,1,0,1:0:0:0:
192,0,262701,1,0,1:0:0:0:
64,0,262748,1,0,1:0:0:0:
320,0,262748,1,0,1:0:0:0:
448,0,262748,1,0,1:0:0:0:
192,0,262810,1,0,1:0:0:0:
448,0,262842,1,0,1:0:0:0:
320,0,262873,1,0,1:0:0:0:
64,0,262935,1,0,1:0:0:0:
192,0,262998,1,0,1:0:0:0:
64,0,263029,1,0,1:0:0:0:
448,0,263029,1,0,1:0:0:0:
320,0,263060,1,0,1:0:0:0:
192,0,263123,1,0,1:0:0:0:
320,0,263185,1,0,1:0:0:0:
64,0,263217,1,0,1:0:0:0:
448,0,263248,1,0,1:0:0:0:
64,0,263310,1,0,1:0:0:0:
192,0,263310,1,0,1:0:0:0:
320,0,263373,1,0,1:0:0:0:
448,0,263404,1,0,1:0:0:0:
64,0,263435,1,0,1:0:0:0:
192,0,263498,1,0,1:0:0:0:
320,0,263498,1,0,1:0:0:0:
448,0,263498,1,0,1:0:0:0:
320,0,263592,1,0,1:0:0:0:
64,0,263639,1,0,1:0:0:0:
320,0,263685,1,0,1:0:0:0:
64,0,263732,1,0,1:0:0:0:
192,0,263779,1,0,1:0:0:0:
320,0,263779,1,0,1:0:0:0:
64,0,263873,1,0,1:0:0:0:
448,0,263873,1,0,1:0:0:0:
320,0,263935,1,0,1:0:0:0:
192,0,263998,1,0,1:0:0:0:
320,0,264060,1,0,1:0:0:0:
448,0,264060,1,0,1:0:0:0:
192,0,264154,1,0,1:0:0:0:
320,0,264154,1,0,1:0:0:0:
64,0,264248,1,0,1:0:0:0:
192,0,264248,1,0,1:0:0:0:
448,0,264248,1,0,1:0:0:0:
320,0,264310,1,0,1:0:0:0:
192,0,264342,1,0,1:0:0:0:
64,0,264373,1,0,1:0:0:0:
320,0,264435,1,0,1:0:0:0:
448,0,264435,1,0,1:0:0:0:
192,0,264498,1,0,1:0:0:0:
64,0,264560,1,0,1:0:0:0:
192,0,264623,1,0,1:0:0:0:
320,0,264623,1,0,1:0:0:0:
448,0,264670,1,0,1:0:0:0:
64,0,264717,1,0,1:0:0:0:
192,0,264717,1,0,1:0:0:0:
320,0,264764,1,0,1:0:0:0:
448,0,264810,1,0,1:0:0:0:
192,0,264873,1,0,1:0:0:0:
64,0,264904,1,0,1:0:0:0:
320,0,264935,1,0,1:0:0:0:
64,0,264998,1,0,1:0:0:0:
192,0,264998,1,0,1:0:0:0:
448,0,264998,1,0,1:0:0:0:
320,0,265060,1,0,1:0:0:0:
192,0,265092,1,0,1:0:0:0:
448,0,265123,1,0,1:0:0:0:
64,0,265185,1,0,1:0:0:0:
320,0,265185,1,0,1:0:0:0:
448,0,265248,1,0,1:0:0:0:
64,0,265279,1,0,1:0:0:0:
192,0,265310,1,0,1:0:0:0:
320,0,265373,1,0,1:0:0:0:
448,0,265373,1,0,1:0:0:0:
64,0,265420,1,0,1:0:0:0:
192,0,265467,1,0,1:0:0:0:
320,0,265467,1,0,1:0:0:0:
448,0,265514,1,0,1:0:0:0:
64,0,265560,1,0,1:0:0:0:
448,0,265607,1,0,1:0:0:0:
64,0,265654,1,0,1:0:0:0:
448,0,265701,1,0,1:0:0:0:
64,0,265748,1,0,1:0:0:0:
192,0,265748,1,0,1:0:0:0:
320,0,265748,1,0,1:0:0:0:
192,0,265842,1,0,1:0:0:0:
448,0,265842,1,0,1:0:0:0:
64,0,265935,1,0,1:0:0:0:
320,0,265935,1,0,1:0:0:0:
192,0,266029,1,0,1:0:0:0:
320,0,266029,1,0,1:0:0:0:
64,0,266123,1,0,1:0:0:0:
448,0,266123,1,0,1:0:0:0:
192,0,266185,1,0,1:0:0:0:
320,0,266217,1,0,1:0:0:0:
448,0,266248,1,0,1:0:0:0:
64,0,266310,1,0,1:0:0:0:
448,0,266373,1,0,1:0:0:0:
192,0,266404,1,0,1:0:0:0:
320,0,266435,1,0,1:0:0:0:
64,0,266498,1,0,1:0:0:0:
192,0,266498,1,0,1:0:0:0:
448,0,266498,1,0,1:0:0:0:
320,0,266560,1,0,1:0:0:0:
448,0,266592,1,0,1:0:0:0:
64,0,266623,1,0,1:0:0:0:
320,0,266685,1,0,1:0:0:0:
192,0,266748,1,0,1:0:0:0:
64,0,266779,1,0,1:0:0:0:
448,0,266810,1,0,1:0:0:0:
192,0,266873,1,0,1:0:0:0:
320,0,266873,1,0,1:0:0:0:
64,0,266967,1,0,1:0:0:0:
320,0,267014,1,0,1:0:0:0:
192,0,267060,1,0,1:0:0:0:
448,0,267123,1,0,1:0:0:0:
64,0,267154,1,0,1:0:0:0:
192,0,267185,1,0,1:0:0:0:
64,0,267248,1,0,1:0:0:0:
320,0,267248,1,0,1:0:0:0:
448,0,267248,1,0,1:0:0:0:
192,0,267310,1,0,1:0:0:0:
320,0,267342,1,0,1:0:0:0:
64,0,267373,1,0,1:0:0:0:
448,0,267435,1,0,1:0:0:0:
64,0,267498,1,0,1:0:0:0:
192,0,267529,1,0,1:0:0:0:
320,0,267529,1,0,1:0:0:0:
448,0,267560,1,0,1:0:0:0:
192,0,267623,1,0,1:0:0:0:
320,0,267670,1,0,1:0:0:0:
64,0,267717,1,0,1:0:0:0:
448,0,267717,1,0,1:0:0:0:
192,0,267764,1,0,1:0:0:0:
320,0,267810,1,0,1:0:0:0:
64,0,267873,1,0,1:0:0:0:
192,0,267904,1,0,1:0:0:0:
448,0,267904,1,0,1:0:0:0:
320,0,267935,1,0,1:0:0:0:
64,0,267998,1,0,1:0:0:0:
192,0,267998,1,0,1:0:0:0:
448,0,267998,1,0,1:0:0:0:
64,0,268092,1,0,1:0:0:0:
320,0,268139,1,0,1:0:0:0:
64,0,268185,1,0,1:0:0:0:
192,0,268185,1,0,1:0:0:0:
448,0,268279,1,0,1:0:0:0:
192,0,268326,1,0,1:0:0:0:
320,0,268373,1,0,1:0:0:0:
448,0,268373,1,0,1:0:0:0:
64,0,268420,1,0,1:0:0:0:
192,0,268467,1,0,1:0:0:0:
320,0,268514,1,0,1:0:0:0:
448,0,268560,1,0,1:0:0:0:
320,0,268654,1,0,1:0:0:0:
192,0,268701,1,0,1:0:0:0:
64,0,268748,1,0,1:0:0:0:
320,0,268748,1,0,1:0:0:0:
448,0,268748,1,0,1:0:0:0:
192,0,268810,1,0,1:0:0:0:
448,0,268842,1,0,1:0:0:0:
64,0,268873,1,0,1:0:0:0:
320,0,268935,1,0,1:0:0:0:
448,0,268998,1,0,1:0:0:0:
64,0,269029,1,0,1:0:0:0:
320,0,269029,1,0,1:0:0:0:
192,0,269060,1,0,1:0:0:0:
448,0,269123,1,0,1:0:0:0:
64,0,269185,1,0,1:0:0:0:
320,0,269217,1,0,1:0:0:0:
448,0,269248,1,0,1:0:0:0:
192,0,269310,1,0,1:0:0:0:
320,0,269310,1,0,1:0:0:0:
64,0,269373,1,0,1:0:0:0:
448,0,269404,1,0,1:0:0:0:
320,0,269435,1,0,1:0:0:0:
64,0,269498,1,0,1:0:0:0:
192,0,269498,1,0,1:0:0:0:
448,0,269498,1,0,1:0:0:0:
320,0,269592,1,0,1:0:0:0:
64,0,269639,1,0,1:0:0:0:
320,0,269685,1,0,1:0:0:0:
64,0,269732,1,0,1:0:0:0:
192,0,269779,1,0,1:0:0:0:
448,0,269779,1,0,1:0:0:0:
64,0,269873,1,0,1:0:0:0:
320,0,269873,1,0,1:0:0:0:
192,0,269967,1,0,1:0:0:0:
320,0,270060,1,0,1:0:0:0:
448,0,270060,1,0,1:0:0:0:
64,0,270154,1,0,1:0:0:0:
192,0,270154,1,0,1:0:0:0:
64,0,270248,1,0,1:0:0:0:
320,0,270248,1,0,1:0:0:0:
448,0,270248,1,0,1:0:0:0:
192,0,270310,1,0,1:0:0:0:
320,0,270342,1,0,1:0:0:0:
448,0,270373,1,0,1:0:0:0:
64,0,270435,1,0,1:0:0:0:
192,0,270435,1,0,1:0:0:0:
320,0,270498,1,0,1:0:0:0:
192,0,270529,1,0,1:0:0:0:
64,0,270560,1,0,1:0:0:0:
320,0,270623,1,0,1:0:0:0:
448,0,270623,1,0,1:0:0:0:
192,0,270670,1,0,1:0:0:0:
64,0,270717,1,0,1:0:0:0:
448,0,270717,1,0,1:0:0:0:
320,0,270764,1,0,1:0:0:0:
192,0,270810,1,0,1:0:0:0:
448,0,270873,1,0,1:0:0:0:
320,0,270904,1,0,1:0:0:0:
64,0,270935,1,0,1:0:0:0:
192,0,270998,1,0,1:0:0:0:
320,0,270998,1,0,1:0:0:0:
448,0,270998,1,0,1:0:0:0:
64,0,271060,1,0,1:0:0:0:
192,0,271092,1,0,1:0:0:0:
448,0,271123,1,0,1:0:0:0:
64,0,271185,1,0,1:0:0:0:
320,0,271185,1,0,1:0:0:0:
448,0,271248,1,0,1:0:0:0:
192,0,271279,1,0,1:0:0:0:
320,0,271310,1,0,1:0:0:0:
64,0,271373,1,0,1:0:0:0:
192,0,271373,1,0,1:0:0:0:
320,0,271420,1,0,1:0:0:0:
448,0,271467,1,0,1:0:0:0:
192,0,271514,1,0,1:0:0:0:
64,0,271560,1,0,1:0:0:0:
448,0,271607,1,0,1:0:0:0:
64,0,271654,1,0,1:0:0:0:
448,0,271701,1,0,1:0:0:0:
64,0,271748,1,0,1:0:0:0:
192,0,271748,1,0,1:0:0:0:
320,0,271748,1,0,1:0:0:0:
192,0,271842,1,0,1:0:0:0:
448,0,271842,1,0,1:0:0:0:
64,0,271935,1,0,1:0:0:0:
320,0,271935,1,0,1:0:0:0:
192,0,272029,1,0,1:0:0:0:
320,0,272029,1,0,1:0:0:0:
64,0,272123,1,0,1:0:0:0:
448,0,272123,1,0,1:0:0:0:
320,0,272185,1,0,1:0:0:0:
192,0,272248,1,0,1:0:0:0:
64,0,272310,1,0,1:0:0:0:
448,0,272373,1,0,1:0:0:0:
192,0,272404,1,0,1:0:0:0:
320,0,272404,1,0,1:0:0:0:
64,0,272435,1,0,1:0:0:0:
192,0,272498,1,0,1:0:0:0:
320,0,272498,1,0,1:0:0:0:
448,0,272498,1,0,1:0:0:0:
64,0,272560,1,0,1:0:0:0:
448,0,272592,1,0,1:0:0:0:
320,0,272623,1,0,1:0:0:0:
448,0,272685,1,0,1:0:0:0:
192,0,272748,1,0,1:0:0:0:
320,0,272779,1,0,1:0:0:0:
64,0,272810,1,0,1:0:0:0:
192,0,272873,1,0,1:0:0:0:
448,0,272873,1,0,1:0:0:0:
320,0,272920,1,0,1:0:0:0:
64,0,272967,1,0,1:0:0:0:
448,0,273014,1,0,1:0:0:0:
192,0,273060,1,0,1:0:0:0:
320,0,273154,1,0,1:0:0:0:
448,0,273154,1,0,1:0:0:0:
64,0,273248,1,0,1:0:0:0:
192,0,273248,1,0,1:0:0:0:
320,0,273310,1,0,1:0:0:0:
448,0,273342,1,0,1:0:0:0:
64,0,273373,1,0,1:0:0:0:
192,0,273435,1,0,1:0:0:0:
320,0,273482,1,0,1:0:0:0:
448,0,273498,1,0,1:0:0:0:
64,0,273529,1,0,1:0:0:0:
192,0,273560,1,0,1:0:0:0:
320,0,273576,1,0,1:0:0:0:
64,0,273623,1,0,1:0:0:0:
448,0,273623,1,0,1:0:0:0:
192,0,273670,1,0,1:0:0:0:
320,0,273717,1,0,1:0:0:0:
448,0,273717,1,0,1:0:0:0:
64,0,273764,1,0,1:0:0:0:
192,0,273810,1,0,1:0:0:0:
320,0,273873,1,0,1:0:0:0:
448,0,273904,1,0,1:0:0:0:
192,0,273935,1,0,1:0:0:0:
64,0,273998,1,0,1:0:0:0:
320,0,273998,1,0,1:0:0:0:
192,0,274092,1,0,1:0:0:0:
448,0,274092,1,0,1:0:0:0:
64,0,274139,1,0,1:0:0:0:
320,0,274139,1,0,1:0:0:0:
192,0,274185,1,0,1:0:0:0:
448,0,274185,1,0,1:0:0:0:
320,0,274279,1,0,1:0:0:0:
448,0,274279,1,0,1:0:0:0:
64,0,274326,1,0,1:0:0:0:
192,0,274326,1,0,1:0:0:0:
320,0,274373,1,0,1:0:0:0:
448,0,274373,1,0,1:0:0:0:
64,0,274467,1,0,1:0:0:0:
192,0,274467,1,0,1:0:0:0:
320,0,274560,1,0,1:0:0:0:
448,0,274560,1,0,1:0:0:0:
64,0,274607,1,0,1:0:0:0:
192,0,274607,1,0,1:0:0:0:
320,0,274654,1,0,1:0:0:0:
448,0,274654,1,0,1:0:0:0:
192,0,274701,1,0,1:0:0:0:
64,0,274748,1,0,1:0:0:0:
320,0,274748,1,0,1:0:0:0:
448,0,274748,1,0,1:0:0:0:
192,0,274810,1,0,1:0:0:0:
64,0,274842,1,0,1:0:0:0:
320,0,274873,1,0,1:0:0:0:
448,0,274935,1,0,1:0:0:0:
320,0,274998,1,0,1:0:0:0:
64,0,275029,1,0,1:0:0:0:
192,0,275060,1,0,1:0:0:0:
320,0,275123,1,0,1:0:0:0:
448,0,275123,1,0,1:0:0:0:
192,0,275185,1,0,1:0:0:0:
448,0,275217,1,0,1:0:0:0:
64,0,275248,1,0,1:0:0:0:
320,0,275310,1,0,1:0:0:0:
192,0,275373,1,0,1:0:0:0:
64,0,275404,1,0,1:0:0:0:
320,0,275435,1,0,1:0:0:0:
192,0,275498,1,0,1:0:0:0:
448,0,275498,1,0,1:0:0:0:
64,0,275560,1,0,1:0:0:0:
448,0,275592,1,0,1:0:0:0:
320,0,275623,1,0,1:0:0:0:
64,0,275685,1,0,1:0:0:0:
192,0,275685,1,0,1:0:0:0:
320,0,275748,1,0,1:0:0:0:
448,0,275779,1,0,1:0:0:0:
192,0,275810,1,0,1:0:0:0:
64,0,275873,1,0,1:0:0:0:
448,0,275873,1,0,1:0:0:0:
320,0,275935,1,0,1:0:0:0:
192,0,275967,1,0,1:0:0:0:
448,0,275998,1,0,1:0:0:0:
64,0,276060,1,0,1:0:0:0:
192,0,276123,1,0,1:0:0:0:
320,0,276154,1,0,1:0:0:0:
64,0,276185,1,0,1:0:0:0:
192,0,276248,1,0,1:0:0:0:
448,0,276248,1,0,1:0:0:0:
320,0,276310,1,0,1:0:0:0:
64,0,276342,1,0,1:0:0:0:
448,0,276373,1,0,1:0:0:0:
192,0,276435,1,0,1:0:0:0:
64,0,276498,1,0,1:0:0:0:
320,0,276529,1,0,1:0:0:0:
448,0,276560,1,0,1:0:0:0:
64,0,276623,1,0,1:0:0:0:
192,0,276623,1,0,1:0:0:0:
320,0,276670,1,0,1:0:0:0:
64,0,276717,1,0,1:0:0:0:
320,0,276764,1,0,1:0:0:0:
192,0,276810,1,0,1:0:0:0:
448,0,276810,1,0,1:0:0:0:
64,0,276873,1,0,1:0:0:0:
448,0,276904,1,0,1:0:0:0:
320,0,276935,1,0,1:0:0:0:
64,0,276998,1,0,1:0:0:0:
192,0,276998,1,0,1:0:0:0:
320,0,277060,1,0,1:0:0:0:
448,0,277092,1,0,1:0:0:0:
192,0,277123,1,0,1:0:0:0:
64,0,277185,1,0,1:0:0:0:
320,0,277185,1,0,1:0:0:0:
448,0,277248,1,0,1:0:0:0:
192,0,277279,1,0,1:0:0:0:
320,0,277310,1,0,1:0:0:0:
64,0,277373,1,0,1:0:0:0:
448,0,277373,1,0,1:0:0:0:
192,0,277420,1,0,1:0:0:0:
320,0,277467,1,0,1:0:0:0:
64,0,277514,1,0,1:0:0:0:
192,0,277560,1,0,1:0:0:0:
320,0,277560,1,0,1:0:0:0:
448,0,277560,1,0,1:0:0:0:
64,0,277623,1,0,1:0:0:0:
192,0,277654,1,0,1:0:0:0:
320,0,277685,1,0,1:0:0:0:
64,0,277748,1,0,1:0:0:0:
448,0,277748,1,0,1:0:0:0:
192,0,277810,1,0,1:0:0:0:
448,0,277842,1,0,1:0:0:0:
320,0,277873,1,0,1:0:0:0:
64,0,277935,1,0,1:0:0:0:
448,0,277998,1,0,1:0:0:0:
320,0,278029,1,0,1:0:0:0:
192,0,278060,1,0,1:0:0:0:
64,0,278123,1,0,1:0:0:0:
448,0,278123,1,0,1:0:0:0:
320,0,278185,1,0,1:0:0:0:
192,0,278217,1,0,1:0:0:0:
64,0,278248,1,0,1:0:0:0:
448,0,278310,1,0,1:0:0:0:
192,0,278373,1,0,1:0:0:0:
64,0,278404,1,0,1:0:0:0:
320,0,278435,1,0,1:0:0:0:
192,0,278498,1,0,1:0:0:0:
448,0,278498,1,0,1:0:0:0:
64,0,278560,1,0,1:0:0:0:
320,0,278592,1,0,1:0:0:0:
448,0,278623,1,0,1:0:0:0:
64,0,278685,1,0,1:0:0:0:
192,0,278685,1,0,1:0:0:0:
320,0,278748,1,0,1:0:0:0:
448,0,278779,1,0,1:0:0:0:
192,0,278810,1,0,1:0:0:0:
64,0,278873,1,0,1:0:0:0:
320,0,278873,1,0,1:0:0:0:
192,0,278935,1,0,1:0:0:0:
448,0,278967,1,0,1:0:0:0:
64,0,278998,1,0,1:0:0:0:
320,0,279060,1,0,1:0:0:0:
192,0,279123,1,0,1:0:0:0:
448,0,279154,1,0,1:0:0:0:
64,0,279185,1,0,1:0:0:0:
192,0,279248,1,0,1:0:0:0:
320,0,279248,1,0,1:0:0:0:
448,0,279248,1,0,1:0:0:0:
64,0,279310,1,0,1:0:0:0:
192,0,279342,1,0,1:0:0:0:
448,0,279373,1,0,1:0:0:0:
320,0,279435,1,0,1:0:0:0:
448,0,279498,1,0,1:0:0:0:
192,0,279529,1,0,1:0:0:0:
64,0,279560,1,0,1:0:0:0:
320,0,279623,1,0,1:0:0:0:
448,0,279623,1,0,1:0:0:0:
192,0,279670,1,0,1:0:0:0:
320,0,279717,1,0,1:0:0:0:
192,0,279764,1,0,1:0:0:0:
64,0,279810,1,0,1:0:0:0:
448,0,279810,1,0,1:0:0:0:
320,0,279873,1,0,1:0:0:0:
64,0,279904,1,0,1:0:0:0:
192,0,279904,1,0,1:0:0:0:
448,0,279935,1,0,1:0:0:0:
64,0,279998,1,0,1:0:0:0:
192,0,279998,1,0,1:0:0:0:
320,0,279998,1,0,1:0:0:0:
448,0,280045,1,0,1:0:0:0:
320,0,280092,1,0,1:0:0:0:
192,0,280139,1,0,1:0:0:0:
64,0,280185,1,0,1:0:0:0:
448,0,280185,1,0,1:0:0:0:
320,0,280248,1,0,1:0:0:0:
64,0,280279,1,0,1:0:0:0:
192,0,280310,1,0,1:0:0:0:
320,0,280373,1,0,1:0:0:0:
448,0,280373,1,0,1:0:0:0:
64,0,280420,1,0,1:0:0:0:
320,0,280467,1,0,1:0:0:0:
448,0,280467,1,0,1:0:0:0:
192,0,280514,1,0,1:0:0:0:
320,0,280560,1,0,1:0:0:0:
448,0,280560,1,0,1:0:0:0:
64,0,280607,1,0,1:0:0:0:
192,0,280654,1,0,1:0:0:0:
320,0,280701,1,0,1:0:0:0:
64,0,280748,1,0,1:0:0:0:
192,0,280748,1,0,1:0:0:0:
448,0,280748,1,0,1:0:0:0:
320,0,280810,1,0,1:0:0:0:
448,0,280842,1,0,1:0:0:0:
192,0,280873,1,0,1:0:0:0:
64,0,280935,1,0,1:0:0:0:
448,0,280998,1,0,1:0:0:0:
192,0,281029,1,0,1:0:0:0:
320,0,281060,1,0,1:0:0:0:
64,0,281123,1,0,1:0:0:0:
192,0,281123,1,0,1:0:0:0:
320,0,281185,1,0,1:0:0:0:
448,0,281217,1,0,1:0:0:0:
64,0,281248,1,0,1:0:0:0:
192,0,281310,1,0,1:0:0:0:
448,0,281373,1,0,1:0:0:0:
64,0,281404,1,0,1:0:0:0:
192,0,281435,1,0,1:0:0:0:
320,0,281498,1,0,1:0:0:0:
448,0,281498,1,0,1:0:0:0:
64,0,281560,1,0,1:0:0:0:
192,0,281592,1,0,1:0:0:0:
320,0,281623,1,0,1:0:0:0:
64,0,281685,1,0,1:0:0:0:
192,0,281685,1,0,1:0:0:0:
448,0,281748,1,0,1:0:0:0:
320,0,281779,1,0,1:0:0:0:
192,0,281810,1,0,1:0:0:0:
64,0,281873,1,0,1:0:0:0:
448,0,281873,1,0,1:0:0:0:
192,0,281935,1,0,1:0:0:0:
320,0,281967,1,0,1:0:0:0:
448,0,281998,1,0,1:0:0:0:
64,0,282060,1,0,1:0:0:0:
320,0,282107,1,0,1:0:0:0:
448,0,282123,1,0,1:0:0:0:
64,0,282154,1,0,1:0:0:0:
192,0,282185,1,0,1:0:0:0:
64,0,282248,1,0,1:0:0:0:
320,0,282248,1,0,1:0:0:0:
448,0,282248,1,0,1:0:0:0:
192,0,282295,1,0,1:0:0:0:
448,0,282342,1,0,1:0:0:0:
64,0,282389,1,0,1:0:0:0:
192,0,282435,1,0,1:0:0:0:
320,0,282498,1,0,1:0:0:0:
64,0,282529,1,0,1:0:0:0:
448,0,282529,1,0,1:0:0:0:
192,0,282560,1,0,1:0:0:0:
320,0,282623,1,0,1:0:0:0:
448,0,282623,1,0,1:0:0:0:
64,0,282670,1,0,1:0:0:0:
192,0,282717,1,0,1:0:0:0:
320,0,282764,1,0,1:0:0:0:
64,0,282810,1,0,1:0:0:0:
448,0,282810,1,0,1:0:0:0:
320,0,282873,1,0,1:0:0:0:
192,0,282904,1,0,1:0:0:0:
64,0,282935,1,0,1:0:0:0:
320,0,282998,1,0,1:0:0:0:
448,0,282998,1,0,1:0:0:0:
192,0,283060,1,0,1:0:0:0:
64,0,283123,1,0,1:0:0:0:
320,0,283185,1,0,1:0:0:0:
448,0,283185,1,0,1:0:0:0:
64,0,283232,1,0,1:0:0:0:
192,0,283232,1,0,1:0:0:0:
320,0,283279,1,0,1:0:0:0:
448,0,283279,1,0,1:0:0:0:
192,0,283326,1,0,1:0:0:0:
64,0,283373,1,0,1:0:0:0:
448,0,283373,1,0,1:0:0:0:
320,0,283420,1,0,1:0:0:0:
192,0,283467,1,0,1:0:0:0:
320,0,283514,1,0,1:0:0:0:
64,0,283560,1,0,1:0:0:0:
192,0,283560,1,0,1:0:0:0:
320,0,283607,1,0,1:0:0:0:
448,0,283607,1,0,1:0:0:0:
64,0,283654,1,0,1:0:0:0:
192,0,283654,1,0,1:0:0:0:
320,0,283701,1,0,1:0:0:0:
448,0,283701,1,0,1:0:0:0:
64,0,283748,1,0,1:0:0:0:
192,0,283748,1,0,1:0:0:0:
320,0,283842,1,0,1:0:0:0:
448,0,283842,1,0,1:0:0:0:
192,0,283935,1,0,1:0:0:0:
320,0,283935,1,0,1:0:0:0:
64,0,284029,1,0,1:0:0:0:
192,0,284029,1,0,1:0:0:0:
320,0,284123,1,0,1:0:0:0:
448,0,284123,1,0,1:0:0:0:
320,0,284217,1,0,1:0:0:0:
448,0,284217,1,0,1:0:0:0:
64,0,284264,1,0,1:0:0:0:
192,0,284264,1,0,1:0:0:0:
320,0,284310,1,0,1:0:0:0:
448,0,284310,1,0,1:0:0:0:
64,0,284357,1,0,1:0:0:0:
192,0,284357,1,0,1:0:0:0:
320,0,284404,1,0,1:0:0:0:
448,0,284404,1,0,1:0:0:0:
64,0,284498,1,0,1:0:0:0:
192,0,284521,1,0,1:0:0:0:
448,0,284545,1,0,1:0:0:0:
320,0,284568,1,0,1:0:0:0:
64,0,284592,1,0,1:0:0:0:
192,0,284615,1,0,1:0:0:0:
448,0,284639,1,0,1:0:0:0:
320,0,284662,1,0,1:0:0:0:
64,0,284685,1,0,1:0:0:0:
192,0,284685,1,0,1:0:0:0:
320,0,284779,1,0,1:0:0:0:
448,0,284779,1,0,1:0:0:0:
192,0,284873,1,0,1:0:0:0:
320,0,284873,1,0,1:0:0:0:
64,0,284967,1,0,1:0:0:0:
192,0,284967,1,0,1:0:0:0:
64,0,285060,1,0,1:0:0:0:
192,0,285060,1,0,1:0:0:0:
320,0,285107,1,0,1:0:0:0:
448,0,285107,1,0,1:0:0:0:
64,0,285154,1,0,1:0:0:0:
192,0,285154,1,0,1:0:0:0:
320,0,285201,1,0,1:0:0:0:
448,0,285201,1,0,1:0:0:0:
64,0,285248,1,0,1:0:0:0:
192,0,285248,1,0,1:0:0:0:
64,0,285342,1,0,1:0:0:0:
192,0,285342,1,0,1:0:0:0:
320,0,285342,1,0,1:0:0:0:
448,0,285342,1,0,1:0:0:0:
320,0,285435,1,0,1:0:0:0:
448,0,285459,1,0,1:0:0:0:
192,0,285482,1,0,1:0:0:0:
64,0,285506,1,0,1:0:0:0:
320,0,285529,1,0,1:0:0:0:
448,0,285553,1,0,1:0:0:0:
192,0,285576,1,0,1:0:0:0:
64,0,285600,1,0,1:0:0:0:
320,0,285623,1,0,1:0:0:0:
448,0,285623,1,0,1:0:0:0:
64,0,285717,1,0,1:0:0:0:
192,0,285717,1,0,1:0:0:0:
320,0,285810,1,0,1:0:0:0:
448,0,285810,1,0,1:0:0:0:
64,0,285873,1,0,1:0:0:0:
192,0,285873,1,0,1:0:0:0:
320,0,285935,1,0,1:0:0:0:
448,0,285935,1,0,1:0:0:0:
64,0,285998,1,0,1:0:0:0:
192,0,285998,1,0,1:0:0:0:
64,0,286185,1,0,1:0:0:0:
192,0,286185,1,0,1:0:0:0:
320,0,286232,1,0,1:0:0:0:
448,0,286232,1,0,1:0:0:0:
64,0,286279,1,0,1:0:0:0:
192,0,286279,1,0,1:0:0:0:
320,0,286326,1,0,1:0:0:0:
448,0,286326,1,0,1:0:0:0:
64,0,286373,1,0,1:0:0:0:
192,0,286373,1,0,1:0:0:0:
64,0,286467,1,0,1:0:0:0:
192,0,286467,1,0,1:0:0:0:
320,0,286467,1,0,1:0:0:0:
448,0,286467,1,0,1:0:0:0:
448,0,286560,1,0,1:0:0:0:
320,0,286584,1,0,1:0:0:0:
192,0,286607,1,0,1:0:0:0:
64,0,286631,1,0,1:0:0:0:
448,0,286654,1,0,1:0:0:0:
320,0,286678,1,0,1:0:0:0:
192,0,286701,1,0,1:0:0:0:
64,0,286725,1,0,1:0:0:0:
192,0,287123,1,0,1:0:0:0:
64,192,287123,128,0,294998:0:0:0:0:
320,192,287123,128,0,288669:0:0:0:0:
448,192,287123,128,0,290404:0:0:0:0:
192,192,288669,128,0,290544:0:0:0:0:
320,192,290544,128,0,294951:0:0:0:0:
448,192,290544,128,0,294904:0:0:0:0:
