osu file format v13

[General]
AudioFilename: NIFLHEIMR.mp3
AudioLeadIn: 0
PreviewTime: 39231
Countdown: 1
SampleSet: Soft
StackLeniency: 0.7
Mode: 0
LetterboxInBreaks: 1
WidescreenStoryboard: 0

[Editor]
Bookmarks: 5881,16548,27048,37881,40548,61897,67231,72564,83231,93897,115231,136564,160842
DistanceSpacing: 0.8
BeatDivisor: 4
GridSize: 32
TimelineZoom: 2.699999

[Metadata]
Title:Niflheimr
TitleUnicode:Niflheimr
Artist:xi
ArtistUnicode:xi
Creator:Zare
Version:Eternal
Source:Cytus
Tags:
BeatmapID:492213
BeatmapSetID:209127

[Difficulty]
HPDrainRate:6.5
CircleSize:4.5
OverallDifficulty:9
ApproachRate:9.5
SliderMultiplier:1.9
SliderTickRate:1

[Events]
//Background and Video events
0,0,"niflheimr.jpg",0,0
//Break Periods
2,67420,71696
//Storyboard Layer 0 (Background)
//Storyboard Layer 1 (Fail)
//Storyboard Layer 2 (Pass)
//Storyboard Layer 3 (Foreground)
//Storyboard Sound Samples
//Background Colour Transformations
3,100,163,162,255

[TimingPoints]
5888,333.333333333333,4,2,0,100,1,0
5888,-166.666666666667,4,2,0,20,0,0
11221,-166.666666666667,4,2,0,30,0,0
16221,-166.666666666667,4,2,0,20,0,0
16554,-125,4,2,0,40,0,0
40554,-100,4,2,0,40,0,1
45887,-151.515151515152,4,2,0,40,0,1
46137,-151.515151515152,4,2,0,5,0,1
46221,-100,4,2,0,40,0,1
56554,-151.515151515152,4,2,0,40,0,1
56804,-151.515151515152,4,2,0,5,0,1
56887,-100,4,2,0,40,0,1
61887,-400,4,2,0,5,0,0
67221,-400,4,2,0,40,0,0
72221,-125,4,2,0,20,0,0
72554,-125,4,2,0,40,0,0
82971,-125,4,2,0,5,0,0
83054,-125,4,2,0,40,0,0
83137,-125,4,2,0,5,0,0
83221,-125,4,2,0,40,0,0
93637,-125,4,2,0,5,0,0
93721,-125,4,2,0,40,0,0
93887,-100,4,2,0,40,0,1
113887,-166.666666666667,4,2,0,40,0,1
114554,-100,4,2,0,40,0,1
115221,-151.515151515152,4,2,0,40,0,0
115471,-151.515151515152,4,2,0,5,0,0
115554,-100,4,2,0,40,0,0
119721,-100,4,2,0,10,0,0
119887,-100,4,2,0,30,0,0
119971,-100,4,2,0,40,0,0
120054,-100,4,2,0,40,0,0
120554,-151.515151515152,4,2,0,40,0,0
120804,-151.515151515152,4,2,0,5,0,0
120887,-100,4,2,0,40,0,0
124721,-100,4,2,0,5,0,0
124804,-100,4,2,0,40,0,0
124971,-100,4,2,0,5,0,0
125054,-100,4,2,0,40,0,0
125221,-100,4,2,0,5,0,0
125304,-100,4,2,0,40,0,0
125471,-100,4,2,0,5,0,0
125554,-100,4,2,0,40,0,0
125887,-151.515151515152,4,2,0,40,0,0
126137,-151.515151515152,4,2,0,5,0,0
126221,-100,4,2,0,40,0,0
131221,-151.515151515152,4,2,0,5,0,0
131554,-100,4,2,0,40,0,0
160832,333.333333333333,4,2,0,40,1,0
160832,-100,4,2,0,40,0,1
182081,-100,4,2,0,40,0,0
182165,-100,4,2,0,40,0,1
203415,-100,4,2,0,40,0,0
203498,-100,4,2,0,40,0,1
224831,-100,4,2,0,40,0,0

[Colours]
Combo1 : 254,180,241
Combo2 : 128,253,193
Combo3 : 55,247,247
Combo4 : 55,181,255

[HitObjects]
101,119,5887,5,0,0:0:0:0:
109,51,6054,1,0,0:0:0:0:
176,38,6221,1,0,0:0:0:0:
209,97,6387,1,0,0:0:0:0:
162,147,6554,2,0,P|154:195|167:257,1,56.9999982604981
240,268,6887,1,0,0:0:0:0:
261,274,6971,1,0,0:0:0:0:
282,281,7054,5,0,0:0:0:0:
383,242,7221,1,0,0:0:0:0:
336,145,7387,1,0,0:0:0:0:
333,133,7443,1,0,0:0:0:0:
332,121,7499,1,0,0:0:0:0:
332,109,7554,1,0,0:0:0:0:
383,63,7721,2,0,L|389:4,1,56.9999982604981
493,35,8054,2,0,L|487:94,1,56.9999982604981
406,163,8387,1,0,0:0:0:0:
431,226,11221,5,0,0:0:0:0:
437,293,11387,1,0,0:0:0:0:
369,302,11554,1,0,0:0:0:0:
359,234,11721,1,0,0:0:0:0:
293,213,11887,2,0,P|266:210|236:214,1,56.9999982604981
130,237,12221,1,0,0:0:0:0:
137,215,12304,1,0,0:0:0:0:
140,192,12387,5,0,0:0:0:0:
127,84,12554,1,0,0:0:0:0:
221,30,12721,1,0,0:0:0:0:
232,28,12776,1,0,0:0:0:0:
243,28,12832,1,0,0:0:0:0:
254,29,12887,1,0,0:0:0:0:
302,77,13054,2,0,P|328:80|365:77,1,56.9999982604981
440,149,13387,2,0,P|414:146|377:149,1,56.9999982604981
327,241,13721,1,0,0:0:0:0:
270,279,16220,5,0,0:0:0:0:
264,285,16303,1,0,0:0:0:0:
258,291,16387,1,0,0:0:0:0:
194,355,16554,6,0,P|157:366|119:368,1,76
80,285,16887,2,0,P|116:274|154:272,1,76
211,200,17221,1,0,0:0:0:0:
175,116,17387,1,0,0:0:0:0:
234,46,17554,1,0,0:0:0:0:
263,40,17637,1,0,0:0:0:0:
293,41,17721,5,0,0:0:0:0:
368,91,17887,1,0,0:0:0:0:
342,178,18054,1,0,0:0:0:0:
340,193,18110,1,0,0:0:0:0:
340,208,18165,1,0,0:0:0:0:
342,223,18221,1,0,0:0:0:0:
379,305,18387,2,0,L|453:319,1,76
292,336,18721,2,0,L|217:321,1,76
126,330,19054,1,0,0:0:0:0:
167,248,19221,1,0,0:0:0:0:
76,251,19387,1,0,0:0:0:0:
116,166,19554,6,0,P|112:126|115:84,1,76,0|0,0:0|0:0,0:0:0:0:
180,27,19887,1,0,0:0:0:0:
269,43,20054,1,0,0:0:0:0:
285,132,20221,1,0,0:0:0:0:
281,162,20304,1,0,0:0:0:0:
277,192,20387,5,0,0:0:0:0:
212,256,20554,1,0,0:0:0:0:
255,336,20721,1,0,0:0:0:0:
268,341,20776,1,0,0:0:0:0:
282,344,20832,1,0,0:0:0:0:
297,345,20887,1,0,0:0:0:0:
374,297,21054,2,0,P|406:303|452:299,1,76
474,211,21387,1,0,0:0:0:0:
413,142,21554,1,0,0:0:0:0:
405,104,21637,1,0,0:0:0:0:
413,66,21721,5,0,0:0:0:0:
280,52,21887,1,0,0:0:0:0:
156,91,22054,1,0,0:0:0:0:
223,152,22221,1,0,0:0:0:0:
137,181,22387,1,0,0:0:0:0:
166,267,22554,1,0,0:0:0:0:
253,239,22721,1,0,0:0:0:0:
339,266,22887,1,0,0:0:0:0:
369,270,22971,1,0,0:0:0:0:
398,267,23054,6,0,P|434:253|464:229,1,76
411,154,23387,1,0,0:0:0:0:
407,139,23443,1,0,0:0:0:0:
406,123,23499,1,0,0:0:0:0:
408,108,23554,1,0,0:0:0:0:
322,75,23721,2,0,L|313:-6,1,76
224,21,24054,1,0,0:0:0:0:
134,1,24221,1,0,0:0:0:0:
154,126,24387,6,0,P|157:164|154:202,1,76,0|0,0:0|0:0,0:0:0:0:
96,273,24721,1,0,0:0:0:0:
91,310,24804,1,0,0:0:0:0:
99,346,24887,1,0,0:0:0:0:
213,346,25054,1,0,0:0:0:0:
325,367,25221,1,0,0:0:0:0:
289,259,25387,1,0,0:0:0:0:
362,171,25554,1,0,0:0:0:0:
368,133,25637,1,0,0:0:0:0:
368,94,25721,5,0,0:0:0:0:
428,25,25887,1,0,0:0:0:0:
299,36,26054,1,0,0:0:0:0:
283,34,26110,1,0,0:0:0:0:
268,35,26165,1,0,0:0:0:0:
253,38,26221,1,0,0:0:0:0:
180,92,26387,2,0,P|146:100|106:95,1,76
28,144,26721,1,0,0:0:0:0:
15,179,26804,1,0,0:0:0:0:
14,216,26887,1,0,0:0:0:0:
17,227,27054,6,0,P|79:265|148:240,1,152
117,130,27554,1,0,0:0:0:0:
231,135,27721,2,0,P|300:110|362:148,1,152
290,204,28221,1,0,0:0:0:0:
415,232,28387,6,0,L|424:321,1,76
340,348,28721,1,0,0:0:0:0:
325,351,28776,1,0,0:0:0:0:
309,353,28832,1,0,0:0:0:0:
293,353,28887,1,0,0:0:0:0:
193,296,29054,2,0,P|155:294|117:298,1,76
67,194,29387,1,0,0:0:0:0:
179,149,29554,2,0,L|168:67,1,76
297,83,29887,6,0,P|341:26|412:40,1,152
431,168,30387,2,0,P|386:225|315:211,1,152
239,161,30887,1,0,0:0:0:0:
271,286,31054,6,0,L|266:364,1,76
174,365,31387,1,0,0:0:0:0:
158,364,31443,1,0,0:0:0:0:
142,362,31499,1,0,0:0:0:0:
127,357,31554,5,0,0:0:0:0:
67,240,31721,6,0,P|71:203|66:165,1,76,0|0,0:0|0:0,0:0:0:0:
54,75,32054,1,0,0:0:0:0:
67,68,32110,1,0,0:0:0:0:
81,63,32165,1,0,0:0:0:0:
96,60,32221,1,0,0:0:0:0:
186,53,32387,2,0,P|205:55|226:58,1,38
274,110,32554,6,0,P|310:113|356:108,1,76
432,71,32887,1,0,0:0:0:0:
479,191,33054,2,0,P|443:188|397:193,1,76
331,248,33387,1,0,0:0:0:0:
248,286,33554,1,0,0:0:0:0:
162,254,33721,1,0,0:0:0:0:
242,134,33887,6,0,P|243:89|230:49,1,76
122,36,34221,1,0,0:0:0:0:
163,157,34387,2,0,L|155:245,1,76
78,317,34721,1,0,0:0:0:0:
188,341,34887,1,0,0:0:0:0:
216,330,34971,1,0,0:0:0:0:
246,327,35054,1,0,0:0:0:0:
276,330,35137,1,0,0:0:0:0:
304,341,35221,6,0,P|337:344|397:329,1,76
493,334,35554,1,0,0:0:0:0:
389,256,35721,2,0,P|381:218|385:181,1,76
468,103,36054,1,0,0:0:0:0:
353,105,36221,2,0,P|297:107|270:101,1,76
104,77,36554,6,0,P|97:113|110:149,1,76
222,171,36887,1,0,0:0:0:0:
227,193,36971,1,0,0:0:0:0:
228,215,37054,1,0,0:0:0:0:
222,237,37137,1,0,0:0:0:0:
213,258,37221,1,0,0:0:0:0:
199,276,37304,1,0,0:0:0:0:
187,295,37387,1,0,0:0:0:0:
183,317,37471,1,0,0:0:0:0:
189,338,37554,1,0,0:0:0:0:
203,355,37637,1,0,0:0:0:0:
222,366,37721,1,0,0:0:0:0:
244,368,37804,1,0,0:0:0:0:
264,358,37887,5,0,0:0:0:0:
282,344,39221,1,0,0:0:0:0:
300,330,39304,1,0,0:0:0:0:
322,324,39387,1,0,0:0:0:0:
344,324,39471,1,0,0:0:0:0:
373,330,39554,1,0,0:0:0:0:
402,323,39637,1,0,0:0:0:0:
427,305,39721,1,0,0:0:0:0:
443,279,39804,1,0,0:0:0:0:
452,242,39887,1,0,0:0:0:0:
445,204,39971,1,0,0:0:0:0:
424,172,40054,1,0,0:0:0:0:
389,156,40137,1,0,0:0:0:0:
351,152,40221,1,0,0:0:0:0:
313,144,40304,1,0,0:0:0:0:
282,121,40387,1,0,0:0:0:0:
260,89,40471,1,0,0:0:0:0:
250,42,40554,6,0,P|206:24|160:31,1,95
195,119,40887,1,0,0:0:0:0:
82,272,41054,2,0,P|77:322|85:368,1,95
218,316,41387,1,0,0:0:0:0:
447,147,41721,6,0,P|446:56|368:9,1,190
365,104,42221,1,0,0:0:0:0:
447,242,42387,2,0,P|452:284|441:337,1,95
251,358,42721,2,0,P|246:316|257:263,1,95
265,74,43054,6,0,P|172:76|113:147,1,190
48,252,43554,1,0,0:0:0:0:
221,177,43721,2,0,L|323:189,1,95
449,97,44054,2,0,L|439:0,1,95
441,231,44387,2,0,L|451:328,1,95
266,276,44721,5,0,0:0:0:0:
131,321,44887,1,0,0:0:0:0:
161,181,45054,2,0,P|150:138|163:91,1,95
292,30,45387,1,0,0:0:0:0:
376,144,45554,1,0,0:0:0:0:
360,178,45637,1,0,0:0:0:0:
355,215,45721,1,0,0:0:0:0:
361,252,45804,1,0,0:0:0:0:
377,284,45887,6,0,P|331:289|291:312,1,94.0499997129822
79,322,46221,6,0,P|87:275|79:228,1,95
166,154,46554,1,0,0:0:0:0:
151,118,46637,1,0,0:0:0:0:
154,79,46721,1,0,0:0:0:0:
178,50,46804,1,0,0:0:0:0:
214,38,46887,1,0,0:0:0:0:
251,43,46971,1,0,0:0:0:0:
282,63,47054,1,0,0:0:0:0:
316,77,47137,1,0,0:0:0:0:
354,77,47221,5,0,0:0:0:0:
337,111,47304,1,0,0:0:0:0:
330,148,47387,1,0,0:0:0:0:
330,186,47471,1,0,0:0:0:0:
344,221,47554,1,0,0:0:0:0:
365,252,47637,1,0,0:0:0:0:
394,273,47721,2,0,P|441:280|488:270,1,95
508,107,48054,2,0,P|462:101|415:111,1,95
266,175,48387,6,0,P|174:168|103:228,1,190
213,287,48887,1,0,0:0:0:0:
231,320,48971,1,0,0:0:0:0:
265,335,49054,1,0,0:0:0:0:
302,336,49137,1,0,0:0:0:0:
338,325,49221,1,0,0:0:0:0:
363,297,49304,1,0,0:0:0:0:
375,261,49387,1,0,0:0:0:0:
368,223,49471,1,0,0:0:0:0:
343,194,49554,1,0,0:0:0:0:
327,159,49637,1,0,0:0:0:0:
338,122,49721,6,0,P|346:75|336:28,1,95
109,12,50054,2,0,P|100:58|111:106,1,95
64,328,50387,2,0,L|160:343,1,95
398,340,50721,1,0,0:0:0:0:
223,296,50887,1,0,0:0:0:0:
430,271,51054,1,0,0:0:0:0:
225,222,51221,6,0,P|220:193|230:127,1,95
380,70,51554,1,0,0:0:0:0:
146,20,51721,2,0,L|148:123,1,95
180,291,52054,2,0,P|227:301|272:291,1,95
387,151,52387,6,0,P|458:96|432:10,1,190
294,45,52887,1,0,0:0:0:0:
348,216,53054,2,0,P|356:263|351:310,1,95
178,353,53387,2,0,P|170:306|175:259,1,95
64,100,53721,6,0,P|112:101|157:87,1,95
246,158,54054,1,0,0:0:0:0:
275,134,54137,1,0,0:0:0:0:
312,129,54221,1,0,0:0:0:0:
349,134,54304,1,0,0:0:0:0:
380,152,54387,2,0,P|427:162|472:148,1,95
486,312,54721,2,0,L|389:302,1,95
194,356,55054,1,0,0:0:0:0:
246,158,55221,6,0,L|143:167,1,95
9,54,55554,2,0,L|112:63,1,95
293,52,55887,1,0,0:0:0:0:
298,213,56054,1,0,0:0:0:0:
437,131,56221,1,0,0:0:0:0:
451,165,56304,1,0,0:0:0:0:
457,202,56387,1,0,0:0:0:0:
455,240,56471,1,0,0:0:0:0:
442,275,56554,6,0,P|429:320|432:367,1,94.0499997129822
203,371,56887,6,0,L|223:279,1,95
212,134,57221,1,0,0:0:0:0:
199,98,57304,1,0,0:0:0:0:
166,79,57387,1,0,0:0:0:0:
129,86,57471,1,0,0:0:0:0:
104,115,57554,1,0,0:0:0:0:
104,153,57637,1,0,0:0:0:0:
129,182,57721,1,0,0:0:0:0:
166,189,57804,1,0,0:0:0:0:
199,170,57887,5,0,0:0:0:0:
236,164,57971,1,0,0:0:0:0:
272,174,58054,1,0,0:0:0:0:
303,194,58137,1,0,0:0:0:0:
328,222,58221,1,0,0:0:0:0:
341,257,58304,1,0,0:0:0:0:
337,293,58387,2,0,P|345:340|375:377,1,95
489,236,58721,2,0,P|480:189|450:152,1,95
272,174,59054,1,0,0:0:0:0:
341,6,59221,5,0,0:0:0:0:
209,128,59387,1,0,0:0:0:0:
380,69,59554,1,0,0:0:0:0:
199,54,59721,1,0,0:0:0:0:
162,44,59804,1,0,0:0:0:0:
124,46,59887,1,0,0:0:0:0:
89,62,59971,1,0,0:0:0:0:
62,88,60054,1,0,0:0:0:0:
45,122,60137,1,0,0:0:0:0:
40,160,60221,1,0,0:0:0:0:
49,196,60304,1,0,0:0:0:0:
72,225,60387,5,0,0:0:0:0:
48,366,60554,1,0,0:0:0:0:
148,238,60721,2,0,P|194:225|239:239,1,95
427,214,61054,2,0,P|381:226|336:212,1,95
193,322,61387,1,0,0:0:0:0:
383,122,61554,1,0,0:0:0:0:
382,324,61721,1,0,0:0:0:0:
192,124,61887,6,0,B|129:51|25:95|21:207|114:245|114:245|187:220|266:240|315:302|315:302|323:205|323:205|392:142|366:73,1,760,0|0,0:0|0:0,0:0:0:0:
345,110,72221,6,0,L|340:91,7,19,0|0|0|0|0|0|0|0,0:0|0:0|0:0|0:0|0:0|0:0|0:0|0:0,0:0:0:0:
341,121,72554,6,0,P|332:155|343:208,1,76
393,267,72887,1,0,0:0:0:0:
302,280,73054,1,0,0:0:0:0:
239,211,73221,2,0,P|133:220|108:324,1,228
193,291,73887,6,0,L|246:350,1,76
333,365,74221,1,0,0:0:0:0:
302,279,74387,2,0,P|310:243|307:205,1,76
238,144,74721,2,0,P|234:106|243:69,1,76
322,23,75054,5,0,0:0:0:0:
400,70,75387,1,0,0:0:0:0:
396,160,75554,2,0,P|390:198|388:236,1,76
470,273,75887,2,0,P|378:326|299:254,1,228
237,187,76554,6,0,P|243:141|238:104,2,76,0|0|0,0:0|0:0|0:0,0:0:0:0:
168,246,77054,1,0,0:0:0:0:
76,241,77221,1,0,0:0:0:0:
127,165,77387,2,0,L|123:79,1,76
31,83,77721,6,0,L|35:169,1,76
76,241,78054,1,0,0:0:0:0:
115,321,78221,2,0,P|149:339|186:336,1,76
272,306,78554,2,0,L|424:317,1,152
465,235,79054,1,0,0:0:0:0:
415,158,79221,6,0,L|415:59,1,76
338,32,79554,1,0,0:0:0:0:
252,67,79721,2,0,P|215:68|177:65,1,76
133,145,80054,2,0,P|170:144|208:147,1,76
268,216,80387,1,0,0:0:0:0:
238,302,80554,1,0,0:0:0:0:
328,290,80721,5,0,0:0:0:0:
358,203,80887,2,0,P|345:168|317:143,1,76
280,59,81221,2,0,L|198:62,1,76
115,40,81554,1,0,0:0:0:0:
38,90,81721,1,0,0:0:0:0:
92,162,81887,5,0,0:0:0:0:
93,173,81971,1,0,0:0:0:0:
94,184,82054,1,0,0:0:0:0:
95,195,82137,1,0,0:0:0:0:
96,206,82221,1,0,0:0:0:0:
97,217,82304,1,0,0:0:0:0:
98,228,82387,1,0,0:0:0:0:
99,239,82471,1,0,0:0:0:0:
133,255,82554,5,0,0:0:0:0:
170,250,82637,1,0,0:0:0:0:
196,221,82721,2,0,P|202:202|204:184,1,38
271,27,82887,6,0,P|269:45|270:64,1,38
421,91,83054,2,0,P|422:72|421:53,1,38
317,216,83221,2,0,L|338:318,1,76
224,374,83554,1,0,0:0:0:0:
243,261,83721,1,0,0:0:0:0:
135,296,83887,1,0,0:0:0:0:
85,136,84387,1,0,0:0:0:0:
47,28,84554,6,0,P|78:19|128:30,1,76
196,111,84887,1,0,0:0:0:0:
299,63,85054,2,0,L|375:71,1,76
410,179,85387,2,0,L|334:171,1,76,0|0,0:0|0:0,0:0:0:0:
243,242,85721,2,0,P|170:255|106:218,1,152
190,144,86221,6,0,L|188:68,1,76
82,25,86554,2,0,L|83:100,1,76
23,321,87054,1,0,0:0:0:0:
134,294,87221,6,0,P|170:303|208:304,1,76
317,338,87554,1,0,0:0:0:0:
291,226,87721,2,0,L|298:148,1,76,0|0,0:0|0:0,0:0:0:0:
284,36,88054,1,0,0:0:0:0:
195,107,88221,1,0,0:0:0:0:
184,220,88387,2,0,P|117:188|85:121,1,152
138,20,88887,6,0,L|217:27,1,76
285,116,89221,2,0,P|320:122|367:115,1,76
436,32,89721,1,0,0:0:0:0:
466,141,89887,6,0,L|465:246,1,76
495,327,90221,1,0,0:0:0:0:
385,298,90387,2,0,P|311:315|240:292,1,152
318,77,91054,1,0,0:0:0:0:
208,44,91221,5,0,0:0:0:0:
177,47,91304,1,0,0:0:0:0:
148,56,91387,1,0,0:0:0:0:
63,132,91554,1,0,0:0:0:0:
170,171,91721,2,0,L|169:206,3,19,0|0|0|0,0:0|0:0|0:0|0:0,0:0:0:0:
178,219,91887,2,0,L|170:306,1,76
260,378,92221,1,0,0:0:0:0:
380,371,92387,1,0,0:0:0:0:
315,267,92554,5,0,0:0:0:0:
310,237,92637,1,0,0:0:0:0:
314,206,92721,1,0,0:0:0:0:
326,178,92804,1,0,0:0:0:0:
345,154,92887,1,0,0:0:0:0:
424,72,93054,1,0,0:0:0:0:
312,45,93221,1,0,0:0:0:0:
283,34,93304,1,0,0:0:0:0:
252,30,93387,1,0,0:0:0:0:
221,33,93471,1,0,0:0:0:0:
192,42,93554,2,0,P|174:48|155:49,1,38
40,51,93721,1,0,0:0:0:0:
97,148,93887,5,0,0:0:0:0:
33,329,94054,2,0,P|83:334|130:330,1,95
158,190,94387,1,0,0:0:0:0:
193,358,94554,2,0,P|226:352|300:361,1,95
226,176,94887,1,0,0:0:0:0:
349,309,95054,6,0,P|389:313|472:193,1,190
348,42,95554,1,0,0:0:0:0:
379,217,95721,1,0,0:0:0:0:
298,99,95887,1,0,0:0:0:0:
288,99,95943,1,0,0:0:0:0:
278,99,95999,1,0,0:0:0:0:
268,99,96054,1,0,0:0:0:0:
126,83,96221,2,0,P|131:125|126:187,1,95
43,292,96554,5,0,0:0:0:0:
234,352,96721,2,0,B|253:307|253:307|249:262,1,95
90,229,97054,1,0,0:0:0:0:
264,180,97221,2,0,L|365:186,1,95
468,14,97554,2,0,L|266:41,1,190,0|0,0:0|0:0,0:0:0:0:
186,171,98054,5,0,0:0:0:0:
6,149,98221,1,0,0:0:0:0:
72,316,98387,1,0,0:0:0:0:
195,244,98554,1,0,0:0:0:0:
232,238,98637,1,0,0:0:0:0:
269,230,98721,1,0,0:0:0:0:
449,252,98888,1,0,0:0:0:0:
383,85,99054,1,0,0:0:0:0:
242,109,99221,5,0,0:0:0:0:
62,109,99387,2,0,L|73:209,1,95
213,176,99721,1,0,0:0:0:0:
411,151,99887,2,0,L|406:246,1,95
259,367,100221,2,0,L|264:272,1,95
145,192,100554,1,0,0:0:0:0:
132,156,100637,1,0,0:0:0:0:
133,117,100721,1,0,0:0:0:0:
148,82,100804,1,0,0:0:0:0:
176,57,100887,1,0,0:0:0:0:
211,42,100971,1,0,0:0:0:0:
247,39,101054,2,0,P|294:47|341:46,1,95
377,155,101387,1,0,0:0:0:0:
414,145,101471,1,0,0:0:0:0:
451,151,101554,1,0,0:0:0:0:
481,173,101637,1,0,0:0:0:0:
496,207,101721,1,0,0:0:0:0:
502,244,101804,1,0,0:0:0:0:
488,279,101887,6,0,L|494:326,1,47.5
379,358,102054,1,0,0:0:0:0:
365,322,102137,1,0,0:0:0:0:
350,286,102221,1,0,0:0:0:0:
336,250,102304,1,0,0:0:0:0:
322,214,102387,2,0,P|293:211|274:212,1,47.5
157,193,102554,1,0,0:0:0:0:
121,205,102637,1,0,0:0:0:0:
82,205,102721,1,0,0:0:0:0:
48,187,102804,1,0,0:0:0:0:
26,155,102887,2,0,L|17:102,1,47.5
28,261,103054,6,0,L|37:314,1,47.5
155,324,103221,1,0,0:0:0:0:
192,328,103304,1,0,0:0:0:0:
225,310,103387,1,0,0:0:0:0:
242,276,103471,1,0,0:0:0:0:
241,238,103554,1,0,0:0:0:0:
231,201,103637,1,0,0:0:0:0:
225,163,103721,2,0,P|234:111|264:67,1,95
430,27,104054,1,0,0:0:0:0:
193,33,104221,1,0,0:0:0:0:
155,38,104304,1,0,0:0:0:0:
117,43,104387,1,0,0:0:0:0:
79,48,104471,1,0,0:0:0:0:
41,53,104554,5,0,0:0:0:0:
7,230,104721,2,0,P|54:238|100:227,1,95
276,300,105054,1,0,0:0:0:0:
175,173,105221,2,0,B|221:160|221:160|268:163,1,95
269,370,105554,2,0,P|315:359|344:322,1,95
304,119,105887,5,0,0:0:0:0:
315,81,105971,1,0,0:0:0:0:
344,57,106054,1,0,0:0:0:0:
382,52,106137,1,0,0:0:0:0:
416,70,106221,1,0,0:0:0:0:
436,103,106304,1,0,0:0:0:0:
434,140,106387,2,0,L|445:239,1,95
263,206,106721,1,0,0:0:0:0:
231,226,106804,1,0,0:0:0:0:
194,236,106887,1,0,0:0:0:0:
155,240,106971,1,0,0:0:0:0:
117,233,107054,1,0,0:0:0:0:
82,217,107137,1,0,0:0:0:0:
54,189,107221,6,0,L|53:94,1,95
212,31,107554,1,0,0:0:0:0:
237,58,107637,1,0,0:0:0:0:
267,80,107721,2,0,L|257:188,1,95
172,314,108054,1,0,0:0:0:0:
194,344,108137,1,0,0:0:0:0:
229,358,108221,1,0,0:0:0:0:
266,360,108304,1,0,0:0:0:0:
302,349,108387,2,0,L|397:358,1,95
392,140,108721,6,0,P|406:95|401:48,1,95
201,47,109054,2,0,P|186:91|191:138,1,95
343,195,109387,1,0,0:0:0:0:
216,293,109554,1,0,0:0:0:0:
181,309,109637,1,0,0:0:0:0:
142,311,109721,1,0,0:0:0:0:
106,297,109804,1,0,0:0:0:0:
85,265,109887,5,0,0:0:0:0:
103,231,109971,1,0,0:0:0:0:
112,194,110054,1,0,0:0:0:0:
111,156,110137,1,0,0:0:0:0:
95,121,110221,1,0,0:0:0:0:
87,83,110304,1,0,0:0:0:0:
98,47,110387,1,0,0:0:0:0:
126,21,110471,1,0,0:0:0:0:
161,8,110554,1,0,0:0:0:0:
198,13,110637,1,0,0:0:0:0:
227,37,110721,1,0,0:0:0:0:
246,69,110804,1,0,0:0:0:0:
249,106,110887,1,0,0:0:0:0:
233,141,110971,1,0,0:0:0:0:
239,178,111054,1,0,0:0:0:0:
265,204,111137,1,0,0:0:0:0:
300,217,111221,6,0,B|345:209|345:209|392:223,1,95
332,353,111554,1,0,0:0:0:0:
294,356,111637,1,0,0:0:0:0:
256,349,111721,1,0,0:0:0:0:
225,326,111804,1,0,0:0:0:0:
202,295,111887,1,0,0:0:0:0:
166,309,111971,1,0,0:0:0:0:
128,312,112054,1,0,0:0:0:0:
91,302,112137,1,0,0:0:0:0:
61,277,112221,1,0,0:0:0:0:
67,230,112304,1,0,0:0:0:0:
73,183,112387,1,0,0:0:0:0:
79,135,112471,1,0,0:0:0:0:
85,88,112554,5,0,0:0:0:0:
286,40,112721,1,0,0:0:0:0:
71,75,112887,1,0,0:0:0:0:
190,124,113054,1,0,0:0:0:0:
192,161,113137,1,0,0:0:0:0:
194,199,113221,1,0,0:0:0:0:
196,236,113304,1,0,0:0:0:0:
198,273,113387,2,0,L|196:308,3,23.75,0|0|0|0,0:0|0:0|0:0|0:0,0:0:0:0:
209,332,113554,5,0,0:0:0:0:
243,348,113638,1,0,0:0:0:0:
280,349,113720,1,0,0:0:0:0:
317,339,113804,1,0,0:0:0:0:
346,316,113887,2,0,B|385:318|385:318|426:297|426:297|450:259|450:259|453:219,1,170.999994781494
368,233,114554,1,0,0:0:0:0:
353,198,114637,1,0,0:0:0:0:
356,159,114721,1,0,0:0:0:0:
375,126,114804,1,0,0:0:0:0:
399,96,114887,1,0,0:0:0:0:
399,57,114971,1,0,0:0:0:0:
383,22,115054,1,0,0:0:0:0:
348,5,115137,1,0,0:0:0:0:
310,9,115221,6,0,P|265:23|218:20,1,94.0499997129822
23,111,115554,1,0,0:0:0:0:
159,155,115721,2,0,L|152:249,1,95
236,364,116054,1,0,0:0:0:0:
374,330,116221,1,0,0:0:0:0:
266,188,116387,6,0,P|241:101|311:44,1,190
446,90,116887,1,0,0:0:0:0:
306,271,117054,1,0,0:0:0:0:
68,282,117221,2,0,L|90:233,1,47.5
186,191,117387,2,0,L|208:142,1,47.5
193,38,117554,2,0,P|241:36|282:57,1,95
381,238,117887,6,0,L|383:134,1,95
415,23,118221,1,0,0:0:0:0:
472,223,118387,2,0,L|470:327,1,95
298,263,118721,1,0,0:0:0:0:
239,360,118887,1,0,0:0:0:0:
321,180,119054,1,0,0:0:0:0:
124,194,119221,2,0,L|117:138,1,47.5
103,317,119387,2,0,L|96:261,1,47.5
145,70,119554,1,0,0:0:0:0:
142,51,119637,1,0,0:0:0:0:
140,31,119721,2,0,L|138:11,15,11.875,0|0|0|0|0|0|0|0|0|0|0|0|0|0|0|0,0:0|0:0|0:0|0:0|0:0|0:0|0:0|0:0|0:0|0:0|0:0|0:0|0:0|0:0|0:0|0:0,0:0:0:0:
138,19,120054,6,0,P|185:26|241:18,1,95
414,67,120387,1,0,0:0:0:0:
257,93,120554,2,0,L|248:211,1,95
407,323,120887,2,0,B|377:292|377:292|361:232,1,95
478,235,121221,1,0,0:0:0:0:
311,358,121387,1,0,0:0:0:0:
292,361,121471,1,0,0:0:0:0:
273,364,121554,1,0,0:0:0:0:
98,317,121721,6,0,L|197:318,1,95
329,259,122054,1,0,0:0:0:0:
72,244,122221,1,0,0:0:0:0:
87,233,122304,2,0,L|125:232,1,23.75
127,224,122387,1,0,0:0:0:0:
145,217,122471,2,0,L|178:219,1,23.75
186,212,122554,2,0,B|233:216|233:216|279:202,1,95
290,188,122804,2,0,P|336:176|383:185,1,95
401,179,123054,2,0,L|441:182,1,23.75
443,176,123137,1,0,0:0:0:0:
476,194,123221,5,0,0:0:0:0:
477,156,123304,1,0,0:0:0:0:
480,118,123387,1,0,0:0:0:0:
487,80,123471,1,0,0:0:0:0:
504,46,123554,1,0,0:0:0:0:
467,55,123637,1,0,0:0:0:0:
429,64,123721,1,0,0:0:0:0:
391,64,123804,1,0,0:0:0:0:
353,56,123887,1,0,0:0:0:0:
317,42,123971,1,0,0:0:0:0:
282,27,124054,1,0,0:0:0:0:
244,25,124137,1,0,0:0:0:0:
207,37,124221,1,0,0:0:0:0:
186,68,124304,1,0,0:0:0:0:
186,105,124387,1,0,0:0:0:0:
205,138,124471,1,0,0:0:0:0:
240,151,124554,6,0,L|230:264,1,95
108,358,124804,2,0,L|116:263,1,95
326,213,125054,2,0,L|316:326,1,95
26,289,125304,2,0,L|36:176,1,95
315,133,125554,1,0,0:0:0:0:
425,161,125721,1,0,0:0:0:0:
477,260,125887,6,0,P|466:307|465:360,1,94.0499997129822
314,366,126221,1,0,0:0:0:0:
332,344,126304,1,0,0:0:0:0:
337,316,126387,1,0,0:0:0:0:
326,289,126471,1,0,0:0:0:0:
304,270,126554,1,0,0:0:0:0:
278,256,126637,1,0,0:0:0:0:
256,236,126721,1,0,0:0:0:0:
248,208,126804,1,0,0:0:0:0:
251,179,126887,1,0,0:0:0:0:
265,154,126971,1,0,0:0:0:0:
284,133,127054,2,0,L|283:80,1,47.5
148,85,127221,5,0,0:0:0:0:
145,47,127304,1,0,0:0:0:0:
115,22,127387,1,0,0:0:0:0:
76,19,127471,1,0,0:0:0:0:
41,33,127554,1,0,0:0:0:0:
23,66,127637,1,0,0:0:0:0:
26,104,127721,2,0,L|23:142,2,31.6666666666667,0|0|0,0:0|0:0|0:0,0:0:0:0:
42,165,127887,5,0,0:0:0:0:
66,194,127971,1,0,0:0:0:0:
82,228,128054,1,0,0:0:0:0:
81,265,128137,1,0,0:0:0:0:
70,301,128221,2,0,P|71:329|77:349,1,47.5
177,306,128387,1,0,0:0:0:0:
215,309,128471,1,0,0:0:0:0:
252,312,128554,6,0,B|277:309|277:309|299:311,1,47.5
391,340,128721,1,0,0:0:0:0:
428,346,128804,1,0,0:0:0:0:
464,334,128887,1,0,0:0:0:0:
493,309,128971,1,0,0:0:0:0:
503,272,129054,2,0,L|498:218,1,47.5
391,187,129221,5,0,0:0:0:0:
414,157,129305,1,0,0:0:0:0:
424,120,129388,1,0,0:0:0:0:
419,82,129471,1,0,0:0:0:0:
400,49,129555,1,0,0:0:0:0:
371,26,129638,1,0,0:0:0:0:
334,16,129721,1,0,0:0:0:0:
296,21,129805,1,0,0:0:0:0:
263,39,129888,1,2,0:0:0:0:
240,69,129971,1,0,0:0:0:0:
230,106,130055,1,0,0:0:0:0:
235,144,130138,1,0,0:0:0:0:
253,176,130221,5,0,0:0:0:0:
215,177,130304,1,0,0:0:0:0:
178,186,130387,1,0,0:0:0:0:
147,208,130471,1,0,0:0:0:0:
126,240,130554,2,0,L|129:287,1,47.5
47,200,130721,2,0,L|43:152,1,47.5
99,11,130887,1,0,0:0:0:0:
98,49,130971,1,0,0:0:0:0:
113,83,131054,1,0,0:0:0:0:
145,103,131137,1,0,0:0:0:0:
182,110,131221,2,0,P|226:102|283:118,1,94.0499997129822
460,70,131554,5,0,0:0:0:0:
