osu file format v14

[General]
AudioFilename: 06 Mirage Garden.mp3
AudioLeadIn: 0
PreviewTime: 147937
Countdown: 0
SampleSet: Soft
StackLeniency: 0.7
Mode: 0
LetterboxInBreaks: 0
WidescreenStoryboard: 0

[Editor]
Bookmarks: 29647,53679,75600,99830,111386,163308,205808
DistanceSpacing: 1.2
BeatDivisor: 4
GridSize: 4
TimelineZoom: 4.099998

[Metadata]
Title:Mirage Garden
TitleUnicode:Mirage Garden
Artist:xi
ArtistUnicode:xi
Creator:P o M u T a
Version:Standard
Source:BMS
Tags:BOF2009 Parousia MELODIOUS Long Version pomuta PROGRESSIVE FUSION the of fighters revolutionary battles ROCK fen Tiyes Sink 100sec Records piano Charles445
BeatmapID:717669
BeatmapSetID:319940

[Difficulty]
HPDrainRate:3
CircleSize:3.5
OverallDifficulty:4
ApproachRate:5
SliderMultiplier:1.3
SliderTickRate:2

[Events]
//Background and Video events
0,0,"909ee593_R.png",0,0
//Break Periods
2,53907,63468
2,124847,134430
2,197154,199045
//Storyboard Layer 0 (Background)
//Storyboard Layer 1 (Fail)
//Storyboard Layer 2 (Pass)
//Storyboard Layer 3 (Foreground)
//Storyboard Sound Samples

[TimingPoints]
1039.71690630835,615.384615384615,3,2,3,50,1,0
2732,615.384615384615,3,2,3,50,1,0
4424,615.384615384615,3,2,3,50,1,0
6116,615.384615384615,3,2,3,50,1,0
7808,615.643501369807,3,2,3,50,1,0
9501,615.384615384615,3,2,3,50,1,0
11039,615.605602010978,3,2,3,50,1,0
12578,615.384615384615,3,2,3,50,1,0
16116,615.384615384615,3,2,3,50,1,0
17808,615.644615384615,3,2,3,50,1,0
19501,615.384615384615,3,2,3,50,1,0
21193,615.384615384615,3,2,3,50,1,0
22885,615.504559862948,3,2,3,50,1,0
24116,625,3,2,3,50,1,0
24584,638.297872340426,3,2,3,50,1,0
25062,652.173913043478,3,2,3,50,1,0
25551,666.666666666667,3,2,3,50,1,0
26217,750,3,2,3,50,1,0
26592,384.615384615385,4,2,3,60,1,0
32649,384.647438568599,4,2,3,60,1,0
35630,384.647438568599,4,2,3,60,1,0
38611,384.615384615385,4,2,3,60,1,0
44668,384.647438568599,4,2,3,60,1,0
47649,384.647438568599,4,2,3,60,1,0
50630,384.6252468012,4,2,3,60,1,0
50822,-100,4,2,3,60,0,0
53707,384.615384615385,4,2,2,60,1,0
56399,384.716496002154,4,2,2,60,1,0
59092,384.615384615385,4,2,2,60,1,0
61784,384.615384615385,4,2,2,60,1,0
64668,384.716496002154,4,2,2,60,1,0
67361,384.615384615385,4,2,2,60,1,0
70053,384.615384615385,4,2,2,60,1,0
72745,384.667166733983,4,2,2,60,1,0
75630,384.615384615385,4,2,3,50,1,0
81399,384.620315645072,4,2,3,50,1,0
99860,-100,4,2,3,60,0,1
102553,384.615384615385,4,2,3,50,1,1
108322,384.667166733983,4,2,3,50,1,1
114092,384.615384615385,4,2,3,50,1,1
123322,512.8336624016,3,2,3,50,1,0
144861,384.615384615385,4,2,3,40,1,0
147937,-100,4,2,3,60,0,1
154476,-100,4,2,3,40,0,1
154861,-100,4,2,3,50,0,1
155245,-100,4,2,3,60,0,1
166784,-100,4,2,3,40,0,1
167168,-100,4,2,3,50,0,1
167553,-100,4,2,3,60,0,1
172553,-100,4,2,3,60,0,0
200245,-100,4,2,3,60,0,1
203226,384.647438568599,4,2,3,60,1,1
206207,384.615384615385,4,2,3,60,1,1
209187,384.635109492795,4,2,1,60,1,1
215245,384.647438568599,4,2,1,60,1,1
218226,384.647438568599,4,2,1,60,1,1
221207,384.615384615385,4,2,1,60,1,1
222937,-100,3,1,0,60,0,0
227360,-100,4,2,1,60,0,0

[Colours]
Combo1 : 255,155,155
Combo2 : 255,255,164
Combo3 : 217,255,179
Combo4 : 164,164,255

[HitObjects]
416,252,1039,6,0,P|368:272|264:188,1,195,6|2,0:0|0:0,0:0:0:0:
312,132,2270,2,0,P|363:144|411:124,1,97.5,2|6,0:0|0:0,0:0:0:0:
358,64,3039,6,0,P|283:56|242:88,1,130,0|0,0:0|1:0,0:0:0:0:
196,150,3962,2,0,L|95:157,1,97.5,2|6,0:0|0:0,0:0:0:0:
42,210,4731,6,0,L|38:253,1,32.5,2|2,0:0|0:0,0:0:0:0:
113,265,5193,2,0,L|105:347,1,65,2|0,0:0|1:0,0:0:0:0:
177,363,5808,2,0,L|243:359,1,65,2|6,1:0|0:0,0:0:0:0:
293,300,6423,6,0,L|345:296,1,32.5,2|2,0:0|0:0,0:0:0:0:
403,293,6885,2,0,P|434:305|466:308,2,65,2|2|2,1:0|1:0|1:0,0:0:0:0:
357,229,7808,6,0,L|340:107,1,97.5,6|2,0:0|0:0,0:0:0:0:
289,76,8577,2,0,P|255:76|225:70,1,65,2|6,0:0|0:1,0:0:0:0:
78,123,9501,6,0,P|123:123|173:149,2,97.5,6|2|6,0:0|0:0|1:0,0:0:0:0:
24,180,10731,1,2,0:0:0:0:
72,241,11039,6,0,L|47:337,2,97.5,6|2|2,0:0|0:0|0:0,0:0:0:0:
135,195,12270,1,2,1:0:0:0:
208,221,12578,6,0,L|339:225,1,130,6|2,0:0|0:0,0:0:0:0:
366,300,13501,2,0,L|236:297,1,130,2|2,0:0|1:0,0:0:0:0:
164,328,14424,6,0,P|97:348|44:254,1,195,6|2,0:0|0:0,0:0:0:0:
65,178,15654,2,0,P|80:132|73:84,1,97.5,2|6,0:0|0:0,0:0:0:0:
106,13,16423,6,0,B|166:29|166:29|236:11,1,130,0|0,0:0|1:0,0:0:0:0:
309,22,17346,2,0,B|305:70|305:70|324:122,1,97.5,2|6,0:0|0:0,0:0:0:0:
396,139,18115,6,0,L|438:133,1,32.5,2|2,0:0|0:0,0:0:0:0:
433,212,18577,2,0,L|345:224,1,65,2|2,0:0|1:0,0:0:0:0:
315,278,19193,2,0,B|321:301|321:301|309:347,1,65,2|6,1:0|0:0,0:0:0:0:
236,364,19808,6,0,L|196:366,1,32.5,0|2,0:0|0:0,0:0:0:0:
125,364,20270,2,0,L|60:353,2,65,2|2|2,1:0|1:0|1:0,0:0:0:0:
162,295,21193,6,0,P|167:248|149:199,1,97.5,6|2,0:0|0:0,0:0:0:0:
77,173,21962,2,0,L|83:93,1,65,2|6,0:0|0:0,0:0:0:0:
210,18,22885,6,0,L|220:153,1,130,6|0,0:0|1:0,0:0:0:0:
280,197,23808,2,0,P|316:200|351:190,1,65,6|0,0:1|0:0,0:0:0:0:
410,152,24428,1,0,1:0:0:0:
256,192,24584,12,0,28130,1:0:0:0:
189,359,29668,6,0,L|261:354,1,65,4|0,0:0|0:0,0:0:0:0:
252,276,30053,2,0,L|210:274,1,32.5,0|0,0:0|0:0,0:0:0:0:
155,230,30342,1,4,0:0:0:0:
224,193,30534,2,0,L|266:195,1,32.5,0|0,0:0|1:0,0:0:0:0:
326,160,30822,2,0,P|354:169|389:165,1,65
462,190,31207,2,0,P|453:218|457:253,1,65,4|0,0:0|0:0,0:0:0:0:
429,325,31592,2,0,L|431:370,1,32.5,0|0,1:0|0:0,0:0:0:0:
352,351,31880,2,0,P|320:342|285:348,1,65,4|4,0:0|0:0,0:0:0:0:
221,306,32265,2,0,P|155:314|98:289,1,130,4|4,0:0|0:0,0:0:0:0:
40,237,32841,5,0,0:0:0:0:
84,172,33033,2,0,L|80:130,1,32.5,0|0,0:0|0:0,0:0:0:0:
139,87,33322,2,0,P|186:91|235:67,1,97.5,4|0,0:0|1:0,0:0:0:0:
295,27,33802,2,0,P|307:63|305:92,1,65,0|0,0:0|0:0,0:0:0:0:
271,160,34187,2,0,P|270:192|281:222,1,65,4|0,0:0|0:0,0:0:0:0:
345,267,34572,2,0,L|347:306,1,32.5,0|0,0:0|1:0,0:0:0:0:
422,318,34860,2,0,L|426:238,1,65,4|4,0:0|0:0,0:0:0:0:
455,181,35245,2,0,L|451:101,1,65,4|0,0:0|0:0,0:0:0:0:
437,39,35630,6,0,B|406:45|406:45|370:34,1,65,4|0,0:0|0:0,0:0:0:0:
297,22,36014,2,0,L|255:25,1,32.5
188,43,36303,2,0,P|167:88|179:151,1,97.5,4|0,0:0|1:0,0:0:0:0:
239,171,36783,2,0,L|313:178,1,65,0|0,0:0|0:0,0:0:0:0:
367,222,37168,2,0,P|383:266|379:316,1,97.5,4|4,0:0|0:0,0:0:0:0:
305,342,37649,2,0,L|314:380,2,32.5,0|4|0,0:0|0:0|0:0,0:0:0:0:
232,313,38034,2,0,L|133:321,2,97.5,4|4|0,0:0|0:0|0:0,0:0:0:0:
270,244,38803,6,0,P|275:178|248:109,1,130,4|0,0:0|0:0,0:0:0:0:
188,76,39380,1,4,0:0:0:0:
237,15,39572,1,0,1:0:0:0:
302,57,39764,2,0,L|401:52,2,97.5,0|4|0,0:0|0:0|1:0,0:0:0:0:
237,15,40534,1,0,1:0:0:0:
94,79,40918,2,0,B|60:119|85:206,1,130,4|0,0:1|1:0,0:0:0:0:
11,342,41687,6,0,P|33:357|76:364,1,65,4|0,0:0|0:0,0:0:0:0:
145,345,42072,2,0,L|146:304,1,32.5,0|0,0:0|0:0,0:0:0:0:
218,281,42361,1,4,0:0:0:0:
280,328,42553,2,0,L|319:329,1,32.5,0|0,0:0|1:0,0:0:0:0:
390,328,42841,2,0,P|403:295|399:266,1,65
348,207,43226,2,0,P|344:175|357:145,1,65,4|0,0:0|0:0,0:0:0:0:
425,104,43611,2,0,L|462:104,1,32.5,0|0,1:0|0:0,0:0:0:0:
442,27,43899,2,0,L|375:24,1,65,4|4,0:0|0:0,0:0:0:0:
303,53,44284,2,0,P|272:58|240:49,1,65,4|0,0:0|0:0,0:0:0:0:
171,13,44668,6,0,P|162:41|167:77,1,65,4|0,0:0|0:0,0:0:0:0:
185,151,45052,2,0,L|181:193,1,32.5
168,260,45341,2,0,P|123:272|73:254,1,97.5,4|0,0:0|1:0,0:0:0:0:
31,192,45821,2,0,P|19:156|21:127,1,65,0|0,0:0|0:0,0:0:0:0:
59,61,46206,2,0,P|91:51|122:49,1,65,4|0,0:0|0:0,0:0:0:0:
195,76,46591,2,0,L|234:78,1,32.5,0|0,0:0|1:0,0:0:0:0:
294,37,46879,2,0,B|328:42|328:42|358:36,1,65,4|4,0:0|0:0,0:0:0:0:
434,53,47264,2,0,L|443:120,1,65,4|0,0:0|0:0,0:0:0:0:
504,164,47649,6,0,L|495:231,1,65,4|0,0:0|0:0,0:0:0:0:
452,292,48033,2,0,L|448:345,1,32.5,0|0,0:0|0:0,0:0:0:0:
377,355,48322,2,0,P|325:361|279:349,1,97.5,4|0,0:0|1:0,0:0:0:0:
234,288,48802,2,0,P|237:256|227:214,1,65,0|0,0:0|0:0,0:0:0:0:
174,169,49187,2,0,P|130:153|80:157,1,97.5,4|4,0:0|0:0,0:0:0:0:
12,196,49668,2,0,L|8:236,2,32.5,0|4|0,0:0|0:0|0:0,0:0:0:0:
12,118,50053,2,0,L|2:15,2,97.5,4|4|0,0:0|0:0|0:0,0:0:0:0:
80,156,50822,6,0,L|106:17,1,130,4|0,0:0|0:0,0:0:0:0:
181,18,51399,1,4,0:0:0:0:
240,69,51591,1,0,1:0:0:0:
268,141,51783,2,0,P|269:194|244:249,2,97.5,0|4|0,0:0|0:0|1:0,0:0:0:0:
316,79,52553,1,0,1:0:0:0:
393,65,52745,1,0,1:0:0:0:
459,106,52937,2,0,P|480:165|468:230,1,130,4|0,0:1|1:0,0:0:0:0:
423,294,53514,1,0,0:0:0:0:
499,303,53707,5,4,0:0:0:0:
421,89,64668,6,0,P|370:94|309:77,1,97.5,4|0,0:0|0:0,0:0:0:0:
247,75,65148,2,0,P|232:121|238:176,1,97.5,0|2,1:0|0:0,0:0:0:0:
298,215,65629,1,2,0:0:0:0:
375,224,65822,2,0,L|505:228,1,130,2|2,1:0|0:0,0:0:0:0:
505,306,66399,2,0,L|393:309,1,97.5,4|2,0:3|0:0,0:0:0:0:
333,333,66880,2,0,L|277:334,1,32.5,2|0,0:0|1:0,0:0:0:0:
227,361,67168,1,2,0:0:0:0:
155,329,67361,6,0,P|131:286|132:238,1,97.5,4|0,0:0|0:0,0:0:0:0:
198,196,67841,2,0,L|312:203,1,97.5,0|2,1:0|0:0,0:0:0:0:
360,246,68322,1,2,0:0:0:0:
419,195,68514,2,0,P|415:144|453:74,1,130,2|2,1:0|0:0,0:0:0:0:
385,32,69091,2,0,P|334:40|289:26,1,97.5,4|2,0:3|0:0,0:0:0:0:
212,20,69572,2,0,L|179:43,1,32.5,2|0,0:0|1:0,0:0:0:0:
130,94,69861,1,2,0:0:0:0:
89,160,70053,6,0,P|77:210|85:256,1,97.5,4|0,0:0|0:0,0:0:0:0:
162,258,70533,2,0,L|275:255,1,97.5,0|2,1:0|0:0,0:0:0:0:
322,301,71014,1,2,0:0:0:0:
251,334,71206,2,0,L|93:338,1,130,2|2,1:0|0:0,0:0:0:0:
48,307,71783,2,0,P|30:261|31:210,1,97.5,4|2,0:3|0:0,0:0:0:0:
71,147,72264,2,0,L|113:143,1,32.5,2|0,0:0|1:0,0:0:0:0:
177,168,72553,1,2,0:0:0:0:
238,119,72745,6,0,P|228:73|237:24,1,97.5,4|0,0:0|0:0,0:0:0:0:
314,24,73225,2,0,P|323:71|312:118,1,97.5,0|2,1:0|0:0,0:0:0:0:
276,187,73706,1,2,0:0:0:0:
344,224,73899,2,0,L|475:212,2,130,2|0|2,1:0|0:0|0:0,0:0:0:0:
363,299,74860,2,0,L|233:287,1,130,2|2,0:0|1:0,0:0:0:0:
82,219,75630,6,0,P|71:284|84:351,1,130,6|0,0:0|0:0,0:0:0:0:
174,220,76399,2,0,P|185:155|172:88,1,130,0|0,0:0|0:0,0:0:0:0:
100,63,76976,1,0,1:0:0:0:
162,16,77168,2,0,L|299:22,1,130,0|0,0:0|0:0,0:0:0:0:
429,95,77937,2,0,L|292:101,1,130,0|0,0:0|1:0,0:0:0:0:
240,152,78514,1,2,1:0:0:0:
209,223,78706,6,0,P|205:284|228:349,1,130,2|0,0:0|0:0,0:0:0:0:
384,348,79476,2,0,P|406:287|402:222,1,130,0|0,0:0|0:0,0:0:0:0:
350,164,80053,1,2,1:0:0:0:
379,91,80245,2,0,P|447:96|505:74,1,130,0|0,0:0|0:0,0:0:0:0:
358,18,81014,2,0,P|326:16|287:30,1,65,2|2,1:0|0:0,0:0:0:0:
233,74,81399,6,0,P|168:97|110:85,1,130,2|0,0:0|0:0,0:0:0:0:
7,203,82168,2,0,P|72:180|130:192,1,130,0|2,0:0|0:0,0:0:0:0:
191,241,82745,1,2,1:0:0:0:
139,299,82937,2,0,P|74:322|16:310,1,130,2|2,0:0|0:0,0:0:0:0:
156,378,83706,2,0,P|221:355|279:367,1,130,2|2,0:0|1:0,0:0:0:0:
357,367,84283,1,2,1:0:0:0:
408,308,84475,6,0,P|392:243|400:179,1,130,2|2,0:0|0:0,0:0:0:0:
251,130,85245,2,0,L|122:138,1,130,2|2,0:0|0:0,0:0:0:0:
61,87,85822,1,2,1:0:0:0:
115,31,86014,2,0,L|251:23,1,130,2|2,0:0|0:0,0:0:0:0:
304,74,86591,1,2,0:0:0:0:
367,29,86783,2,0,P|399:21|435:28,1,65,2|2,0:0|1:0,0:0:0:0:
491,75,87168,2,0,L|483:117,1,32.5,2|2,0:0|0:0,0:0:0:0:
448,175,87456,6,0,L|465:275,1,97.5,6|0,0:0|0:0,0:0:0:0:
414,331,87937,1,0,0:0:0:0:
339,353,88129,2,0,P|288:345|210:381,1,130,0|0,1:0|0:0,0:0:0:0:
130,378,88706,1,0,0:0:0:0:
51,379,88899,2,0,L|27:247,1,130,0|2,1:0|0:0,0:0:0:0:
92,207,89476,2,0,P|44:173|7:176,2,97.5,0|0|2,0:0|1:0|0:0,0:0:0:0:
157,251,90245,2,0,L|221:222,1,65,0|0,1:0|1:0,0:0:0:0:
291,247,90629,6,0,P|300:312|275:373,1,130,2|0,0:0|0:0,0:0:0:0:
217,225,91399,2,0,P|208:160|233:99,1,130,0|0,0:0|0:0,0:0:0:0:
298,62,91976,1,2,1:0:0:0:
374,47,92168,2,0,P|435:38|501:53,1,130,2|2,0:0|0:0,0:0:0:0:
501,209,92937,2,0,L|495:340,1,130,2|2,0:0|1:0,0:0:0:0:
424,372,93514,1,2,0:0:0:0:
352,340,93706,6,0,B|281:330|281:330|225:353,1,130,2|0,0:0|0:0,0:0:0:0:
90,277,94476,2,0,B|161:287|161:287|217:264,1,130,0|2,0:0|0:0,0:0:0:0:
274,214,95053,1,2,1:0:0:0:
311,145,95245,2,0,L|300:16,1,130,2|0,0:0|0:0,0:0:0:0:
143,15,96014,2,0,L|132:144,1,130,0|2,0:0|1:0,0:0:0:0:
69,191,96591,1,2,1:0:0:0:
12,137,96783,5,2,0:0:0:0:
118,345,97360,1,2,1:0:0:0:
175,291,97553,1,2,0:0:0:0:
404,241,98129,1,2,1:0:0:0:
461,294,98322,2,0,L|465:164,1,130,2|2,0:0|0:0,0:0:0:0:
393,25,99091,1,2,0:0:0:0:
256,99,99476,1,2,0:0:0:0:
119,25,99860,5,4,0:1:0:0:
163,89,100053,2,0,B|153:134|136:154|136:154|118:172|113:209,1,130,0|0,0:0|0:0,0:0:0:0:
60,265,100630,2,0,P|38:229|44:170,2,97.5,0|0|0,1:0|0:0|0:0,0:0:0:0:
136,283,101399,2,0,P|190:278|265:295,1,130,0|0,0:0|0:0,0:0:0:0:
411,344,102168,2,0,L|478:355,2,65,0|0|0,1:0|0:0|0:0,0:0:0:0:
345,301,102745,1,0,1:0:0:0:
391,238,102937,6,0,P|394:172|371:110,1,130,0|0,0:0|1:0,0:0:0:0:
306,71,103514,1,0,0:0:0:0:
233,43,103706,2,0,P|165:37|106:60,1,130,0|0,0:0|0:0,0:0:0:0:
48,108,104283,1,0,0:0:0:0:
28,183,104476,2,0,L|38:316,2,130,0|0|0,0:0|0:0|0:0,0:0:0:0:
104,164,105437,1,0,0:0:0:0:
179,143,105629,1,0,0:0:0:0:
250,173,105822,6,0,L|321:162,2,65,2|0|0,0:1|0:0|0:0,0:0:0:0:
197,230,106399,2,0,P|190:296|214:357,1,130,0|0,1:0|0:0,0:0:0:0:
290,359,106976,1,0,0:0:0:0:
362,329,107168,2,0,L|513:321,1,130,0|0,0:0|0:0,0:0:0:0:
413,186,107937,1,0,1:0:0:0:
347,227,108129,1,0,0:0:0:0:
287,176,108322,6,0,L|269:39,1,130,4|0,0:0|0:0,0:0:0:0:
202,188,109091,2,0,L|220:325,1,130,4|0,0:1|0:0,0:0:0:0:
153,359,109668,1,0,1:0:0:0:
76,343,109860,2,0,P|53:285|55:218,1,130,4|0,0:0|0:0,0:0:0:0:
99,154,110437,1,0,0:0:0:0:
134,84,110630,2,0,L|29:67,2,97.5,0|0|0,1:0|1:0|0:0,0:0:0:0:
211,95,111399,5,4,0:0:0:0:
256,192,111591,12,4,115630,0:1:0:0:
218,296,117168,6,0,L|72:303,1,130,0|0,0:0|0:0,0:0:0:0:
8,167,117938,2,0,L|154:160,1,130,0|0,0:0|0:0,0:0:0:0:
195,107,118515,1,0,0:0:0:0:
246,165,118707,2,0,P|309:175|366:143,1,130,0|0,0:0|0:0,0:0:0:0:
408,79,119284,2,0,P|398:142|430:199,1,130,0|0,0:0|0:0,0:0:0:0:
496,238,119861,1,0,1:0:0:0:
496,315,120053,1,0,1:0:0:0:
433,361,120245,6,0,B|346:328|267:364|176:346,1,260,4|0,0:1|1:0,0:0:0:0:
34,277,121399,2,0,L|48:361,1,65,0|0,0:0|0:0,0:0:0:0:
113,304,121784,2,0,L|135:166,1,130,4|0,0:1|1:0,0:0:0:0:
256,77,122553,2,0,B|315:75|315:75|323:81|323:81|392:78,2,130,0|0|4,1:0|1:0|0:0,0:0:0:0:
256,192,135630,6,0,L|412:180,1,130,6|2,0:0|0:0,0:0:0:0:
438,124,136399,1,6,0:1:0:0:
390,61,136655,1,2,0:0:0:0:
312,50,136912,1,2,0:0:0:0:
242,86,137168,2,0,P|209:97|130:79,2,97.5,6|2|2,0:1|0:0|1:0,0:0:0:0:
312,50,138194,1,2,0:0:0:0:
390,61,138450,1,2,0:0:0:0:
438,124,138707,6,0,P|455:191|445:254,1,130,6|2,0:0|0:0,0:0:0:0:
402,314,139476,1,6,0:1:0:0:
339,267,139732,1,2,0:0:0:0:
331,344,139989,1,2,0:0:0:0:
268,297,140245,2,0,L|133:308,1,130,6|2,0:1|0:0,0:0:0:0:
90,369,141014,1,2,0:0:0:0:
61,296,141271,2,0,L|50:225,1,65,2|2,0:0|0:0,0:0:0:0:
44,153,141784,6,0,P|102:125|168:138,1,130,6|2,0:0|0:0,0:0:0:0:
219,191,142553,1,2,0:0:0:0:
338,90,143066,1,2,0:0:0:0:
283,34,143322,2,0,P|224:24|171:50,1,97.5,6|0,0:1|0:0,0:0:0:0:
123,78,143963,2,0,L|84:78,1,32.5,0|2,0:0|0:0,0:0:0:0:
70,153,144348,2,0,L|135:153,2,65,2|2|6,1:0|1:0|0:0,0:0:0:0:
19,300,145245,6,0,L|26:373,1,65,2|0,0:0|0:0,0:0:0:0:
103,367,145630,1,2,1:0:0:0:
176,341,145822,1,0,0:0:0:0:
251,360,146014,2,0,P|282:361|321:352,1,65,2|0,1:0|1:0,0:0:0:0:
381,312,146399,2,0,L|447:323,2,65,2|2|2,0:0|1:0|1:0,0:0:0:0:
326,256,146976,1,2,1:0:0:0:
396,222,147168,2,0,L|462:233,2,65,2|2|2,1:0|1:0|0:0,0:0:0:0:
341,166,147745,1,2,0:0:0:0:
266,142,147937,6,0,P|194:166|144:152,1,130,6|0,0:0|1:0,0:0:0:0:
92,92,148514,1,2,0:0:0:0:
62,164,148707,2,0,P|69:231|42:289,1,130,2|2,0:0|1:0,0:0:0:0:
199,303,149476,2,0,L|218:372,1,65,2|2,0:0|0:0,0:0:0:0:
295,365,149861,2,0,L|313:303,1,65,2|2,1:0|0:0,0:0:0:0:
256,249,150245,2,0,L|256:118,1,130,2|2,0:0|1:0,0:0:0:0:
112,56,151014,6,0,P|169:61|236:28,1,130,2|0,0:0|1:0,0:0:0:0:
386,64,151784,2,0,P|428:52|485:61,2,97.5,2|2|2,0:0|0:0|0:0,0:0:0:0:
347,132,152553,2,0,L|367:273,1,130,0|2,0:0|1:0,0:0:0:0:
426,309,153130,1,0,0:0:0:0:
367,360,153322,2,0,P|332:366|293:358,1,65,2|2,1:0|1:0,0:0:0:0:
234,323,153707,2,0,P|201:318|170:324,1,65,2|2,1:0|0:0,0:0:0:0:
106,368,154091,1,6,0:0:0:0:
30,231,154476,6,0,L|20:363,2,130,2|2|2,1:0|0:0|1:0,0:0:0:0:
97,191,155437,1,2,0:0:0:0:
141,126,155630,2,0,P|201:138|262:102,1,130,2|2,0:0|1:0,0:0:0:0:
313,50,156207,1,0,0:0:0:0:
381,87,156399,2,0,L|415:78,1,32.5,2|0,0:0|0:0,0:0:0:0:
483,111,156687,2,0,L|492:145,1,32.5,0|2,0:0|1:0,0:0:0:0:
455,212,156976,1,2,0:0:0:0:
395,262,157168,6,0,L|261:254,1,130,2|2,0:0|1:0,0:0:0:0:
188,239,157745,2,0,P|173:175|186:112,1,130,2|2,0:0|0:0,0:0:0:0:
252,72,158322,1,2,1:0:0:0:
196,16,158514,1,2,0:0:0:0:
129,58,158707,2,0,P|96:63|57:56,1,65,2|0,0:0|0:0,0:0:0:0:
10,114,159091,2,0,P|15:147|8:186,1,65,2|0,1:0|0:0,0:0:0:0:
57,241,159476,2,0,L|187:238,1,130,2|2,1:0|0:0,0:0:0:0:
240,295,160053,1,2,0:0:0:0:
292,352,160245,6,0,L|422:349,1,130,6|0,0:0|1:0,0:0:0:0:
477,293,160822,1,2,0:0:0:0:
504,220,161014,2,0,P|506:154|484:94,1,130,2|2,0:0|1:0,0:0:0:0:
338,38,161784,2,0,L|265:41,1,65,2|2,0:0|0:0,0:0:0:0:
254,116,162168,2,0,L|156:120,1,97.5,2|2,1:0|0:0,0:0:0:0:
120,50,162649,2,0,P|85:88|80:133,1,97.5,2|2,1:0|1:0,0:0:0:0:
126,194,163130,1,2,0:0:0:0:
172,256,163322,6,0,P|170:322|130:375,1,130,2|2,0:0|1:0,0:0:0:0:
56,356,163899,1,2,0:0:0:0:
14,290,164091,2,0,L|5:161,1,130,2|2,0:0|1:0,0:0:0:0:
39,89,164668,1,2,0:0:0:0:
106,49,164861,2,0,P|138:55|175:50,1,65,0|0,0:0|0:0,0:0:0:0:
241,21,165245,1,2,1:0:0:0:
297,75,165437,1,0,0:0:0:0:
249,137,165630,2,0,P|217:131|180:136,1,65,2|2,1:0|0:0,0:0:0:0:
123,182,166014,2,0,P|117:214|122:251,1,65,2|2,1:0|0:0,0:0:0:0:
164,311,166399,5,4,0:0:0:0:
313,357,166784,2,0,L|445:359,2,130,2|2|2,1:0|0:0|1:0,0:0:0:0:
251,309,167745,1,2,0:0:0:0:
308,256,167937,2,0,L|440:254,1,130,2|2,0:0|1:0,0:0:0:0:
490,195,168514,1,0,0:0:0:0:
450,127,168707,2,0,L|444:89,1,32.5,2|0,0:0|0:0,0:0:0:0:
378,54,168995,2,0,L|340:60,1,32.5,0|2,0:0|1:0,0:0:0:0:
284,107,169284,1,2,0:0:0:0:
215,69,169476,6,0,P|151:55|90:83,1,130,2|2,0:0|1:0,0:0:0:0:
56,148,170053,2,0,L|78:280,1,130,2|2,0:0|0:0,0:0:0:0:
34,341,170630,2,0,P|69:354|107:346,1,65,2|2,1:0|0:0,0:0:0:0:
151,295,171014,2,0,P|212:289|282:311,1,130,2|2,0:0|1:0,0:0:0:0:
339,355,171591,1,0,0:0:0:0:
402,309,171784,2,0,P|413:246|392:183,1,130,2|2,0:0|0:0,0:0:0:0:
494,65,172553,6,0,P|377:104|195:26,1,325,4|0,1:2|0:0,0:0:0:0:
131,71,173707,2,0,P|121:166|43:226,1,195,8|0,0:0|1:2,0:0:0:0:
8,156,174476,1,8,0:0:0:0:
72,297,174861,2,0,P|28:332|8:379,2,97.5,0|0|0,0:0|1:2|1:2,0:0:0:0:
147,316,175630,6,0,P|285:348|441:255,1,325,0|0,1:0|0:0,0:0:0:0:
457,184,176784,2,0,L|449:117,1,65,8|0,0:0|1:2,0:0:0:0:
398,60,177168,2,0,P|348:74|273:54,1,130,0|8,1:0|0:0,0:0:0:0:
199,31,177745,1,0,0:0:0:0:
212,107,177937,2,0,L|228:210,2,97.5,0|0|0,0:0|1:0|1:0,0:0:0:0:
137,81,178707,6,0,L|51:88,1,65,4|0,1:2|1:0,0:0:0:0:
17,142,179091,2,0,P|21:253|65:322,1,195,8|0,0:0|0:0,0:0:0:0:
135,356,179861,1,8,0:0:0:0:
290,349,180245,2,0,L|276:217,1,130,0|8,1:0|0:0,0:0:0:0:
141,143,181014,2,0,P|75:158|11:138,1,130,0|8,0:0|0:0,0:0:0:0:
147,56,181784,6,0,P|213:41|277:61,1,130,0|8,1:0|0:0,0:0:0:0:
364,183,182553,2,0,L|378:315,1,130,0|8,0:0|0:0,0:0:0:0:
223,339,183322,2,0,L|112:332,2,97.5,0|0|0,1:0|1:0|0:0,0:0:0:0:
268,275,184091,2,0,L|261:164,2,97.5,0|0|0,0:0|1:0|1:0,0:0:0:0:
300,346,184861,6,0,P|364:353|425:321,1,130,4|8,1:2|0:0,0:0:0:0:
456,172,185630,2,0,P|392:165|335:194,1,130,0|8,0:0|0:0,0:0:0:0:
233,75,186399,2,0,P|255:138|247:203,1,130,0|8,1:0|0:0,0:0:0:0:
127,298,187168,2,0,P|82:318|33:310,2,97.5,0|0|0,0:0|1:0|1:0,0:0:0:0:
143,221,187937,6,0,P|117:161|123:98,1,130,0|8,1:0|0:0,0:0:0:0:
253,176,188707,2,0,P|258:240|232:298,1,130,0|8,0:0|0:0,0:0:0:0:
88,358,189476,2,0,L|16:348,2,65,0|0|8,1:0|0:0|0:0,0:0:0:0:
165,346,190053,1,0,0:0:0:0:
237,373,190245,2,0,L|312:367,1,65,0|0,1:0|1:0,0:0:0:0:
370,321,190630,2,0,L|445:315,1,65,0|0,1:0|1:0,0:0:0:0:
486,257,191014,6,0,P|489:223|479:186,1,65,4|0,0:0|1:0,0:0:0:0:
409,163,191399,2,0,P|273:190|184:113,1,260,8|8,0:0|0:0,0:0:0:0:
209,43,192361,1,0,1:0:0:0:
132,57,192553,2,0,L|60:65,1,65
34,135,192937,2,0,L|106:143,1,65,8|0,0:0|0:0,0:0:0:0:
142,207,193322,2,0,P|134:279|152:341,1,130,0|8,0:0|0:0,0:0:0:0:
220,362,193899,1,0,1:0:0:0:
290,328,194091,6,0,L|432:332,2,130,0|8|0,1:0|0:0|1:0,0:0:0:0:
243,264,195053,1,0,1:0:0:0:
291,202,195245,6,0,L|280:112,1,86.6666666666667,8|0,0:0|0:0,0:0:0:0:
241,80,195630,6,0,L|176:83,1,65,4|0,0:0|0:0,0:0:0:0:
98,89,196014,2,8,B|81:135|81:135|96:181,1,97.5,8|4,0:0|0:0,0:0:0:0:
394,87,200245,6,0,B|364:96|364:96|327:89,1,65,4|0,0:0|0:0,0:0:0:0:
253,89,200630,2,0,L|247:133,1,32.5,0|0,0:0|0:0,0:0:0:0:
238,198,200918,1,4,0:0:0:0:
160,185,201111,2,0,L|116:179,1,32.5,0|0,0:0|1:0,0:0:0:0:
50,170,201399,2,0,P|40:201|41:235,1,65
51,310,201784,2,0,L|120:305,1,65,4|0,0:0|0:0,0:0:0:0:
193,295,202168,2,0,L|245:295,1,32.5,0|0,1:0|0:0,0:0:0:0:
287,341,202457,2,0,L|360:341,1,65,4|4,0:0|0:0,0:0:0:0:
426,316,202841,2,0,P|434:250|409:193,1,130,4|4,0:0|0:0,0:0:0:0:
360,132,203418,5,0,0:0:0:0:
297,178,203610,2,0,L|265:180,1,32.5,0|0,0:0|0:0,0:0:0:0:
185,186,203899,2,0,P|137:188|95:211,1,97.5,4|0,0:0|1:0,0:0:0:0:
32,257,204379,2,0,P|17:221|21:191,1,65,0|0,0:0|0:0,0:0:0:0:
57,127,204764,2,0,L|57:63,1,65,4|0,0:0|0:0,0:0:0:0:
124,23,205149,2,0,L|169:28,1,32.5,0|0,0:0|1:0,0:0:0:0:
230,50,205437,2,0,B|264:61|264:61|298:57,1,65,4|4,0:0|0:0,0:0:0:0:
370,48,205822,2,0,B|399:44|399:44|433:55,1,65,4|0,0:0|0:0,0:0:0:0:
454,130,206207,6,0,L|447:207,1,65,4|0,0:0|0:0,0:0:0:0:
402,258,206591,2,0,L|360:255,1,32.5,0|0,0:0|0:0,0:0:0:0:
291,249,206880,2,0,P|246:270|183:258,1,97.5,4|0,0:0|1:0,0:0:0:0:
127,296,207360,2,0,L|134:370,1,65,0|0,0:0|0:0,0:0:0:0:
55,365,207745,2,0,L|42:263,1,97.5,4|4,0:0|0:0,0:0:0:0:
94,209,208226,2,0,L|133:205,2,32.5,0|4|0,0:0|0:0|0:0,0:0:0:0:
114,133,208610,2,0,L|213:125,2,97.5,4|4|0,0:0|0:0|0:0,0:0:0:0:
134,56,209379,6,0,L|267:46,1,130,4|0,0:0|0:0,0:0:0:0:
340,36,209956,1,4,0:0:0:0:
416,51,210148,1,0,1:0:0:0:
479,96,210340,2,0,P|487:145|476:194,2,97.5,0|4|0,0:0|0:0|1:0,0:0:0:0:
407,126,211110,1,0,1:0:0:0:
256,169,211494,2,0,P|246:234|266:298,1,130,4|0,1:0|0:0,0:0:0:0:
402,367,212264,6,0,L|397:295,1,65,4|0,0:0|0:0,0:0:0:0:
326,335,212648,2,0,L|323:381,1,32.5,0|0,0:0|0:0,0:0:0:0:
246,369,212937,1,4,0:0:0:0:
174,337,213129,2,0,L|132:335,1,32.5,0|0,0:0|1:0,0:0:0:0:
75,376,213417,2,0,P|67:313|107:265,1,130,0|4,0:0|0:0,0:0:0:0:
182,243,213994,1,0,0:0:0:0:
251,206,214187,2,0,L|249:161,1,32.5,0|0,1:0|0:0,0:0:0:0:
251,95,214475,2,0,P|219:86|184:92,1,65,4|4,0:0|0:0,0:0:0:0:
131,144,214860,2,0,P|99:148|67:139,1,65,4|0,0:0|0:0,0:0:0:0:
11,86,215245,6,0,L|1:17,1,65,4|0,0:0|0:0,0:0:0:0:
78,11,215629,2,0,L|120:18,1,32.5
182,46,215918,2,0,P|229:50|280:39,1,97.5,4|0,0:0|1:0,0:0:0:0:
354,23,216398,2,0,P|366:59|364:88,1,65,0|0,0:0|0:0,0:0:0:0:
334,157,216783,2,0,P|362:165|398:155,1,65,4|0,0:0|0:0,0:0:0:0:
474,151,217168,2,0,L|476:190,1,32.5,0|0,0:0|1:0,0:0:0:0:
446,255,217456,2,0,L|442:319,1,65,4|4,0:0|0:0,0:0:0:0:
372,356,217841,2,0,L|289:362,1,65,4|0,0:0|0:0,0:0:0:0:
236,330,218226,6,0,L|152:335,1,65,4|0,0:0|0:0,0:0:0:0:
117,277,218610,2,0,L|120:235,1,32.5
135,167,218899,2,0,P|180:146|243:158,1,97.5,4|0,0:0|1:0,0:0:0:0:
296,183,219379,2,0,L|370:176,1,65,0|0,0:0|0:0,0:0:0:0:
438,172,219764,2,0,P|454:128|450:78,1,97.5,4|4,0:0|0:0,0:0:0:0:
383,37,220245,2,0,L|392:-1,2,32.5,0|4|0,0:0|0:0|0:0,0:0:0:0:
305,48,220630,2,0,P|265:36|206:40,2,97.5,4|4|0,0:0|0:0|0:0,0:0:0:0:
354,108,221399,6,0,P|359:174|332:243,1,130,4|0,0:0|0:0,0:0:0:0:
280,286,221976,1,4,0:0:0:0:
213,328,222168,1,0,1:0:0:0:
135,338,222360,2,0,L|36:343,2,97.5,0|4|0,0:0|0:0|0:0,0:0:0:0:
144,260,223130,1,0,0:0:0:0:
261,157,223514,2,0,L|280:286,1,130,0|0,0:0|0:0,0:0:0:0:
425,341,224283,6,0,L|468:344,2,43.3333333333333,0|0|0,2:0|2:0|0:0,0:0:0:0:
388,304,224668,1,0,0:0:0:0:
447,159,225053,2,0,L|450:116,2,43.3333333333333,8|8|8,0:3|0:3|0:3,0:0:0:0:
410,196,225437,1,8,0:3:0:0:
253,192,225822,2,0,L|112:201,1,130,0|8,0:0|0:3,0:0:0:0:
47,63,226591,2,0,L|188:72,1,130,8|0,0:3|0:0,0:0:0:0:
328,34,227360,6,0,L|424:25,2,86.6666666666667,4|4|4,0:0|0:0|0:0,0:0:0:0:
256,110,228130,1,4,0:0:0:0:
124,271,228642,2,0,L|21:265,2,86.6666666666667,4|4|4,0:0|0:0|0:0,0:0:0:0:
322,332,229668,2,0,B|381:332|381:332|441:370,1,130,2|6,0:0|0:0,0:0:0:0:
