osu file format v14

[General]
AudioFilename: 06 Mirage Garden.mp3
AudioLeadIn: 0
PreviewTime: 147937
Countdown: 0
SampleSet: Soft
StackLeniency: 0.7
Mode: 0
LetterboxInBreaks: 0
WidescreenStoryboard: 0

[Editor]
Bookmarks: 29647,53679,75600,99830,111386,184284
DistanceSpacing: 2
BeatDivisor: 4
GridSize: 4
TimelineZoom: 4.699997

[Metadata]
Title:Mirage Garden
TitleUnicode:Mirage Garden
Artist:xi
ArtistUnicode:xi
Creator:P o M u T a
Version:Exitra
Source:BMS
Tags:BOF2009 Parousia MELODIOUS Long Version pomuta PROGRESSIVE FUSION the of fighters revolutionary battles ROCK fen Tiyes Sink 100sec Records piano Charles445
BeatmapID:712015
BeatmapSetID:319940

[Difficulty]
HPDrainRate:6
CircleSize:4.2
OverallDifficulty:9
ApproachRate:9.3
SliderMultiplier:3.3
SliderTickRate:1

[Events]
//Background and Video events
0,0,"909ee593_R.png",0,0
//Break Periods
//Storyboard Layer 0 (Background)
//Storyboard Layer 1 (Fail)
//Storyboard Layer 2 (Pass)
//Storyboard Layer 3 (Foreground)
//Storyboard Sound Samples

[TimingPoints]
1039.71690630835,615.384615384615,3,2,3,50,1,0
2732,615.384615384615,3,2,3,50,1,0
4424,615.384615384615,3,2,3,50,1,0
6116,615.384615384615,3,2,3,50,1,0
7808,615.643501369807,3,2,3,50,1,0
9501,615.384615384615,3,2,3,50,1,0
11039,615.605602010978,3,2,3,50,1,0
12578,615.384615384615,3,2,3,50,1,0
16116,615.384615384615,3,2,3,50,1,0
17808,615.644615384615,3,2,3,50,1,0
18423,-100,3,2,3,40,0,0
19501,615.384615384615,3,2,3,50,1,0
21193,615.384615384615,3,2,3,50,1,0
22269,-83.3333333333334,3,2,3,50,0,0
22885,615.504559862948,3,2,3,50,1,0
24116,625,3,2,3,50,1,0
24584,638.297872340426,3,2,3,50,1,0
25062,652.173913043478,3,2,3,50,1,0
25551,666.666666666667,3,2,3,50,1,0
26217,750,3,2,3,50,1,0
26592,384.615384615385,4,2,3,60,1,0
32649,384.647438568599,4,2,3,60,1,0
35630,384.647438568599,4,2,3,60,1,0
38611,384.615384615385,4,2,3,20,1,0
38803,-111.111111111111,4,2,3,60,0,0
41687,-100,4,2,3,60,0,0
44668,384.647438568599,4,2,3,60,1,0
47649,384.647438568599,4,2,3,60,1,0
50630,384.6252468012,4,2,1,20,1,0
50822,-111.111111111111,4,2,3,60,0,0
53707,384.615384615385,4,2,2,60,1,0
56399,384.716496002154,4,2,2,60,1,0
59092,384.615384615385,4,2,2,60,1,0
61784,384.615384615385,4,2,2,60,1,0
64668,384.716496002154,4,2,2,60,1,0
67361,384.615384615385,4,2,2,60,1,0
70053,384.615384615385,4,2,2,60,1,0
72745,384.667166733983,4,2,2,60,1,0
74860,-133.333333333333,4,2,3,60,0,0
75630,384.615384615385,4,2,3,60,1,0
75630,-153.846153846153,4,2,3,60,0,0
79668,-153.846153846153,4,2,3,40,0,0
79860,-153.846153846153,4,2,3,60,0,0
81399,384.620315645072,4,2,3,60,1,0
81399,-153.846153846154,4,2,3,60,0,0
98322,-133.333333333333,4,2,3,60,0,0
99091,-117.647058823529,4,2,3,60,0,0
99860,-133.333333333333,4,2,3,60,0,1
102553,384.615384615385,4,2,3,50,1,1
102553,-133.333333333333,3,2,3,50,0,1
108322,384.667166733983,4,2,3,50,1,1
108322,-133.333333333333,4,2,3,50,0,1
111014,-133.333333333333,4,2,3,40,0,1
114092,384.615384615385,4,2,3,60,1,1
114092,-133.333333333333,4,2,3,60,0,1
115630,-100,4,2,3,60,0,1
117938,-133.333333333333,4,2,3,60,0,1
120245,-117.647058823529,4,2,3,60,0,1
123322,512.8336624016,3,2,3,40,1,0
123322,-200,4,2,3,40,0,0
144861,384.615384615385,4,2,3,40,1,0
144861,-142.857142857143,4,2,3,40,0,0
147937,-117.647058823529,4,2,3,60,0,1
154476,-117.647058823529,4,2,3,40,0,1
154861,-117.647058823529,4,2,3,50,0,1
155245,-117.647058823529,4,2,3,60,0,1
166784,-117.647058823529,4,2,3,40,0,1
167168,-117.647058823529,4,2,3,50,0,1
167553,-117.647058823529,4,2,3,60,0,1
172553,-117.647058823529,4,2,3,60,0,0
180245,-117.647058823529,4,2,3,50,0,0
181014,-117.647058823529,4,2,3,55,0,0
181784,-117.647058823529,4,2,3,60,0,0
182553,-117.647058823529,4,2,3,65,0,0
183322,-117.647058823529,4,2,3,70,0,0
184861,-117.647058823529,4,2,3,60,0,0
188707,-142.857142857143,4,2,3,60,0,0
189476,-117.647058823529,4,2,3,60,0,0
198899,-100,4,2,3,60,0,0
199091,-117.647058823529,4,2,3,60,0,0
199284,-100,4,2,3,60,0,0
199861,-117.647058823529,4,2,3,50,0,0
200053,-117.647058823529,4,2,3,40,0,0
200245,-100,4,2,1,60,0,1
203226,384.647438568599,4,2,3,60,1,1
206207,384.615384615385,4,2,3,60,1,1
209187,384.635109492795,4,2,3,20,1,1
209379,-111.111111111111,4,2,3,60,0,1
212264,-100,4,2,3,60,0,1
215245,384.647438568599,4,2,3,60,1,1
218226,384.647438568599,4,2,3,60,1,1
221207,384.615384615385,4,2,3,20,1,1
221399,-111.111111111111,3,2,3,60,0,1
222937,-200,3,1,0,60,0,0
224283,-200,3,3,0,60,0,0
225053,-100,3,3,0,60,0,0
227360,-80,4,2,1,60,0,0
228322,-80,4,2,1,10,0,0
228642,-80,4,2,1,60,0,0
229348,-80,4,2,1,10,0,0
229668,-100,4,2,1,60,0,0

[Colours]
Combo1 : 255,155,155
Combo2 : 255,255,164
Combo3 : 217,255,179
Combo4 : 164,164,255

[HitObjects]
216,162,1039,6,0,P|157:190|75:143,1,165,6|0,0:0|0:0,0:0:0:0:
296,222,1501,2,0,P|355:194|437:241,1,165,2|2,0:0|0:0,0:0:0:0:
298,127,1962,1,2,0:0:0:0:
298,127,2039,1,2,0:0:0:0:
298,127,2116,1,2,0:0:0:0:
300,323,2270,1,2,0:0:0:0:
356,74,2424,1,2,0:0:0:0:
216,162,2578,1,2,0:0:0:0:
460,221,2732,6,0,P|485:136|451:72,1,165,6|0,0:0|0:0,0:0:0:0:
192,74,3193,2,0,B|275:93|275:56|355:73,1,165,2|2,0:0|0:0,0:0:0:0:
216,162,3655,1,0,1:0:0:0:
450,29,3808,1,0,0:0:0:0:
324,142,3962,1,2,0:0:0:0:
320,182,4039,1,2,0:0:0:0:
316,222,4116,1,2,1:2:0:0:
425,321,4270,1,2,1:0:0:0:
216,162,4424,6,0,P|139:186|65:146,1,165,6|2,0:0|0:0,0:0:0:0:
179,72,4885,1,2,0:0:0:0:
66,267,5039,1,0,0:0:0:0:
237,239,5193,2,0,P|251:302|201:386,1,165,2|0,0:0|1:0,0:0:0:0:
329,115,5654,1,2,0:0:0:0:
179,72,5808,5,2,1:0:0:0:
196,147,5911,1,2,1:0:0:0:
271,165,6013,1,2,1:0:0:0:
329,115,6116,6,0,P|400:89|481:126,1,165,6|2,0:0|0:0,0:0:0:0:
478,260,6577,2,0,P|405:294|329:269,1,165,2|2,0:0|1:0,0:0:0:0:
500,192,7039,1,0,0:0:0:0:
271,165,7192,6,0,L|282:222,3,55,2|2|2|2,1:0|0:0|0:0|1:0,0:0:0:0:
232,321,7577,5,2,0:0:0:0:
196,341,7654,1,2,0:0:0:0:
155,346,7731,1,2,0:0:0:0:
115,334,7808,6,0,B|203:316|200:344|198:373|268:365,1,165,6|0,0:0|0:0,0:0:0:0:
339,284,8269,2,0,P|415:300|489:259,1,165,2|2,0:0|0:0,0:0:0:0:
468,96,8731,1,2,0:0:0:0:
473,137,8808,1,2,0:0:0:0:
478,177,8885,5,6,0:1:0:0:
453,176,9116,1,2,1:0:0:0:
428,175,9347,1,2,1:0:0:0:
311,23,9501,5,6,0:0:0:0:
177,103,9654,2,0,B|237:115|237:115|275:93|275:93|334:103,1,165,0|2,1:0|0:0,0:0:0:0:
257,225,10116,2,0,P|262:265|259:308,1,82.5,0|0,1:0|0:0,0:0:0:0:
336,183,10424,2,0,P|403:134|396:59,1,165,6|2,1:0|0:0,0:0:0:0:
261,140,10885,1,0,1:0:0:0:
43,220,11039,6,0,P|104:168|182:185,1,165,6|0,0:0|0:0,0:0:0:0:
226,1,11500,2,0,P|277:61|261:139,1,165,2|2,0:0|0:0,0:0:0:0:
189,83,11962,2,0,L|101:86,1,82.5,2|0,0:0|0:0,0:0:0:0:
348,26,12270,2,0,L|436:29,1,82.5,2|2,1:0|0:0,0:0:0:0:
174,108,12578,5,6,0:0:0:0:
256,192,12731,1,2,1:0:0:0:
88,151,12885,1,2,0:0:0:0:
342,149,13039,1,2,0:0:0:0:
160,245,13193,1,2,0:0:0:0:
125,42,13347,1,2,0:0:0:0:
17,301,13501,5,2,0:0:0:0:
228,286,13654,1,0,1:0:0:0:
81,254,13808,1,2,1:0:0:0:
254,361,13962,1,8,0:3:0:0:
88,151,14116,1,2,1:0:0:0:
137,350,14270,1,8,0:3:0:0:
327,235,14424,6,0,B|411:209|411:262|490:235,1,165,6|0,0:0|0:0,0:0:0:0:
432,10,14885,2,0,P|413:88|448:162,1,165,2|2,0:0|0:0,0:0:0:0:
378,334,15347,1,2,0:0:0:0:
419,338,15424,1,2,0:0:0:0:
459,343,15501,1,2,0:0:0:0:
265,315,15654,1,2,0:0:0:0:
511,279,15808,1,2,0:0:0:0:
327,235,15962,1,2,0:0:0:0:
164,332,16116,6,0,P|82:356|13:308,1,165,6|0,0:0|0:0,0:0:0:0:
31,175,16577,2,0,P|107:150|177:191,1,165,2|2,0:0|0:0,0:0:0:0:
103,55,17039,1,0,1:0:0:0:
98,254,17192,1,2,0:0:0:0:
103,55,17346,2,0,L|98:10,2,41.25,2|2|2,0:0|0:0|1:0,0:0:0:0:
14,303,17654,1,2,1:0:0:0:
17,10,17808,6,0,L|31:176,1,165,6|2,0:0|0:0,0:0:0:0:
14,303,18269,1,2,0:0:0:0:
183,357,18423,1,2,0:0:0:0:
262,198,18577,2,0,P|291:276|267:360,1,165,2|2,0:0|1:0,0:0:0:0:
172,280,19039,1,2,0:0:0:0:
411,158,19193,5,2,1:0:0:0:
336,167,19295,1,2,1:0:0:0:
277,121,19398,1,2,1:0:0:0:
281,46,19501,6,0,B|364:58|364:41|446:46,1,165,6|0,0:0|0:0,0:0:0:0:
112,121,19962,2,0,B|194:116|194:133|277:121,1,165,2|2,0:0|1:0,0:0:0:0:
85,238,20424,1,0,0:0:0:0:
46,69,20577,6,0,P|32:100|30:126,3,55,2|2|2|2,1:0|0:0|0:0|1:0,0:0:0:0:
85,238,20962,5,2,0:0:0:0:
92,278,21039,1,2,0:0:0:0:
79,317,21116,1,2,0:0:0:0:
43,337,21193,6,0,P|140:313|196:343,1,165,6|0,0:0|0:0,0:0:0:0:
469,337,21654,2,0,P|372:313|316:343,1,165,2|0,0:0|0:0,0:0:0:0:
257,108,22116,1,2,0:0:0:0:
256,150,22193,1,2,0:0:0:0:
256,192,22269,6,0,P|193:201|117:173,1,98.9999969787599,6|0,0:0|0:0,0:0:0:0:
290,38,22500,2,0,P|349:29|421:55,1,98.9999969787599,2|0,1:0|0:0,0:0:0:0:
483,79,22731,2,0,L|471:129,1,49.4999984893799,2|0,1:0|0:0,0:0:0:0:
389,140,22885,6,0,L|403:221,1,82.5,6|0,0:0|1:0,0:0:0:0:
252,288,23192,1,0,0:0:0:0:
484,255,23346,2,0,L|468:339,1,82.5,2|0,0:0|1:0,0:0:0:0:
287,356,23654,1,0,0:0:0:0:
483,79,23808,2,0,P|418:56|361:76,1,123.75,6|0,0:1|0:0,0:0:0:0:
290,38,24116,6,0,L|235:31,1,55,2|2,0:0|0:0,0:0:0:0:
193,100,24324,2,0,L|138:93,1,55,2|2,0:0|1:0,0:0:0:0:
49,171,24584,6,0,P|126:195|206:177,1,165,6|2,0:0|0:0,0:0:0:0:
461,211,25062,2,0,P|384:187|305:206,1,165,2|2,0:0|0:0,0:0:0:0:
210,344,25551,6,0,P|214:302|208:262,1,82.5,6|0,0:2|0:0,0:0:0:0:
49,171,25884,2,0,P|91:175|131:169,1,82.5,4|2,0:3|0:0,0:0:0:0:
271,85,26217,5,4,0:3:0:0:
32,358,26592,5,6,0:0:0:0:
256,192,26688,12,0,28130,1:0:0:0:
316,69,28322,5,4,0:1:0:0:
330,306,28515,1,0,1:0:0:0:
119,199,28707,1,0,1:0:0:0:
431,70,28899,2,0,P|476:66|512:84,1,82.5,0|0,1:0|1:0,0:0:0:0:
458,151,29092,5,2,0:0:0:0:
431,157,29156,1,2,0:0:0:0:
404,161,29220,1,2,0:0:0:0:
376,163,29284,1,2,1:0:0:0:
349,163,29348,1,2,0:0:0:0:
321,160,29412,1,2,0:0:0:0:
294,154,29476,1,10,0:3:0:0:
267,149,29540,1,2,0:0:0:0:
240,145,29604,1,2,0:0:0:0:
213,139,29668,6,0,P|193:174|190:215,1,82.5,4|0,0:0|0:0,0:0:0:0:
234,356,29861,2,0,P|254:321|257:280,1,82.5
89,300,30053,2,0,L|172:295,1,82.5,0|0,0:0|1:0,0:0:0:0:
431,70,30342,1,4,0:0:0:0:
431,70,30534,1,0,0:0:0:0:
360,92,30630,2,0,P|320:86|287:58,1,82.5,0|0,1:0|0:0,0:0:0:0:
217,101,30822,5,8,0:3:0:0:
192,113,30886,1,0,0:0:0:0:
165,120,30950,1,0,0:0:0:0:
138,122,31015,1,8,0:3:0:0:
111,118,31079,1,0,0:0:0:0:
85,109,31143,1,0,0:0:0:0:
61,96,31207,6,0,P|51:67|54:17,1,82.5,4|0,0:0|0:0,0:0:0:0:
115,195,31399,1,0,0:0:0:0:
135,264,31495,1,0,0:0:0:0:
106,331,31592,1,0,1:0:0:0:
41,364,31688,1,4,0:3:0:0:
41,364,31880,2,0,B|27:322|27:322|33:283,1,82.5,4|0,0:0|0:0,0:0:0:0:
360,92,32072,2,0,B|374:134|374:134|368:173,1,82.5,4|0,0:0|0:0,0:0:0:0:
135,264,32265,2,0,B|199:263|232:248|232:248|272:260|272:260|319:238|376:241,1,247.5,4|0,0:0|0:0,0:0:0:0:
433,287,32649,6,0,B|442:329|442:329|436:369,1,82.5,4|0,0:0|0:0,0:0:0:0:
371,332,32841,1,0,0:0:0:0:
512,323,32937,1,0,0:0:0:0:
492,159,33033,2,0,L|503:249,1,82.5,0|0,0:0|1:0,0:0:0:0:
267,322,33322,1,4,0:0:0:0:
104,137,33514,1,0,0:0:0:0:
18,193,33610,2,0,L|33:280,1,82.5,0|0,1:0|0:0,0:0:0:0:
94,192,33802,5,8,0:3:0:0:
99,164,33867,1,0,0:0:0:0:
104,137,33931,1,0,0:0:0:0:
109,110,33995,1,8,0:3:0:0:
113,83,34059,1,0,0:0:0:0:
118,56,34123,1,0,0:0:0:0:
123,29,34187,6,0,P|80:20|39:34,1,82.5,4|0,0:0|0:0,0:0:0:0:
194,98,34379,2,0,P|237:107|278:93,1,82.5,0|0,0:0|0:0,0:0:0:0:
336,17,34572,1,0,0:0:0:0:
201,197,34668,1,0,1:0:0:0:
201,197,34860,6,0,B|205:238|205:238|194:280,1,82.5,4|0,0:0|0:0,0:0:0:0:
18,193,35053,2,0,B|14:152|14:152|25:110,1,82.5,4|0,0:0|0:0,0:0:0:0:
259,125,35245,2,0,B|356:122|356:122|425:181|498:116,1,247.5,4|0,0:0|0:0,0:0:0:0:
495,33,35630,6,0,P|455:40|424:66,1,82.5,4|0,0:0|0:0,0:0:0:0:
423,317,35822,2,0,P|454:343|495:351,1,82.5
493,265,36014,1,0,0:0:0:0:
349,361,36110,1,0,1:0:0:0:
349,361,36303,1,4,0:0:0:0:
96,308,36495,1,0,0:0:0:0:
251,339,36591,2,0,P|222:368|175:374,1,82.5,0|0,1:0|0:0,0:0:0:0:
50,286,36783,5,8,0:3:0:0:
68,307,36848,1,0,0:0:0:0:
96,308,36912,1,0,0:0:0:0:
118,292,36976,1,8,0:3:0:0:
140,276,37040,1,0,0:0:0:0:
168,277,37104,1,0,0:0:0:0:
186,298,37168,6,0,L|175:133,1,165,4|0,0:0|0:0,0:0:0:0:
39,37,37457,2,0,P|117:60|197:41,1,165,4|0,0:0|0:0,0:0:0:0:
336,133,37745,6,0,L|326:298,1,165,4|0,0:0|0:0,0:0:0:0:
472,37,38034,2,0,P|394:60|315:42,1,165,4|0,0:0|0:0,0:0:0:0:
249,177,38322,2,0,P|334:233|432:143,1,247.5,4|0,0:0|0:0,0:0:0:0:
431,149,38803,6,0,L|440:323,1,148.49999546814,4|8,0:0|0:3,0:0:0:0:
299,348,39091,1,0,0:0:0:0:
265,312,39187,1,4,0:3:0:0:
216,303,39284,1,0,0:0:0:0:
167,312,39380,2,0,P|128:321|36:247,1,148.49999546814,4|0,0:0|1:0,0:0:0:0:
345,262,39764,2,0,P|384:253|476:327,1,148.49999546814,4|0,0:3|0:0,0:0:0:0:
389,340,40053,2,0,L|385:376,1,37.1249988670349,4|0,0:0|0:0,0:0:0:0:
11,41,40341,5,0,1:0:0:0:
266,146,40534,1,0,1:0:0:0:
91,328,40726,1,0,1:0:0:0:
148,50,40918,5,4,0:1:0:0:
185,74,41014,1,0,0:0:0:0:
228,79,41111,1,0,0:0:0:0:
271,66,41207,1,0,0:0:0:0:
337,31,41303,5,0,1:0:0:0:
379,19,41399,1,0,0:0:0:0:
422,24,41495,1,4,3:0:0:0:
459,48,41591,1,0,0:0:0:0:
504,134,41687,6,0,P|512:174|506:214,1,82.5,4|0,0:0|0:0,0:0:0:0:
461,274,41880,2,0,P|455:314|464:355,1,82.5
354,207,42072,2,0,P|394:199|434:205,1,82.5,0|0,0:0|1:0,0:0:0:0:
228,79,42361,1,4,0:0:0:0:
15,42,42553,1,0,0:0:0:0:
69,175,42649,2,0,L|75:93,1,82.5,0|0,1:0|0:0,0:0:0:0:
211,225,42841,5,8,0:3:0:0:
184,231,42905,1,0,0:0:0:0:
157,238,42969,1,0,0:0:0:0:
131,245,43034,1,8,0:3:0:0:
104,252,43098,1,0,0:0:0:0:
77,259,43162,1,0,0:0:0:0:
51,266,43226,5,4,0:0:0:0:
18,333,43322,1,0,0:0:0:0:
72,384,43418,1,0,0:0:0:0:
139,351,43514,1,0,0:0:0:0:
213,353,43611,2,0,P|254:367|300:353,1,82.5,0|0,1:0|0:0,0:0:0:0:
291,358,43899,6,0,L|287:271,1,82.5,4|0,0:0|0:0,0:0:0:0:
220,25,44091,2,0,L|225:113,1,82.5,4|0,0:0|0:0,0:0:0:0:
378,185,44284,2,0,B|294:204|294:204|211:178|211:178|137:189,1,247.5,4|0,0:0|0:0,0:0:0:0:
65,149,44668,5,4,0:0:0:0:
0,111,44764,1,0,0:0:0:0:
0,37,44860,1,0,0:0:0:0:
65,0,44956,1,0,0:0:0:0:
129,37,45052,1,0,0:0:0:0:
129,111,45148,1,0,1:0:0:0:
0,111,45341,5,4,0:0:0:0:
129,111,45533,1,0,0:0:0:0:
195,144,45629,1,0,1:0:0:0:
261,111,45725,1,0,0:0:0:0:
275,38,45821,5,8,0:3:0:0:
298,51,45886,1,0,0:0:0:0:
324,60,45950,1,0,0:0:0:0:
351,66,46014,1,8,0:3:0:0:
379,66,46078,1,0,0:0:0:0:
406,63,46142,1,0,0:0:0:0:
432,55,46206,6,0,P|471:39|510:45,1,82.5,4|0,0:0|0:0,0:0:0:0:
420,198,46398,2,0,P|379:203|342:187,1,82.5
473,132,46591,2,0,P|498:164|503:204,1,82.5,0|0,0:0|1:0,0:0:0:0:
81,46,46879,2,0,P|55:77|49:118,1,82.5,4|0,0:0|0:0,0:0:0:0:
255,237,47072,2,0,P|286:211|301:173,1,82.5,4|0,0:0|0:0,0:0:0:0:
112,245,47264,2,0,P|147:340|283:379,1,247.5,4|0,0:0|0:0,0:0:0:0:
135,169,47649,6,0,P|90:165|55:188,1,82.5,4|0,0:0|0:0,0:0:0:0:
182,226,47841,1,0,0:0:0:0:
227,85,47937,1,0,0:0:0:0:
327,194,48033,2,0,L|410:200,1,82.5,0|0,0:0|1:0,0:0:0:0:
81,46,48322,1,4,0:0:0:0:
81,46,48514,2,0,B|122:55|122:55|162:37,1,82.5,0|0,0:0|1:0,0:0:0:0:
228,12,48706,1,0,0:0:0:0:
321,119,48802,5,8,0:3:0:0:
294,123,48867,1,0,0:0:0:0:
270,137,48931,1,0,0:0:0:0:
252,158,48995,1,8,0:3:0:0:
243,184,49059,1,0,0:0:0:0:
244,211,49123,1,0,0:0:0:0:
254,236,49187,6,0,P|320:279|395:240,1,165,4|0,0:0|0:0,0:0:0:0:
414,174,49476,2,0,L|427:346,1,165,4|0,0:0|0:0,0:0:0:0:
487,132,49764,6,0,P|420:88|349:122,1,165,4|0,0:0|0:0,0:0:0:0:
327,194,50053,2,0,L|314:29,1,165,4|0,0:0|0:0,0:0:0:0:
86,74,50341,2,0,L|106:345,1,247.5,4|0,0:0|0:0,0:0:0:0:
104,320,50822,6,0,B|175:353|175:292|247:321,1,148.49999546814,4|8,0:0|0:3,0:0:0:0:
321,272,51110,1,0,0:0:0:0:
356,299,51206,1,4,0:3:0:0:
399,309,51303,1,0,0:0:0:0:
442,296,51399,2,0,P|457:330|453:376,1,74.2499977340699,4|0,0:0|0:0,0:0:0:0:
501,126,51591,2,0,P|486:160|490:206,1,74.2499977340699,0|0,1:0|0:0,0:0:0:0:
453,33,51783,2,0,P|381:55|310:38,1,148.49999546814,4|0,0:3|0:0,0:0:0:0:
234,66,52072,2,0,L|231:119,1,37.1249988670349,4|0,0:0|0:0,0:0:0:0:
104,320,52360,5,0,1:0:0:0:
221,0,52553,1,0,1:0:0:0:
441,258,52745,2,0,P|467:284|480:321,1,74.2499977340699,0|0,1:0|0:0,0:0:0:0:
399,331,52937,5,4,0:1:0:0:
361,355,53033,1,0,1:0:0:0:
317,356,53130,1,8,0:3:0:0:
279,334,53226,1,0,0:0:0:0:
187,340,53322,5,0,1:0:0:0:
148,319,53418,1,0,0:0:0:0:
104,320,53514,1,8,0:3:0:0:
67,343,53610,1,0,0:0:0:0:
128,246,53707,6,0,L|136:162,1,82.5,4|0,0:0|0:0,0:0:0:0:
221,0,53899,2,0,L|228:82,1,82.5,2|0,0:0|0:0,0:0:0:0:
503,192,54187,6,0,L|496:274,1,82.5,0|0,1:0|0:0,0:0:0:0:
492,298,54380,1,4,0:3:0:0:
455,127,54476,1,2,0:0:0:0:
253,345,54668,1,2,0:0:0:0:
57,127,54860,6,0,L|148:119,1,82.5,2|4,1:0|0:3,0:0:0:0:
164,117,55053,1,2,0:0:0:0:
0,40,55149,2,0,L|91:32,1,82.5,0|2,1:0|0:0,0:0:0:0:
512,40,55437,2,0,L|429:32,1,82.5,4|2,0:3|0:0,0:0:0:0:
372,119,55630,2,0,L|455:127,1,82.5,0|2,1:0|0:0,0:0:0:0:
253,345,55918,5,2,0:0:0:0:
253,345,56014,2,0,L|231:266,1,82.5,0|0,1:0|1:0,0:0:0:0:
164,117,56207,2,0,L|142:196,1,82.5,2|2,0:0|0:0,0:0:0:0:
133,219,56399,5,4,0:0:0:0:
71,273,56495,1,0,0:0:0:0:
23,205,56591,2,0,L|23:123,1,82.5,2|0,0:0|0:0,0:0:0:0:
229,34,56879,6,0,L|138:29,1,82.5,0|0,1:0|0:0,0:0:0:0:
321,27,57072,1,4,0:3:0:0:
321,27,57168,2,0,L|230:22,1,82.5,2|0,0:0|0:0,0:0:0:0:
410,13,57360,1,2,0:0:0:0:
482,300,57553,5,2,1:0:0:0:
464,227,57649,1,4,0:3:0:0:
447,154,57745,1,0,0:0:0:0:
489,311,57841,5,0,1:0:0:0:
471,238,57937,1,2,0:0:0:0:
256,191,58130,2,0,L|260:100,1,82.5,4|2,0:3|0:0,0:0:0:0:
260,349,58322,2,0,L|256:258,1,82.5,0|2,1:0|0:0,0:0:0:0:
410,13,58611,5,2,0:0:0:0:
238,30,58707,2,0,L|329:26,1,82.5,0|0,1:0|1:0,0:0:0:0:
80,26,58899,2,0,L|171:30,1,82.5,2|2,0:0|0:0,0:0:0:0:
27,87,59092,6,0,P|3:55|0:14,1,82.5,4|0,0:0|0:0,0:0:0:0:
228,116,59284,2,0,P|253:149|255:190,1,82.5,2|0,0:0|0:0,0:0:0:0:
54,295,59572,5,0,1:0:0:0:
123,312,59668,1,0,0:0:0:0:
191,330,59765,1,4,0:3:0:0:
260,349,59861,1,2,0:0:0:0:
410,13,60053,1,2,0:0:0:0:
172,174,60245,6,0,P|206:148|230:108,1,82.5,2|4,1:0|0:3,0:0:0:0:
340,174,60438,2,0,P|306:149|284:115,1,82.5,2|0,0:0|1:0,0:0:0:0:
256,248,60630,1,2,0:0:0:0:
183,29,60822,2,0,L|92:11,1,82.5,4|2,0:3|0:0,0:0:0:0:
329,29,61015,2,0,L|420:11,1,82.5,0|2,1:0|0:0,0:0:0:0:
256,248,61303,5,2,0:0:0:0:
57,257,61399,2,0,L|140:253,1,82.5,0|0,1:0|1:0,0:0:0:0:
372,240,61592,2,0,L|455:236,1,82.5,2|2,0:0|0:0,0:0:0:0:
172,174,61784,6,0,L|89:178,1,82.5,4|0,0:0|0:0,0:0:0:0:
100,32,61976,2,0,L|183:28,1,82.5,2|0,0:0|0:0,0:0:0:0:
340,174,62264,6,0,L|423:178,1,82.5,0|0,1:0|0:0,0:0:0:0:
487,141,62456,1,4,0:3:0:0:
426,23,62552,2,0,L|422:106,1,82.5,2|0,0:0|0:0,0:0:0:0:
256,36,62745,1,2,0:0:0:0:
57,257,62937,5,2,0:0:0:0:
57,257,63034,1,2,0:0:0:0:
57,257,63130,1,0,1:0:0:0:
57,257,63226,1,2,0:0:0:0:
132,297,63322,6,0,P|141:252|131:217,1,82.5,0|2,0:0|0:0,0:0:0:0:
216,139,63514,2,0,P|207:184|217:219,1,82.5,2|2,0:0|0:0,0:0:0:0:
338,291,63707,5,0,1:0:0:0:
313,136,63803,1,2,0:0:0:0:
262,293,63899,5,0,1:0:0:0:
372,182,63995,1,2,0:0:0:0:
487,275,64091,5,2,0:0:0:0:
312,221,64187,1,2,0:0:0:0:
458,122,64284,5,2,0:0:0:0:
442,92,64348,1,2,0:0:0:0:
420,68,64412,1,2,0:0:0:0:
392,51,64476,1,2,0:0:0:0:
360,42,64540,1,2,0:0:0:0:
328,42,64604,1,2,0:0:0:0:
296,50,64668,6,0,P|259:66|219:59,1,82.5,4|0,0:0|0:0,0:0:0:0:
31,39,64860,2,0,P|68:23|108:30,1,82.5,2|0,0:0|0:0,0:0:0:0:
372,182,65148,5,0,1:0:0:0:
460,204,65245,2,0,L|457:119,1,82.5,0|4,0:0|3:0,0:0:0:0:
372,182,65437,2,0,L|367:347,1,165,2|2,0:0|0:0,0:0:0:0:
130,310,65822,5,2,1:0:0:0:
60,287,65918,1,4,0:3:0:0:
60,213,66014,1,2,0:0:0:0:
130,190,66110,1,0,1:0:0:0:
174,250,66206,1,2,0:0:0:0:
60,287,66399,2,0,L|55:374,1,82.5,4|2,0:3|0:0,0:0:0:0:
79,124,66591,2,0,L|129:189,1,82.5,0|2,1:0|0:0,0:0:0:0:
351,68,66880,5,2,0:0:0:0:
351,68,66976,2,0,L|261:61,1,82.5,0|0,1:0|1:0,0:0:0:0:
221,195,67168,2,0,L|214:105,1,82.5,2|2,0:0|0:0,0:0:0:0:
310,151,67361,5,4,0:0:0:0:
304,225,67457,1,0,0:0:0:0:
298,299,67553,1,2,0:0:0:0:
292,373,67649,1,0,0:0:0:0:
292,373,67841,5,0,1:0:0:0:
359,342,67937,1,0,0:0:0:0:
298,299,68034,1,4,0:3:0:0:
231,331,68130,2,0,P|149:343|104:282,1,165,2|2,0:0|0:0,0:0:0:0:
150,43,68514,5,2,1:0:0:0:
127,113,68611,1,4,0:3:0:0:
5,77,68707,5,2,0:0:0:0:
55,132,68803,1,0,1:0:0:0:
32,202,68899,1,2,0:0:0:0:
150,43,69091,5,4,0:3:0:0:
127,113,69187,1,2,0:0:0:0:
77,58,69284,1,0,1:0:0:0:
199,93,69380,2,0,P|275:104|361:90,1,165,2|2,0:0|0:0,0:0:0:0:
441,139,69668,6,0,P|451:76|430:17,1,82.5,0|0,1:0|1:0,0:0:0:0:
349,203,69861,2,0,P|289:226|247:276,1,82.5,2|2,0:0|0:0,0:0:0:0:
449,250,70053,5,4,0:0:0:0:
385,302,70149,1,0,0:0:0:0:
306,325,70245,1,2,0:0:0:0:
224,316,70341,2,0,P|140:305|67:343,1,165,0|0,0:0|1:0,0:0:0:0:
131,284,70629,5,0,0:0:0:0:
168,209,70726,1,4,0:3:0:0:
151,128,70822,2,0,P|108:122|69:132,1,82.5,2|2,0:0|0:0,0:0:0:0:
268,206,71014,2,0,P|311:212|350:202,1,82.5,2|2,0:0|0:0,0:0:0:0:
417,157,71206,5,2,1:0:0:0:
409,77,71303,1,4,0:3:0:0:
346,28,71399,1,2,0:0:0:0:
267,40,71495,1,0,1:0:0:0:
222,107,71591,1,2,0:0:0:0:
222,277,71783,5,4,0:3:0:0:
267,344,71879,1,2,0:0:0:0:
346,356,71976,1,0,1:0:0:0:
409,307,72072,2,0,P|455:293|415:344,1,165,2|2,0:0|0:0,0:0:0:0:
222,277,72360,6,0,L|304:261,1,82.5,0|0,1:0|1:0,0:0:0:0:
180,198,72553,2,0,L|98:182,1,82.5,2|2,0:0|0:0,0:0:0:0:
332,198,72745,6,0,L|414:182,1,82.5,4|0,0:0|0:0,0:0:0:0:
222,277,72937,1,2,0:0:0:0:
180,198,73033,2,0,P|256:170|332:198,1,165,0|0,0:0|1:0,0:0:0:0:
173,311,73322,6,0,P|136:325|97:312,1,82.5,0|4,0:0|0:3,0:0:0:0:
137,109,73514,2,0,P|123:72|136:33,1,82.5,2|2,0:0|0:0,0:0:0:0:
339,73,73706,1,2,0:0:0:0:
339,73,73899,6,0,L|428:63,1,82.5,2|2,1:0|0:0,0:0:0:0:
459,234,74091,2,0,L|377:243,1,82.5,0|2,1:0|0:0,0:0:0:0:
358,158,74283,2,0,L|440:149,1,82.5,0|2,0:0|0:0,0:0:0:0:
477,318,74476,2,0,L|396:328,1,82.5,2|2,0:0|0:0,0:0:0:0:
91,301,74668,2,0,L|173:311,1,82.5,2|2,0:0|0:0,0:0:0:0:
285,289,74860,5,2,0:0:0:0:
285,289,74924,1,0,0:0:0:0:
285,289,74988,2,0,P|297:246|289:198,2,82.5000031471254,2|2|2,0:0|1:0|1:0,0:0:0:0:
221,131,75341,6,0,P|215:97|221:71,2,61.875002360344,2|2|2,1:0|1:0|1:0,0:0:0:0:
289,40,75630,6,0,B|342:27|342:55|394:40,1,107.249995090485,6|0,0:0|0:0,0:0:0:0:
483,19,75918,1,0,0:0:0:0:
496,9,76206,2,0,L|479:251,1,214.49999018097,2|0,0:0|0:0,0:0:0:0:
308,342,76783,1,0,0:0:0:0:
268,224,76976,1,0,1:0:0:0:
268,224,77360,6,0,P|330:231|379:190,1,107.249995090485,2|0,0:0|0:0,0:0:0:0:
244,160,77745,1,0,0:0:0:0:
244,160,77841,2,0,P|182:153|133:194,1,107.249995090485,0|0,1:0|0:0,0:0:0:0:
93,237,78130,1,2,0:0:0:0:
190,34,78322,1,0,1:0:0:0:
36,102,78514,1,2,1:0:0:0:
317,161,78706,6,0,P|364:172|422:147,1,107.249995090485,6|0,0:3|0:0,0:0:0:0:
368,216,78995,2,0,L|377:268,1,53.6249975452424,0|0,1:0|0:0,0:0:0:0:
230,379,79283,2,0,L|249:269,1,107.249995090485,2|0,1:0|0:0,0:0:0:0:
197,166,79668,1,2,0:0:0:0:
80,181,79860,1,0,0:0:0:0:
126,72,80053,2,0,P|73:83|2:14,1,160.874992635727,2|0,1:0|0:0,0:0:0:0:
126,72,80437,2,0,L|141:235,1,160.874992635727,2|0,0:0|0:0,0:0:0:0:
90,302,80822,1,2,0:0:0:0:
230,379,81014,1,2,1:0:0:0:
233,342,81110,1,2,0:0:0:0:
237,305,81206,1,2,1:0:0:0:
240,267,81303,1,2,0:0:0:0:
244,230,81399,6,0,P|299:248|347:232,1,107.249995090485,2|0,0:0|0:0,0:0:0:0:
405,162,81687,2,0,L|463:170,1,53.6249975452424,4|0,0:3|0:0,0:0:0:0:
421,240,81879,1,0,0:0:0:0:
492,277,81975,2,0,P|511:326|510:379,1,107.249995090485,2|0,1:0|0:0,0:0:0:0:
344,233,82360,1,0,0:0:0:0:
416,14,82552,2,0,P|405:44|406:73,1,53.6249975452424,2|0,0:0|0:0,0:0:0:0:
221,48,82745,5,2,1:0:0:0:
252,52,82841,1,2,0:0:0:0:
283,57,82937,1,2,0:0:0:0:
314,62,83033,1,2,0:0:0:0:
268,129,83129,5,2,0:0:0:0:
237,133,83225,1,2,0:0:0:0:
206,138,83322,1,2,0:0:0:0:
175,143,83418,1,2,0:0:0:0:
221,210,83514,5,2,0:0:0:0:
252,214,83610,1,2,1:0:0:0:
283,219,83706,1,2,0:0:0:0:
314,224,83802,1,2,0:0:0:0:
268,291,83899,5,2,0:0:0:0:
237,295,83995,1,2,0:0:0:0:
206,300,84091,1,2,1:0:0:0:
175,305,84187,1,2,0:0:0:0:
221,372,84283,5,2,1:0:0:0:
252,376,84379,1,2,0:0:0:0:
283,381,84475,5,2,0:0:0:0:
318,356,84572,1,2,0:0:0:0:
358,342,84668,1,2,0:0:0:0:
401,340,84764,1,2,0:0:0:0:
442,350,84860,1,2,0:0:0:0:
424,311,84956,1,2,0:0:0:0:
418,269,85052,1,2,1:0:0:0:
424,226,85149,1,2,0:0:0:0:
442,187,85245,5,2,0:0:0:0:
425,148,85341,1,2,0:0:0:0:
393,120,85437,1,2,0:0:0:0:
352,108,85533,1,2,0:0:0:0:
310,114,85629,1,2,0:0:0:0:
273,135,85725,1,2,0:0:0:0:
231,144,85822,1,2,1:0:0:0:
188,140,85918,1,2,0:0:0:0:
149,123,86014,5,2,0:0:0:0:
155,81,86110,1,2,0:0:0:0:
177,44,86206,1,2,0:0:0:0:
211,18,86302,1,2,0:0:0:0:
252,7,86399,1,2,0:0:0:0:
293,13,86495,1,2,0:0:0:0:
328,38,86591,1,2,0:0:0:0:
349,75,86687,1,2,0:0:0:0:
355,119,86783,5,2,1:0:0:0:
401,143,86879,1,2,0:0:0:0:
453,133,86975,1,2,1:0:0:0:
487,93,87072,1,2,1:0:0:0:
488,40,87168,1,2,0:0:0:0:
456,0,87264,1,6,0:3:0:0:
355,119,87456,6,0,L|349:286,1,160.874992635727,6|0,0:0|0:0,0:0:0:0:
380,284,87841,1,0,0:0:0:0:
411,289,87937,1,0,0:0:0:0:
172,324,88129,2,0,P|276:347|352:270,1,214.49999018097,0|0,1:0|0:0,0:0:0:0:
98,367,88706,1,0,0:0:0:0:
16,192,88899,1,0,1:0:0:0:
207,217,89091,1,0,0:0:0:0:
219,25,89283,6,0,P|121:57|29:5,2,214.49999018097,2|2|2,0:0|0:0|0:0,0:0:0:0:
406,114,90245,2,0,L|463:116,1,53.6249975452424,2|2,1:0|0:0,0:0:0:0:
335,67,90437,2,0,L|343:4,1,53.6249975452424,2|2,0:0|0:0,0:0:0:0:
264,124,90629,6,0,B|280:174|280:174|272:232,1,107.249995090485,2|0,0:0|0:0,0:0:0:0:
205,284,90918,1,0,0:0:0:0:
205,284,91206,2,0,B|299:262|299:262|407:310,1,214.49999018097,2|0,1:0|0:0,0:0:0:0:
286,357,91783,1,0,0:0:0:0:
386,155,91976,5,2,1:0:0:0:
428,157,92072,1,2,0:0:0:0:
461,182,92168,5,2,0:0:0:0:
441,145,92264,1,2,0:0:0:0:
437,102,92360,1,2,0:0:0:0:
450,61,92456,1,2,0:0:0:0:
484,35,92552,1,2,0:0:0:0:
441,39,92649,1,2,0:0:0:0:
398,44,92745,1,2,0:0:0:0:
356,48,92841,1,2,1:0:0:0:
329,82,92937,5,2,0:0:0:0:
312,133,93033,1,2,0:0:0:0:
291,150,93129,1,2,0:0:0:0:
296,176,93226,1,2,0:0:0:0:
271,164,93322,1,2,1:0:0:0:
254,215,93418,1,2,0:0:0:0:
233,232,93514,1,2,1:0:0:0:
238,258,93610,1,2,1:0:0:0:
212,250,93706,6,0,P|156:260|72:204,1,160.874992635727,2|0,0:0|0:0,0:0:0:0:
12,129,94091,1,0,0:0:0:0:
12,129,94283,2,0,L|5:303,1,160.874992635727,2|0,1:0|0:0,0:0:0:0:
6,327,94668,1,2,0:0:0:0:
65,48,94860,2,0,L|9:52,1,53.6249975452424,2|2,0:0|0:0,0:0:0:0:
127,94,95053,5,2,1:0:0:0:
144,96,95117,1,2,0:0:0:0:
161,98,95181,1,2,0:0:0:0:
178,100,95245,6,0,P|245:81|318:128,1,160.874992635727,2|0,0:0|0:0,0:0:0:0:
345,225,95629,1,0,0:0:0:0:
340,204,95822,2,0,L|507:195,1,160.874992635727,2|0,0:0|0:0,0:0:0:0:
511,170,96206,1,2,0:0:0:0:
420,304,96399,5,2,1:0:0:0:
414,321,96463,1,2,0:0:0:0:
409,338,96527,1,2,0:0:0:0:
405,355,96591,2,0,L|345:356,1,53.6249975452424,2|2,1:0|0:0,0:0:0:0:
271,355,96783,6,0,P|233:277|244:203,1,160.874992635727,2|0,0:0|0:0,0:0:0:0:
293,142,97168,1,0,0:0:0:0:
122,204,97360,5,2,1:0:0:0:
105,211,97424,1,2,0:0:0:0:
88,215,97488,1,2,0:0:0:0:
70,215,97553,2,0,P|26:136|42:65,1,160.874992635727,2|0,0:0|0:0,0:0:0:0:
100,18,97937,1,0,0:0:0:0:
293,142,98129,5,2,1:0:0:0:
311,145,98194,1,2,0:0:0:0:
329,148,98258,1,2,0:0:0:0:
350,148,98322,6,0,P|385:76|321:8,1,185.625007081032,2|0,0:0|1:0,0:0:0:0:
62,23,98706,2,0,L|248:14,1,185.625007081032,2|0,0:0|0:0,0:0:0:0:
222,93,99091,6,0,P|177:185|214:281,1,210.375004012585,2|0,1:0|0:0,0:0:0:0:
511,266,99476,2,0,L|245:276,1,210.375004012585,2|0,0:0|0:0,0:0:0:0:
256,350,99860,5,4,0:1:0:0:
331,89,100053,2,0,P|421:111|490:49,1,185.625007081032,2|0,1:0|0:0,0:0:0:0:
432,131,100437,1,0,0:0:0:0:
435,174,100533,1,0,0:0:0:0:
438,217,100630,2,0,B|379:253|379:253|322:237,1,123.750004720688,0|0,1:0|0:0,0:0:0:0:
256,276,100918,2,0,B|203:261|203:261|144:297,1,123.750004720688
102,373,101206,2,0,L|81:122,1,247.500009441376,2|0,1:0|0:0,0:0:0:0:
14,21,101783,2,0,L|7:84,2,61.875002360344,0|0|0,0:0|1:0|0:0,0:0:0:0:
251,141,102168,5,2,1:0:0:0:
298,167,102264,1,0,0:0:0:0:
352,160,102360,1,0,0:0:0:0:
390,120,102456,1,0,0:0:0:0:
399,65,102553,2,0,P|451:30|512:40,1,123.750004720688,2|0,0:0|1:0,0:0:0:0:
470,114,102841,2,0,L|465:240,1,123.750004720688
358,250,103129,1,0,0:0:0:0:
371,290,103226,1,0,0:0:0:0:
399,323,103322,1,0,1:0:0:0:
438,341,103418,1,0,0:0:0:0:
481,336,103514,5,0,0:0:0:0:
444,313,103610,1,0,0:0:0:0:
403,300,103706,1,0,0:0:0:0:
360,297,103803,1,0,0:0:0:0:
317,305,103899,1,0,1:0:0:0:
278,323,103995,1,0,0:0:0:0:
240,345,104091,6,0,P|199:356|160:353,2,82.5000031471254
251,246,104476,5,2,0:0:0:0:
242,203,104572,1,0,0:0:0:0:
233,160,104668,1,0,0:0:0:0:
224,117,104764,1,0,0:0:0:0:
215,74,104860,5,2,1:0:0:0:
235,78,104924,1,0,1:0:0:0:
254,83,104988,1,0,1:0:0:0:
273,90,105053,5,0,0:0:0:0:
264,47,105149,1,0,0:0:0:0:
255,16,105245,5,2,0:0:0:0:
275,20,105309,1,0,0:0:0:0:
294,25,105373,1,0,0:0:0:0:
314,29,105437,1,0,1:0:0:0:
333,34,105501,1,0,1:0:0:0:
353,38,105565,1,0,1:0:0:0:
372,43,105629,6,0,B|405:50|405:50|484:5,1,123.750004720688,2|2,0:0|0:1,0:0:0:0:
477,98,105918,2,0,L|490:221,1,123.750004720688
388,321,106206,2,0,L|401:198,1,123.750004720688,2|0,0:0|1:0,0:0:0:0:
312,168,106495,1,0,0:0:0:0:
269,173,106591,1,0,0:0:0:0:
226,179,106687,1,0,0:0:0:0:
183,185,106783,1,0,0:0:0:0:
140,191,106879,2,0,L|149:236,1,30.937501180172
97,197,106976,1,0,1:0:0:0:
54,203,107072,1,0,0:0:0:0:
7,145,107168,6,0,P|30:225|16:325,2,185.625007081032,2|0|2,0:0|0:0|1:0,0:0:0:0:
76,13,107937,1,2,1:0:0:0:
111,55,108033,1,0,0:0:0:0:
158,84,108129,1,8,3:0:0:0:
213,95,108226,1,0,0:0:0:0:
267,87,108322,5,6,0:0:0:0:
296,307,108514,2,0,L|311:185,1,123.750004720688,0|0,1:0|0:0,0:0:0:0:
458,314,108802,2,0,L|344:363,1,123.750004720688,0|0,1:0|0:0,0:0:0:0:
385,170,109091,2,0,L|484:244,1,123.750004720688,4|0,0:1|0:0,0:0:0:0:
296,307,109379,2,0,L|311:184,1,123.750004720688,0|0,1:0|0:0,0:0:0:0:
377,84,109668,1,0,1:0:0:0:
381,127,109764,1,0,0:0:0:0:
385,170,109860,5,4,0:0:0:0:
175,79,110053,2,0,P|232:98|298:89,1,123.750004720688,0|0,1:0|0:0,0:0:0:0:
136,21,110341,2,0,P|79:2|13:11,1,123.750004720688,0|0,1:0|0:0,0:0:0:0:
31,203,110630,2,0,L|14:73,1,123.750004720688,0|0,1:0|0:0,0:0:0:0:
106,143,110918,1,0,0:0:0:0:
183,194,111014,6,0,L|171:280,1,82.5000031471254,0|0,1:0|1:0,0:0:0:0:
242,300,111207,1,2,0:0:0:0:
261,295,111271,1,2,0:0:0:0:
280,290,111335,1,2,0:0:0:0:
299,285,111399,1,6,0:0:0:0:
448,72,111591,5,2,1:0:0:0:
429,67,111655,1,0,0:0:0:0:
410,62,111719,1,0,0:0:0:0:
391,57,111784,1,0,0:0:0:0:
372,53,111848,1,0,0:0:0:0:
353,48,111912,1,0,0:0:0:0:
334,43,111976,1,0,0:0:0:0:
313,38,112040,1,0,0:0:0:0:
292,33,112104,1,0,0:0:0:0:
271,28,112168,1,0,1:0:0:0:
253,45,112232,1,0,0:0:0:0:
232,58,112296,1,0,0:0:0:0:
208,65,112361,1,0,0:0:0:0:
184,65,112425,1,0,0:0:0:0:
160,59,112489,1,0,0:0:0:0:
138,47,112553,6,0,L|125:99,1,41.2500015735627
37,108,112681,2,0,L|48:68,1,41.2500015735627
100,164,112809,2,0,L|89:204,1,41.2500015735627
14,245,112938,5,2,0:0:0:0:
31,267,113002,1,0,0:0:0:0:
55,283,113066,1,0,0:0:0:0:
83,290,113130,1,0,0:0:0:0:
111,287,113194,1,0,0:0:0:0:
137,275,113258,1,0,0:0:0:0:
161,257,113322,1,0,0:0:0:0:
189,260,113386,1,0,0:0:0:0:
217,263,113450,1,0,1:0:0:0:
245,266,113515,1,0,0:0:0:0:
273,269,113579,1,0,0:0:0:0:
301,272,113643,1,0,0:0:0:0:
329,275,113707,1,0,1:0:0:0:
357,278,113771,1,0,0:0:0:0:
385,281,113835,2,0,L|395:332,3,41.2500015735627
470,333,114092,6,0,L|460:384,2,41.2500015735627,4|0|0,0:1|0:0|0:0,0:0:0:0:
467,304,114284,1,0,1:0:0:0:
464,275,114348,1,0,0:0:0:0:
461,246,114412,1,0,0:0:0:0:
458,217,114476,2,0,L|509:228,2,41.2500015735627
429,213,114668,1,0,0:0:0:0:
399,209,114733,1,0,0:0:0:0:
370,205,114797,1,0,0:0:0:0:
341,201,114861,5,2,1:0:0:0:
326,171,114925,1,0,0:0:0:0:
318,139,114989,1,0,0:0:0:0:
318,106,115053,1,0,0:0:0:0:
325,74,115117,1,0,0:0:0:0:
340,45,115181,1,0,0:0:0:0:
361,19,115245,6,0,L|409:24,1,41.2500015735627
223,35,115374,2,0,L|270:39,1,41.2500015735627,0|8,0:0|0:3,0:0:0:0:
84,50,115502,2,0,L|131:54,1,41.2500015735627
66,136,115630,6,0,P|4:86|6:7,1,165,4|0,0:1|1:0,0:0:0:0:
111,203,115918,2,0,P|115:284|80:358,1,165
146,126,116207,1,0,0:0:0:0:
486,163,116399,2,0,B|451:181|451:181|325:170,1,165,0|0,1:0|0:0,0:0:0:0:
270,107,116688,2,0,L|283:273,1,165
242,343,116976,1,0,1:0:0:0:
242,343,117168,6,0,B|285:354|285:354|404:319,1,165,0|0,0:0|1:0,0:0:0:0:
282,270,117457,2,0,B|197:240|125:284|125:284|140:202,1,247.5
67,53,117938,6,0,L|158:41,1,82.5
158,123,118130,2,0,L|67:135,1,82.5
217,75,118322,5,0,1:0:0:0:
230,95,118386,1,0,0:0:0:0:
248,112,118450,1,0,0:0:0:0:
270,123,118515,1,0,1:0:0:0:
294,128,118579,1,0,0:0:0:0:
318,127,118643,1,0,0:0:0:0:
342,118,118707,6,0,P|367:73|346:4,1,123.750004720688,0|0,0:0|1:0,0:0:0:0:
270,123,118995,2,0,L|281:262,1,123.750004720688
196,361,119284,2,0,L|185:222,1,123.750004720688,0|0,0:0|1:0,0:0:0:0:
11,196,119572,2,0,P|69:214|122:187,1,123.750004720688
171,122,119861,2,0,P|175:88|166:53,1,61.875002360344,0|0,1:0|0:0,0:0:0:0:
99,10,120053,5,0,1:0:0:0:
78,24,120117,1,0,0:0:0:0:
54,26,120181,1,0,0:0:0:0:
26,20,120245,6,0,P|22:54|31:89,1,70.1250013375282,4|0,0:1|0:0,0:0:0:0:
171,122,120438,2,0,P|223:88|298:92,1,140.250002675056,0|0,1:0|0:0,0:0:0:0:
381,158,120726,2,0,P|322:194|254:188,1,140.250002675056
169,50,121015,2,0,P|249:46|331:99,1,140.250002675056,0|0,1:0|0:0,0:0:0:0:
381,228,121303,2,0,P|291:230|219:179,1,140.250002675056
86,152,121592,1,0,0:0:0:0:
95,205,121688,1,0,0:0:0:0:
104,258,121784,6,0,L|24:261,1,70.1250013375282,4|0,0:0|0:0,0:0:0:0:
198,340,121976,2,0,L|118:343,1,70.1250013375282,0|0,1:0|0:0,0:0:0:0:
384,342,122168,2,0,L|314:340,1,70.1250013375282,0|0,1:0|0:0,0:0:0:0:
478,260,122361,2,0,L|408:258,1,70.1250013375282
209,111,122553,5,0,1:0:0:0:
163,192,122681,5,0,1:0:0:0:
209,273,122809,5,0,1:0:0:0:
303,111,122938,5,0,1:0:0:0:
349,192,123066,5,0,1:0:0:0:
303,273,123194,5,0,1:0:0:0:
256,192,123322,5,4,0:0:0:0:
256,192,123834,2,0,L|256:160,3,27.5,0|0|0|2,0:0|0:0|0:0|0:0,0:0:0:0:
303,273,124347,5,2,0:0:0:0:
417,288,124604,1,2,0:0:0:0:
436,175,124860,6,0,L|441:126,2,41.25,6|2|2,0:1|0:0|0:0,0:0:0:0:
417,288,125245,2,0,L|422:337,2,41.25,2|2|2,0:0|0:0|0:0,0:0:0:0:
356,106,125629,6,0,L|361:57,2,41.25,2|2|2,1:0|0:0|0:0,0:0:0:0:
303,273,126014,2,0,L|308:322,2,41.25,2|2|2,0:0|1:0|0:0,0:0:0:0:
256,192,126399,6,0,L|96:192,1,137.5,6|0,0:0|0:0,0:0:0:0:
61,142,126911,5,2,0:0:0:0:
64,114,126997,1,0,0:0:0:0:
67,86,127082,1,0,0:0:0:0:
70,58,127168,1,6,0:0:0:0:
32,262,127681,6,0,L|37:307,1,41.25
1,378,127937,1,4,0:1:0:0:
153,315,128193,5,2,0:0:0:0:
249,354,128322,1,2,0:0:0:0:
81,371,128450,1,2,0:0:0:0:
210,260,128578,5,2,0:0:0:0:
249,354,128706,1,2,0:0:0:0:
118,248,128834,1,2,0:0:0:0:
288,260,128963,6,0,L|292:291,2,27.5,2|2|2,0:0|0:0|0:0,0:0:0:0:
249,354,129219,5,2,0:0:0:0:
316,192,129347,1,2,0:0:0:0:
430,325,129476,6,0,L|455:324,1,20.625,6|0,0:0|0:0,0:0:0:0:
118,248,129732,6,0,L|78:247,1,41.25,2|2,0:0|0:0,0:0:0:0:
84,343,129988,6,0,L|80:370,2,27.5,2|2|2,0:0|0:0|0:0,0:0:0:0:
163,314,130245,5,2,1:0:0:0:
43,192,130501,1,2,0:0:0:0:
163,70,130758,1,2,0:0:0:0:
469,192,131014,6,0,L|481:322,1,123.75,6|0,0:1|0:0,0:0:0:0:
426,378,131527,1,2,0:0:0:0:
379,146,131783,6,0,L|383:100,2,27.5,2|0|0,0:0|0:0|0:0,0:0:0:0:
319,204,132040,6,0,L|316:234,2,20.625,2|2|2,1:0|0:0|0:0,0:0:0:0:
284,84,132296,6,0,P|255:85|230:73,1,55,4|0,0:3|0:0,0:0:0:0:
169,20,132553,5,4,0:0:0:0:
169,20,133065,5,0,0:0:0:0:
141,18,133151,1,0,0:0:0:0:
113,16,133236,1,0,0:0:0:0:
85,14,133322,2,0,B|65:38|65:38|72:98,2,82.5,6|0|0,0:1|0:0|0:0,0:0:0:0:
104,156,134091,6,0,P|122:207|104:261,1,82.5,6|0,0:1|0:0,0:0:0:0:
84,301,134476,2,0,P|66:352|84:406,1,82.5
34,200,134860,5,0,1:0:0:0:
33,191,135117,1,4,0:3:0:0:
32,182,135373,1,4,0:3:0:0:
30,173,135630,6,0,L|17:45,1,123.75,6|0,0:0|0:0,0:0:0:0:
98,30,136142,5,2,0:0:0:0:
124,35,136228,1,0,0:0:0:0:
151,40,136313,1,0,0:0:0:0:
177,45,136399,2,0,B|198:49|198:49|259:41,2,82.5,6|2|2,0:1|0:0|0:0,0:0:0:0:
122,138,137168,5,6,0:1:0:0:
107,219,137296,1,2,0:0:0:0:
157,284,137424,1,2,0:0:0:0:
109,130,137553,5,2,0:0:0:0:
93,219,137681,1,2,0:0:0:0:
148,291,137809,1,2,0:0:0:0:
330,288,137937,6,0,L|288:292,1,41.25,2|2,1:0|0:0,0:0:0:0:
247,294,138194,1,2,0:0:0:0:
443,365,138322,2,0,L|401:361,1,41.25,2|2,0:0|1:0,0:0:0:0:
360,359,138578,1,2,0:0:0:0:
497,276,138707,5,6,0:0:0:0:
497,276,139219,2,0,L|503:311,1,27.5,2|0,0:0|0:0,0:0:0:0:
431,229,139390,2,0,L|437:194,1,27.5,0|6,0:0|0:1,0:0:0:0:
496,97,139732,5,2,0:0:0:0:
262,125,139989,1,2,0:0:0:0:
374,72,140245,2,0,L|376:21,1,41.25,6|0,0:1|0:0,0:0:0:0:
262,125,140501,1,0,0:0:0:0:
262,125,140758,6,0,L|265:169,1,27.5,2|2,0:0|0:0,0:0:0:0:
230,244,140929,1,2,0:0:0:0:
238,271,141014,2,0,L|234:325,1,41.25,2|0,0:0|0:0,0:0:0:0:
161,360,141271,5,2,0:0:0:0:
132,361,141356,1,2,0:0:0:0:
102,362,141442,1,2,0:0:0:0:
73,363,141527,2,0,B|61:342|61:342|58:313,1,41.25,2|0,0:0|0:0,0:0:0:0:
106,207,141784,6,0,L|98:258,2,41.25,6|2|2,0:0|0:0|0:0,0:0:0:0:
34,105,142168,2,0,L|40:145,2,41.25,2|2|2,0:0|0:0|0:0,0:0:0:0:
119,21,142553,5,2,0:0:0:0:
211,103,142681,1,2,0:0:0:0:
335,99,142809,1,2,0:0:0:0:
123,106,142937,5,2,0:0:0:0:
225,23,143066,1,2,0:0:0:0:
275,157,143194,1,2,0:0:0:0:
123,106,143322,5,6,0:1:0:0:
94,138,143407,1,2,0:0:0:0:
79,177,143493,1,2,0:0:0:0:
74,221,143578,1,2,0:0:0:0:
82,263,143664,1,2,0:0:0:0:
102,301,143749,1,2,0:0:0:0:
132,332,143835,1,2,0:0:0:0:
165,305,143920,1,2,0:0:0:0:
205,288,144006,1,2,0:0:0:0:
247,285,144091,1,2,0:0:0:0:
289,291,144177,1,2,0:0:0:0:
327,311,144262,1,2,0:0:0:0:
358,340,144348,6,0,L|317:360,2,27.5,2|2|2,1:0|0:0|0:0,0:0:0:0:
422,256,144604,2,0,L|381:276,2,27.5,2|2|2,1:0|0:0|0:0,0:0:0:0:
486,172,144861,5,6,0:0:0:0:
486,172,145245,2,0,B|488:132|488:132|472:93,2,76.9999976501466,2|2|2,0:0|0:0|0:0,0:0:0:0:
229,161,145630,5,2,1:0:0:0:
403,178,145758,1,2,0:0:0:0:
304,237,145886,1,2,0:0:0:0:
378,93,146014,5,2,1:0:0:0:
224,239,146143,1,2,0:0:0:0:
244,87,146271,1,2,0:0:0:0:
421,255,146399,6,0,L|453:274,1,28.874999118805,2|0,0:0|0:0,0:0:0:0:
324,328,146591,2,0,L|331:381,1,28.874999118805,2|0,1:0|0:0,0:0:0:0:
188,328,146784,2,0,L|181:381,1,28.874999118805,2|0,1:0|0:0,0:0:0:0:
91,255,146976,2,0,L|59:274,1,28.874999118805,2|0,1:0|0:0,0:0:0:0:
91,129,147168,2,0,L|59:110,1,28.874999118805,2|0,1:0|0:0,0:0:0:0:
188,56,147361,2,0,L|181:3,1,28.874999118805,2|0,1:0|0:0,0:0:0:0:
473,83,147553,6,0,L|458:119,2,38.4999988250733,2|0|0,0:0|0:0|0:0,0:0:0:0:
409,39,147745,2,0,L|394:3,2,38.4999988250733,2|0|0,0:0|0:0|0:0,0:0:0:0:
201,159,147937,6,0,P|288:176|342:122,1,140.250002675056,6|0,0:0|0:0,0:0:0:0:
136,100,148226,2,0,P|119:187|173:241,1,140.250002675056,2|0,0:0|0:0,0:0:0:0:
200,360,148514,1,2,0:0:0:0:
208,312,148611,1,2,0:0:0:0:
216,264,148707,5,2,0:0:0:0:
264,276,148803,1,2,1:0:0:0:
312,288,148899,1,2,0:0:0:0:
360,300,148995,1,2,0:0:0:0:
408,312,149091,1,2,1:0:0:0:
400,264,149187,1,2,0:0:0:0:
392,216,149284,1,2,0:0:0:0:
384,168,149380,1,2,0:0:0:0:
442,111,149476,6,0,P|410:124|376:120,1,70.1250013375282,2|2,0:0|0:0,0:0:0:0:
361,32,149668,2,0,P|393:19|428:24,1,70.1250013375282,2|2,0:0|0:0,0:0:0:0:
304,88,149861,1,2,1:0:0:0:
270,123,149957,1,2,0:0:0:0:
225,142,150053,1,2,0:0:0:0:
176,140,150149,1,2,0:0:0:0:
133,118,150245,1,2,0:0:0:0:
142,165,150341,1,2,1:0:0:0:
122,209,150437,1,2,0:0:0:0:
80,232,150534,1,2,0:0:0:0:
32,227,150630,2,0,L|15:146,1,70.1250013375282,2|2,1:0|0:0,0:0:0:0:
118,49,150822,2,0,L|133:118,1,70.1250013375282,2|2,0:0|0:0,0:0:0:0:
159,337,151014,5,2,0:0:0:0:
159,337,151111,2,0,B|223:354|223:354|178:296,1,140.250002675056,0|2,0:0|0:0,0:0:0:0:
256,376,151399,1,0,1:0:0:0:
421,115,151591,1,2,0:0:0:0:
421,115,151687,1,2,0:0:0:0:
421,115,151784,2,0,B|385:135|385:135|286:128,1,140.250002675056,2|0,0:0|0:0,0:0:0:0:
216,80,152072,2,0,P|195:50|265:22,1,140.250002675056,2|0,0:0|0:0,0:0:0:0:
140,115,152361,2,0,P|161:145|91:173,1,140.250002675056,2|0,0:0|0:0,0:0:0:0:
91,173,152649,6,0,L|243:166,1,140.250002675056,6|0,1:3|0:0,0:0:0:0:
377,242,152937,2,0,L|225:249,1,140.250002675056,2|0,1:0|0:0,0:0:0:0:
137,321,153226,1,2,0:0:0:0:
173,353,153322,1,2,1:0:0:0:
208,351,153418,1,2,1:0:0:0:
243,349,153514,1,2,1:0:0:0:
278,347,153611,1,2,0:0:0:0:
313,345,153707,5,2,1:0:0:0:
244,327,153803,1,10,0:3:0:0:
176,309,153899,1,10,0:3:0:0:
108,291,153995,1,10,0:3:0:0:
40,273,154091,6,0,L|34:349,1,70.1250013375282,4|0,0:0|0:0,0:0:0:0:
170,239,154284,2,0,L|176:315,1,70.1250013375282
377,242,154476,5,2,1:0:0:0:
406,260,154572,1,2,0:0:0:0:
440,265,154668,1,2,0:0:0:0:
473,255,154764,1,2,0:0:0:0:
474,219,154861,5,2,0:0:0:0:
441,229,154957,1,2,0:0:0:0:
407,224,155053,1,2,0:0:0:0:
378,206,155149,1,2,0:0:0:0:
379,170,155245,5,2,1:0:0:0:
408,188,155341,1,2,0:0:0:0:
442,193,155437,1,2,0:0:0:0:
475,183,155534,1,2,0:0:0:0:
476,147,155630,5,2,0:0:0:0:
443,157,155726,1,0,0:0:0:0:
409,152,155822,1,0,0:0:0:0:
380,134,155918,1,0,0:0:0:0:
361,104,156014,2,0,P|362:50|440:14,1,140.250002675056,2|0,1:0|0:0,0:0:0:0:
378,206,156399,6,0,L|348:237,2,35.0625006687641,2|2|2,0:0|0:0|0:0,0:0:0:0:
207,79,156687,5,2,0:0:0:0:
214,117,156784,1,2,1:0:0:0:
238,147,156880,1,0,0:0:0:0:
275,158,156976,2,0,P|275:192|261:224,1,70.1250013375282
182,290,157168,5,2,0:0:0:0:
87,71,157361,1,2,0:0:0:0:
84,119,157457,1,2,0:0:0:0:
81,167,157553,1,2,1:0:0:0:
78,215,157649,1,2,0:0:0:0:
76,263,157745,1,2,0:0:0:0:
105,223,157841,1,2,0:0:0:0:
146,198,157937,1,2,0:0:0:0:
194,189,158034,1,2,0:0:0:0:
242,199,158130,1,2,0:0:0:0:
276,236,158226,1,2,0:0:0:0:
248,375,158322,5,2,1:0:0:0:
252,352,158386,1,2,0:0:0:0:
256,329,158450,1,2,0:0:0:0:
261,306,158514,1,10,0:3:0:0:
266,283,158578,1,2,0:0:0:0:
271,259,158643,1,2,0:0:0:0:
276,236,158707,5,2,0:0:0:0:
310,200,158803,2,0,P|375:172|437:193,1,140.250002675056,0|0,1:0|0:0,0:0:0:0:
370,145,159091,2,0,P|344:81|364:15,1,140.250002675056,2|0,1:0|0:0,0:0:0:0:
363,15,159380,1,8,0:3:0:0:
311,72,159476,5,2,1:0:0:0:
287,69,159540,1,0,0:0:0:0:
263,66,159604,1,0,0:0:0:0:
239,63,159668,1,2,0:0:0:0:
215,60,159732,1,0,0:0:0:0:
191,57,159796,1,0,0:0:0:0:
167,54,159861,1,2,0:0:0:0:
143,51,159925,1,0,0:0:0:0:
119,48,159989,1,0,0:0:0:0:
95,45,160053,1,2,0:0:0:0:
71,43,160117,1,0,0:0:0:0:
47,40,160181,1,0,0:0:0:0:
23,38,160245,6,0,B|56:99|56:99|38:168,1,140.250002675056,6|0,0:0|0:0,0:0:0:0:
124,325,160534,2,0,B|91:264|91:264|109:195,1,140.250002675056,2|0,0:0|0:0,0:0:0:0:
320,161,160822,1,2,0:0:0:0:
271,167,160918,1,2,0:0:0:0:
222,173,161014,5,2,0:0:0:0:
263,198,161111,1,2,1:0:0:0:
295,235,161207,1,2,0:0:0:0:
313,281,161303,1,2,0:0:0:0:
315,329,161399,1,2,1:0:0:0:
344,290,161495,1,2,0:0:0:0:
387,266,161591,1,10,0:3:0:0:
435,262,161687,1,6,0:3:0:0:
482,277,161784,6,0,L|482:203,1,70.1250013375282,2|2,0:0|0:0,0:0:0:0:
412,30,161976,2,0,L|412:100,1,70.1250013375282,2|2,0:0|0:0,0:0:0:0:
320,161,162168,1,2,1:0:0:0:
271,167,162264,1,2,0:0:0:0:
222,173,162361,1,2,0:0:0:0:
166,179,162457,1,6,0:3:0:0:
47,41,162649,1,2,1:0:0:0:
24,84,162745,1,2,0:0:0:0:
23,132,162841,1,2,0:0:0:0:
49,173,162937,1,2,1:0:0:0:
75,214,163034,1,2,0:0:0:0:
75,263,163130,1,2,0:0:0:0:
52,306,163226,1,2,0:0:0:0:
92,278,163322,5,2,0:0:0:0:
137,258,163418,1,2,0:0:0:0:
185,254,163514,1,2,0:0:0:0:
232,267,163611,1,2,0:0:0:0:
272,295,163707,5,2,1:0:0:0:
267,271,163771,1,2,0:0:0:0:
263,247,163835,1,2,0:0:0:0:
259,223,163899,1,2,0:0:0:0:
255,199,163963,1,2,0:0:0:0:
251,175,164027,1,2,0:0:0:0:
247,151,164091,6,0,P|212:159|176:150,1,70.1250013375282,2|2,1:0|0:0,0:0:0:0:
287,16,164284,2,0,P|279:49|287:83,1,70.1250013375282,2|2,0:0|0:0,0:0:0:0:
380,142,164476,5,2,1:0:0:0:
403,145,164540,1,2,0:0:0:0:
425,140,164604,1,2,0:0:0:0:
445,128,164668,2,0,B|457:93|457:93|449:61,1,70.1250013375282,10|6,0:3|0:3,0:0:0:0:
364,2,164861,5,0,0:0:0:0:
380,142,164957,2,0,L|364:0,1,140.250002675056,6|0,0:3|0:0,0:0:0:0:
214,202,165245,2,0,P|158:241|90:235,1,140.250002675056,2|0,1:0|0:0,0:0:0:0:
132,142,165534,2,0,L|147:2,1,140.250002675056,2|2,0:0|1:0,0:0:0:0:
297,202,165822,1,2,1:0:0:0:
291,250,165918,1,2,0:0:0:0:
324,285,166014,5,2,1:0:0:0:
347,281,166078,1,2,0:0:0:0:
370,277,166143,1,2,0:0:0:0:
393,273,166207,2,0,B|463:283,1,70.1250013375282,2|2,0:0|0:0,0:0:0:0:
236,329,166399,6,0,B|166:319,1,70.1250013375282,4|0,0:0|0:0,0:0:0:0:
1,168,166591,2,0,B|71:178,1,70.1250013375282,2|0,0:0|0:0,0:0:0:0:
198,18,166784,5,2,1:0:0:0:
224,41,166880,1,2,0:0:0:0:
191,53,166976,1,2,0:0:0:0:
165,29,167072,1,2,0:0:0:0:
198,18,167168,5,2,0:0:0:0:
224,41,167264,1,2,0:0:0:0:
258,49,167361,1,2,0:0:0:0:
292,46,167457,1,2,0:0:0:0:
323,31,167553,1,2,1:0:0:0:
356,21,167649,1,2,0:0:0:0:
390,26,167745,1,2,0:0:0:0:
421,40,167841,1,2,0:0:0:0:
440,69,167937,6,0,L|510:66,1,70.1250013375282,2|0,0:0|0:0,0:0:0:0:
392,133,168130,2,0,L|322:130,1,70.1250013375282
210,207,168322,2,0,L|412:233,1,140.250002675056,2|0,1:0|0:0,0:0:0:0:
117,210,168707,5,2,0:0:0:0:
117,210,168755,1,2,0:0:0:0:
117,210,168803,2,0,B|110:255|110:255|112:305|64:335,1,140.250002675056,2|0,0:0|0:0,0:0:0:0:
28,260,169091,5,2,1:0:0:0:
35,190,169187,1,2,0:0:0:0:
42,119,169284,1,2,0:0:0:0:
111,108,169380,1,2,0:0:0:0:
180,97,169476,6,0,B|252:78|252:117|318:97,1,140.250002675056,2|2,0:0|0:0,0:0:0:0:
380,40,169764,1,0,0:0:0:0:
445,94,169861,2,0,B|463:132|463:132|479:165|450:227,1,140.250002675056,2|2,1:0|0:0,0:0:0:0:
388,283,170149,1,2,0:0:0:0:
318,235,170245,2,0,P|320:199|310:166,2,70.1250013375282,0|2|2,0:0|0:0|0:0,0:0:0:0:
258,295,170534,1,2,0:0:0:0:
187,249,170630,5,2,1:0:0:0:
175,269,170694,1,2,0:0:0:0:
163,289,170758,1,2,0:0:0:0:
152,309,170822,1,10,0:3:0:0:
136,296,170886,1,2,0:0:0:0:
121,279,170950,1,2,0:0:0:0:
105,261,171014,5,2,0:0:0:0:
50,320,171111,2,0,B|29:272|29:272|38:182,1,140.250002675056,2|0,0:0|0:0,0:0:0:0:
217,133,171399,2,0,P|149:163|90:139,1,140.250002675056,2|0,1:0|0:0,0:0:0:0:
31,81,171687,1,0,0:0:0:0:
93,23,171784,5,2,1:0:0:0:
115,30,171848,1,0,0:0:0:0:
137,37,171912,1,0,0:0:0:0:
159,43,171976,1,2,0:0:0:0:
182,39,172040,1,2,0:0:0:0:
205,34,172104,1,2,0:0:0:0:
228,30,172168,2,0,B|261:17|261:17|295:22,1,70.1250013375282,2|2,0:0|0:0,0:0:0:0:
306,95,172361,2,0,B|273:108|273:108|239:103,1,70.1250013375282
365,47,172553,6,0,P|430:51|480:-2,1,140.250002675056,4|0,1:2|1:0,0:0:0:0:
306,95,172841,1,0,0:0:0:0:
291,134,172937,2,0,P|290:169|302:201,1,70.1250013375282,8|0,0:0|1:0,0:0:0:0:
273,296,173130,1,0,0:0:0:0:
241,267,173226,2,0,P|179:240|115:264,1,140.250002675056,0|0,1:2|1:2,0:0:0:0:
164,97,173514,2,0,L|173:166,1,70.1250013375282,0|0,0:0|1:0,0:0:0:0:
68,344,173707,2,0,P|23:278|32:222,1,140.250002675056,8|0,0:0|1:0,0:0:0:0:
65,29,173995,1,0,0:0:0:0:
65,29,174091,6,0,L|85:196,1,140.250002675056,0|0,1:0|1:0,0:0:0:0:
176,195,174380,1,0,0:0:0:0:
209,169,174476,2,0,P|244:161|282:165,1,70.1250013375282,8|0,0:0|1:0,0:0:0:0:
365,210,174668,1,0,0:0:0:0:
395,239,174764,2,0,P|466:249|515:200,2,140.250002675056,0|0|0,1:0|1:0|1:0,0:0:0:0:
440,171,175245,2,0,P|434:136|444:98,1,70.1250013375282,8|0,0:0|0:0,0:0:0:0:
325,311,175437,2,0,P|331:346|321:384,1,70.1250013375282,0|0,1:0|0:0,0:0:0:0:
105,350,175630,6,0,L|246:344,1,140.250002675056,0|0,1:0|1:0,0:0:0:0:
325,311,175918,1,0,0:0:0:0:
367,308,176014,1,8,0:0:0:0:
409,305,176111,2,0,B|461:238|407:178,1,140.250002675056,0|0,1:0|1:2,0:0:0:0:
346,137,176399,1,0,0:0:0:0:
346,137,176495,2,0,L|504:119,1,140.250002675056,0|0,1:0|1:0,0:0:0:0:
414,34,176784,2,0,L|339:31,1,70.1250013375282,8|0,0:0|0:0,0:0:0:0:
211,76,176976,2,0,L|141:73,1,70.1250013375282,0|0,1:0|0:0,0:0:0:0:
25,153,177168,5,0,1:0:0:0:
11,192,177264,1,0,0:0:0:0:
27,231,177361,2,0,P|35:264|28:306,1,70.1250013375282
120,354,177553,1,8,0:0:0:0:
159,340,177649,1,0,1:0:0:0:
198,356,177746,2,0,P|231:364|273:357,1,70.1250013375282
409,305,177937,5,0,1:0:0:0:
394,258,178033,1,0,1:0:0:0:
360,224,178129,1,0,1:0:0:0:
313,212,178225,1,4,0:3:0:0:
269,235,178322,2,0,P|229:237|198:224,1,70.1250013375282,8|8,0:0|0:3,0:0:0:0:
89,270,178514,2,0,P|107:234|134:214,1,70.1250013375282,8|4,0:3|0:3,0:0:0:0:
148,97,178707,6,0,P|169:130|173:163,1,70.1250013375282,4|0,0:0|0:0,0:0:0:0:
76,69,178899,2,0,L|217:55,1,140.250002675056,0|8,1:0|0:0,0:0:0:0:
436,69,179187,2,0,L|295:55,1,140.250002675056,0|0,1:0|1:0,0:0:0:0:
256,122,179476,5,0,0:0:0:0:
309,177,179572,2,0,P|372:202|437:180,1,140.250002675056,0|0,1:0|1:0,0:0:0:0:
256,122,179861,2,0,P|237:153|236:196,1,70.1250013375282,8|0,0:0|0:0,0:0:0:0:
436,69,180053,2,0,P|455:38|456:-5,1,70.1250013375282,0|0,1:0|1:0,0:0:0:0:
326,107,180245,6,0,P|299:81|287:40,1,70.1250013375282,4|0,0:3|3:0,3:0:0:0:
212,14,180437,1,2,0:0:0:0:
184,8,180502,1,2,0:0:0:0:
156,8,180566,1,2,0:0:0:0:
130,18,180630,2,0,P|98:33|64:28,1,70.1250013375282,10|0,0:0|0:0,0:0:0:0:
7,117,180822,5,2,0:0:0:0:
35,111,180887,1,2,0:0:0:0:
63,111,180951,1,2,0:0:0:0:
89,121,181015,2,0,P|120:136|154:131,1,70.1250013375282,2|0,0:0|0:0,0:0:0:0:
210,213,181207,5,2,0:0:0:0:
210,241,181271,1,2,0:0:0:0:
210,269,181335,1,2,0:0:0:0:
210,297,181399,2,0,B|244:308|244:308|279:304,1,70.1250013375282,10|0,0:0|0:0,0:0:0:0:
372,257,181591,5,2,0:0:0:0:
398,248,181655,1,2,0:0:0:0:
425,254,181719,1,2,0:0:0:0:
448,269,181784,2,0,P|461:298|462:340,1,70.1250013375282,2|0,0:0|0:0,0:0:0:0:
297,229,181976,5,2,0:0:0:0:
288,203,182040,1,2,0:0:0:0:
294,176,182104,1,2,0:0:0:0:
309,153,182169,2,0,P|338:140|380:139,1,70.1250013375282,10|0,0:0|0:0,0:0:0:0:
309,308,182361,5,2,0:0:0:0:
288,326,182425,1,2,0:0:0:0:
267,344,182489,1,2,0:0:0:0:
246,362,182553,2,0,L|163:365,1,70.1250013375282,2|0,0:0|0:0,0:0:0:0:
16,304,182745,5,2,0:0:0:0:
42,314,182809,1,2,0:0:0:0:
69,312,182873,1,2,0:0:0:0:
91,295,182937,2,0,P|108:261|100:226,1,70.1250013375282,10|0,0:0|0:0,0:0:0:0:
29,109,183130,5,2,0:0:0:0:
56,106,183194,1,2,0:0:0:0:
83,103,183258,1,2,0:0:0:0:
110,100,183322,6,0,B|159:95|159:95|193:110|193:110|247:105,1,140.250002675056,2|0,1:0|0:0,0:0:0:0:
148,175,183611,2,0,L|151:248,1,70.1250013375282,0|8,1:0|0:0,0:0:0:0:
207,31,183803,1,8,0:3:0:0:
130,22,183899,2,0,P|96:28|56:25,1,70.1250013375282,0|4,0:0|0:0,0:0:0:0:
381,21,184091,6,0,P|416:28|451:25,1,70.1250013375282,0|0,1:0|0:0,0:0:0:0:
451,192,184284,2,0,P|416:189|381:195,1,70.1250013375282,0|0,1:0|0:0,0:0:0:0:
262,268,184476,1,8,0:0:0:0:
262,268,184572,1,0,0:0:0:0:
262,268,184668,2,0,P|254:300|256:345,1,70.1250013375282,8|0,0:3|0:0,0:0:0:0:
148,175,184861,6,0,P|182:180|216:168,1,70.1250013375282,4|0,1:2|0:0,0:0:0:0:
43,213,185053,1,0,1:0:0:0:
39,171,185149,1,0,0:0:0:0:
35,129,185245,1,8,0:0:0:0:
31,87,185341,2,0,L|26:14,1,70.1250013375282
152,224,185534,1,0,1:0:0:0:
156,266,185630,1,0,0:0:0:0:
160,308,185726,2,0,L|19:325,1,140.250002675056,0|0,1:0|1:0,0:0:0:0:
95,345,186014,2,0,L|236:362,1,140.250002675056,8|0,0:0|0:0,0:0:0:0:
479,193,186399,6,0,L|338:210,1,140.250002675056,0|0,1:0|1:0,0:0:0:0:
208,91,186784,1,8,0:0:0:0:
208,91,186880,2,0,P|273:112|337:86,1,140.250002675056,0|0,0:0|1:0,0:0:0:0:
142,28,187168,1,0,0:0:0:0:
142,28,187264,2,0,P|206:1|270:24,1,140.250002675056,0|0,1:0|1:0,0:0:0:0:
119,107,187553,1,8,0:0:0:0:
71,96,187649,1,0,0:0:0:0:
52,50,187745,1,0,1:0:0:0:
52,334,187937,6,0,P|31:265|57:200,1,140.250002675056,0|0,1:0|1:0,0:0:0:0:
276,265,188322,1,8,0:0:0:0:
276,265,188418,2,0,L|136:270,1,140.250002675056,0|0,0:0|1:0,0:0:0:0:
246,347,188707,6,0,L|386:342,2,76.9999976501466
160,192,189091,2,0,L|19:196,2,76.9999976501466,8|0|0,0:0|0:0|0:0,0:0:0:0:
395,45,189476,5,0,1:0:0:0:
348,60,189572,1,8,0:3:0:0:
301,75,189668,1,0,0:0:0:0:
256,55,189764,1,0,0:0:0:0:
210,35,189861,1,8,0:0:0:0:
163,50,189957,1,0,0:0:0:0:
116,65,190053,1,0,0:0:0:0:
151,350,190245,5,0,1:0:0:0:
151,350,190341,1,0,1:0:0:0:
151,350,190437,2,0,P|146:316|154:282,1,70.1250013375282,0|0,1:0|0:0,0:0:0:0:
357,281,190630,1,8,0:0:0:0:
357,281,190726,1,8,0:3:0:0:
357,281,190822,2,0,P|365:315|361:350,1,70.1250013375282,8|0,1:3|0:0,0:0:0:0:
256,192,191014,6,0,B|233:122|282:122|256:56,1,140.250002675056,4|0,0:0|1:0,0:0:0:0:
215,26,191303,1,0,0:0:0:0:
166,17,191399,1,8,0:0:0:0:
119,31,191495,2,0,P|56:56|8:11,1,140.250002675056,0|0,0:0|1:0,0:0:0:0:
47,372,191880,2,0,L|34:227,1,140.250002675056,0|0,1:0|1:0,0:0:0:0:
27,130,192168,1,8,0:0:0:0:
62,163,192264,1,0,0:0:0:0:
110,170,192361,1,0,1:0:0:0:
155,151,192457,1,0,0:0:0:0:
176,106,192553,5,0,0:0:0:0:
199,103,192617,1,0,0:0:0:0:
222,100,192681,1,0,0:0:0:0:
245,97,192745,1,0,0:0:0:0:
268,94,192809,1,0,0:0:0:0:
291,92,192873,1,0,0:0:0:0:
314,90,192937,2,0,L|309:30,2,46.7500008916855,8|0|0,0:0|0:0|0:0,0:0:0:0:
394,144,193130,2,0,L|453:139,2,46.7500008916855
310,188,193322,2,0,P|296:238|317:294,1,93.500001783371
394,306,193514,6,0,P|322:302|259:334,1,140.250002675056,0|8,0:0|0:0,0:0:0:0:
172,372,193803,1,0,0:0:0:0:
102,375,193899,1,0,1:0:0:0:
50,327,193995,1,0,0:0:0:0:
48,256,194091,6,0,L|188:242,1,140.250002675056,0|0,1:0|1:0,0:0:0:0:
188,142,194380,2,0,L|48:128,1,140.250002675056
27,34,194668,1,0,0:0:0:0:
27,34,194764,1,0,0:0:0:0:
27,34,194861,6,0,B|94:61|94:61|158:40,1,140.250002675056,0|0,1:0|1:0,0:0:0:0:
484,34,195245,6,0,B|440:51|440:51|398:37,1,93.500001783371,8|0,0:0|1:0,0:0:0:0:
461,182,195502,5,0,1:0:0:0:
328,268,195630,6,0,P|352:203|328:139,1,140.250002675056,4|0,0:0|0:0,0:0:0:0:
188,142,195918,1,0,0:0:0:0:
188,142,196014,2,0,P|164:76|187:13,1,140.250002675056,4|0,1:0|0:0,0:0:0:0:
329,13,196303,1,4,0:0:0:0:
139,76,196495,2,0,L|64:68,1,70.1250013375282,0|0,1:0|0:0,0:0:0:0:
1,50,196687,1,0,1:0:0:0:
11,120,196784,6,0,L|31:149,7,35.0625006687641,8|0|0|0|0|0|0|0,0:0|0:0|0:0|0:0|0:0|0:0|0:0|0:0,0:0:0:0:
31,183,197168,5,4,0:0:0:0:
200,252,197361,1,0,1:0:0:0:
181,289,197457,1,0,0:0:0:0:
148,315,197553,1,4,0:1:0:0:
108,327,197649,1,0,1:0:0:0:
67,322,197745,1,8,0:3:0:0:
31,302,197841,1,4,0:0:0:0:
256,340,198034,5,0,0:0:0:0:
275,303,198130,1,0,1:0:0:0:
308,277,198226,1,0,0:0:0:0:
348,265,198322,1,0,1:0:0:0:
389,270,198418,1,0,1:0:0:0:
425,290,198514,2,0,P|451:312|462:344,1,70.1250013375282,8|8,0:3|0:3,0:0:0:0:
457,197,198707,5,0,1:0:0:0:
464,165,198771,1,0,0:0:0:0:
460,133,198835,1,0,0:0:0:0:
443,104,198899,2,0,P|432:60|448:13,1,82.5,0|0,1:0|0:0,0:0:0:0:
345,56,199091,5,8,3:0:0:0:
313,63,199155,1,0,0:0:0:0:
281,59,199219,1,0,0:0:0:0:
253,42,199284,2,0,P|209:31|163:47,1,82.5,8|4,3:0|0:3,0:0:0:0:
112,148,199476,5,4,0:1:0:0:
53,87,199572,1,0,1:0:0:0:
20,164,199668,5,2,0:0:0:0:
22,187,199732,1,2,0:0:0:0:
24,210,199796,1,2,0:0:0:0:
27,233,199861,1,2,1:0:0:0:
30,256,199925,1,2,0:0:0:0:
33,279,199989,1,2,0:0:0:0:
36,302,200053,1,6,0:3:0:0:
39,325,200117,1,2,0:0:0:0:
42,348,200181,1,2,0:0:0:0:
45,375,200245,6,0,P|90:380|127:359,1,82.5,4|0,0:0|0:0,0:0:0:0:
181,217,200437,2,0,P|154:253|153:296,1,82.5
359,289,200630,2,0,P|356:248|330:216,1,82.5,0|0,0:0|1:0,0:0:0:0:
53,87,200918,1,4,0:0:0:0:
53,87,201111,2,0,P|94:91|136:80,1,82.5,0|0,0:0|1:0,0:0:0:0:
181,217,201303,1,0,0:0:0:0:
295,199,201399,5,8,0:3:0:0:
284,167,201463,1,0,0:0:0:0:
282,135,201527,1,0,0:0:0:0:
290,103,201591,1,8,0:3:0:0:
307,74,201655,1,0,0:0:0:0:
331,52,201719,1,0,0:0:0:0:
360,37,201784,6,0,B|402:48|402:48|446:29,1,82.5,4|0,0:0|0:0,0:0:0:0:
511,141,201976,2,0,B|469:130|469:130|425:149,1,82.5
295,199,202168,1,0,1:0:0:0:
479,215,202264,1,0,0:0:0:0:
479,215,202457,2,0,P|489:256|487:305,1,82.5,4|0,0:0|0:0,0:0:0:0:
301,370,202649,2,0,P|291:330|291:288,1,82.5,4|0,0:0|0:0,0:0:0:0:
385,136,202841,2,0,B|419:255|360:255|385:382,1,247.5,4|0,0:0|0:0,0:0:0:0:
295,199,203226,5,4,0:0:0:0:
236,154,203322,1,0,0:0:0:0:
163,146,203418,1,0,0:0:0:0:
97,178,203514,1,0,0:0:0:0:
60,242,203610,2,0,B|55:284|55:284|68:321,1,82.5,0|0,0:0|1:0,0:0:0:0:
164,57,203899,1,4,0:0:0:0:
441,10,204091,1,0,0:0:0:0:
375,136,204187,2,0,P|372:96|384:56,1,82.5,0|0,1:0|0:0,0:0:0:0:
455,187,204379,5,8,0:3:0:0:
439,216,204444,1,0,0:0:0:0:
412,233,204508,1,0,0:0:0:0:
380,240,204572,1,8,0:3:0:0:
347,237,204636,1,0,0:0:0:0:
317,222,204700,1,0,0:0:0:0:
295,199,204764,6,0,L|205:205,1,82.5,4|0,0:0|0:0,0:0:0:0:
73,102,204956,2,0,L|163:96,1,82.5
174,326,205149,2,0,L|84:332,1,82.5,0|0,0:0|1:0,0:0:0:0:
460,349,205437,2,0,P|416:348|384:328,1,82.5,4|0,0:0|0:0,0:0:0:0:
295,199,205630,2,0,P|280:157|288:120,1,82.5,4|0,0:0|0:0,0:0:0:0:
415,10,205822,2,0,L|161:21,1,247.5,4|0,0:0|0:0,0:0:0:0:
95,31,206207,5,4,0:0:0:0:
73,102,206303,1,0,0:0:0:0:
119,159,206399,2,0,P|160:161|203:138,1,82.5
251,94,206591,1,0,0:0:0:0:
322,114,206687,1,0,1:0:0:0:
460,349,206880,1,4,0:0:0:0:
156,366,207072,1,0,0:0:0:0:
291,279,207168,2,0,L|209:288,1,82.5,0|0,1:0|0:0,0:0:0:0:
101,301,207360,5,8,0:3:0:0:
96,268,207424,1,0,0:0:0:0:
91,234,207489,1,0,0:0:0:0:
86,201,207553,1,8,0:3:0:0:
81,168,207617,1,0,0:0:0:0:
77,135,207681,1,0,0:0:0:0:
73,102,207745,6,0,P|145:83|204:18,1,165,4|0,0:0|0:0,0:0:0:0:
307,17,208033,2,0,P|360:79|439:101,1,165,4|0,0:0|0:0,0:0:0:0:
439,282,208322,6,0,P|367:301|308:366,1,165,4|0,0:0|0:0,0:0:0:0:
204,366,208610,2,0,P|151:304|72:282,1,165,4|0,0:0|0:0,0:0:0:0:
256,68,208899,2,0,L|256:316,1,247.5,4|0,0:0|0:0,0:0:0:0:
256,315,209379,6,0,P|285:233|335:204,1,148.49999546814,4|8,0:0|0:3,0:0:0:0:
423,165,209667,1,0,0:0:0:0:
453,133,209763,1,4,3:0:0:0:
456,88,209860,1,0,0:0:0:0:
439,45,209956,2,0,P|402:53|365:51,1,74.2499977340699,4|0,0:0|0:0,0:0:0:0:
256,68,210148,2,0,P|264:105|261:142,1,74.2499977340699,0|0,1:0|0:0,0:0:0:0:
186,223,210340,2,0,P|120:248|41:235,1,148.49999546814
22,308,210629,2,0,L|30:375,1,37.1249988670349,4|0,0:0|0:0,0:0:0:0:
52,30,210917,5,0,1:0:0:0:
238,141,211110,1,0,1:0:0:0:
44,236,211302,1,0,1:0:0:0:
256,68,211494,5,4,1:0:0:0:
285,65,211558,1,0,0:0:0:0:
314,63,211623,1,0,0:0:0:0:
343,61,211687,1,0,0:0:0:0:
372,59,211751,1,0,0:0:0:0:
401,57,211815,1,0,0:0:0:0:
473,53,211879,5,0,1:0:0:0:
500,87,211975,1,0,0:0:0:0:
512,129,212071,1,0,0:0:0:0:
504,173,212167,1,0,0:0:0:0:
464,244,212264,6,0,P|460:285|474:327,1,82.5,4|0,0:0|0:0,0:0:0:0:
408,375,212456,2,0,P|367:371|325:385,1,82.5
256,342,212648,2,0,P|260:301|246:259,1,82.5,0|0,0:0|1:0,0:0:0:0:
172,25,212937,1,4,0:0:0:0:
44,236,213129,1,0,0:0:0:0:
44,314,213225,1,0,1:0:0:0:
122,314,213321,1,0,0:0:0:0:
122,236,213417,5,8,0:3:0:0:
154,238,213482,1,0,0:0:0:0:
187,240,213546,1,0,0:0:0:0:
219,243,213610,1,8,0:3:0:0:
251,246,213674,1,0,0:0:0:0:
283,249,213738,1,0,0:0:0:0:
315,252,213802,6,0,P|332:284|334:331,1,82.5,4|0,0:0|0:0,0:0:0:0:
315,132,213994,2,0,P|332:99|334:53,1,82.5
478,192,214187,2,0,L|395:192,1,82.5,0|4,1:0|0:3,0:0:0:0:
395,192,214475,2,0,L|410:278,1,82.5,4|0,0:0|0:0,0:0:0:0:
116,192,214668,2,0,L|102:106,1,82.5,4|0,0:0|0:0,0:0:0:0:
383,42,214860,2,0,B|256:59|256:59|136:36,1,247.5,4|0,0:0|0:0,0:0:0:0:
383,42,215245,6,0,B|423:36|423:36|467:51,1,82.5,4|0,0:0|0:0,0:0:0:0:
489,266,215437,1,0,0:0:0:0:
489,118,215533,1,0,0:0:0:0:
350,182,215629,1,0,0:0:0:0:
440,191,215725,1,0,1:0:0:0:
440,191,215918,5,4,0:0:0:0:
72,191,216110,2,0,L|86:277,1,82.5,0|0,0:0|1:0,0:0:0:0:
14,141,216302,1,0,0:0:0:0:
97,110,216398,5,8,0:3:0:0:
129,117,216463,1,0,0:0:0:0:
161,115,216527,1,0,0:0:0:0:
192,103,216591,1,8,0:3:0:0:
218,83,216655,1,0,0:0:0:0:
237,56,216719,1,0,0:0:0:0:
239,22,216783,6,0,L|367:16,1,82.5,4|0,0:0|0:0,0:0:0:0:
489,118,216975,2,0,L|361:124,1,82.5
256,192,217168,1,0,0:0:0:0:
418,275,217264,1,0,1:0:0:0:
418,275,217456,2,0,P|380:281|334:267,1,82.5,4|0,0:0|0:0,0:0:0:0:
200,37,217649,2,0,P|238:31|284:45,1,82.5,4|0,0:0|0:0,0:0:0:0:
256,192,217841,2,0,B|127:190|157:265|22:258,1,247.5,4|0,0:0|0:0,0:0:0:0:
22,168,218226,5,4,0:0:0:0:
97,324,218322,1,0,0:0:0:0:
116,147,218418,2,0,P|118:105|105:58,1,82.5
210,277,218610,2,0,P|208:319|218:359,1,82.5,0|0,0:0|1:0,0:0:0:0:
498,192,218899,1,4,0:0:0:0:
498,192,219091,2,0,L|407:190,1,82.5,0|0,0:0|1:0,0:0:0:0:
357,132,219283,1,0,0:0:0:0:
283,168,219379,5,8,0:3:0:0:
250,167,219444,1,0,0:0:0:0:
219,155,219508,1,0,0:0:0:0:
195,132,219572,1,8,0:3:0:0:
181,103,219636,1,0,0:0:0:0:
178,70,219700,1,0,0:0:0:0:
187,39,219764,6,0,P|271:13|337:45,1,165,4|0,0:0|0:0,0:0:0:0:
378,295,220053,2,0,L|357:132,1,165,4|0,0:0|0:0,0:0:0:0:
133,88,220341,6,0,L|155:252,1,165,4|0,0:0|0:0,0:0:0:0:
324,345,220630,2,0,P|248:371|175:339,1,165,4|0,0:0|0:0,0:0:0:0:
444,314,220918,2,0,P|363:229|252:265,1,247.5,4|0,0:0|0:0,0:0:0:0:
251,265,221399,6,0,L|244:112,1,148.49999546814,4|8,0:0|0:3,0:0:0:0:
318,69,221687,1,0,0:0:0:0:
356,99,221783,1,4,0:3:0:0:
404,108,221880,1,0,0:0:0:0:
450,90,221976,2,0,P|469:59|475:21,1,74.2499977340699,4|0,0:0|0:0,0:0:0:0:
356,99,222168,2,0,P|337:130|331:168,1,74.2499977340699,0|0,1:0|0:0,0:0:0:0:
399,256,222360,2,0,L|247:265,1,148.49999546814,0|0,1:0|0:0,0:0:0:0:
321,290,222649,2,0,L|327:335,1,37.1249988670349,4|0,0:0|0:0,0:0:0:0:
232,166,222937,5,0,0:0:0:0:
232,166,223033,1,0,0:0:0:0:
232,166,223130,2,0,L|289:152,2,55
126,96,223514,5,0,0:0:0:0:
126,96,223642,2,0,L|138:171,1,55
287,31,223899,2,0,L|176:24,1,110
370,115,224283,5,0,2:0:0:0:
370,115,224412,2,0,L|358:40,1,55,0|0,2:0|0:0,0:0:0:0:
469,200,224668,1,0,1:0:0:0:
469,200,224796,2,0,L|457:275,1,55,0|0,2:0|1:0,0:0:0:0:
287,260,225053,5,8,0:0:0:0:
287,163,225181,1,8,0:0:0:0:
370,211,225309,1,8,0:0:0:0:
203,211,225437,5,4,0:0:0:0:
370,115,225565,1,4,0:0:0:0:
370,308,225694,1,4,0:0:0:0:
287,163,225822,6,0,L|280:104,3,55,0|0|8|0,1:0|1:0|3:0|3:0,0:0:0:0:
164,49,226078,2,0,L|157:108,3,55,4|4|8|0,3:0|3:0|3:0|3:0,0:0:0:0:
96,176,226335,5,8,3:0:0:0:
76,168,226399,1,0,3:0:0:0:
55,165,226463,1,8,3:0:0:0:
35,173,226527,1,0,3:0:0:0:
20,188,226591,6,0,P|16:204|18:247,1,55,8|0,3:0|3:0,0:0:0:0:
167,272,226719,1,8,3:0:0:0:
176,241,226783,1,0,3:0:0:0:
204,223,226848,1,8,3:0:0:0:
237,220,226912,1,0,3:0:0:0:
269,227,226976,2,0,P|322:237|369:210,1,110,0|4,1:0|3:0,0:0:0:0:
392,6,227360,6,0,L|361:284,1,206.25,4|0,0:0|0:0,0:0:0:0:
288,40,227617,6,0,L|259:301,1,206.25,4|0,0:0|0:0,0:0:0:0:
184,74,227873,6,0,L|155:335,1,206.25,4|0,0:0|0:0,0:0:0:0:
80,108,228130,6,0,L|51:369,1,206.25,4|0,0:0|0:0,0:0:0:0:
288,40,228642,6,0,L|257:318,1,206.25,4|0,0:0|0:0,0:0:0:0:
184,74,228899,6,0,L|155:335,1,206.25,4|0,0:0|0:0,0:0:0:0:
80,108,229155,6,0,L|51:369,1,206.25,4|0,0:0|0:0,0:0:0:0:
57,312,229668,6,0,L|64:353,1,41.25,2|2,0:0|0:0,0:0:0:0:
84,303,229764,2,0,L|91:344,1,41.25,2|2,0:0|0:0,0:0:0:0:
126,312,229860,2,0,L|133:271,1,41.25,2|10,0:0|0:3,0:0:0:0:
153,321,229957,2,0,L|160:280,1,41.25,2|2,0:0|0:0,0:0:0:0:
252,312,230053,5,6,0:0:0:0:
