osu file format v14

[General]
AudioFilename: 06 Mirage Garden.mp3
AudioLeadIn: 0
PreviewTime: 147937
Countdown: 0
SampleSet: Soft
StackLeniency: 0.7
Mode: 0
LetterboxInBreaks: 0
WidescreenStoryboard: 0

[Editor]
DistanceSpacing: 0.8
BeatDivisor: 4
GridSize: 4
TimelineZoom: 4.699997

[Metadata]
Title:Mirage Garden
TitleUnicode:Mirage Garden
Artist:xi
ArtistUnicode:xi
Creator:P o M u T a
Version:Another445
Source:BMS
Tags:BOF2009 Parousia MELODIOUS Long Version pomuta PROGRESSIVE FUSION the of fighters revolutionary battles ROCK fen Tiyes Sink 100sec Records piano Charles445
BeatmapID:726357
BeatmapSetID:319940

[Difficulty]
HPDrainRate:5
CircleSize:4
OverallDifficulty:8
ApproachRate:9
SliderMultiplier:2.5
SliderTickRate:1

[Events]
//Background and Video events
0,0,"909ee593_R.png",0,0
//Break Periods
//Storyboard Layer 0 (Background)
//Storyboard Layer 1 (Fail)
//Storyboard Layer 2 (Pass)
//Storyboard Layer 3 (Foreground)
//Storyboard Sound Samples

[TimingPoints]
1039.71690630835,615.384615384615,3,2,3,65,1,0
2732,615.384615384615,3,2,3,65,1,0
4424,615.384615384615,3,2,3,65,1,0
6116,615.384615384615,3,2,3,65,1,0
7808,615.643501369807,3,2,3,65,1,0
9501,615.384615384615,3,2,3,65,1,0
11039,615.605602010978,3,2,3,65,1,0
12578,615.384615384615,3,2,3,65,1,0
16116,615.384615384615,3,2,3,65,1,0
17808,615.644615384615,3,2,3,65,1,0
19501,615.384615384615,3,2,3,65,1,0
21193,615.384615384615,3,2,3,65,1,0
22885,615.504559862948,3,2,3,65,1,0
24116,625,3,2,3,65,1,0
24584,638.297872340426,3,2,3,65,1,0
24584,-83.3333333333333,4,2,3,65,0,0
25062,652.173913043478,3,2,3,65,1,0
25062,-90.9090909090909,4,2,3,65,0,0
25551,666.666666666667,3,2,3,65,1,0
26217,750,3,2,3,65,1,0
26592,384.615384615385,4,2,3,65,1,0
26688,-142.857142857143,4,2,3,65,0,0
28515,-117.647058823529,4,2,3,65,0,0
29572,-100,4,2,3,65,0,0
32649,384.647438568599,4,2,3,65,1,0
35630,384.647438568599,4,2,3,65,1,0
37360,-95.2380952380952,4,2,1,65,0,0
37649,-86.9565217391304,4,2,1,65,0,0
37937,-80,4,2,1,65,0,0
38611,384.615384615385,4,2,3,65,1,0
38707,-100,4,2,1,65,0,0
44668,384.647438568599,4,2,3,65,1,0
47649,384.647438568599,4,2,3,65,1,0
49379,-95.2380952380952,4,2,1,65,0,0
49668,-86.9565217391304,4,2,1,65,0,0
49860,-80,4,2,1,65,0,0
50630,384.6252468012,4,2,1,65,1,0
50726,-100,4,2,1,65,0,0
53707,384.615384615385,4,2,2,65,1,0
56399,384.716496002154,4,2,2,65,1,0
59092,384.615384615385,4,2,2,65,1,0
61784,384.615384615385,4,2,2,65,1,0
64668,384.716496002154,4,2,2,65,1,0
67361,384.615384615385,4,2,2,65,1,0
70053,384.615384615385,4,2,2,65,1,0
72745,384.667166733983,4,2,2,65,1,0
75630,384.615384615385,4,2,3,65,1,0
75630,-125,4,2,3,65,0,0
81399,384.620315645072,4,2,3,65,1,0
81399,-125,4,2,3,65,0,0
98322,-117.647058823529,4,2,3,65,0,0
99091,-83.3333333333333,4,2,3,65,0,0
99860,-90.9090909090909,4,2,3,65,0,1
102553,384.615384615385,4,2,3,65,1,1
102553,-90.9090909090909,4,2,3,65,0,1
106014,-90.9090909090909,3,2,1,65,0,1
108322,384.667166733983,4,2,3,65,1,1
108322,-90.9090909090909,4,2,3,65,0,1
114092,384.615384615385,4,2,3,65,1,1
114092,-90.9090909090909,4,2,3,65,0,1
116928,-90.9090909090909,4,2,2,65,0,1
117072,-90.9090909090909,4,2,3,65,0,1
121736,-90.9090909090909,4,2,2,65,0,1
123274,-90.9090909090909,4,2,3,65,0,1
123322,512.8336624016,3,2,3,65,1,0
123706,-100,3,2,3,58,0,0
124027,-100,3,2,3,49,0,0
126078,-100,3,2,2,49,0,0
126206,-100,3,2,3,49,0,0
127766,-100,3,2,2,49,0,0
127873,-100,3,2,3,49,0,0
128065,-100,3,2,3,49,0,0
131698,-100,3,2,2,49,0,0
131826,-100,3,2,3,49,0,0
132424,-100,3,2,2,49,0,0
132510,-100,3,2,3,49,0,0
133792,-100,3,2,2,49,0,0
134006,-100,3,2,3,49,0,0
135245,-100,3,2,2,49,0,0
135501,-100,3,2,3,49,0,0
137724,-100,3,2,2,49,0,0
137852,-100,3,2,3,49,0,0
138407,-100,3,2,2,49,0,0
138493,-100,3,2,3,49,0,0
139903,-100,3,2,2,49,0,0
140160,-100,3,2,3,49,0,0
144284,-100,3,2,3,51,0,0
144540,-100,3,2,3,53,0,0
144732,-100,3,2,2,53,0,0
144861,384.615384615385,4,2,3,55,1,0
144861,-125,4,2,3,55,0,0
145918,-125,4,2,3,60,0,0
146159,-125,4,2,3,65,0,0
147937,-90.9090909090909,4,2,3,65,0,1
159524,-90.9090909090909,4,2,2,65,0,1
159716,-90.9090909090909,4,2,3,65,0,1
159909,-90.9090909090909,4,2,2,65,0,1
160245,-90.9090909090909,4,2,3,65,0,1
171832,-90.9090909090909,4,2,2,65,0,1
172120,-90.9090909090909,4,2,3,65,0,1
172553,-100,4,2,2,65,0,0
180197,-100,4,2,3,65,0,0
183274,-100,4,2,3,65,0,0
184091,-86.9565217391304,4,2,2,65,0,0
184764,-100,4,2,2,65,0,0
188707,-86.9565217391304,4,2,3,65,0,0
189380,-100,4,2,3,65,0,0
190181,-100,4,2,2,65,0,0
190293,-100,4,2,3,65,0,0
190389,-100,4,2,2,65,0,0
190582,-100,4,2,3,65,0,0
190678,-100,4,2,2,65,0,0
190774,-100,4,2,3,65,0,0
190870,-100,4,2,2,65,0,0
193178,-100,4,2,3,65,0,0
193274,-100,4,2,2,65,0,0
195245,-90.9090909090909,4,2,3,65,0,0
196687,-80,4,2,3,65,0,0
197168,-100,4,2,2,65,0,0
197296,-100,4,2,2,65,0,0
199604,-100,4,2,3,70,0,0
200245,-100,4,2,3,70,0,1
203226,384.647438568599,4,2,3,70,1,1
206207,384.615384615385,4,2,3,70,1,1
207937,-95.2380952380952,4,2,1,70,0,1
208226,-86.9565217391304,4,2,1,70,0,1
208514,-80,4,2,1,70,0,1
209187,384.635109492795,4,2,1,70,1,1
215245,384.647438568599,4,2,1,70,1,1
218226,384.647438568599,4,2,1,70,1,1
219956,-95.2380952380952,4,2,1,70,0,1
220245,-86.9565217391304,4,2,1,70,0,1
220630,-80,4,2,1,70,0,1
221110,-100,4,2,1,70,0,1
221207,384.615384615385,4,2,1,70,1,1
222937,-100,4,2,2,70,0,1
223450,-100,4,2,1,70,0,0
224155,-100,4,2,2,70,0,0
224476,-100,4,2,2,65,0,0
224604,-100,4,2,2,55,0,0
227360,-90.9090909090909,4,2,1,85,0,1
227553,-90.9090909090909,4,2,1,55,0,1
227617,-90.9090909090909,4,2,1,85,0,1
227809,-90.9090909090909,4,2,1,55,0,1
227873,-90.9090909090909,4,2,1,85,0,1
228065,-90.9090909090909,4,2,1,55,0,0
228130,-90.9090909090909,4,2,1,85,0,1
228322,-90.9090909090909,4,2,1,55,0,1
228642,-90.9090909090909,4,2,1,75,0,1
228835,-90.9090909090909,4,2,1,55,0,1
228899,-90.9090909090909,4,2,1,80,0,1
229091,-90.9090909090909,4,2,1,55,0,0
229155,-90.9090909090909,4,2,1,85,0,1
229348,-90.9090909090909,4,2,1,55,0,1
229476,-90.9090909090909,4,2,1,85,0,1
230053,-90.9090909090909,4,2,1,85,0,0

[Colours]
Combo1 : 255,155,155
Combo2 : 255,255,164
Combo3 : 217,255,179
Combo4 : 164,164,255

[HitObjects]
96,244,1039,6,0,P|138:288|197:306,1,125,6|0,3:1|0:0,0:0:0:0:
235,119,1501,2,0,P|216:144|207:173,2,62.5,0|0|0,3:0|0:0|0:0,0:0:0:0:
339,195,1962,1,0,3:0:0:0:
339,195,2039,1,0,3:0:0:0:
339,195,2116,1,0,3:0:0:0:
432,104,2270,2,0,P|440:80|440:36,1,62.5,0|0,3:0|0:0,0:0:0:0:
484,232,2578,1,0,3:0:0:0:
308,60,2732,6,0,P|244:36|172:48,1,125,6|0,3:1|0:0,0:0:0:0:
104,228,3193,2,0,P|124:176|112:108,1,125,0|0,3:0|3:0,0:0:0:0:
216,276,3655,2,0,L|256:340,1,62.5,0|0,1:0|3:0,0:0:0:0:
344,152,3962,1,0,3:0:0:0:
344,152,4039,1,0,3:0:0:0:
344,152,4116,2,0,L|304:216,1,62.5,0|0,1:0|1:0,0:0:0:0:
112,109,4424,6,0,P|168:129|248:109,1,125,6|0,3:2|3:0,0:0:0:0:
440,108,4885,2,0,P|448:140|444:192,2,62.5,0|0|0,3:0|0:0|3:0,0:0:0:0:
384,264,5347,1,0,0:0:0:0:
276,212,5500,2,0,P|228:208|196:216,1,62.5,0|0,1:0|0:0,0:0:0:0:
112,109,5808,2,0,P|111:88|114:67,2,41.6666666666667,0|0|0,1:0|1:0|1:0,0:0:0:0:
44,172,6116,6,0,P|44:244|72:300,1,125,6|0,3:1|3:0,0:0:0:0:
216,60,6577,2,0,P|216:132|188:188,1,125,0|0,3:0|3:0,0:0:0:0:
344,88,7039,1,0,0:0:0:0:
435,226,7192,2,0,B|443:258|443:258|438:287,1,62.5,2|0,1:2|0:0,0:0:0:0:
429,314,7423,1,0,0:0:0:0:
411,335,7500,1,0,1:0:0:0:
388,351,7577,1,0,0:0:0:0:
360,360,7654,1,0,3:0:0:0:
332,359,7731,1,0,0:0:0:0:
304,354,7808,6,0,P|264:324|243:253,1,125,6|0,3:2|3:0,0:0:0:0:
344,88,8269,2,0,P|281:108|213:90,1,125,0|0,3:0|3:0,0:0:0:0:
49,41,8731,1,0,0:0:0:0:
49,69,8808,1,0,0:0:0:0:
56,96,8885,6,0,P|66:126|82:153,1,62.5,2|0,1:2|0:0,0:0:0:0:
167,160,9116,2,0,P|157:190|141:217,1,62.5,2|0,1:2|0:0,0:0:0:0:
53,237,9347,2,0,P|63:267|67:273,1,31.25,2|0,1:2|0:0,0:0:0:0:
167,302,9501,6,0,P|199:294|252:300,1,62.5,6|0,3:2|1:0,0:0:0:0:
366,330,9808,1,0,3:0:0:0:
305,147,9962,2,0,P|300:207|308:240,1,62.5,2|0,3:2|1:0,0:0:0:0:
410,65,10270,1,0,3:0:0:0:
167,159,10424,2,0,P|105:172|44:163,1,125,2|0,3:0|3:0,0:0:0:0:
232,48,10885,1,0,1:0:0:0:
203,240,11039,6,0,P|216:303|294:359,1,125,6|0,3:2|3:0,0:0:0:0:
425,254,11500,2,0,L|296:254,1,125,0|0,3:0|3:0,0:0:0:0:
104,159,11962,2,0,L|183:159,1,62.5,0|0,1:0|0:0,0:0:0:0:
380,42,12270,1,0,1:0:0:0:
366,66,12347,1,0,0:0:0:0:
352,90,12424,1,0,3:0:0:0:
338,114,12501,1,0,0:0:0:0:
325,139,12578,6,0,L|292:192,1,62.5,6|0,3:2|1:0,0:0:0:0:
163,309,12885,2,0,P|153:276|154:239,1,62.5,0|0,3:0|3:0,0:0:0:0:
183,49,13193,2,0,P|193:82|192:119,1,62.5,0|0,3:0|0:0,0:0:0:0:
29,314,13501,5,2,3:0:0:0:
104,159,13654,1,0,1:0:0:0:
243,264,13808,2,0,L|311:310,1,62.5,0|0,1:0|3:0,0:0:0:0:
470,161,14116,1,0,1:0:0:0:
369,223,14270,1,0,1:0:0:0:
355,79,14424,6,0,P|294:103|234:99,1,125,6|0,3:2|3:0,0:0:0:0:
42,162,14885,2,0,P|76:156|105:159,2,62.5,0|0|0,3:0|0:0|3:0,0:0:0:0:
80,281,15347,1,0,3:0:0:0:
80,281,15424,1,0,3:0:0:0:
80,281,15501,1,0,3:0:0:0:
213,190,15654,2,0,P|219:159|216:128,1,62.5,0|0,3:0|0:0,0:0:0:0:
315,291,15962,1,0,3:0:0:0:
287,53,16116,6,0,P|221:36|137:55,1,125,6|0,3:1|3:0,0:0:0:0:
91,180,16577,2,0,P|157:197|241:178,1,125,0|0,3:0|3:0,0:0:0:0:
412,112,17039,2,0,L|332:144,1,62.5,0|0,1:0|3:0,0:0:0:0:
315,291,17346,1,0,3:0:0:0:
315,291,17423,1,0,0:0:0:0:
315,291,17500,2,0,L|373:267,1,62.5,0|0,1:0|1:0,0:0:0:0:
187,280,17808,6,0,P|122:280|58:255,1,125,6|0,3:2|3:0,0:0:0:0:
144,86,18269,2,0,P|148:129|141:157,2,62.5,0|0|0,3:0|0:0|3:0,0:0:0:0:
256,192,18731,1,0,3:0:0:0:
344,100,18885,2,0,P|380:92|424:96,1,62.5,0|0,1:0|3:0,0:0:0:0:
400,292,19193,2,0,P|380:296|357:294,2,41.6666666666667,0|0|0,1:0|1:0|1:0,0:0:0:0:
376,205,19501,6,0,P|316:185|252:193,1,125,6|0,3:1|3:0,0:0:0:0:
56,96,19962,2,0,P|114:115|176:109,1,125,0|0,3:0|3:0,0:0:0:0:
300,56,20424,1,0,0:0:0:0:
159,216,20577,2,0,B|151:249|151:249|158:282,1,62.5,2|0,1:2|0:0,0:0:0:0:
162,304,20808,1,0,0:0:0:0:
175,329,20885,1,0,1:0:0:0:
195,348,20962,1,0,0:0:0:0:
220,359,21039,1,0,3:0:0:0:
247,363,21116,1,0,0:0:0:0:
275,361,21193,6,0,P|326:339|364:273,1,125,4|0,3:2|3:0,0:0:0:0:
300,56,21654,2,0,P|287:98|311:192,1,125,0|0,3:0|3:0,0:0:0:0:
468,110,22116,1,0,0:0:0:0:
453,138,22193,1,0,0:0:0:0:
438,166,22269,6,0,P|414:191|390:206,1,62.5,2|0,1:2|0:0,0:0:0:0:
301,176,22500,2,0,P|277:201|253:216,1,62.5,2|0,1:2|0:0,0:0:0:0:
164,186,22731,2,0,P|140:211|134:215,1,31.25,2|0,1:2|0:0,0:0:0:0:
212,107,22885,6,0,P|216:72|210:40,1,62.5,6|0,3:2|0:0,0:0:0:0:
81,123,23192,1,0,3:0:0:0:
300,56,23346,2,0,P|331:48|379:56,2,62.5,2|0|0,3:2|1:0|3:0,0:0:0:0:
164,186,23808,2,0,P|155:248|165:291,1,83.3333333333333,2|0,1:2|0:0,0:0:0:0:
292,231,24116,6,0,L|250:231,2,41.6666666666667,2|0|0,3:0|0:0|0:0,0:0:0:0:
314,121,24428,2,0,L|260:120,1,41.6666666666667,2|0,1:0|0:0,0:0:0:0:
314,121,24584,6,0,B|351:143|351:143|462:143,1,149.999995422363,6|0,3:2|3:0,0:0:0:0:
231,40,25062,2,0,L|92:40,1,137.500004196167,0|0,3:0|3:0,0:0:0:0:
248,184,25551,6,0,P|261:211|267:242,1,62.5,0|0,1:0|0:0,0:0:0:0:
124,144,25884,2,0,P|151:130|182:124,1,62.5,0|0,1:0|0:0,0:0:0:0:
352,284,26217,2,0,P|312:324|268:336,1,93.75,0|0,1:0|0:0,0:0:0:0:
232,340,26592,5,6,3:2:0:0:
344,188,26784,2,0,P|348:156|336:116,1,58.3333315531413,0|0,3:0|0:0,0:0:0:0:
312,56,26976,1,0,3:0:0:0:
124,144,27168,2,0,P|120:176|132:216,1,58.3333315531413,0|0,3:0|0:0,0:0:0:0:
156,276,27361,1,0,3:0:0:0:
344,188,27553,2,0,P|372:182|401:186,1,58.3333315531413,0|0,3:0|0:0,0:0:0:0:
436,272,27745,2,0,P|407:277|378:273,1,58.3333315531413,0|0,3:0|0:0,0:0:0:0:
496,200,27938,1,0,3:0:0:0:
400,56,28130,5,4,3:0:0:0:
252,135,28322,2,0,P|230:138|191:132,1,43.749998664856,0|0,1:0|0:0,0:0:0:0:
112,80,28515,1,0,1:0:0:0:
96,116,28611,1,0,1:0:0:0:
80,152,28707,1,0,3:0:0:0:
64,188,28803,1,0,3:0:0:0:
48,223,28899,6,0,P|43:250|47:276,1,53.125001013279,0|0,1:0|3:0,0:0:0:0:
209,189,29092,2,0,P|213:162|209:136,1,53.125001013279,2|0,1:2|3:0,0:0:0:0:
288,312,29284,2,0,L|312:356,2,35.416667342186,0|0|0,1:0|3:0|3:0,0:0:0:0:
360,244,29476,1,0,1:0:0:0:
360,244,29668,6,0,P|366:204|357:172,1,62.5,4|0,1:2|0:0,0:0:0:0:
278,52,29861,2,0,P|272:92|281:124,1,62.5,0|0,3:0|0:0,0:0:0:0:
421,85,30053,1,0,3:0:0:0:
421,85,30149,2,0,P|381:79|349:88,1,62.5,4|0,3:0|0:0,0:0:0:0:
209,189,30342,6,0,P|142:199|76:176,1,125,4|0,1:2|0:0,0:0:0:0:
288,216,30630,2,0,P|256:255|229:269,1,62.5,0|0,1:0|0:0,0:0:0:0:
360,244,30822,6,0,L|357:306,2,41.6666666666667,0|0|0,3:0|3:0|3:0,3:0:0:0:
436,207,31015,2,0,L|438:248,2,41.6666666666667,0|0|0,3:0|3:0|3:0,0:0:0:0:
485,138,31207,5,4,1:2:0:0:
459,95,31303,1,0,3:0:0:0:
418,65,31399,1,0,3:0:0:0:
370,49,31495,1,0,3:0:0:0:
319,51,31592,1,0,1:0:0:0:
270,62,31688,2,0,P|227:66|197:63,1,62.5,4|0,3:0|0:0,0:0:0:0:
72,95,31880,6,0,L|136:136,1,62.5,4|0,1:2|0:0,0:0:0:0:
340,182,32072,2,0,L|287:215,1,62.5,4|0,1:2|0:0,0:0:0:0:
92,243,32265,2,0,P|128:297|194:316,1,125,4|0,1:2|0:0,0:0:0:0:
298,294,32553,1,0,3:0:0:0:
344,312,32649,5,4,1:2:0:0:
393,311,32745,1,0,3:0:0:0:
440,294,32841,1,0,3:0:0:0:
467,252,32937,1,0,3:0:0:0:
475,202,33033,1,0,3:0:0:0:
456,155,33129,2,0,L|426:95,1,62.5,4|0,3:0|0:0,0:0:0:0:
351,192,33322,6,0,P|287:201|219:181,1,125,4|0,1:2|0:0,0:0:0:0:
166,43,33610,2,0,P|206:37|247:43,1,62.5,0|0,1:0|0:0,0:0:0:0:
132,127,33802,5,0,3:0:0:0:
125,141,33867,1,0,3:0:0:0:
118,155,33931,1,0,3:0:0:0:
111,169,33995,2,0,L|92:206,2,41.6666666666667,0|0|0,3:0|3:0|3:0,0:0:0:0:
210,117,34187,6,0,P|241:111|275:117,1,62.5,4|0,1:2|0:0,0:0:0:0:
412,190,34379,2,0,P|381:196|347:190,1,62.5,0|0,3:0|0:0,0:0:0:0:
380,49,34572,1,0,3:0:0:0:
380,49,34668,2,0,P|386:80|380:114,1,62.5,0|0,1:0|0:0,0:0:0:0:
231,229,34860,6,0,L|282:293,1,62.5,4|0,1:2|0:0,0:0:0:0:
132,127,35053,2,0,P|94:125|67:132,1,62.5,4|0,1:2|0:0,0:0:0:0:
61,310,35245,2,0,P|117:339|179:340,1,125,4|0,1:2|0:0,0:0:0:0:
274,283,35533,1,0,3:0:0:0:
319,304,35630,5,4,1:2:0:0:
368,310,35726,1,0,3:0:0:0:
416,298,35822,1,0,3:0:0:0:
456,269,35918,1,0,3:0:0:0:
477,224,36014,1,0,3:0:0:0:
479,173,36110,2,0,P|473:141|459:110,1,62.5,4|0,3:0|0:0,0:0:0:0:
303,52,36303,6,0,P|311:123|348:177,1,125,4|0,1:2|0:0,0:0:0:0:
214,95,36591,2,0,P|178:89|145:94,1,62.5,0|0,1:0|0:0,0:0:0:0:
97,175,36783,5,0,3:0:0:0:
90,189,36848,1,0,3:0:0:0:
83,203,36912,1,0,3:0:0:0:
76,217,36976,2,0,L|57:254,2,41.6666666666667,0|0|0,3:0|3:0|3:0,0:0:0:0:
149,316,37168,6,0,P|198:352|260:359,1,125,4|0,1:2|3:0,0:0:0:0:
352,234,37457,2,0,P|295:270|233:277,1,131.249995994568,4|0,1:2|3:0,0:0:0:0:
130,153,37745,2,0,P|203:187|265:194,1,143.750002741814,4|0,1:2|3:0,0:0:0:0:
385,78,38034,2,0,P|293:105|231:112,1,156.25,4|0,1:2|3:0,0:0:0:0:
133,49,38322,2,0,L|287:23,1,156.25,4|0,1:2|3:0,0:0:0:0:
415,165,38611,1,4,3:0:0:0:
415,165,38803,6,0,P|436:228|428:292,1,125,4|0,1:2|3:0,0:0:0:0:
402,326,39091,1,0,3:0:0:0:
360,352,39187,2,0,P|329:356|298:353,1,62.5,4|0,3:0|0:0,0:0:0:0:
207,215,39380,6,0,P|233:200|272:193,1,62.5,4|0,1:2|0:0,0:0:0:0:
132,304,39572,2,0,P|106:319|67:326,1,62.5,0|0,3:0|0:0,0:0:0:0:
139,139,39764,2,0,P|199:102|265:89,1,125,0|0,1:0|0:0,0:0:0:0:
385,78,40053,1,4,1:2:0:0:
385,78,40341,6,0,L|433:122,1,62.5,0|0,3:0|0:0,0:0:0:0:
320,179,40534,2,0,L|351:236,1,62.5,0|0,3:0|0:0,0:0:0:0:
225,253,40726,2,0,L|235:317,1,62.5,0|0,3:0|0:0,0:0:0:0:
111,292,40918,5,6,3:0:0:0:
71,261,41014,1,0,3:0:0:0:
44,218,41111,1,0,3:0:0:0:
41,168,41207,1,0,3:0:0:0:
48,118,41303,2,0,P|61:89|84:68,1,62.5,0|0,1:0|0:0,0:0:0:0:
212,116,41495,2,0,P|199:144|176:165,1,62.5,4|0,3:0|0:0,0:0:0:0:
295,52,41687,6,0,P|326:44|357:45,1,62.5,4|0,1:2|0:0,0:0:0:0:
352,200,41880,2,0,P|321:207|290:206,1,62.5,0|0,3:0|0:0,0:0:0:0:
460,160,42072,1,0,3:0:0:0:
460,160,42168,2,0,P|468:192|464:240,1,62.5,4|0,3:0|0:0,0:0:0:0:
387,320,42361,6,0,P|335:340|255:328,1,125,4|0,1:2|0:0,0:0:0:0:
180,167,42649,2,0,P|192:135|212:115,1,62.5,0|0,1:0|0:0,0:0:0:0:
244,240,42841,5,0,3:0:0:0:
227,256,42905,1,0,3:0:0:0:
206,268,42969,1,0,3:0:0:0:
184,276,43034,2,0,P|159:282|142:282,2,41.6666666666667,0|0|0,3:0|3:0|3:0,0:0:0:0:
267,333,43226,5,4,1:2:0:0:
316,334,43322,1,0,3:0:0:0:
363,320,43418,1,0,3:0:0:0:
401,288,43514,1,0,3:0:0:0:
425,243,43611,1,0,1:0:0:0:
436,194,43707,2,0,P|434:163|421:131,1,62.5,4|0,3:0|0:0,0:0:0:0:
265,39,43899,6,0,P|237:68|218:96,1,62.5,4|0,1:2|0:0,0:0:0:0:
351,196,44091,2,0,P|311:169|289:159,1,62.5,4|0,1:2|0:0,0:0:0:0:
122,58,44284,2,0,P|107:140|132:206,1,125,4|0,1:2|0:0,0:0:0:0:
73,290,44572,1,0,3:0:0:0:
103,329,44668,5,4,1:2:0:0:
150,344,44764,1,0,3:0:0:0:
199,348,44860,1,0,3:0:0:0:
247,337,44956,1,0,3:0:0:0:
288,308,45052,1,0,3:0:0:0:
317,267,45148,2,0,P|323:244|319:200,1,62.5,4|0,3:0|0:0,0:0:0:0:
203,115,45341,6,0,P|282:122|341:96,1,125,4|0,1:2|0:0,0:0:0:0:
477,55,45629,2,0,P|456:116|458:142,1,62.5,0|0,1:0|0:0,0:0:0:0:
434,243,45821,5,0,3:0:0:0:
418,264,45886,1,0,3:0:0:0:
403,286,45950,1,0,3:0:0:0:
388,308,46014,2,0,L|363:341,2,41.6666666666667,0|0|0,3:0|3:0|3:0,0:0:0:0:
305,242,46206,6,0,P|267:233|230:236,1,62.5,4|0,1:2|0:0,0:0:0:0:
94,322,46398,2,0,P|132:331|169:328,1,62.5,0|0,3:0|0:0,0:0:0:0:
150,164,46591,1,0,3:0:0:0:
150,164,46687,2,0,P|141:202|144:239,1,62.5,0|0,1:0|0:0,0:0:0:0:
324,135,46879,6,0,P|323:105|312:75,1,62.5,4|0,1:2|0:0,0:0:0:0:
220,230,47072,2,0,P|221:260|232:290,1,62.5,4|0,1:2|0:0,0:0:0:0:
425,252,47264,2,0,P|360:233|290:248,1,125,4|0,1:2|0:0,0:0:0:0:
153,307,47552,1,0,3:0:0:0:
103,302,47649,5,4,1:2:0:0:
62,273,47745,1,0,3:0:0:0:
43,226,47841,1,0,3:0:0:0:
43,176,47937,1,0,3:0:0:0:
64,130,48033,1,0,3:0:0:0:
104,101,48129,2,0,P|130:89|174:87,1,62.5,4|0,3:0|0:0,0:0:0:0:
324,136,48322,6,0,P|280:176|212:188,1,125,4|0,1:2|0:0,0:0:0:0:
388,68,48610,2,0,P|404:92|412:124,1,62.5,0|0,1:0|0:0,0:0:0:0:
360,224,48802,5,0,3:0:0:0:
344,245,48867,1,0,3:0:0:0:
329,267,48931,1,0,3:0:0:0:
314,289,48995,2,0,L|289:322,2,41.6666666666667,0|0|0,3:0|3:0|3:0,0:0:0:0:
412,304,49187,6,0,P|448:256|452:176,1,125,4|0,1:2|3:0,0:0:0:0:
343,96,49476,2,0,P|364:168|360:224,1,131.249995994568,4|0,1:2|3:0,0:0:0:0:
200,288,49764,2,0,P|248:248|280:172,1,143.750002741814,4|0,1:2|3:0,0:0:0:0:
112,56,50053,2,0,P|164:112|184:192,1,156.25,4|0,1:2|3:0,0:0:0:0:
52,306,50341,2,0,P|56:216|100:144,1,156.25,4|0,1:2|3:0,0:0:0:0:
244,72,50630,1,4,3:0:0:0:
244,72,50822,6,0,P|304:92|372:76,1,125,4|0,1:2|3:0,0:0:0:0:
410,65,51110,1,0,3:0:0:0:
447,97,51206,2,0,P|469:143|472:182,1,62.5,0|0,3:0|0:0,0:0:0:0:
423,294,51399,6,0,P|394:306|360:305,1,62.5,4|0,1:2|0:0,0:0:0:0:
240,180,51591,2,0,P|270:174|303:183,1,62.5,0|0,3:0|0:0,0:0:0:0:
176,303,51783,2,0,P|129:260|112:197,1,125,0|0,1:0|0:0,0:0:0:0:
63,68,52072,1,4,1:2:0:0:
63,68,52360,6,0,L|12:110,1,62.5,0|0,3:0|0:0,0:0:0:0:
148,151,52553,2,0,L|110:205,1,62.5,0|0,3:0|0:0,0:0:0:0:
251,209,52745,2,0,L|228:270,1,62.5,0|0,3:0|0:0,0:0:0:0:
337,259,52937,5,6,3:0:0:0:
386,263,53033,1,0,3:0:0:0:
432,246,53130,1,0,3:0:0:0:
468,212,53226,1,0,3:0:0:0:
483,163,53322,6,0,P|480:131|472:99,1,62.5,4|0,3:0|0:0,0:0:0:0:
372,146,53514,1,0,3:0:0:0:
359,155,53578,1,0,3:0:0:0:
345,162,53642,1,0,3:0:0:0:
331,167,53707,6,0,P|300:175|269:177,1,62.5,4|0,3:2|0:0,0:0:0:0:
146,140,53899,1,2,0:0:0:0:
117,179,53995,2,0,P|112:231|138:306,1,125,2|0,0:0|0:0,0:0:0:0:
269,177,54283,2,0,P|273:140|265:110,1,62.5,2|0,0:0|0:0,0:0:0:0:
184,37,54476,5,0,1:0:0:0:
20,224,54668,1,2,0:0:0:0:
184,37,54860,1,0,1:0:0:0:
232,24,54957,1,2,0:0:0:0:
281,23,55053,1,2,0:0:0:0:
329,32,55149,1,0,1:0:0:0:
370,59,55245,6,0,P|386:81|399:123,1,62.5,2|0,0:0|0:0,0:0:0:0:
358,257,55437,1,2,0:0:0:0:
322,291,55533,1,2,0:0:0:0:
273,305,55630,1,0,1:0:0:0:
223,301,55726,2,0,P|187:286|164:256,1,62.5,2|0,0:0|0:0,0:0:0:0:
290,142,55918,1,2,0:0:0:0:
290,142,56014,6,0,L|366:173,1,62.5,0|0,1:0|1:0,0:0:0:0:
145,166,56207,2,0,L|87:142,1,62.5,2|2,0:0|0:0,0:0:0:0:
223,301,56399,6,0,P|255:317|304:324,1,62.5,4|0,1:2|0:0,0:0:0:0:
391,289,56591,1,2,0:0:0:0:
429,256,56687,2,0,P|441:207|419:135,1,125,2|0,0:0|0:0,0:0:0:0:
233,27,56976,2,0,P|225:73|241:112,1,62.5,2|0,0:0|0:0,0:0:0:0:
281,211,57168,5,0,1:0:0:0:
474,49,57360,1,2,0:0:0:0:
281,211,57553,1,0,1:0:0:0:
237,235,57649,1,0,3:0:0:0:
187,244,57745,1,0,3:0:0:0:
137,242,57841,1,0,1:0:0:0:
92,218,57937,6,0,P|70:189|59:162,1,62.5,2|0,0:0|0:0,0:0:0:0:
136,39,58130,1,2,0:0:0:0:
183,24,58226,1,0,3:0:0:0:
233,18,58322,1,0,1:0:0:0:
282,24,58418,2,0,P|318:35|358:62,1,62.5,2|0,0:0|0:0,0:0:0:0:
427,176,58611,1,0,0:0:0:0:
427,176,58707,6,0,L|374:231,1,62.5,0|0,1:0|1:0,0:0:0:0:
246,134,58899,2,0,L|176:107,1,62.5,2|2,0:0|0:0,0:0:0:0:
92,218,59092,6,0,P|87:248|97:287,1,62.5,4|0,1:2|0:0,0:0:0:0:
197,351,59284,1,2,0:0:0:0:
243,369,59380,2,0,P|308:376|384:346,1,125,2|0,0:0|0:0,0:0:0:0:
427,176,59668,2,0,P|397:171|358:181,1,62.5,2|0,0:0|0:0,0:0:0:0:
296,268,59861,5,0,1:0:0:0:
488,111,60053,1,2,0:0:0:0:
296,268,60245,1,0,1:0:0:0:
249,287,60342,1,0,3:0:0:0:
199,290,60438,1,0,3:0:0:0:
150,278,60534,1,0,1:0:0:0:
114,242,60630,6,0,P|94:203|93:179,1,62.5,2|0,0:0|0:0,0:0:0:0:
185,63,60822,1,2,0:0:0:0:
232,48,60918,1,0,3:0:0:0:
282,48,61015,1,0,1:0:0:0:
329,64,61111,2,0,P|343:95|340:143,1,62.5,2|0,0:0|0:0,0:0:0:0:
221,208,61303,1,2,0:0:0:0:
221,208,61399,6,0,P|252:196|297:198,1,62.5,0|0,1:0|1:0,0:0:0:0:
348,330,61592,2,0,P|317:342|272:340,1,62.5,2|2,0:0|0:0,0:0:0:0:
114,242,61784,6,0,P|105:193|110:168,1,62.5,4|0,1:2|0:0,0:0:0:0:
137,56,61976,1,2,0:0:0:0:
177,84,62072,2,0,P|252:107|326:88,1,125,2|0,0:0|0:0,0:0:0:0:
457,135,62360,2,0,P|415:131|379:141,1,62.5,2|0,0:0|0:0,0:0:0:0:
310,185,62553,5,0,1:0:0:0:
511,327,62745,1,2,0:0:0:0:
310,185,62937,1,0,1:0:0:0:
262,169,63034,1,2,0:0:0:0:
212,177,63130,1,0,1:0:0:0:
174,209,63226,1,2,0:0:0:0:
127,227,63322,5,4,3:0:0:0:
78,215,63418,1,2,0:0:0:0:
45,177,63514,1,2,0:0:0:0:
42,128,63610,1,2,0:0:0:0:
68,85,63707,6,0,P|93:66|137:54,1,62.5,0|0,1:0|3:0,0:0:0:0:
212,177,63899,2,0,P|237:196|281:208,1,62.5,0|0,1:0|0:0,0:0:0:0:
360,104,64091,2,0,P|406:99|446:112,1,62.5,2|0,0:0|3:0,0:0:0:0:
449,199,64284,5,0,1:0:0:0:
438,213,64348,1,2,0:0:0:0:
427,227,64412,1,2,0:0:0:0:
416,241,64476,1,2,0:0:0:0:
405,255,64540,1,2,0:0:0:0:
394,269,64604,1,2,0:0:0:0:
383,282,64668,6,0,P|349:305|321:309,1,62.5,4|0,1:2|0:0,0:0:0:0:
209,293,64860,1,2,0:0:0:0:
173,269,64956,2,0,P|137:209|137:141,1,125,2|0,0:0|0:0,0:0:0:0:
289,61,65245,2,0,P|257:85|221:89,1,62.5,2|0,0:0|0:0,0:0:0:0:
81,65,65437,5,0,1:0:0:0:
360,104,65629,1,2,0:0:0:0:
81,65,65822,1,0,1:0:0:0:
42,97,65918,1,2,0:0:0:0:
22,143,66014,1,2,0:0:0:0:
21,192,66110,1,0,1:0:0:0:
33,241,66206,6,0,P|50:279|71:302,1,62.5,2|0,0:0|0:0,0:0:0:0:
192,175,66399,1,2,0:0:0:0:
238,157,66495,1,2,0:0:0:0:
287,153,66591,1,0,1:0:0:0:
334,166,66687,2,0,P|372:186|394:206,1,62.5,2|0,0:0|0:0,0:0:0:0:
272,321,66880,1,2,0:0:0:0:
272,321,66976,6,0,L|208:340,1,62.5,0|0,1:0|1:0,0:0:0:0:
386,198,67168,2,0,L|445:180,1,62.5,2|2,0:0|0:0,0:0:0:0:
272,60,67361,6,0,P|228:56|188:64,1,62.5,4|0,1:2|0:0,0:0:0:0:
64,112,67553,1,2,0:0:0:0:
36,152,67649,2,0,P|28:220|64:288,1,125,2|0,0:0|0:0,0:0:0:0:
192,175,67937,2,0,P|224:164|272:168,1,62.5,2|0,0:0|0:0,0:0:0:0:
344,276,68130,5,0,1:0:0:0:
504,48,68322,1,2,0:0:0:0:
344,276,68514,1,0,1:0:0:0:
306,309,68611,1,2,0:0:0:0:
259,326,68707,1,2,0:0:0:0:
209,326,68803,1,0,1:0:0:0:
164,304,68899,6,0,P|141:279|130:249,1,62.5,2|0,0:0|0:0,0:0:0:0:
188,98,69091,1,2,0:0:0:0:
220,60,69187,1,2,0:0:0:0:
267,43,69284,1,0,1:0:0:0:
316,39,69380,2,0,P|354:47|379:61,1,62.5,2|0,0:0|0:0,0:0:0:0:
300,174,69572,1,2,0:0:0:0:
300,174,69668,6,0,P|269:185|223:182,1,62.5,0|0,1:0|1:0,0:0:0:0:
68,58,69861,2,0,P|99:47|145:50,1,62.5,2|2,0:0|0:0,0:0:0:0:
84,188,70053,6,0,P|81:223|93:272,1,62.5,4|0,1:2|0:0,0:0:0:0:
168,340,70245,1,2,0:0:0:0:
216,360,70341,2,0,P|286:366|361:334,1,125,2|0,0:0|0:0,0:0:0:0:
464,192,70629,2,0,P|428:192|396:204,1,62.5,2|0,0:0|0:0,0:0:0:0:
272,272,70822,5,0,1:0:0:0:
68,58,71014,1,2,0:0:0:0:
272,272,71206,1,0,1:0:0:0:
316,294,71303,1,2,0:0:0:0:
365,299,71399,1,2,0:0:0:0:
413,285,71495,1,0,1:0:0:0:
451,252,71591,6,0,P|463:216|463:188,1,62.5,2|0,0:0|0:0,0:0:0:0:
399,93,71783,1,2,0:0:0:0:
369,52,71879,1,2,0:0:0:0:
323,29,71976,1,0,1:0:0:0:
273,26,72072,2,0,P|236:32|211:47,1,62.5,2|0,0:0|0:0,0:0:0:0:
201,191,72264,1,2,0:0:0:0:
201,191,72360,6,0,L|131:217,1,62.5,0|0,1:0|1:0,0:0:0:0:
367,201,72553,2,0,L|425:179,1,62.5,2|2,0:0|0:0,0:0:0:0:
267,326,72745,6,0,P|236:336|180:333,1,62.5,4|0,1:2|0:0,0:0:0:0:
87,284,72937,1,2,0:0:0:0:
46,255,73033,2,0,P|32:200|42:125,1,125,2|0,0:0|0:0,0:0:0:0:
187,63,73322,2,0,P|202:100|201:136,1,62.5,2|0,0:0|0:0,0:0:0:0:
194,266,73514,5,0,1:0:0:0:
54,36,73706,1,2,0:0:0:0:
194,266,73899,1,0,1:0:0:0:
226,304,73995,1,2,0:0:0:0:
271,325,74091,1,0,1:0:0:0:
320,327,74187,1,2,0:0:0:0:
365,307,74283,5,4,3:0:0:0:
397,269,74379,1,2,0:0:0:0:
409,220,74476,1,2,0:0:0:0:
407,170,74572,1,2,0:0:0:0:
383,125,74668,6,0,P|368:100|340:76,1,62.5,0|0,1:0|0:0,0:0:0:0:
296,204,74860,2,0,P|300:228|312:248,1,41.6666666666667,0|0,1:0|3:0,0:0:0:0:
264,156,74988,2,0,P|235:125|199:105,1,83.3333333333333,8|0,3:0|3:0,0:0:0:0:
56,216,75245,5,0,1:0:0:0:
67,264,75341,1,2,0:0:0:0:
100,301,75437,1,2,0:0:0:0:
143,324,75533,1,2,0:0:0:0:
191,326,75630,6,0,P|260:300|336:308,1,150,0|0,1:2|0:0,0:0:0:0:
432,356,76014,1,0,3:0:0:0:
344,200,76206,2,0,P|320:136|340:44,1,150,0|0,1:0|0:0,0:0:0:0:
248,200,76591,1,4,3:0:0:0:
420,120,76783,1,0,3:0:0:0:
248,40,76976,6,0,P|200:32|140:44,1,100,0|0,1:0|0:0,0:0:0:0:
176,300,77360,2,0,P|204:244|192:156,1,150,2|0,3:2|0:0,0:0:0:0:
64,88,77745,1,0,3:0:0:0:
49,125,77841,1,0,1:0:0:0:
48,164,77937,6,0,P|48:192|60:216,1,50,0|0,3:0|0:0,0:0:0:0:
193,159,78130,2,0,P|193:131|181:107,1,50,2|0,3:2|0:0,0:0:0:0:
296,260,78322,2,0,P|328:264|360:260,1,50,0|0,1:0|0:0,0:0:0:0:
472,208,78514,1,0,3:0:0:0:
380,68,78706,6,0,P|312:80|236:52,1,150,2|0,3:2|0:0,0:0:0:0:
120,140,79091,1,0,3:0:0:0:
312,160,79283,2,0,P|364:192|400:284,1,150,0|0,1:0|0:0,0:0:0:0:
296,260,79668,1,4,3:0:0:0:
456,136,79860,1,0,3:0:0:0:
272,52,80053,6,0,P|244:64|204:124,1,100,2|0,1:2|0:0,0:0:0:0:
152,340,80437,2,0,P|172:296|152:192,1,150,2|0,3:2|0:0,0:0:0:0:
56,88,80822,1,2,3:2:0:0:
56,88,81014,5,2,1:2:0:0:
91,115,81110,1,0,3:0:0:0:
134,127,81206,1,2,1:2:0:0:
179,124,81303,1,2,3:2:0:0:
221,109,81399,6,0,P|248:101|390:135,1,150,2|0,3:2|0:0,0:0:0:0:
432,40,81783,1,0,3:0:0:0:
276,224,81975,2,0,P|268:288|312:368,1,150,0|0,1:0|0:0,0:0:0:0:
392,272,82360,1,4,3:0:0:0:
172,316,82552,1,2,3:2:0:0:
244,120,82745,1,0,1:0:0:0:
268,84,82841,1,0,3:0:0:0:
305,58,82937,5,2,3:2:0:0:
349,55,83033,1,0,3:0:0:0:
391,68,83129,1,0,3:0:0:0:
420,101,83225,1,0,3:0:0:0:
399,141,83322,5,2,3:2:0:0:
386,184,83418,1,0,3:0:0:0:
382,228,83514,1,0,3:0:0:0:
392,272,83610,1,0,1:0:0:0:
347,264,83706,5,2,3:2:0:0:
303,252,83802,1,0,3:0:0:0:
257,253,83899,1,4,3:0:0:0:
216,272,83995,1,0,3:0:0:0:
172,283,84091,5,2,1:2:0:0:
128,270,84187,1,0,3:0:0:0:
91,243,84283,2,0,P|75:212|72:188,1,50,2|2,3:2|0:0,0:0:0:0:
105,92,84475,5,2,3:2:0:0:
143,59,84572,1,0,3:0:0:0:
188,38,84668,1,0,3:0:0:0:
237,37,84764,1,4,3:0:0:0:
263,79,84860,5,2,3:2:0:0:
297,115,84956,1,0,3:0:0:0:
342,136,85052,1,0,1:0:0:0:
392,139,85149,1,0,3:0:0:0:
426,175,85245,5,2,3:2:0:0:
436,223,85341,1,0,3:0:0:0:
429,272,85437,1,4,3:0:0:0:
398,311,85533,1,0,3:0:0:0:
351,292,85629,5,2,3:2:0:0:
301,286,85725,1,0,3:0:0:0:
251,296,85822,2,0,P|222:299|181:294,1,50,0|0,1:0|0:0,0:0:0:0:
98,254,86014,5,2,3:2:0:0:
61,219,86110,1,0,3:0:0:0:
46,171,86206,1,0,3:0:0:0:
50,121,86302,1,0,3:0:0:0:
98,134,86399,5,2,3:2:0:0:
147,132,86495,1,0,3:0:0:0:
195,121,86591,1,0,3:0:0:0:
237,95,86687,1,0,3:0:0:0:
262,51,86783,5,2,3:2:0:0:
305,75,86879,1,0,3:0:0:0:
326,120,86975,1,0,1:0:0:0:
369,144,87072,1,4,3:0:0:0:
390,189,87168,5,2,3:2:0:0:
433,213,87264,1,2,3:2:0:0:
316,323,87456,2,0,P|246:337|164:311,1,150,6|0,3:2|0:0,0:0:0:0:
132,284,87841,1,0,3:0:0:0:
110,238,87937,1,0,3:0:0:0:
237,95,88129,6,0,P|261:154|248:238,1,150,0|0,1:0|0:0,0:0:0:0:
172,174,88514,1,4,3:0:0:0:
360,73,88706,1,0,3:0:0:0:
353,286,88899,2,0,P|327:328|283:352,1,100,0|0,1:0|0:0,0:0:0:0:
32,196,89283,6,0,P|95:164|179:177,1,150,2|0,3:2|0:0,0:0:0:0:
359,167,89668,2,0,L|220:251,1,150,2|0,3:2|0:0,0:0:0:0:
353,286,90052,1,2,3:2:0:0:
445,163,90245,1,2,1:2:0:0:
434,114,90341,1,2,3:2:0:0:
404,74,90437,2,0,P|379:55|354:46,1,50,2|0,3:2|0:0,0:0:0:0:
259,122,90629,6,0,P|193:170|112:170,1,150,2|0,3:2|0:0,0:0:0:0:
31,116,91014,1,0,3:0:0:0:
211,272,91206,2,0,P|281:299|355:285,1,150,0|0,1:0|0:0,0:0:0:0:
400,164,91591,1,4,3:0:0:0:
256,36,91783,1,0,3:0:0:0:
112,164,91976,1,2,1:2:0:0:
78,202,92072,1,0,3:0:0:0:
65,250,92168,5,2,3:2:0:0:
76,298,92264,1,0,3:0:0:0:
108,335,92360,1,0,3:0:0:0:
155,348,92456,1,0,3:0:0:0:
204,342,92552,5,2,3:2:0:0:
243,307,92649,1,0,3:0:0:0:
260,260,92745,1,0,3:0:0:0:
251,210,92841,1,0,1:0:0:0:
223,168,92937,5,2,3:2:0:0:
220,118,93033,1,0,3:0:0:0:
247,76,93129,1,4,3:0:0:0:
289,49,93226,1,0,3:0:0:0:
339,44,93322,5,2,1:2:0:0:
384,64,93418,1,0,3:0:0:0:
413,104,93514,2,0,P|420:125|421:143,2,33.3333333333333,0|0|0,3:0|3:0|3:0,0:0:0:0:
408,177,93706,6,0,P|384:239|407:331,1,150,6|0,3:2|0:0,0:0:0:0:
499,252,94091,1,0,3:0:0:0:
266,328,94283,2,0,P|174:329|123:306,1,150,0|0,1:0|0:0,0:0:0:0:
50,231,94668,1,2,3:2:0:0:
162,109,94860,2,0,P|199:102|226:109,1,50,2|0,3:2|0:0,0:0:0:0:
294,151,95053,5,2,1:2:0:0:
313,153,95117,1,0,3:0:0:0:
332,153,95181,1,0,3:0:0:0:
351,149,95245,2,0,P|405:141|503:191,1,150,2|0,3:1|0:0,0:0:0:0:
401,248,95629,1,4,3:0:0:0:
250,53,95822,2,0,P|185:28|102:39,1,150,0|0,1:0|0:0,0:0:0:0:
42,146,96206,2,0,P|34:169|34:214,1,50,2|0,3:2|0:0,0:0:0:0:
95,292,96399,5,2,1:2:0:0:
109,309,96463,1,0,3:0:0:0:
126,321,96527,1,0,3:0:0:0:
144,330,96591,2,0,P|172:334|212:330,1,50,2|0,3:2|0:0,0:0:0:0:
303,255,96783,2,0,P|309:196|277:110,1,150,2|0,3:2|0:0,0:0:0:0:
384,57,97168,2,0,P|377:87|378:130,1,50,0|0,3:0|0:0,0:0:0:0:
412,208,97360,5,2,1:2:0:0:
416,230,97424,1,0,3:0:0:0:
416,252,97488,1,0,3:0:0:0:
411,273,97553,2,0,P|385:326|304:372,1,150,2|0,3:2|0:0,0:0:0:0:
144,330,97937,2,0,P|168:314|216:306,1,50,0|0,3:0|0:0,0:0:0:0:
303,255,98129,5,2,1:2:0:0:
313,231,98194,1,0,3:0:0:0:
318,202,98258,1,0,3:0:0:0:
318,174,98322,2,0,P|313:123|280:68,1,106.250002026558,2|0,3:2|0:0,0:0:0:0:
178,37,98610,1,0,1:0:0:0:
132,50,98706,2,0,P|109:63|90:82,1,53.125001013279,2|0,3:2|0:0,0:0:0:0:
82,266,98899,2,0,P|105:252|124:234,1,53.125001013279,0|0,3:0|0:0,0:0:0:0:
234,136,99091,6,0,P|202:230|291:347,1,224.999993133545,6|0,1:2|0:0,0:0:0:0:
318,174,99476,2,0,P|285:226|384:203,1,224.999993133545,6|0,1:2|0:0,0:0:0:0:
385,69,99860,5,4,3:1:0:0:
385,69,100053,2,0,B|312:96|256:48|256:48|160:68,1,206.250006294251,2|0,2:0|0:0,0:0:0:0:
79,183,100437,2,0,P|108:213|149:234,1,68.7500020980836,0|0,3:0|0:0,0:0:0:0:
318,173,100630,6,0,P|259:150|168:159,1,137.500004196167,0|0,1:0|0:0,0:0:0:0:
358,269,100918,2,0,P|399:221|409:136,1,137.500004196167,0|0,3:2|0:0,0:0:0:0:
256,49,101206,2,0,L|186:63,1,68.7500020980836,0|0,3:0|0:0,0:0:0:0:
79,183,101399,6,0,P|65:239|127:339,1,137.500004196167,4|0,0:3|0:0,0:0:0:0:
250,215,101687,1,0,3:0:0:0:
250,215,101783,2,0,L|183:235,1,68.7500020980836,0|0,3:0|0:0,0:0:0:0:
337,88,101976,2,0,L|402:68,1,68.7500020980836,0|0,3:0|0:0,0:0:0:0:
474,188,102168,5,0,1:0:0:0:
492,243,102264,1,0,3:0:0:0:
487,301,102360,1,4,3:0:0:0:
449,346,102456,1,0,3:0:0:0:
393,365,102553,6,0,P|320:373|258:356,1,137.500004196167,4|0,3:0|0:0,0:0:0:0:
356,158,102841,2,0,P|363:211|333:289,1,137.500004196167,0|0,3:0|0:0,0:0:0:0:
179,134,103129,2,0,P|218:113|275:110,1,68.7500020980836,0|0,3:0|0:0,0:0:0:0:
249,217,103322,5,0,1:0:0:0:
242,275,103418,1,0,3:0:0:0:
205,321,103514,1,0,3:0:0:0:
148,336,103610,1,0,3:0:0:0:
90,323,103706,1,0,3:0:0:0:
48,281,103803,1,0,3:0:0:0:
37,222,103899,2,0,P|39:188|52:157,1,68.7500020980836,4|0,3:0|0:0,0:0:0:0:
156,60,104091,6,0,P|180:69|235:67,1,68.7500020980836,4|0,3:0|0:0,0:0:0:0:
391,41,104283,1,0,1:0:0:0:
434,246,104476,6,0,P|438:271|425:324,1,68.7500020980836,0|0,3:0|0:0,0:0:0:0:
337,186,104668,2,0,P|331:163|328:137,2,45.8333347320557,0|0|0,3:0|0:0|0:0,0:0:0:0:
268,273,104860,6,0,P|235:284|201:284,1,68.7500020980836,4|0,3:0|0:0,0:0:0:0:
52,240,105053,2,0,P|84:229|118:229,1,68.7500020980836,4|0,3:0|0:0,0:0:0:0:
247,138,105245,2,0,P|214:148|180:148,1,68.7500020980836,0|0,3:0|0:0,0:0:0:0:
54,73,105437,1,0,1:0:0:0:
75,64,105501,1,0,1:0:0:0:
98,59,105565,1,4,3:0:0:0:
121,58,105629,6,0,P|157:64|206:53,1,68.7500020980836,4|0,1:2|0:0,0:0:0:0:
362,42,105822,2,0,P|389:113|369:193,1,137.500004196167,0|0,3:0|0:0,0:0:0:0:
268,274,106110,1,0,3:0:0:0:
222,291,106206,2,0,P|192:293|151:283,1,68.7500020980836,0|0,3:0|0:0,0:0:0:0:
260,134,106399,6,0,P|380:172|410:261,1,206.250006294251,0|0,3:0|0:0,0:0:0:0:
319,333,106783,1,0,3:0:0:0:
267,362,106879,1,0,3:0:0:0:
208,368,106976,1,0,3:0:0:0:
149,361,107072,1,0,3:0:0:0:
101,325,107168,6,0,P|72:262|73:185,1,137.500004196167,4|0,3:0|0:0,0:0:0:0:
188,83,107456,2,0,P|141:102|98:104,1,68.7500020980836,0|0,3:0|0:0,0:0:0:0:
276,37,107649,1,0,3:0:0:0:
276,37,107745,2,0,L|338:88,1,68.7500020980836,0|0,3:0|0:0,0:0:0:0:
357,189,107937,5,0,3:0:0:0:
336,244,108033,1,0,3:0:0:0:
285,275,108129,1,4,3:0:0:0:
227,289,108226,1,0,3:0:0:0:
168,278,108322,6,0,P|137:260|110:224,1,68.7500020980836,4|0,1:2|0:0,0:0:0:0:
188,83,108514,2,0,P|219:101|246:137,1,68.7500020980836,0|0,1:0|0:0,0:0:0:0:
29,186,108706,2,0,P|48:157|77:140,1,68.7500020980836,0|0,3:0|0:0,0:0:0:0:
205,204,108899,2,0,P|238:211|272:206,1,68.7500020980836,0|0,3:0|0:0,0:0:0:0:
382,115,109091,6,0,P|410:183|385:272,1,137.500004196167,4|0,1:2|0:0,0:0:0:0:
234,328,109379,2,0,P|197:266|205:203,1,137.500004196167,0|0,3:0|0:0,0:0:0:0:
324,50,109668,2,0,P|298:72|266:85,1,68.7500020980836,4|0,3:0|0:0,0:0:0:0:
128,38,109860,5,4,1:2:0:0:
268,252,110053,2,0,P|326:265|419:238,1,137.500004196167,0|0,1:0|0:0,0:0:0:0:
197,127,110341,2,0,P|139:114|47:148,1,137.500004196167,0|0,1:0|0:0,0:0:0:0:
133,206,110630,6,0,P|122:251|97:289,1,91.6666694641114,0|0,1:0|0:0,0:0:0:0:
276,164,110886,2,0,P|315:141|360:131,1,91.6666694641114,0|0,1:0|0:0,0:0:0:0:
380,308,111142,2,0,P|340:330|295:340,1,91.6666694641114,0|0,1:0|0:0,0:0:0:0:
476,208,111399,5,4,1:2:0:0:
304,244,111591,2,0,B|256:252|256:252|212:240,1,91.6666694641114,0|0,1:0|0:0,0:0:0:0:
133,206,111784,2,0,L|88:188,2,45.8333347320557,4|0|0,3:0|3:0|3:0,0:0:0:0:
108,104,111976,2,0,L|72:68,2,45.8333347320557,0|0|0,3:0|3:0|3:0,0:0:0:0:
184,56,112168,6,0,L|224:24,5,45.8333347320557,2|0|0|0|0|0,3:2|3:0|3:0|3:0|3:0|3:0,0:0:0:0:
290,71,112553,1,2,3:2:0:0:
312,82,112617,1,0,3:0:0:0:
334,93,112681,1,0,3:0:0:0:
356,104,112745,1,4,3:0:0:0:
378,115,112809,1,0,3:0:0:0:
400,126,112873,1,0,3:0:0:0:
422,137,112938,6,0,L|478:167,5,45.8333347320557,4|0|0|0|0|0,3:0|3:0|3:0|3:0|3:0|3:0,0:0:0:0:
353,213,113322,1,2,3:2:0:0:
324,221,113386,1,0,3:0:0:0:
295,229,113450,1,0,1:0:0:0:
266,237,113515,1,0,3:0:0:0:
237,245,113579,1,0,3:0:0:0:
208,253,113643,1,0,3:0:0:0:
179,261,113707,6,0,L|121:277,2,45.8333347320557,0|0|0,1:0|3:0|3:0,0:0:0:0:
97,184,113899,2,0,L|39:200,2,45.8333347320557,4|0|0,3:0|3:0|3:0,0:0:0:0:
101,86,114092,6,0,L|145:73,5,45.8333347320557,4|0|0|0|0|0,3:2|3:0|3:0|1:0|3:0|3:0,0:0:0:0:
241,38,114476,2,0,L|268:91,2,45.8333347320557,2|0|0,3:2|3:0|3:0,0:0:0:0:
358,68,114668,2,0,L|330:123,2,45.8333347320557,2|0|0,3:2|3:0|3:0,0:0:0:0:
440,150,114861,5,2,3:2:0:0:
452,179,114925,1,0,3:0:0:0:
457,210,114989,1,0,3:0:0:0:
455,241,115053,1,2,3:2:0:0:
443,270,115117,1,0,3:0:0:0:
420,292,115181,1,0,3:0:0:0:
391,306,115245,5,2,3:2:0:0:
359,311,115309,1,0,3:0:0:0:
326,306,115374,1,0,3:0:0:0:
296,293,115438,1,4,3:0:0:0:
276,267,115502,1,0,3:0:0:0:
264,237,115566,1,0,3:0:0:0:
258,204,115630,6,0,P|248:152|192:88,1,137.500004196167,2|0,1:2|0:0,0:0:0:0:
136,248,115918,2,0,P|146:300|202:364,1,137.500004196167,2|0,3:2|0:0,0:0:0:0:
356,216,116207,1,2,3:2:0:0:
194,89,116399,6,0,P|120:72|48:92,1,137.500004196167,2|0,1:2|0:0,0:0:0:0:
136,248,116688,2,0,P|210:265|282:245,1,137.500004196167,2|0,3:0|0:0,0:0:0:0:
368,132,116976,5,2,0:0:0:0:
380,116,117040,1,2,0:0:0:0:
392,100,117104,1,4,3:0:0:0:
404,84,117168,1,4,3:0:0:0:
488,232,117361,6,0,P|448:287|304:306,1,206.250006294251,4|0,1:2|0:0,0:0:0:0:
234,201,117745,2,0,P|216:162|214:130,1,68.7500020980836,0|0,3:0|0:0,0:0:0:0:
280,48,117938,6,0,P|208:60|136:48,1,137.500004196167,2|0,3:2|0:0,0:0:0:0:
69,173,118226,1,0,3:0:0:0:
47,216,118322,2,0,P|35:262|57:329,2,91.6666694641114,0|0|0,3:0|0:0|0:0,0:0:0:0:
214,137,118707,6,0,B|281:119|281:119|346:138,1,137.500004196167,4|0,0:3|0:0,0:0:0:0:
451,258,118995,2,0,B|384:276|384:276|319:257,1,137.500004196167,0|0,3:0|0:0,0:0:0:0:
181,63,119284,2,0,B|282:34|282:34|381:63,1,206.250006294251,2|0,3:2|0:0,0:0:0:0:
248,212,119668,2,0,B|214:221|214:221|182:211,1,68.7500020980836,0|0,3:0|0:0,0:0:0:0:
50,137,119861,6,0,P|44:103|53:59,1,68.7500020980836,0|0,1:0|0:0,0:0:0:0:
79,238,120053,1,0,1:0:0:0:
90,269,120117,1,0,1:0:0:0:
113,293,120181,1,4,3:0:0:0:
141,310,120245,6,0,P|174:323|224:325,1,68.7500020980836,4|0,1:2|0:0,0:0:0:0:
312,240,120438,2,0,P|329:177|308:91,1,137.500004196167,0|0,1:0|0:0,0:0:0:0:
181,63,120726,1,0,3:0:0:0:
181,63,120822,2,0,P|177:127|189:159,1,68.7500020980836,0|0,3:0|0:0,0:0:0:0:
312,240,121015,6,0,P|388:256|472:228,1,137.500004196167,0|0,1:0|0:0,0:0:0:0:
252,332,121303,2,0,P|208:280|204:212,1,137.500004196167,0|0,3:0|0:0,0:0:0:0:
344,124,121592,2,0,P|300:132|252:124,1,68.7500020980836,4|0,0:3|0:0,0:0:0:0:
181,63,121784,5,2,0:2:0:0:
134,49,121880,1,2,0:2:0:0:
87,59,121976,1,0,1:0:0:0:
51,91,122072,1,2,0:2:0:0:
39,137,122168,1,0,1:0:0:0:
50,184,122265,1,2,0:2:0:0:
82,219,122361,1,2,0:2:0:0:
126,236,122457,1,2,0:2:0:0:
174,236,122553,6,0,L|275:216,1,91.6666694641114,0|2,1:0|0:2,0:0:0:0:
433,106,122809,2,0,L|343:123,1,91.6666694641114,0|2,1:0|0:2,0:0:0:0:
144,78,123066,2,0,L|245:58,1,91.6666694641114,0|2,1:0|0:2,0:0:0:0:
419,219,123322,5,4,1:2:0:0:
419,219,123834,2,0,L|451:175,2,41.6666666666667,0|0|0,3:0|3:0|3:0,0:0:0:0:
419,219,124091,2,0,P|363:260|309:264,2,125,2|0|0,3:2|0:0|0:0,0:0:0:0:
222,48,124860,6,0,P|197:45|151:50,2,62.5,4|0|0,3:1|0:0|0:0,0:0:0:0:
315,146,125245,2,0,P|340:149|386:144,2,62.5,2|0|0,3:2|0:0|0:0,0:0:0:0:
200,222,125629,5,2,1:2:0:0:
147,154,125757,1,0,1:0:0:0:
115,234,125886,1,8,3:0:0:0:
220,231,126014,5,2,3:2:0:0:
145,135,126142,1,2,3:2:0:0:
100,247,126270,1,0,3:0:0:0:
240,240,126399,6,0,P|305:229|412:286,1,187.5,4|0,3:2|0:0,0:0:0:0:
459,172,126911,2,0,P|464:144|461:112,2,41.6666666666667,0|0|0,3:0|3:0|3:0,0:0:0:0:
409,282,127168,6,0,P|336:332|231:331,1,187.5,2|0,3:2|0:0,0:0:0:0:
181,180,127681,5,8,3:0:0:0:
100,247,127809,1,2,3:2:0:0:
81,143,127937,2,0,P|74:104|84:66,1,62.5,4|0,3:1|0:0,0:0:0:0:
268,118,128193,5,0,3:0:0:0:
187,185,128322,1,0,3:0:0:0:
287,222,128450,2,0,P|294:261|284:299,1,62.5,2|0,3:2|0:0,0:0:0:0:
103,308,128706,2,0,P|96:269|106:231,1,62.5,0|0,3:0|0:0,0:0:0:0:
164,68,128963,5,0,3:0:0:0:
196,46,129048,1,0,3:0:0:0:
234,36,129134,1,0,3:0:0:0:
274,34,129219,2,0,P|305:37|340:48,1,62.5,2|0,3:2|0:0,0:0:0:0:
451,81,129476,6,0,P|459:112|459:143,1,62.5,4|0,3:2|0:0,0:0:0:0:
380,330,129732,2,0,P|372:299|372:268,1,62.5,0|0,3:0|0:0,0:0:0:0:
305,141,129988,5,0,3:0:0:0:
278,167,130074,1,0,3:0:0:0:
243,179,130159,1,0,3:0:0:0:
206,182,130245,2,0,P|164:176|102:118,2,125,2|2|2,3:2|0:2|0:2,0:0:0:0:
451,81,131014,6,0,P|468:140|458:201,1,125,4|0,3:1|0:0,0:0:0:0:
339,36,131399,1,0,3:0:0:0:
224,77,131527,2,0,P|190:83|149:72,1,62.5,0|0,3:0|0:0,0:0:0:0:
305,141,131783,5,2,3:2:0:0:
326,172,131869,1,0,3:0:0:0:
339,207,131954,1,0,3:0:0:0:
347,243,132040,2,0,P|348:264|343:290,2,31.25,2|0|0,1:2|0:0|0:0,0:0:0:0:
226,197,132296,1,0,1:0:0:0:
180,185,132382,1,8,3:0:0:0:
134,173,132467,1,2,3:2:0:0:
88,161,132553,5,4,3:2:0:0:
88,161,133065,1,0,3:0:0:0:
92,123,133151,1,0,3:0:0:0:
114,93,133236,1,0,3:0:0:0:
144,71,133322,6,0,P|204:52|266:59,1,125,8|0,3:0|0:0,0:0:0:0:
188,308,133835,1,2,3:2:0:0:
256,192,133963,1,0,3:2:0:0:
324,308,134091,6,0,P|392:321|470:292,1,125,4|0,3:1|0:0,0:0:0:0:
384,101,134476,2,0,P|371:169|400:247,1,125,0|0,3:0|0:0,0:0:0:0:
462,163,134860,5,0,1:0:0:0:
256,56,135117,1,8,3:0:0:0:
50,163,135373,1,2,3:2:0:0:
256,192,135630,5,4,3:2:0:0:
256,192,136142,1,0,3:0:0:0:
231,221,136228,1,0,3:0:0:0:
199,243,136313,1,0,3:0:0:0:
164,258,136399,2,0,P|101:272|44:259,2,125,2|0|0,3:2|0:0|0:0,0:0:0:0:
399,97,137168,5,4,3:1:0:0:
346,165,137296,1,0,3:0:0:0:
431,177,137424,1,0,3:0:0:0:
401,78,137553,5,2,3:2:0:0:
326,174,137681,1,0,3:0:0:0:
446,190,137809,1,2,3:2:0:0:
403,59,137937,6,0,P|369:48|334:49,1,62.5,0|0,1:0|0:0,0:0:0:0:
188,104,138194,1,8,3:0:0:0:
306,183,138322,5,0,3:0:0:0:
206,232,138450,1,2,3:2:0:0:
306,281,138578,1,0,3:0:0:0:
205,330,138707,6,0,P|113:329|41:272,1,187.5,4|0,3:2|0:0,0:0:0:0:
98,152,139219,1,0,3:0:0:0:
114,120,139305,1,0,3:0:0:0:
117,84,139390,1,0,3:0:0:0:
106,50,139476,6,0,P|176:68|232:56,1,125,2|0,3:2|0:0,0:0:0:0:
468,124,139989,2,0,P|428:120|384:128,1,62.5,2|0,3:2|0:0,0:0:0:0:
306,183,140245,5,4,3:1:0:0:
446,339,140501,1,0,3:0:0:0:
306,183,140758,1,2,3:2:0:0:
284,217,140843,1,0,3:0:0:0:
252,242,140929,1,0,3:0:0:0:
212,252,141014,2,0,P|184:256|139:243,1,62.5,2|0,3:2|0:0,0:0:0:0:
66,118,141271,5,2,3:2:0:0:
83,80,141356,1,0,3:0:0:0:
113,52,141442,1,0,3:0:0:0:
152,38,141527,1,2,3:2:0:0:
427,261,141784,5,4,3:2:0:0:
284,81,142040,2,0,P|243:78|201:90,1,62.5,2|0,3:2|0:0,0:0:0:0:
150,252,142296,2,0,P|191:255|233:243,1,62.5,0|0,3:0|0:0,0:0:0:0:
371,108,142553,2,0,P|373:76|367:46,2,62.5,2|0|0,3:2|0:0|0:0,0:0:0:0:
427,261,142937,2,0,P|444:286|468:306,2,62.5,2|0|0,3:2|0:0|0:0,0:0:0:0:
319,332,143322,5,4,3:1:0:0:
301,301,143407,1,0,3:0:0:0:
298,265,143493,1,0,3:0:0:0:
279,296,143578,1,2,3:2:0:0:
260,326,143664,1,0,3:0:0:0:
231,346,143749,1,0,3:0:0:0:
207,319,143835,5,2,3:2:0:0:
190,288,143920,1,0,3:0:0:0:
187,253,144006,1,0,3:0:0:0:
167,283,144091,1,2,3:2:0:0:
149,314,144177,1,0,3:0:0:0:
120,334,144262,1,0,3:0:0:0:
96,307,144348,5,0,1:0:0:0:
79,276,144433,1,0,3:0:0:0:
76,241,144519,1,0,3:0:0:0:
53,210,144604,1,8,3:0:0:0:
32,176,144690,1,0,3:0:0:0:
29,136,144775,1,2,3:2:0:0:
41,97,144861,6,0,P|75:61|123:47,1,100,4|0,3:2|0:0,0:0:0:0:
292,140,145245,2,0,P|300:180|272:252,1,100,0|0,3:0|0:0,0:0:0:0:
156,176,145630,5,2,3:2:0:0:
288,136,145822,1,8,3:0:0:0:
144,260,146014,5,2,3:2:0:0:
332,332,146207,1,8,3:0:0:0:
420,132,146399,5,6,3:0:0:0:
424,136,146591,1,6,3:0:0:0:
428,140,146784,1,6,3:0:0:0:
432,144,146976,1,6,3:0:0:0:
276,244,147168,5,2,1:2:0:0:
276,244,147361,2,0,P|248:252|224:252,1,50,2|0,1:2|3:0,0:0:0:0:
128,204,147553,5,2,1:2:0:0:
115,184,147617,1,0,3:0:0:0:
109,161,147681,1,0,3:0:0:0:
108,137,147745,1,2,1:2:0:0:
111,113,147809,1,0,3:0:0:0:
121,91,147873,1,0,3:0:0:0:
137,71,147937,6,0,P|204:45|269:68,1,137.500004196167,6|0,3:2|0:0,0:0:0:0:
339,232,148226,2,0,P|270:244|213:214,1,137.500004196167,2|0,3:2|0:0,0:0:0:0:
369,131,148514,2,0,P|399:141|430:176,1,68.7500020980836,2|0,3:2|0:0,0:0:0:0:
427,270,148707,5,2,3:2:0:0:
404,313,148803,1,0,1:0:0:0:
366,343,148899,1,0,3:0:0:0:
321,362,148995,1,4,2:3:0:0:
268,359,149091,5,0,1:0:0:0:
225,327,149187,1,0,3:0:0:0:
172,315,149284,1,0,3:0:0:0:
129,283,149380,1,4,2:3:0:0:
76,271,149476,5,2,3:2:0:0:
45,228,149572,1,0,3:0:0:0:
34,176,149668,1,0,3:0:0:0:
46,124,149764,1,4,2:3:0:0:
75,79,149861,6,0,P|105:65|148:63,1,68.7500020980836,0|0,1:0|0:0,0:0:0:0:
213,179,150053,2,0,P|183:193|140:195,1,68.7500020980836,0|0,3:0|0:0,0:0:0:0:
274,76,150245,5,0,3:0:0:0:
323,58,150341,1,0,1:0:0:0:
375,60,150437,1,0,0:0:0:0:
423,81,150534,1,4,2:3:0:0:
453,124,150630,5,0,1:0:0:0:
425,169,150726,1,0,3:0:0:0:
397,214,150822,1,4,2:3:0:0:
369,259,150918,1,0,3:0:0:0:
341,304,151014,6,0,P|276:335|211:325,1,137.500004196167,2|0,1:2|0:0,0:0:0:0:
327,197,151303,1,4,2:3:0:0:
327,197,151399,2,0,P|330:159|317:126,1,68.7500020980836,0|0,1:0|0:0,0:0:0:0:
203,52,151591,1,0,3:0:0:0:
150,43,151687,1,4,2:3:0:0:
97,50,151784,6,0,P|40:70|-11:131,1,137.500004196167,2|0,3:2|0:0,0:0:0:0:
97,210,152072,1,4,2:3:0:0:
97,210,152168,2,0,P|95:164|83:131,1,68.7500020980836,0|0,1:0|0:0,0:0:0:0:
151,296,152361,2,0,P|216:310|289:296,1,137.500004196167,2|0,3:2|0:0,0:0:0:0:
213,153,152649,1,2,3:2:0:0:
213,153,152745,2,0,P|214:191|224:234,1,68.7500020980836,0|0,3:0|0:0,0:0:0:0:
298,86,152937,6,0,P|360:72|449:93,1,137.500004196167,2|0,1:2|0:0,0:0:0:0:
365,188,153226,1,2,3:2:0:0:
365,188,153322,6,0,L|426:218,1,68.7500020980836,0|0,1:0|3:0,0:0:0:0:
285,297,153514,2,0,L|331:349,1,68.7500020980836,0|0,1:0|0:0,0:0:0:0:
151,297,153707,1,0,1:0:0:0:
98,288,153803,1,0,1:0:0:0:
52,260,153899,1,4,2:3:0:0:
25,213,153995,1,4,2:3:0:0:
14,160,154091,6,0,P|17:99|63:39,1,137.500004196167,6|0,1:2|0:0,0:0:0:0:
165,151,154380,1,4,2:3:0:0:
188,200,154476,5,0,1:0:0:0:
223,241,154572,1,0,3:0:0:0:
274,260,154668,1,0,3:0:0:0:
328,261,154764,1,4,2:3:0:0:
380,243,154861,5,4,2:3:0:0:
414,200,154957,1,0,1:0:0:0:
426,146,155053,1,0,3:0:0:0:
409,93,155149,1,4,2:3:0:0:
368,55,155245,5,0,1:0:0:0:
315,39,155341,1,0,3:0:0:0:
260,42,155437,2,0,P|226:50|188:72,1,68.7500020980836,0|0,3:0|0:0,0:0:0:0:
95,193,155630,6,2,P|102:254|156:310,1,137.500004196167,2|0,3:2|3:2,3:2:0:0:
265,170,155918,1,4,2:3:0:0:
265,170,156014,2,0,L|331:132,1,68.7500020980836,0|0,1:0|0:0,0:0:0:0:
152,308,156207,2,0,L|86:346,1,68.7500020980836,2|0,3:2|0:0,0:0:0:0:
294,295,156399,5,0,3:0:0:0:
294,295,156495,2,0,P|350:321|428:317,1,137.500004196167,2|0,1:2|0:0,0:0:0:0:
265,170,156784,2,0,P|214:166|178:176,1,68.7500020980836,0|0,1:0|0:0,0:0:0:0:
84,307,156976,2,0,P|135:311|171:301,1,68.7500020980836,0|0,3:0|0:0,0:0:0:0:
265,170,157168,6,0,P|268:128|256:86,1,68.7500020980836,2|0,3:2|0:0,0:0:0:0:
170,36,157361,1,0,3:0:0:0:
116,25,157457,1,4,2:3:0:0:
62,37,157553,5,0,1:0:0:0:
25,77,157649,1,0,3:0:0:0:
18,131,157745,1,0,3:0:0:0:
33,183,157841,1,4,2:3:0:0:
76,216,157937,5,4,2:3:0:0:
130,228,158034,1,0,1:0:0:0:
183,240,158130,2,0,L|257:257,1,68.7500020980836,0|0,3:0|0:0,0:0:0:0:
353,195,158322,5,0,1:0:0:0:
380,201,158386,1,0,3:0:0:0:
407,207,158450,1,0,3:0:0:0:
434,213,158514,2,0,L|508:230,1,68.7500020980836,4|0,3:0|0:0,0:0:0:0:
357,100,158707,6,0,P|291:86|221:101,1,137.500004196167,2|0,3:2|0:0,0:0:0:0:
102,168,158995,1,4,2:3:0:0:
76,216,159091,2,0,P|74:249|90:303,1,68.7500020980836,2|0,1:2|0:0,0:0:0:0:
297,255,159284,2,0,P|299:222|283:168,1,68.7500020980836,4|0,2:3|0:0,0:0:0:0:
188,91,159476,5,2,1:2:0:0:
187,117,159540,1,2,0:0:0:0:
186,144,159604,1,2,0:0:0:0:
185,171,159668,2,0,L|182:239,1,68.7500020980836,2|0,0:0|0:0,0:0:0:0:
278,350,159861,5,2,1:2:0:0:
305,353,159925,1,2,0:0:0:0:
332,351,159989,1,2,0:0:0:0:
358,340,160053,1,2,0:0:0:0:
381,325,160117,1,2,0:0:0:0:
398,303,160181,1,2,0:0:0:0:
410,278,160245,6,0,P|421:208|401:144,1,137.500004196167,4|0,1:2|0:0,0:0:0:0:
186,144,160534,2,0,P|238:168|342:156,1,137.500004196167,2|0,3:2|0:0,0:0:0:0:
453,55,160822,2,0,P|417:43|377:43,1,68.7500020980836,2|0,3:2|0:0,0:0:0:0:
264,68,161014,5,2,3:2:0:0:
209,72,161111,1,0,1:0:0:0:
155,62,161207,1,0,3:0:0:0:
100,61,161303,1,4,2:3:0:0:
51,85,161399,5,0,1:0:0:0:
23,132,161495,1,0,3:0:0:0:
24,188,161591,1,0,3:0:0:0:
46,237,161687,1,4,2:3:0:0:
98,220,161784,5,2,3:2:0:0:
152,221,161880,1,0,3:0:0:0:
200,244,161976,1,0,3:0:0:0:
231,287,162072,1,4,2:3:0:0:
283,270,162168,5,2,1:2:0:0:
337,271,162264,1,0,3:0:0:0:
385,294,162361,1,0,3:0:0:0:
437,277,162457,2,0,P|452:213|437:132,1,137.500004196167,2|0,3:2|0:0,0:0:0:0:
265,137,162745,6,0,P|283:164|322:195,1,68.7500020980836,0|0,3:0|0:0,0:0:0:0:
398,34,162937,2,0,P|361:25|314:32,1,68.7500020980836,0|0,1:0|0:0,0:0:0:0:
149,80,163130,2,0,P|135:115|133:149,1,68.7500020980836,0|0,3:0|0:0,0:0:0:0:
152,282,163322,5,0,3:0:0:0:
174,331,163418,1,0,3:0:0:0:
217,363,163514,2,0,P|253:373|283:369,1,68.7500020980836,0|0,3:0|0:0,0:0:0:0:
257,257,163707,5,2,3:2:0:0:
244,233,163771,1,0,3:0:0:0:
238,206,163835,1,0,3:0:0:0:
233,179,163899,2,0,P|232:140|241:106,1,68.7500020980836,0|0,3:0|0:0,0:0:0:0:
359,170,164091,5,4,2:3:0:0:
405,176,164187,1,0,1:0:0:0:
454,170,164284,2,0,P|487:160|514:136,1,68.7500020980836,0|0,3:0|0:0,0:0:0:0:
446,290,164476,5,2,1:2:0:0:
424,307,164540,1,0,3:0:0:0:
398,318,164604,1,0,3:0:0:0:
371,324,164668,2,0,P|335:327|295:321,1,68.7500020980836,0|0,3:0|0:0,0:0:0:0:
139,178,164861,5,4,2:3:0:0:
139,178,164957,2,0,P|123:244|149:336,1,137.500004196167,2|0,3:2|0:0,0:0:0:0:
64,150,165245,2,0,P|44:214|48:295,1,137.500004196167,2|0,1:2|0:0,0:0:0:0:
125,98,165534,1,2,3:2:0:0:
125,98,165630,6,0,P|158:84|204:79,1,68.7500020980836,0|0,1:0|0:0,0:0:0:0:
310,211,165822,2,0,P|277:225|231:230,1,68.7500020980836,2|0,1:2|0:0,0:0:0:0:
316,96,166014,5,2,1:2:0:0:
337,79,166078,1,0,3:0:0:0:
362,68,166143,1,0,3:0:0:0:
388,60,166207,2,0,P|424:58|466:67,1,68.7500020980836,2|0,3:2|0:0,0:0:0:0:
489,263,166399,6,0,P|450:295|361:303,1,137.500004196167,6|0,1:2|0:0,0:0:0:0:
244,230,166687,1,4,2:3:0:0:
212,197,166784,2,0,P|205:176|205:124,1,68.7500020980836,0|0,1:0|0:0,0:0:0:0:
388,60,166976,2,0,P|395:81|395:133,1,68.7500020980836,0|0,3:0|0:0,0:0:0:0:
283,300,167168,5,2,3:2:0:0:
241,335,167264,1,0,1:0:0:0:
188,353,167361,1,0,3:0:0:0:
133,348,167457,1,4,2:3:0:0:
83,323,167553,5,0,1:0:0:0:
55,275,167649,1,0,3:0:0:0:
43,221,167745,1,0,3:0:0:0:
49,166,167841,1,4,2:3:0:0:
84,124,167937,6,0,P|139:95|225:101,1,137.500004196167,2|0,3:2|0:0,0:0:0:0:
326,210,168226,1,4,2:3:0:0:
326,210,168322,2,0,P|283:222|241:220,1,68.7500020980836,0|0,1:0|0:0,0:0:0:0:
407,141,168514,2,0,P|424:171|432:205,1,68.7500020980836,0|0,3:0|0:0,0:0:0:0:
348,328,168707,5,0,3:0:0:0:
303,360,168803,2,0,P|240:378|165:353,1,137.500004196167,2|0,1:2|0:0,0:0:0:0:
99,252,169091,5,2,1:2:0:0:
83,199,169187,1,4,2:3:0:0:
89,143,169284,1,0,3:0:0:0:
118,96,169380,1,4,2:3:0:0:
166,70,169476,6,0,P|199:64|234:65,1,68.7500020980836,2|0,3:2|0:0,0:0:0:0:
280,212,169668,2,0,P|246:217|211:216,1,68.7500020980836,2|0,3:2|0:0,0:0:0:0:
386,134,169861,2,0,P|411:203|396:277,1,137.500004196167,2|0,1:2|0:0,0:0:0:0:
256,359,170149,2,0,P|234:329|228:298,1,68.7500020980836,2|0,3:2|0:0,0:0:0:0:
282,128,170341,1,0,1:0:0:0:
282,128,170437,2,0,P|245:140|211:139,1,68.7500020980836,2|0,3:2|0:0,0:0:0:0:
340,54,170630,5,2,1:2:0:0:
365,43,170694,1,0,3:0:0:0:
392,39,170758,1,0,3:0:0:0:
419,43,170822,1,2,3:2:0:0:
443,54,170886,1,0,3:0:0:0:
463,72,170950,1,0,3:0:0:0:
476,95,171014,6,0,P|479:162|439:216,1,137.500004196167,2|0,3:2|0:0,0:0:0:0:
282,128,171303,1,4,2:3:0:0:
232,108,171399,2,0,P|208:100|164:100,1,68.7500020980836,2|0,1:2|0:0,0:0:0:0:
296,296,171591,2,0,P|320:304|364:304,1,68.7500020980836,4|0,2:3|0:0,0:0:0:0:
216,200,171784,5,2,1:2:0:0:
191,187,171848,1,2,0:0:0:0:
163,183,171912,1,2,0:0:0:0:
135,186,171976,1,2,0:0:0:0:
109,195,172040,1,2,0:0:0:0:
88,213,172104,1,2,0:0:0:0:
73,236,172168,6,0,P|68:273|80:322,1,68.7500020980836,2|0,3:2|0:0,0:0:0:0:
216,200,172361,2,0,P|221:163|209:114,1,68.7500020980836,2|0,1:2|0:0,0:0:0:0:
342,38,172553,6,0,P|345:100|379:151,1,125,4|0,1:2|0:0,0:0:0:0:
473,241,172841,1,2,3:2:0:0:
473,241,172937,2,0,P|438:237|397:248,1,62.5,0|0,1:0|0:0,0:0:0:0:
296,296,173130,1,0,3:0:0:0:
249,313,173226,2,0,P|187:323|124:309,2,125,2|2|2,3:2|3:2|3:2,0:0:0:0:
216,200,173707,6,0,P|231:167|255:143,1,62.5,0|0,1:0|0:0,0:0:0:0:
447,109,173899,2,0,P|431:141|407:165,1,62.5,0|0,3:0|0:0,0:0:0:0:
447,109,174091,6,0,P|388:111|321:87,1,125,2|0,3:2|0:0,0:0:0:0:
209,47,174380,1,2,3:2:0:0:
161,40,174476,2,0,P|117:45|83:64,1,62.5,0|0,1:0|0:0,0:0:0:0:
26,157,174668,1,0,3:0:0:0:
14,205,174764,2,0,P|12:271|46:328,2,125,0|2|0,3:2|3:2|3:2,0:0:0:0:
146,247,175245,6,0,P|175:256|206:256,1,62.5,0|0,1:0|0:0,0:0:0:0:
333,107,175437,2,0,P|303:97|272:97,1,62.5,0|0,3:0|0:0,0:0:0:0:
333,107,175630,6,0,P|356:165|342:234,1,125,2|0,3:2|0:0,0:0:0:0:
201,168,175918,1,2,3:2:0:0:
201,168,176014,2,0,P|181:131|177:105,1,62.5,0|0,1:0|0:0,0:0:0:0:
78,55,176207,1,0,3:0:0:0:
78,55,176303,2,2,P|69:116|93:192,2,125,2|2|2,3:2|3:2|3:2,3:2:0:0:
201,168,176784,6,0,P|210:225|203:251,1,62.5,0|0,1:0|0:0,0:0:0:0:
77,304,176976,2,0,P|107:292|137:288,1,62.5,0|0,3:0|0:0,0:0:0:0:
78,304,177168,6,0,P|134:329|196:328,1,125,2|0,3:2|0:0,0:0:0:0:
307,263,177457,1,2,3:2:0:0:
307,263,177553,2,0,P|320:301|318:345,1,62.5,0|0,1:0|0:0,0:0:0:0:
201,168,177745,2,0,P|188:130|190:86,1,62.5,0|0,3:0|0:0,0:0:0:0:
299,60,177937,5,0,1:0:0:0:
344,38,178034,1,0,1:0:0:0:
393,40,178130,1,0,1:0:0:0:
437,61,178226,1,2,3:2:0:0:
417,106,178322,5,0,1:0:0:0:
407,155,178418,1,0,1:0:0:0:
411,204,178514,1,2,3:2:0:0:
429,250,178611,1,2,3:2:0:0:
460,288,178707,6,0,P|406:277|336:290,1,125,4|0,1:2|0:0,0:0:0:0:
226,333,178995,1,2,3:2:0:0:
178,348,179091,2,0,P|145:352|105:339,1,62.5,0|0,1:0|0:0,0:0:0:0:
24,211,179284,1,0,3:0:0:0:
24,211,179380,2,0,P|98:230|150:223,2,125,2|2|2,3:2|3:2|3:2,0:0:0:0:
101,105,179861,6,0,P|132:98|163:97,1,62.5,0|0,1:0|0:0,0:0:0:0:
345,176,180053,2,0,P|314:183|283:184,1,62.5,0|0,3:0|0:0,0:0:0:0:
421,109,180245,6,0,P|432:135|434:180,1,62.5,2|0,1:2|0:0,0:0:0:0:
395,274,180437,1,0,3:0:0:0:
378,293,180502,1,0,3:0:0:0:
357,307,180566,1,0,3:0:0:0:
333,314,180630,6,0,P|302:319|271:317,1,62.5,2|0,1:2|0:0,0:0:0:0:
173,234,180822,1,0,3:0:0:0:
158,213,180886,1,0,3:0:0:0:
150,189,180950,1,0,3:0:0:0:
150,164,181014,6,0,P|153:125|171:87,1,62.5,2|0,1:2|0:0,0:0:0:0:
276,40,181207,1,0,3:0:0:0:
299,38,181271,1,0,3:0:0:0:
323,44,181335,1,0,3:0:0:0:
345,52,181399,6,0,P|372:69|394:98,1,62.5,2|0,1:2|0:0,0:0:0:0:
469,179,181591,1,0,3:0:0:0:
449,194,181655,1,0,3:0:0:0:
425,202,181719,1,0,3:0:0:0:
400,206,181784,6,0,P|368:207|340:198,1,62.5,2|0,1:2|0:0,0:0:0:0:
220,107,181976,1,0,3:0:0:0:
193,95,182040,1,0,3:0:0:0:
164,89,182104,1,0,3:0:0:0:
134,88,182168,6,0,P|96:95|61:115,1,62.5,2|0,1:2|0:0,0:0:0:0:
38,229,182361,1,0,3:0:0:0:
45,257,182425,1,0,3:0:0:0:
62,280,182489,1,0,3:0:0:0:
85,297,182553,6,0,P|116:307|166:308,1,62.5,2|0,1:2|0:0,0:0:0:0:
268,267,182745,1,0,3:0:0:0:
290,248,182809,1,0,3:0:0:0:
304,222,182873,1,0,3:0:0:0:
316,195,182937,6,0,P|319:163|309:129,1,62.5,2|0,1:2|0:0,0:0:0:0:
215,45,183130,2,0,P|212:77|222:111,1,62.5,2|0,3:2|0:0,0:0:0:0:
438,78,183322,6,0,P|381:51|317:60,1,125,4|0,1:1|0:0,0:0:0:0:
217,189,183611,2,0,P|160:215|96:207,1,125,2|0,1:2|0:0,0:0:0:0:
233,291,183899,2,0,P|245:327|241:364,1,62.5,2|0,3:2|0:0,0:0:0:0:
146,121,184091,6,0,P|214:99|284:113,1,143.750002741814,4|0,1:2|0:0,0:0:0:0:
233,291,184380,2,0,P|165:312|95:298,1,143.750002741814,4|0,1:2|0:0,0:0:0:0:
284,113,184668,2,0,P|287:79|274:20,1,71.8750013709069,4|0,1:2|0:0,0:0:0:0:
217,189,184861,6,0,P|276:205|338:196,1,125,4|0,1:2|0:0,0:0:0:0:
460,96,185149,1,2,3:2:0:0:
460,96,185245,2,0,P|468:124|468:168,1,62.5,0|0,1:0|0:0,0:0:0:0:
404,268,185437,1,0,3:0:0:0:
364,300,185534,2,0,P|304:316|244:300,2,125,2|2|2,3:2|3:2|3:2,0:0:0:0:
380,132,186014,2,0,P|376:104|360:68,1,62.5,0|0,1:0|0:0,0:0:0:0:
199,129,186207,2,0,P|203:157|219:193,1,62.5,0|0,3:0|0:0,0:0:0:0:
199,129,186399,6,0,P|137:110|74:120,1,125,2|0,3:2|0:0,0:0:0:0:
127,277,186687,1,2,3:2:0:0:
127,277,186784,2,0,P|157:288|198:285,1,62.5,0|0,1:0|0:0,0:0:0:0:
321,187,186976,1,0,3:0:0:0:
321,187,187072,2,0,P|333:253|364:300,2,125,2|2|2,3:2|3:2|3:2,0:0:0:0:
236,56,187553,6,0,P|207:49|156:56,1,62.5,0|0,1:0|0:0,0:0:0:0:
42,191,187745,2,0,P|71:198|122:191,1,62.5,0|0,3:0|0:0,0:0:0:0:
42,191,187937,6,0,P|45:254|78:306,1,125,2|0,3:2|0:0,0:0:0:0:
219,187,188226,1,2,3:2:0:0:
219,187,188322,2,0,P|207:142|192:121,1,62.5,0|0,1:0|0:0,0:0:0:0:
204,322,188514,2,0,P|235:335|285:331,1,62.5,0|0,3:0|0:0,0:0:0:0:
365,209,188707,6,0,B|411:195|411:195|460:202,2,95.8333351612091,2|2|2,3:2|3:2|3:2,0:0:0:0:
204,322,189091,2,0,B|157:335|157:335|108:328,2,95.8333351612091,2|2|2,1:2|3:2|3:2,0:0:0:0:
302,147,189476,6,0,P|313:100|289:28,1,125,2|0,1:2|0:0,0:0:0:0:
111,113,189764,2,0,P|186:116|235:92,1,125,2|0,1:2|0:0,0:0:0:0:
45,62,190053,2,0,P|31:90|28:121,1,62.5,2|0,1:2|0:0,0:0:0:0:
56,245,190245,5,0,1:2:0:0:
68,293,190341,1,2,1:2:0:0:
99,331,190437,1,0,1:0:0:0:
146,347,190534,1,2,3:2:0:0:
195,347,190630,5,2,1:2:0:0:
242,332,190726,1,0,1:0:0:0:
289,317,190822,1,2,3:2:0:0:
336,302,190918,1,2,3:2:0:0:
383,287,191014,6,0,P|404:253|405:169,1,125,4|0,1:2|0:0,0:0:0:0:
296,131,191303,1,2,3:2:0:0:
296,131,191399,2,0,P|292:187|304:215,1,62.5,0|0,1:0|0:0,0:0:0:0:
365,41,191591,1,0,3:0:0:0:
365,41,191687,2,0,P|297:25|229:41,1,125,2|0,3:2|0:0,0:0:0:0:
96,120,191976,6,0,P|64:112|36:88,1,62.5,2|0,3:2|0:0,0:0:0:0:
208,156,192168,2,0,P|220:204|216:232,1,62.5,0|0,1:0|0:0,0:0:0:0:
40,300,192361,2,0,P|76:276|104:272,1,62.5,2|0,3:2|0:0,0:0:0:0:
203,333,192553,5,2,3:2:0:0:
227,346,192617,1,0,3:0:0:0:
254,356,192681,1,0,3:0:0:0:
283,359,192745,1,0,3:0:0:0:
311,359,192809,1,0,3:0:0:0:
339,352,192873,1,0,3:0:0:0:
365,339,192937,6,0,P|383:320|396:298,3,41.6666666666667,0|0|0|0,1:0|3:0|3:0|3:0,0:0:0:0:
303,251,193226,2,0,P|283:178|298:127,1,125,2|0,3:2|0:0,0:0:0:0:
428,184,193514,2,0,P|379:191|354:184,1,62.5,2|0,3:2|0:0,0:0:0:0:
223,115,193707,5,0,1:0:0:0:
168,101,193803,1,0,3:0:0:0:
112,106,193899,1,2,3:2:0:0:
66,138,193995,1,0,3:0:0:0:
30,180,194091,6,0,P|19:232|41:302,1,125,4|0,1:2|0:0,0:0:0:0:
180,231,194380,1,2,3:2:0:0:
180,231,194476,2,0,P|184:202|176:167,1,62.5,0|0,1:0|0:0,0:0:0:0:
260,42,194668,2,0,P|274:67|302:89,1,62.5,2|0,3:2|0:0,0:0:0:0:
428,184,194861,6,0,P|398:175|364:178,1,62.5,4|0,1:2|0:0,0:0:0:0:
217,304,195053,2,0,P|187:312|152:310,1,62.5,4|0,1:2|0:0,0:0:0:0:
325,273,195245,2,0,B|362:299|362:299|412:299,2,91.6666694641114,4|0|0,1:2|1:1|1:1,0:0:0:0:
270,139,195630,6,0,P|211:174|124:164,1,137.500004196167,4|0,1:2|0:0,0:0:0:0:
354,62,195918,1,0,3:0:0:0:
354,62,196014,2,0,P|378:146|358:216,1,137.500004196167,6|0,1:2|0:0,0:0:0:0:
165,279,196303,2,0,L|310:220,1,137.500004196167,6|2,1:2|0:0,0:0:0:0:
192,89,196591,2,0,P|216:64|246:49,1,68.7500020980836,2|0,3:2|3:0,0:0:0:0:
292,227,196784,2,0,P|277:303|376:249,1,234.375,6|0,1:0|0:0,0:0:0:0:
270,139,197168,5,4,1:2:0:0:
106,48,197361,1,0,1:0:0:0:
80,83,197457,1,0,1:0:0:0:
69,125,197553,5,4,3:0:0:0:
70,168,197649,1,8,3:0:0:0:
82,209,197745,1,2,3:2:0:0:
104,246,197841,2,0,P|148:288|210:306,1,125,4|0,3:2|3:0,0:0:0:0:
338,185,198130,2,0,L|282:235,1,62.5,0|0,1:0|0:0,0:0:0:0:
391,93,198322,2,0,L|447:143,1,62.5,0|8,1:0|3:0,0:0:0:0:
291,43,198514,1,2,3:2:0:0:
246,43,198611,1,4,3:0:0:0:
202,43,198707,5,0,1:0:0:0:
184,66,198771,1,2,3:2:0:0:
166,89,198835,1,2,3:2:0:0:
148,112,198899,2,0,L|111:162,1,62.5,0|0,1:0|3:0,0:0:0:0:
213,225,199091,5,8,3:0:0:0:
231,248,199155,1,8,3:0:0:0:
249,271,199219,1,8,3:0:0:0:
267,294,199284,2,0,L|303:344,1,62.5,2|0,3:2|3:0,0:0:0:0:
338,185,199476,2,0,P|331:151|336:107,1,62.5,2|0,3:2|1:0,0:0:0:0:
435,88,199668,5,2,3:2:0:0:
447,114,199732,1,0,3:0:0:0:
454,142,199796,1,0,3:0:0:0:
457,171,199861,1,0,1:0:0:0:
457,200,199925,1,0,3:0:0:0:
452,228,199989,1,0,3:0:0:0:
442,255,200053,1,4,3:0:0:0:
427,280,200117,1,0,3:0:0:0:
407,301,200181,1,0,3:0:0:0:
382,317,200245,6,0,P|332:332|288:328,1,62.5,4|0,1:2|0:0,0:0:0:0:
212,225,200437,2,0,P|242:213|272:209,1,62.5,0|0,3:0|0:0,0:0:0:0:
168,336,200630,1,0,3:0:0:0:
168,336,200726,2,0,P|122:304|113:286,1,62.5,4|0,3:0|0:0,0:0:0:0:
132,148,200918,6,0,P|76:200|20:208,1,125,4|0,1:2|0:0,0:0:0:0:
92,56,201207,2,0,P|124:48|180:52,1,62.5,0|0,1:0|0:0,0:0:0:0:
264,84,201399,5,0,3:0:0:0:
295,93,201463,1,0,3:0:0:0:
328,94,201527,1,0,3:0:0:0:
360,88,201591,2,0,P|389:76|406:61,2,41.6666666666667,0|0|0,3:0|3:0|3:0,0:0:0:0:
302,196,201784,5,4,1:2:0:0:
263,227,201880,1,0,3:0:0:0:
215,241,201976,1,0,3:0:0:0:
165,241,202072,1,0,3:0:0:0:
118,222,202168,1,0,1:0:0:0:
83,186,202264,2,0,P|62:139|62:114,1,62.5,4|0,3:0|0:0,0:0:0:0:
295,93,202457,6,0,P|270:124|225:144,1,62.5,4|0,1:2|0:0,0:0:0:0:
111,33,202649,2,0,P|151:25|193:32,1,62.5,4|0,1:2|0:0,0:0:0:0:
302,196,202841,2,0,P|281:259|218:313,1,125,4|0,1:2|0:0,0:0:0:0:
120,314,203130,1,0,3:0:0:0:
74,294,203226,5,4,1:2:0:0:
44,253,203322,1,0,3:0:0:0:
31,204,203418,1,0,3:0:0:0:
33,154,203514,1,0,3:0:0:0:
59,111,203610,1,0,3:0:0:0:
99,81,203706,2,0,P|122:73|172:71,1,62.5,4|0,3:0|0:0,0:0:0:0:
234,224,203899,6,0,P|290:230|362:207,1,125,4|0,1:2|0:0,0:0:0:0:
444,58,204187,2,0,P|426:84|418:113,1,62.5,0|0,1:0|0:0,0:0:0:0:
450,219,204379,5,0,3:0:0:0:
455,251,204444,1,0,3:0:0:0:
450,284,204508,1,0,3:0:0:0:
442,316,204572,2,0,P|431:340|404:363,2,41.6666666666667,0|0|0,3:0|3:0|3:0,0:0:0:0:
355,210,204764,6,0,P|332:158|337:125,1,62.5,4|0,1:2|0:0,0:0:0:0:
279,317,204956,2,0,P|245:324|191:305,1,62.5,0|0,3:0|0:0,0:0:0:0:
102,208,205149,1,0,3:0:0:0:
102,208,205245,2,0,P|116:245|116:272,1,62.5,0|0,1:0|0:0,0:0:0:0:
37,127,205437,6,0,P|73:105|114:104,1,62.5,4|0,1:2|0:0,0:0:0:0:
261,193,205630,2,0,P|217:198|194:191,1,62.5,4|0,1:2|0:0,0:0:0:0:
175,24,205822,2,0,P|260:17|330:50,1,125,4|0,1:2|0:0,0:0:0:0:
417,97,206110,1,0,3:0:0:0:
440,140,206207,5,4,1:2:0:0:
450,187,206303,1,0,3:0:0:0:
447,237,206399,1,0,3:0:0:0:
428,283,206495,1,0,3:0:0:0:
393,319,206591,1,0,3:0:0:0:
346,337,206687,2,0,P|315:341|284:336,1,62.5,4|0,3:0|0:0,0:0:0:0:
198,186,206880,6,0,P|257:169|318:181,1,125,4|0,1:2|0:0,0:0:0:0:
136,270,207168,2,0,P|108:243|94:200,1,62.5,0|0,1:0|0:0,0:0:0:0:
122,110,207361,5,0,3:0:0:0:
142,83,207425,1,0,3:0:0:0:
168,62,207489,1,0,3:0:0:0:
197,46,207553,1,0,3:0:0:0:
229,37,207617,1,0,3:0:0:0:
262,33,207681,1,0,3:0:0:0:
294,35,207745,6,0,P|359:55|411:97,1,125,4|0,1:2|3:0,0:0:0:0:
450,227,208034,2,0,P|385:229|311:186,1,131.249995994568,4|0,1:2|3:0,0:0:0:0:
155,133,208322,2,0,P|221:109|312:130,1,143.750002741814,4|0,1:2|3:0,0:0:0:0:
324,336,208611,2,0,P|235:288|206:234,1,156.25,4|0,1:2|3:0,0:0:0:0:
73,45,208899,2,0,P|36:131|28:197,1,156.25,4|0,1:2|3:0,0:0:0:0:
104,300,209187,1,4,3:0:0:0:
104,300,209379,6,0,P|103:238|134:178,1,125,4|0,1:2|3:0,0:0:0:0:
166,147,209667,1,0,3:0:0:0:
214,134,209763,2,0,P|247:128|292:133,1,62.5,0|0,3:0|0:0,0:0:0:0:
429,238,209956,6,0,P|392:237|343:213,1,62.5,4|0,1:2|0:0,0:0:0:0:
365,68,210148,2,0,P|378:96|383:126,1,62.5,0|0,3:0|0:0,0:0:0:0:
300,304,210340,2,0,P|241:312|169:282,1,125,0|0,1:0|0:0,0:0:0:0:
33,186,210629,1,4,1:2:0:0:
33,186,210917,6,0,L|12:127,1,62.5,0|0,3:0|0:0,0:0:0:0:
136,125,211110,2,0,L|135:62,1,62.5,0|0,3:0|0:0,0:0:0:0:
254,105,211302,2,0,L|274:45,1,62.5,0|0,3:0|0:0,0:0:0:0:
374,124,211494,5,6,3:0:0:0:
399,144,211558,1,0,3:0:0:0:
421,168,211623,1,0,3:0:0:0:
438,196,211687,1,0,3:0:0:0:
449,227,211751,1,0,3:0:0:0:
454,260,211815,1,0,3:0:0:0:
457,293,211879,6,0,P|454:320|436:356,1,62.5,4|0,3:0|0:0,0:0:0:0:
283,235,212071,2,0,P|286:208|304:172,1,62.5,0|0,3:0|0:0,0:0:0:0:
309,338,212264,6,0,P|275:340|247:334,1,62.5,4|0,1:2|0:0,0:0:0:0:
101,197,212456,2,0,P|134:194|162:200,1,62.5,0|0,3:0|0:0,0:0:0:0:
122,348,212648,1,0,3:0:0:0:
122,348,212744,2,0,P|119:314|125:286,1,62.5,4|0,3:0|0:0,0:0:0:0:
252,125,212937,6,0,P|314:111|390:132,1,125,4|0,1:2|0:0,0:0:0:0:
303,254,213225,2,0,P|272:257|240:255,1,62.5,0|0,1:0|0:0,0:0:0:0:
101,197,213417,5,0,3:0:0:0:
76,172,213482,1,0,3:0:0:0:
66,139,213546,1,0,3:0:0:0:
67,106,213610,2,0,P|74:74|86:55,2,41.6666666666667,0|0|0,3:0|3:0|3:0,0:0:0:0:
190,123,213802,6,0,P|223:128|275:117,1,62.5,4|0,1:2|0:0,0:0:0:0:
433,60,213994,2,0,P|400:55|348:66,1,62.5,0|0,3:0|0:0,0:0:0:0:
400,212,214187,1,0,1:0:0:0:
400,212,214283,2,0,P|405:176|400:147,1,62.5,4|0,3:0|0:0,0:0:0:0:
277,36,214475,6,0,P|246:30|215:33,1,62.5,4|0,1:2|0:0,0:0:0:0:
168,242,214668,2,0,P|203:216|221:182,1,62.5,4|0,1:2|0:0,0:0:0:0:
81,32,214860,2,0,P|50:78|44:162,1,125,4|0,1:2|0:0,0:0:0:0:
60,266,215148,1,0,3:0:0:0:
75,313,215245,5,4,1:2:0:0:
111,347,215341,1,0,3:0:0:0:
160,356,215437,1,0,3:0:0:0:
209,351,215533,1,0,3:0:0:0:
251,324,215629,1,0,3:0:0:0:
275,280,215725,2,0,P|284:243|281:216,1,62.5,4|0,3:0|0:0,0:0:0:0:
160,112,215918,6,0,P|220:136|296:120,1,125,4|0,1:2|0:0,0:0:0:0:
476,45,216206,2,0,P|424:57|392:77,1,62.5,0|0,1:0|0:0,0:0:0:0:
364,187,216398,5,0,3:0:0:0:
356,218,216463,1,0,3:0:0:0:
359,252,216527,1,0,3:0:0:0:
372,282,216591,2,0,P|383:305|404:322,2,41.6666666666667,0|0|0,3:0|3:0|3:0,0:0:0:0:
281,219,216783,6,0,P|245:213|212:219,1,62.5,4|0,1:2|0:0,0:0:0:0:
45,291,216975,2,0,P|81:297|114:291,1,62.5,0|0,3:0|0:0,0:0:0:0:
88,131,217168,1,0,3:0:0:0:
88,131,217264,2,0,P|82:167|88:200,1,62.5,0|0,1:0|0:0,0:0:0:0:
221,344,217456,6,0,P|243:321|259:294,1,62.5,4|0,1:2|0:0,0:0:0:0:
186,111,217649,2,0,P|191:145|209:176,1,62.5,4|0,1:2|0:0,0:0:0:0:
389,269,217841,2,0,P|334:226|262:221,1,125,4|0,1:2|0:0,0:0:0:0:
128,257,218129,1,0,3:0:0:0:
78,253,218226,5,4,1:2:0:0:
36,225,218322,1,0,3:0:0:0:
12,180,218418,1,0,3:0:0:0:
14,130,218514,1,0,3:0:0:0:
31,83,218610,1,0,3:0:0:0:
70,52,218706,2,0,P|98:46|140:49,1,62.5,4|0,3:0|0:0,0:0:0:0:
228,183,218899,6,0,P|152:184|106:149,1,125,4|0,1:2|0:0,0:0:0:0:
278,106,219187,2,0,P|302:131|318:175,1,62.5,0|0,1:0|0:0,0:0:0:0:
302,278,219379,5,0,3:0:0:0:
290,308,219444,1,0,3:0:0:0:
269,335,219508,1,0,3:0:0:0:
242,355,219572,2,0,P|226:366|203:372,2,41.6666666666667,0|0|0,3:0|3:0|3:0,0:0:0:0:
390,334,219764,6,0,P|438:297|463:240,1,125,4|0,1:2|3:0,0:0:0:0:
370,115,220053,2,0,P|387:180|376:241,1,131.249995994568,4|0,1:2|3:0,0:0:0:0:
200,278,220341,2,0,P|265:230|301:179,1,143.750002741814,4|0,1:2|3:0,0:0:0:0:
108,38,220630,2,0,P|171:103|201:189,1,156.25,4|0,1:2|3:0,0:0:0:0:
13,285,220918,2,0,P|45:207|101:138,1,156.25,4|0,1:2|3:0,0:0:0:0:
236,44,221207,1,4,3:0:0:0:
236,44,221399,6,0,P|299:32|369:47,1,125,4|0,1:2|3:0,0:0:0:0:
396,75,221687,1,0,3:0:0:0:
419,118,221783,2,0,P|425:165|416:197,1,62.5,0|0,3:0|0:0,0:0:0:0:
231,241,221976,6,0,P|252:201|279:181,1,62.5,4|0,1:2|0:0,0:0:0:0:
413,315,222168,2,0,P|374:340|343:345,1,62.5,0|0,3:0|0:0,0:0:0:0:
195,140,222360,2,0,P|255:109|331:120,1,125,0|0,1:0|0:0,0:0:0:0:
426,210,222649,1,4,1:2:0:0:
426,210,222937,6,0,P|392:230|347:237,1,62.5,2|2,3:2|3:2,0:0:0:0:
231,241,223130,2,0,L|148:233,2,83.3333333333333,0|2|0,1:0|3:2|1:0,0:0:0:0:
362,132,223514,2,0,P|372:81|364:40,2,83.3333333333333,2|0|0,3:2|3:0|3:0,0:0:0:0:
231,241,223899,2,0,P|204:287|295:323,1,166.666666666667,2|2,3:2|3:2,0:0:0:0:
196,140,224283,6,0,L|107:131,1,83.3333333333333,4|0,3:0|3:0,0:0:0:0:
279,50,224540,1,2,3:2:0:0:
302,189,224668,2,0,P|328:236|368:263,2,83.3333333333333,0|0|0,1:0|1:0|1:0,0:0:0:0:
409,76,225053,6,0,P|410:55|407:34,2,41.6666666666667,2|2|2,3:2|3:2|3:2,0:0:0:0:
459,232,225309,1,2,3:2:0:0:
302,189,225437,2,0,P|230:206|209:228,1,83.3333333333333,2|2,3:2|3:2,0:0:0:0:
148,342,225694,1,8,3:0:0:0:
80,205,225822,6,0,L|56:170,5,41.6666666666667,0|0|2|2|4|4,1:0|1:0|3:2|3:2|3:0|3:0,0:0:0:0:
153,101,226207,2,0,L|141:61,5,41.6666666666667,8|8|2|2|4|4,3:0|3:0|3:2|3:2|3:0|3:0,0:0:0:0:
259,60,226591,5,8,3:0:0:0:
291,53,226655,1,8,3:0:0:0:
324,51,226719,1,2,3:2:0:0:
357,54,226783,1,2,3:2:0:0:
388,64,226848,1,4,3:0:0:0:
417,79,226912,1,4,3:0:0:0:
442,99,226976,6,0,P|454:140|450:196,1,83.3333333333333,4|4,1:3|3:0,0:0:0:0:
453,180,227360,6,0,L|404:312,1,137.500004196167,4|0,0:0|0:0,0:0:0:0:
327,190,227617,2,0,L|278:322,1,137.500004196167,4|0,0:0|0:0,0:0:0:0:
201,200,227873,2,0,L|152:332,1,137.500004196167,4|0,0:0|0:0,0:0:0:0:
75,210,228130,2,0,L|26:342,1,137.500004196167,4|0,0:0|0:0,0:0:0:0:
374,61,228642,6,0,L|325:193,1,137.500004196167,4|0,0:0|0:0,0:0:0:0:
248,71,228899,2,0,L|199:203,1,137.500004196167,4|0,0:0|0:0,0:0:0:0:
122,81,229155,2,0,L|73:213,1,137.500004196167,4|0,0:0|0:0,0:0:0:0:
327,190,229668,6,0,L|314:223,8,34.3750010490418,2|0|0|0|0|0|0|0|4,0:0|0:0|0:0|0:0|3:0|1:0|3:0|3:0|3:2,0:0:0:0:
