osu file format v12

[General]
AudioFilename: 06 Mirage Garden.mp3
AudioLeadIn: 0
PreviewTime: 123292
Countdown: 0
SampleSet: Normal
StackLeniency: 0.7
Mode: 1
LetterboxInBreaks: 0

[Editor]
DistanceSpacing: 1.4
BeatDivisor: 4
GridSize: 8

[Metadata]
Title:Mirage Garden
TitleUnicode:Mirage Garden
Artist:xi
ArtistUnicode:xi
Creator:Mono Kuma
Version:Mono Taiko
Source:
Tags:xi
BeatmapID:244082
BeatmapSetID:89851

[Difficulty]
HPDrainRate:5
CircleSize:5
OverallDifficulty:5
ApproachRate:5
SliderMultiplier:1.6
SliderTickRate:1

[Events]
//Background and Video events
0,0,"Konachan.com - 13881 garden goth-loli robot scenic simosi walpurgisnacht.jpg",1,1
//Break Periods
//Storyboard Layer 0 (Background)
//Storyboard Layer 1 (Fail)
//Storyboard Layer 2 (Pass)
//Storyboard Layer 3 (Foreground)
//Storyboard Sound Samples
//Background Colour Transformations
3,100,163,162,255

[TimingPoints]
1000,616.649537512847,4,1,0,30,1,0
2695,616.649537512847,4,1,0,30,1,0
4390,616.649537512847,4,1,0,30,1,0
6085,616.649537512847,4,1,0,30,1,0
7780,616.649537512847,4,1,0,30,1,0
9475,616.649537512847,4,1,0,30,1,0
11016,616.649537512847,4,1,0,30,1,0
12557,616.649537512847,4,1,0,30,1,0
14406,616.649537512847,4,1,0,30,1,0
16101,616.649537512847,4,1,0,30,1,0
17796,616.649537512847,4,1,0,30,1,0
19491,616.649537512847,4,1,0,30,1,0
21183,616.649537512847,4,1,0,30,1,0
22875,616.649537512847,4,1,0,30,1,0
24570,631.578947368421,4,1,0,30,1,0
25043,652.173913043478,4,1,0,30,1,0
25532,674.157303370787,4,1,0,30,1,0
26037,705.882352941176,4,1,0,30,1,0
26571,384.615384615385,4,1,0,30,1,0
29647,-100,4,1,0,80,0,0
32628,384.615384615385,4,1,0,80,1,0
35608,384.615384615385,4,1,0,80,1,0
41665,384.615384615385,4,1,0,80,1,0
44645,384.615384615385,4,1,0,80,1,0
47625,384.615384615385,4,1,0,80,1,0
53679,384.615384615385,4,1,0,60,1,0
56371,384.615384615385,4,1,0,60,1,0
59063,384.615384615385,4,1,0,60,1,0
61755,384.615384615385,4,1,0,60,1,0
64639,384.615384615385,4,1,0,60,1,0
67334,384.615384615385,4,1,0,60,1,0
70026,384.615384615385,4,1,0,60,1,0
72718,384.615384615385,4,1,0,60,1,0
75600,384.615384615385,4,1,0,40,1,0
99830,-100,4,1,0,60,0,1
123292,-100,4,1,0,40,0,0
147907,-100,4,1,0,60,0,1
172523,-100,4,1,0,60,0,0
197138,-100,4,1,0,40,0,0
200215,-100,4,1,0,80,0,1
203195,384.615384615385,4,1,0,80,1,1
206173,384.615384615385,4,1,0,80,1,1
212229,384.615384615385,4,1,0,80,1,1
215209,384.615384615385,4,1,0,80,1,1
218189,384.615384615385,4,1,0,80,1,1
222868,384.615384615385,4,1,0,60,1,0
227322,384.615384615385,4,1,0,80,1,1
227386,-100,4,1,0,80,0,0
227578,-100,4,1,0,80,0,1
227642,-100,4,1,0,80,0,0
227834,-100,4,1,0,80,0,1
227898,-100,4,1,0,80,0,0
228091,-100,4,1,0,80,0,1
228155,-100,4,1,0,80,0,0
228604,-100,4,1,0,80,0,1
228668,-100,4,1,0,80,0,0
228860,-100,4,1,0,80,0,1
228924,-100,4,1,0,80,0,0
229116,-100,4,1,0,80,0,1
229180,-100,4,1,0,80,0,0

[HitObjects]
256,192,1000,1,14,0:0:0:0:
256,192,1308,1,0,0:0:0:0:
256,192,1462,1,0,0:0:0:0:
256,192,1770,1,10,0:0:0:0:
256,192,1924,1,10,0:0:0:0:
256,192,2002,1,10,0:0:0:0:
256,192,2079,1,0,0:0:0:0:
256,192,2233,1,0,0:0:0:0:
256,192,2387,1,0,0:0:0:0:
256,192,2541,1,10,0:0:0:0:
256,192,2695,1,14,0:0:0:0:
256,192,3003,1,0,0:0:0:0:
256,192,3157,1,0,0:0:0:0:
256,192,3465,1,10,0:0:0:0:
256,192,3928,1,0,0:0:0:0:
256,192,4005,1,10,0:0:0:0:
256,192,4082,1,0,0:0:0:0:
256,192,4236,1,10,0:0:0:0:
256,192,4390,1,4,0:0:0:0:
256,192,4698,1,0,0:0:0:0:
256,192,4852,1,10,0:0:0:0:
256,192,5160,1,0,0:0:0:0:
256,192,5469,1,0,0:0:0:0:
256,192,5623,1,10,0:0:0:0:
256,192,5777,1,0,0:0:0:0:
256,192,5880,1,0,0:0:0:0:
256,192,5983,1,0,0:0:0:0:
256,192,6085,1,14,0:0:0:0:
256,192,6393,1,0,0:0:0:0:
256,192,6547,1,0,0:0:0:0:
256,192,6855,1,10,0:0:0:0:
256,192,7164,1,10,0:0:0:0:
256,192,7266,1,0,0:0:0:0:
256,192,7369,1,0,0:0:0:0:
256,192,7472,1,10,0:0:0:0:
256,192,7549,1,10,0:0:0:0:
256,192,7626,1,0,0:0:0:0:
256,192,7703,1,0,0:0:0:0:
256,192,7780,1,14,0:0:0:0:
256,192,8088,1,0,0:0:0:0:
256,192,8242,1,0,0:0:0:0:
256,192,8550,1,10,0:0:0:0:
256,192,8704,1,0,0:0:0:0:
256,192,8782,1,0,0:0:0:0:
256,192,8859,1,10,0:0:0:0:
256,192,9064,1,4,0:0:0:0:
256,192,9270,1,4,0:0:0:0:
256,192,9475,1,14,0:0:0:0:
256,192,9937,1,10,0:0:0:0:
256,192,10399,1,0,0:0:0:0:
256,192,10708,1,10,0:0:0:0:
256,192,11016,1,0,0:0:0:0:
256,192,11478,1,8,0:0:0:0:
256,192,11940,1,8,0:0:0:0:
256,192,12249,1,0,0:0:0:0:
256,192,12326,1,0,0:0:0:0:
256,192,12403,1,0,0:0:0:0:
256,192,12480,1,0,0:0:0:0:
256,192,12557,1,10,0:0:0:0:
256,192,12711,1,10,0:0:0:0:
256,192,12865,1,0,0:0:0:0:
256,192,13019,1,10,0:0:0:0:
256,192,13173,1,0,0:0:0:0:
256,192,13327,1,0,0:0:0:0:
256,192,13481,1,10,0:0:0:0:
256,192,13636,1,0,0:0:0:0:
256,192,13790,1,0,0:0:0:0:
256,192,13944,1,0,0:0:0:0:
256,192,14098,1,10,0:0:0:0:
256,192,14406,1,14,0:0:0:0:
256,192,14714,1,0,0:0:0:0:
256,192,14868,1,0,0:0:0:0:
256,192,15176,1,10,0:0:0:0:
256,192,15330,1,10,0:0:0:0:
256,192,15408,1,10,0:0:0:0:
256,192,15485,1,0,0:0:0:0:
256,192,15639,1,0,0:0:0:0:
256,192,15793,1,0,0:0:0:0:
256,192,15947,1,10,0:0:0:0:
256,192,16101,1,14,0:0:0:0:
256,192,16409,1,0,0:0:0:0:
256,192,16563,1,0,0:0:0:0:
256,192,16871,1,10,0:0:0:0:
256,192,17334,1,0,0:0:0:0:
256,192,17411,1,10,0:0:0:0:
256,192,17488,1,0,0:0:0:0:
256,192,17642,1,10,0:0:0:0:
256,192,17796,1,4,0:0:0:0:
256,192,18104,1,0,0:0:0:0:
256,192,18258,1,10,0:0:0:0:
256,192,18566,1,0,0:0:0:0:
256,192,18875,1,0,0:0:0:0:
256,192,19029,1,10,0:0:0:0:
256,192,19183,1,0,0:0:0:0:
256,192,19286,1,0,0:0:0:0:
256,192,19389,1,0,0:0:0:0:
256,192,19491,1,14,0:0:0:0:
256,192,19799,1,0,0:0:0:0:
256,192,19953,1,0,0:0:0:0:
256,192,20261,1,10,0:0:0:0:
256,192,20570,1,10,0:0:0:0:
256,192,20672,1,0,0:0:0:0:
256,192,20775,1,0,0:0:0:0:
256,192,20878,1,10,0:0:0:0:
256,192,20955,1,10,0:0:0:0:
256,192,21032,1,0,0:0:0:0:
256,192,21109,1,0,0:0:0:0:
256,192,21183,1,14,0:0:0:0:
256,192,21491,1,0,0:0:0:0:
256,192,21645,1,0,0:0:0:0:
256,192,21953,1,10,0:0:0:0:
256,192,22107,1,0,0:0:0:0:
256,192,22185,1,0,0:0:0:0:
256,192,22262,1,10,0:0:0:0:
256,192,22467,1,4,0:0:0:0:
256,192,22673,1,4,0:0:0:0:
256,192,22875,1,14,0:0:0:0:
256,192,23337,1,10,0:0:0:0:
256,192,23799,1,0,0:0:0:0:
256,192,24056,1,10,0:0:0:0:
256,192,24108,1,10,0:0:0:0:
256,192,24159,1,10,0:0:0:0:
256,192,24211,1,0,0:0:0:0:
256,192,24416,1,10,0:0:0:0:
256,192,24570,1,14,0:0:0:0:
256,192,24885,1,0,0:0:0:0:
256,192,25043,1,10,0:0:0:0:
256,192,25369,1,0,0:0:0:0:
256,192,25532,1,10,0:0:0:0:
256,192,25869,1,4,0:0:0:0:
256,192,26213,1,4,0:0:0:0:
256,192,26571,1,4,0:0:0:0:
256,192,26763,1,10,0:0:0:0:
256,192,26859,1,10,0:0:0:0:
256,192,26955,1,0,0:0:0:0:
256,192,27147,1,10,0:0:0:0:
256,192,27244,1,10,0:0:0:0:
256,192,27340,1,0,0:0:0:0:
256,192,27532,1,10,0:0:0:0:
256,192,27628,1,10,0:0:0:0:
256,192,27724,1,0,0:0:0:0:
256,192,27917,1,10,0:0:0:0:
256,192,28013,1,10,0:0:0:0:
256,192,28109,1,0,0:0:0:0:
256,192,28301,1,10,0:0:0:0:
256,192,28494,1,0,0:0:0:0:
256,192,28590,1,0,0:0:0:0:
256,192,28686,1,0,0:0:0:0:
256,192,28878,1,0,0:0:0:0:
256,192,28974,1,0,0:0:0:0:
256,192,29071,1,10,0:0:0:0:
256,192,29135,1,10,0:0:0:0:
256,192,29199,1,10,0:0:0:0:
256,192,29263,1,0,0:0:0:0:
256,192,29327,1,0,0:0:0:0:
256,192,29391,1,0,0:0:0:0:
256,192,29455,1,0,0:0:0:0:
256,192,29647,1,10,0:0:0:0:
256,192,29744,1,0,0:0:0:0:
256,192,29840,1,0,0:0:0:0:
256,192,29936,1,0,0:0:0:0:
256,192,30032,1,0,0:0:0:0:
256,192,30128,1,10,0:0:0:0:
256,192,30321,1,0,0:0:0:0:
256,192,30513,1,0,0:0:0:0:
256,192,30609,1,10,0:0:0:0:
256,192,30705,1,0,0:0:0:0:
256,192,30801,1,10,0:0:0:0:
256,192,30865,1,10,0:0:0:0:
256,192,30929,1,10,0:0:0:0:
256,192,30994,1,0,0:0:0:0:
256,192,31058,1,10,0:0:0:0:
256,192,31122,1,10,0:0:0:0:
256,192,31186,1,10,0:0:0:0:
256,192,31282,1,0,0:0:0:0:
256,192,31378,1,0,0:0:0:0:
256,192,31474,1,0,0:0:0:0:
256,192,31571,1,0,0:0:0:0:
256,192,31667,1,10,0:0:0:0:
256,192,31859,1,4,0:0:0:0:
256,192,32051,1,4,0:0:0:0:
256,192,32244,1,14,0:0:0:0:
256,192,32628,1,10,0:0:0:0:
256,192,32724,1,0,0:0:0:0:
256,192,32820,1,0,0:0:0:0:
256,192,32916,1,0,0:0:0:0:
256,192,33012,1,0,0:0:0:0:
256,192,33108,1,10,0:0:0:0:
256,192,33301,1,0,0:0:0:0:
256,192,33493,1,0,0:0:0:0:
256,192,33589,1,10,0:0:0:0:
256,192,33685,1,0,0:0:0:0:
256,192,33781,1,10,0:0:0:0:
256,192,33845,1,10,0:0:0:0:
256,192,33909,1,10,0:0:0:0:
256,192,33974,1,0,0:0:0:0:
256,192,34038,1,10,0:0:0:0:
256,192,34102,1,10,0:0:0:0:
256,192,34166,1,10,0:0:0:0:
256,192,34262,1,0,0:0:0:0:
256,192,34358,1,0,0:0:0:0:
256,192,34454,1,0,0:0:0:0:
256,192,34551,1,0,0:0:0:0:
256,192,34647,1,10,0:0:0:0:
256,192,34839,1,4,0:0:0:0:
256,192,35031,1,14,0:0:0:0:
256,192,35224,1,14,0:0:0:0:
256,192,35608,1,10,0:0:0:0:
256,192,35705,1,0,0:0:0:0:
256,192,35801,1,0,0:0:0:0:
256,192,35897,1,0,0:0:0:0:
256,192,35993,1,0,0:0:0:0:
256,192,36089,1,10,0:0:0:0:
256,192,36282,1,0,0:0:0:0:
256,192,36474,1,0,0:0:0:0:
256,192,36570,1,10,0:0:0:0:
256,192,36666,1,0,0:0:0:0:
256,192,36762,1,10,0:0:0:0:
256,192,36826,1,10,0:0:0:0:
256,192,36890,1,10,0:0:0:0:
256,192,36955,1,0,0:0:0:0:
256,192,37019,1,10,0:0:0:0:
256,192,37083,1,10,0:0:0:0:
256,192,37147,1,10,0:0:0:0:
256,192,37243,1,0,0:0:0:0:
256,192,37339,1,0,0:0:0:0:
256,192,37435,1,10,0:0:0:0:
256,192,37532,1,0,0:0:0:0:
256,192,37627,1,0,0:0:0:0:
256,192,37723,1,10,0:0:0:0:
256,192,37819,1,0,0:0:0:0:
256,192,37915,1,0,0:0:0:0:
256,192,38011,1,10,0:0:0:0:
256,192,38108,1,0,0:0:0:0:
256,192,38204,1,0,0:0:0:0:
256,192,38300,1,10,0:0:0:0:
256,192,38396,1,0,0:0:0:0:
256,192,38492,1,0,0:0:0:0:
256,192,38781,1,14,0:0:0:0:
256,192,39358,1,14,0:0:0:0:
256,192,39742,1,4,0:0:0:0:
256,192,40031,1,4,0:0:0:0:
120,200,40318,2,0,L|280:117,1,160
256,192,40896,1,0,0:0:0:0:
256,192,40992,1,0,0:0:0:0:
256,192,41088,1,0,0:0:0:0:
256,192,41184,1,10,0:0:0:0:
256,192,41281,1,10,0:0:0:0:
256,192,41377,1,0,0:0:0:0:
256,192,41473,1,0,0:0:0:0:
256,192,41569,1,10,0:0:0:0:
256,192,41664,1,10,0:0:0:0:
256,192,41761,1,0,0:0:0:0:
256,192,41857,1,0,0:0:0:0:
256,192,41953,1,0,0:0:0:0:
256,192,42049,1,0,0:0:0:0:
256,192,42145,1,10,0:0:0:0:
256,192,42338,1,0,0:0:0:0:
256,192,42530,1,0,0:0:0:0:
256,192,42626,1,10,0:0:0:0:
256,192,42722,1,0,0:0:0:0:
256,192,42818,1,10,0:0:0:0:
256,192,42882,1,10,0:0:0:0:
256,192,42946,1,10,0:0:0:0:
256,192,43011,1,0,0:0:0:0:
256,192,43075,1,10,0:0:0:0:
256,192,43139,1,10,0:0:0:0:
256,192,43203,1,10,0:0:0:0:
256,192,43299,1,0,0:0:0:0:
256,192,43395,1,0,0:0:0:0:
256,192,43491,1,0,0:0:0:0:
256,192,43588,1,0,0:0:0:0:
256,192,43684,1,10,0:0:0:0:
256,192,43876,1,4,0:0:0:0:
256,192,44068,1,4,0:0:0:0:
256,192,44261,1,14,0:0:0:0:
256,192,44644,1,10,0:0:0:0:
256,192,44741,1,0,0:0:0:0:
256,192,44837,1,0,0:0:0:0:
256,192,44933,1,0,0:0:0:0:
256,192,45029,1,0,0:0:0:0:
256,192,45125,1,10,0:0:0:0:
256,192,45318,1,0,0:0:0:0:
256,192,45510,1,0,0:0:0:0:
256,192,45606,1,10,0:0:0:0:
256,192,45702,1,0,0:0:0:0:
256,192,45798,1,10,0:0:0:0:
256,192,45862,1,10,0:0:0:0:
256,192,45926,1,10,0:0:0:0:
256,192,45991,1,0,0:0:0:0:
256,192,46055,1,10,0:0:0:0:
256,192,46119,1,10,0:0:0:0:
256,192,46183,1,10,0:0:0:0:
256,192,46279,1,0,0:0:0:0:
256,192,46375,1,0,0:0:0:0:
256,192,46471,1,0,0:0:0:0:
256,192,46568,1,0,0:0:0:0:
256,192,46664,1,10,0:0:0:0:
256,192,46856,1,4,0:0:0:0:
256,192,47048,1,14,0:0:0:0:
256,192,47241,1,14,0:0:0:0:
256,192,47625,1,10,0:0:0:0:
256,192,47722,1,0,0:0:0:0:
256,192,47818,1,0,0:0:0:0:
256,192,47914,1,0,0:0:0:0:
256,192,48010,1,0,0:0:0:0:
256,192,48106,1,10,0:0:0:0:
256,192,48299,1,0,0:0:0:0:
256,192,48491,1,0,0:0:0:0:
256,192,48587,1,10,0:0:0:0:
256,192,48683,1,0,0:0:0:0:
256,192,48779,1,10,0:0:0:0:
256,192,48843,1,10,0:0:0:0:
256,192,48907,1,10,0:0:0:0:
256,192,48972,1,0,0:0:0:0:
256,192,49036,1,10,0:0:0:0:
256,192,49100,1,10,0:0:0:0:
256,192,49164,1,10,0:0:0:0:
256,192,49260,1,10,0:0:0:0:
256,192,49356,1,0,0:0:0:0:
256,192,49452,1,10,0:0:0:0:
256,192,49549,1,10,0:0:0:0:
256,192,49644,1,0,0:0:0:0:
256,192,49740,1,10,0:0:0:0:
256,192,49836,1,10,0:0:0:0:
256,192,49932,1,0,0:0:0:0:
256,192,50028,1,10,0:0:0:0:
256,192,50125,1,10,0:0:0:0:
256,192,50221,1,0,0:0:0:0:
256,192,50317,1,10,0:0:0:0:
256,192,50413,1,10,0:0:0:0:
256,192,50509,1,0,0:0:0:0:
256,192,50798,1,14,0:0:0:0:
256,192,51375,1,14,0:0:0:0:
256,192,51759,1,4,0:0:0:0:
256,192,52048,1,4,0:0:0:0:
96,264,52336,2,0,L|256:176,1,160
256,192,52913,1,0,0:0:0:0:
256,192,53009,1,0,0:0:0:0:
256,192,53105,1,10,0:0:0:0:
256,192,53201,1,0,0:0:0:0:
256,192,53298,1,10,0:0:0:0:
256,192,53394,1,10,0:0:0:0:
256,192,53490,1,10,0:0:0:0:
256,192,53586,1,0,0:0:0:0:
256,192,53679,1,0,0:0:0:0:
256,192,53775,1,0,0:0:0:0:
256,192,53871,1,0,0:0:0:0:
256,192,53967,1,10,0:0:0:0:
256,192,54159,1,0,0:0:0:0:
256,192,54255,1,10,0:0:0:0:
256,192,54352,1,0,0:0:0:0:
256,192,54448,1,10,0:0:0:0:
256,192,54640,1,0,0:0:0:0:
256,192,54832,1,0,0:0:0:0:
256,192,54929,1,0,0:0:0:0:
256,192,55025,1,10,0:0:0:0:
256,192,55121,1,10,0:0:0:0:
256,192,55217,1,0,0:0:0:0:
256,192,55409,1,0,0:0:0:0:
256,192,55505,1,0,0:0:0:0:
256,192,55602,1,10,0:0:0:0:
256,192,55698,1,0,0:0:0:0:
256,192,55890,1,0,0:0:0:0:
256,192,55986,1,10,0:0:0:0:
256,192,56082,1,10,0:0:0:0:
256,192,56179,1,0,0:0:0:0:
256,192,56374,1,0,0:0:0:0:
256,192,56470,1,0,0:0:0:0:
256,192,56566,1,0,0:0:0:0:
256,192,56662,1,10,0:0:0:0:
256,192,56854,1,0,0:0:0:0:
256,192,56950,1,10,0:0:0:0:
256,192,57047,1,0,0:0:0:0:
256,192,57143,1,10,0:0:0:0:
256,192,57335,1,0,0:0:0:0:
256,192,57527,1,0,0:0:0:0:
256,192,57624,1,10,0:0:0:0:
256,192,57720,1,10,0:0:0:0:
256,192,57816,1,10,0:0:0:0:
256,192,57912,1,0,0:0:0:0:
256,192,58104,1,0,0:0:0:0:
256,192,58200,1,0,0:0:0:0:
256,192,58297,1,10,0:0:0:0:
256,192,58393,1,0,0:0:0:0:
256,192,58585,1,0,0:0:0:0:
256,192,58681,1,10,0:0:0:0:
256,192,58777,1,10,0:0:0:0:
256,192,58874,1,0,0:0:0:0:
256,192,59066,1,0,0:0:0:0:
256,192,59162,1,0,0:0:0:0:
256,192,59258,1,0,0:0:0:0:
256,192,59354,1,10,0:0:0:0:
256,192,59546,1,0,0:0:0:0:
256,192,59642,1,10,0:0:0:0:
256,192,59739,1,0,0:0:0:0:
256,192,59835,1,10,0:0:0:0:
256,192,60027,1,0,0:0:0:0:
256,192,60219,1,0,0:0:0:0:
256,192,60316,1,0,0:0:0:0:
256,192,60412,1,10,0:0:0:0:
256,192,60508,1,10,0:0:0:0:
256,192,60604,1,0,0:0:0:0:
256,192,60796,1,0,0:0:0:0:
256,192,60892,1,0,0:0:0:0:
256,192,60989,1,10,0:0:0:0:
256,192,61085,1,0,0:0:0:0:
256,192,61277,1,0,0:0:0:0:
256,192,61373,1,10,0:0:0:0:
256,192,61469,1,10,0:0:0:0:
256,192,61566,1,0,0:0:0:0:
256,192,61758,1,0,0:0:0:0:
256,192,61854,1,0,0:0:0:0:
256,192,61950,1,0,0:0:0:0:
256,192,62046,1,10,0:0:0:0:
256,192,62238,1,0,0:0:0:0:
256,192,62334,1,10,0:0:0:0:
256,192,62431,1,0,0:0:0:0:
256,192,62527,1,10,0:0:0:0:
256,192,62719,1,0,0:0:0:0:
256,192,62911,1,10,0:0:0:0:
256,192,63008,1,0,0:0:0:0:
256,192,63104,1,10,0:0:0:0:
256,192,63200,1,10,0:0:0:0:
256,192,63296,1,10,0:0:0:0:
256,192,63392,1,0,0:0:0:0:
256,192,63488,1,10,0:0:0:0:
256,192,63584,1,10,0:0:0:0:
256,192,63681,1,10,0:0:0:0:
256,192,63777,1,0,0:0:0:0:
256,192,63873,1,10,0:0:0:0:
256,192,63969,1,10,0:0:0:0:
256,192,64065,1,10,0:0:0:0:
256,192,64161,1,0,0:0:0:0:
256,192,64258,1,10,0:0:0:0:
256,192,64354,1,0,0:0:0:0:
256,192,64450,1,0,0:0:0:0:
256,192,64546,1,10,0:0:0:0:
256,192,64642,1,0,0:0:0:0:
256,192,64738,1,0,0:0:0:0:
256,192,64834,1,10,0:0:0:0:
256,192,64930,1,10,0:0:0:0:
256,192,65122,1,0,0:0:0:0:
256,192,65218,1,10,0:0:0:0:
256,192,65315,1,0,0:0:0:0:
256,192,65411,1,10,0:0:0:0:
256,192,65507,1,10,0:0:0:0:
256,192,65603,1,0,0:0:0:0:
256,192,65795,1,0,0:0:0:0:
256,192,65892,1,10,0:0:0:0:
256,192,65988,1,10,0:0:0:0:
256,192,66084,1,10,0:0:0:0:
256,192,66180,1,0,0:0:0:0:
256,192,66372,1,0,0:0:0:0:
256,192,66468,1,0,0:0:0:0:
256,192,66565,1,10,0:0:0:0:
256,192,66661,1,0,0:0:0:0:
256,192,66853,1,0,0:0:0:0:
256,192,66949,1,10,0:0:0:0:
256,192,67045,1,10,0:0:0:0:
256,192,67142,1,0,0:0:0:0:
256,192,67331,1,0,0:0:0:0:
256,192,67427,1,0,0:0:0:0:
256,192,67523,1,0,0:0:0:0:
256,192,67619,1,10,0:0:0:0:
256,192,67811,1,0,0:0:0:0:
256,192,67907,1,10,0:0:0:0:
256,192,68004,1,0,0:0:0:0:
256,192,68100,1,10,0:0:0:0:
256,192,68196,1,0,0:0:0:0:
256,192,68292,1,0,0:0:0:0:
256,192,68484,1,0,0:0:0:0:
256,192,68581,1,10,0:0:0:0:
256,192,68677,1,10,0:0:0:0:
256,192,68773,1,0,0:0:0:0:
256,192,68869,1,0,0:0:0:0:
256,192,69061,1,0,0:0:0:0:
256,192,69157,1,0,0:0:0:0:
256,192,69254,1,10,0:0:0:0:
256,192,69350,1,0,0:0:0:0:
256,192,69542,1,0,0:0:0:0:
256,192,69638,1,10,0:0:0:0:
256,192,69734,1,10,0:0:0:0:
256,192,69831,1,0,0:0:0:0:
256,192,70026,1,0,0:0:0:0:
256,192,70122,1,0,0:0:0:0:
256,192,70218,1,10,0:0:0:0:
256,192,70314,1,10,0:0:0:0:
256,192,70506,1,0,0:0:0:0:
256,192,70602,1,10,0:0:0:0:
256,192,70699,1,0,0:0:0:0:
256,192,70795,1,10,0:0:0:0:
256,192,70891,1,10,0:0:0:0:
256,192,70987,1,0,0:0:0:0:
256,192,71179,1,0,0:0:0:0:
256,192,71276,1,10,0:0:0:0:
256,192,71372,1,10,0:0:0:0:
256,192,71468,1,10,0:0:0:0:
256,192,71564,1,0,0:0:0:0:
256,192,71756,1,0,0:0:0:0:
256,192,71852,1,0,0:0:0:0:
256,192,71949,1,10,0:0:0:0:
256,192,72045,1,0,0:0:0:0:
256,192,72237,1,0,0:0:0:0:
256,192,72333,1,10,0:0:0:0:
256,192,72429,1,10,0:0:0:0:
256,192,72526,1,0,0:0:0:0:
256,192,72718,1,0,0:0:0:0:
256,192,72814,1,0,0:0:0:0:
256,192,72910,1,0,0:0:0:0:
256,192,73006,1,10,0:0:0:0:
256,192,73198,1,0,0:0:0:0:
256,192,73294,1,10,0:0:0:0:
256,192,73391,1,0,0:0:0:0:
256,192,73487,1,10,0:0:0:0:
256,192,73583,1,0,0:0:0:0:
256,192,73679,1,0,0:0:0:0:
256,192,73871,1,10,0:0:0:0:
256,192,73968,1,0,0:0:0:0:
256,192,74064,1,0,0:0:0:0:
256,192,74160,1,10,0:0:0:0:
256,192,74256,1,10,0:0:0:0:
256,192,74352,1,0,0:0:0:0:
256,192,74448,1,10,0:0:0:0:
256,192,74539,1,10,0:0:0:0:
256,192,74636,1,10,0:0:0:0:
256,192,74737,1,0,0:0:0:0:
256,192,74865,1,10,0:0:0:0:
256,192,74993,1,10,0:0:0:0:
256,192,75121,1,10,0:0:0:0:
256,192,75218,1,10,0:0:0:0:
256,192,75314,1,10,0:0:0:0:
256,192,75410,1,0,0:0:0:0:
256,192,75506,1,0,0:0:0:0:
256,192,75600,1,0,0:0:0:0:
256,192,75888,1,0,0:0:0:0:
256,192,76176,1,10,0:0:0:0:
256,192,77330,1,10,0:0:0:0:
256,192,78100,1,10,0:0:0:0:
256,192,78484,1,0,0:0:0:0:
256,192,78676,1,0,0:0:0:0:
256,192,78965,1,0,0:0:0:0:
256,192,79253,1,10,0:0:0:0:
256,192,80023,1,0,0:0:0:0:
256,192,80407,1,10,0:0:0:0:
256,192,80792,1,0,0:0:0:0:
256,192,80984,1,10,0:0:0:0:
256,192,81080,1,0,0:0:0:0:
256,192,81176,1,10,0:0:0:0:
256,192,81273,1,10,0:0:0:0:
256,192,81369,1,0,0:0:0:0:
256,192,81657,1,0,0:0:0:0:
256,192,81946,1,10,0:0:0:0:
256,192,82523,1,10,0:0:0:0:
256,192,82715,1,0,0:0:0:0:
256,192,82811,1,0,0:0:0:0:
256,192,82907,1,10,0:0:0:0:
256,192,83003,1,10,0:0:0:0:
256,192,83100,1,0,0:0:0:0:
256,192,83196,1,0,0:0:0:0:
256,192,83292,1,10,0:0:0:0:
256,192,83388,1,10,0:0:0:0:
256,192,83484,1,0,0:0:0:0:
256,192,83580,1,0,0:0:0:0:
256,192,83676,1,10,0:0:0:0:
256,192,83773,1,10,0:0:0:0:
256,192,83869,1,0,0:0:0:0:
256,192,83965,1,0,0:0:0:0:
256,192,84061,1,10,0:0:0:0:
256,192,84157,1,0,0:0:0:0:
256,192,84253,1,10,0:0:0:0:
256,192,84350,1,10,0:0:0:0:
256,192,84446,1,10,0:0:0:0:
256,192,84542,1,0,0:0:0:0:
256,192,84638,1,10,0:0:0:0:
256,192,84734,1,10,0:0:0:0:
256,192,84830,1,10,0:0:0:0:
256,192,84926,1,0,0:0:0:0:
256,192,85023,1,10,0:0:0:0:
256,192,85119,1,10,0:0:0:0:
256,192,85215,1,10,0:0:0:0:
256,192,85311,1,0,0:0:0:0:
256,192,85407,1,10,0:0:0:0:
256,192,85503,1,10,0:0:0:0:
256,192,85600,1,10,0:0:0:0:
256,192,85696,1,0,0:0:0:0:
256,192,85792,1,10,0:0:0:0:
256,192,85888,1,10,0:0:0:0:
256,192,85984,1,0,0:0:0:0:
256,192,86080,1,0,0:0:0:0:
256,192,86176,1,10,0:0:0:0:
256,192,86273,1,10,0:0:0:0:
256,192,86369,1,0,0:0:0:0:
256,192,86465,1,0,0:0:0:0:
256,192,86561,1,0,0:0:0:0:
256,192,86657,1,10,0:0:0:0:
256,192,86753,1,10,0:0:0:0:
256,192,86850,1,10,0:0:0:0:
256,192,86946,1,0,0:0:0:0:
256,192,87042,1,0,0:0:0:0:
256,192,87138,1,10,0:0:0:0:
256,192,87234,1,10,0:0:0:0:
256,192,87426,1,0,0:0:0:0:
256,192,87811,1,0,0:0:0:0:
256,192,88100,1,10,0:0:0:0:
256,192,88484,1,0,0:0:0:0:
256,192,88676,1,0,0:0:0:0:
256,192,88869,1,10,0:0:0:0:
256,192,89253,1,10,0:0:0:0:
256,192,89638,1,10,0:0:0:0:
256,192,90023,1,0,0:0:0:0:
256,192,90215,1,10,0:0:0:0:
256,192,90311,1,10,0:0:0:0:
256,192,90407,1,0,0:0:0:0:
256,192,90503,1,0,0:0:0:0:
256,192,90600,1,10,0:0:0:0:
256,192,90888,1,0,0:0:0:0:
256,192,91176,1,10,0:0:0:0:
256,192,91561,1,0,0:0:0:0:
256,192,91753,1,10,0:0:0:0:
256,192,91946,1,0,0:0:0:0:
256,192,92042,1,0,0:0:0:0:
256,192,92138,1,10,0:0:0:0:
256,192,92234,1,10,0:0:0:0:
256,192,92330,1,10,0:0:0:0:
256,192,92426,1,0,0:0:0:0:
256,192,92523,1,10,0:0:0:0:
256,192,92619,1,10,0:0:0:0:
256,192,92715,1,10,0:0:0:0:
256,192,92811,1,0,0:0:0:0:
256,192,92907,1,10,0:0:0:0:
256,192,93003,1,0,0:0:0:0:
256,192,93100,1,10,0:0:0:0:
256,192,93196,1,10,0:0:0:0:
256,192,93292,1,10,0:0:0:0:
256,192,93356,1,10,0:0:0:0:
256,192,93420,1,10,0:0:0:0:
256,192,93484,1,0,0:0:0:0:
256,192,93548,1,0,0:0:0:0:
256,192,93612,1,0,0:0:0:0:
256,192,93676,1,0,0:0:0:0:
256,192,93965,1,0,0:0:0:0:
256,192,94253,1,10,0:0:0:0:
256,192,94638,1,0,0:0:0:0:
256,192,94830,1,10,0:0:0:0:
256,192,94894,1,10,0:0:0:0:
256,192,94958,1,0,0:0:0:0:
256,192,95023,1,0,0:0:0:0:
256,192,95087,1,10,0:0:0:0:
256,192,95151,1,10,0:0:0:0:
256,192,95215,1,10,0:0:0:0:
256,192,95503,1,0,0:0:0:0:
256,192,95792,1,10,0:0:0:0:
256,192,96176,1,0,0:0:0:0:
256,192,96369,1,10,0:0:0:0:
256,192,96433,1,10,0:0:0:0:
256,192,96497,1,0,0:0:0:0:
256,192,96561,1,0,0:0:0:0:
256,192,96657,1,0,0:0:0:0:
256,192,96753,1,10,0:0:0:0:
256,192,97042,1,0,0:0:0:0:
256,192,97330,1,0,0:0:0:0:
256,192,97394,1,0,0:0:0:0:
256,192,97458,1,0,0:0:0:0:
256,192,97523,1,10,0:0:0:0:
256,192,97811,1,0,0:0:0:0:
256,192,98100,1,0,0:0:0:0:
256,192,98164,1,0,0:0:0:0:
256,192,98228,1,0,0:0:0:0:
256,192,98292,1,10,0:0:0:0:
256,192,98484,1,0,0:0:0:0:
256,192,98580,1,0,0:0:0:0:
256,192,98676,1,10,0:0:0:0:
256,192,98869,1,0,0:0:0:0:
256,192,98965,1,0,0:0:0:0:
256,192,99061,1,10,0:0:0:0:
256,192,99157,1,0,0:0:0:0:
256,192,99253,1,0,0:0:0:0:
256,192,99350,1,0,0:0:0:0:
256,192,99446,1,10,0:0:0:0:
256,192,99830,1,0,0:0:0:0:
256,192,100023,1,10,0:0:0:0:
256,192,100407,1,0,0:0:0:0:
256,192,100503,1,0,0:0:0:0:
256,192,100600,1,10,0:0:0:0:
256,192,100792,1,10,0:0:0:0:
256,192,100888,1,0,0:0:0:0:
256,192,101080,1,0,0:0:0:0:
256,192,101176,1,10,0:0:0:0:
256,192,101369,1,10,0:0:0:0:
256,192,101561,1,0,0:0:0:0:
256,192,101657,1,0,0:0:0:0:
256,192,101753,1,10,0:0:0:0:
256,192,101946,1,0,0:0:0:0:
256,192,102138,1,10,0:0:0:0:
256,192,102234,1,10,0:0:0:0:
256,192,102330,1,0,0:0:0:0:
256,192,102426,1,10,0:0:0:0:
256,192,102523,1,10,0:0:0:0:
256,192,102715,1,10,0:0:0:0:
256,192,102811,1,0,0:0:0:0:
256,192,103003,1,0,0:0:0:0:
256,192,103100,1,10,0:0:0:0:
256,192,103196,1,0,0:0:0:0:
256,192,103292,1,10,0:0:0:0:
256,192,103388,1,10,0:0:0:0:
256,192,103484,1,0,0:0:0:0:
256,192,103580,1,10,0:0:0:0:
256,192,103676,1,0,0:0:0:0:
256,192,103773,1,10,0:0:0:0:
256,192,103869,1,0,0:0:0:0:
256,192,103965,1,10,0:0:0:0:
256,192,104061,1,10,0:0:0:0:
256,192,104189,1,10,0:0:0:0:
256,192,104317,1,0,0:0:0:0:
256,192,104446,1,10,0:0:0:0:
256,192,104542,1,10,0:0:0:0:
256,192,104638,1,0,0:0:0:0:
256,192,104734,1,0,0:0:0:0:
256,192,104830,1,0,0:0:0:0:
256,192,104926,1,10,0:0:0:0:
256,192,104991,1,10,0:0:0:0:
256,192,105055,1,10,0:0:0:0:
256,192,105119,1,0,0:0:0:0:
256,192,105215,1,0,0:0:0:0:
256,192,105279,1,10,0:0:0:0:
256,192,105343,1,10,0:0:0:0:
256,192,105407,1,0,0:0:0:0:
256,192,105503,1,10,0:0:0:0:
256,192,105600,1,10,0:0:0:0:
256,192,105792,1,10,0:0:0:0:
256,192,105888,1,0,0:0:0:0:
256,192,106080,1,0,0:0:0:0:
256,192,106176,1,10,0:0:0:0:
256,192,106273,1,10,0:0:0:0:
256,192,106369,1,0,0:0:0:0:
256,192,106561,1,10,0:0:0:0:
256,192,106657,1,10,0:0:0:0:
256,192,106753,1,0,0:0:0:0:
256,192,106850,1,0,0:0:0:0:
256,192,106946,1,10,0:0:0:0:
256,192,107042,1,0,0:0:0:0:
256,192,107138,1,10,0:0:0:0:
256,192,107330,1,10,0:0:0:0:
256,192,107426,1,0,0:0:0:0:
256,192,107619,1,0,0:0:0:0:
256,192,107715,1,10,0:0:0:0:
256,192,107811,1,10,0:0:0:0:
256,192,107907,1,10,0:0:0:0:
256,192,108003,1,0,0:0:0:0:
256,192,108100,1,10,0:0:0:0:
256,192,108292,1,14,0:0:0:0:
256,192,108484,1,0,0:0:0:0:
256,192,108580,1,10,0:0:0:0:
256,192,108773,1,10,0:0:0:0:
256,192,108869,1,0,0:0:0:0:
256,192,109061,1,14,0:0:0:0:
256,192,109253,1,0,0:0:0:0:
256,192,109350,1,10,0:0:0:0:
256,192,109446,1,0,0:0:0:0:
256,192,109638,1,0,0:0:0:0:
256,192,109830,1,14,0:0:0:0:
256,192,110023,1,0,0:0:0:0:
256,192,110119,1,0,0:0:0:0:
256,192,110215,1,10,0:0:0:0:
256,192,110311,1,0,0:0:0:0:
256,192,110407,1,0,0:0:0:0:
256,192,110600,1,14,0:0:0:0:
256,192,110856,1,4,0:0:0:0:
256,192,111112,1,4,0:0:0:0:
256,192,111369,1,14,0:0:0:0:
256,192,111561,1,0,0:0:0:0:
256,192,111657,1,0,0:0:0:0:
256,192,111753,1,10,0:0:0:0:
256,192,111817,1,10,0:0:0:0:
256,192,111882,1,10,0:0:0:0:
256,192,111946,1,0,0:0:0:0:
256,192,112042,1,0,0:0:0:0:
256,192,112138,1,10,0:0:0:0:
256,192,112202,1,10,0:0:0:0:
256,192,112266,1,8,0:0:0:0:
256,192,112330,1,0,0:0:0:0:
256,192,112426,1,0,0:0:0:0:
256,192,112523,1,0,0:0:0:0:
256,192,112587,1,0,0:0:0:0:
256,192,112651,1,0,0:0:0:0:
256,192,112715,1,8,0:0:0:0:
256,192,112811,1,0,0:0:0:0:
256,192,112907,1,10,0:0:0:0:
256,192,112971,1,10,0:0:0:0:
256,192,113035,1,10,0:0:0:0:
256,192,113100,1,0,0:0:0:0:
256,192,113196,1,0,0:0:0:0:
256,192,113292,1,0,0:0:0:0:
256,192,113356,1,0,0:0:0:0:
256,192,113420,1,0,0:0:0:0:
256,192,113484,1,10,0:0:0:0:
256,192,113580,1,0,0:0:0:0:
256,192,113676,1,0,0:0:0:0:
256,192,113741,1,10,0:0:0:0:
256,192,113805,1,10,0:0:0:0:
256,192,113869,1,10,0:0:0:0:
256,192,113965,1,0,0:0:0:0:
256,192,114061,1,10,0:0:0:0:
256,192,114125,1,10,0:0:0:0:
256,192,114189,1,10,0:0:0:0:
256,192,114253,1,0,0:0:0:0:
256,192,114350,1,0,0:0:0:0:
256,192,114446,1,10,0:0:0:0:
256,192,114510,1,10,0:0:0:0:
256,192,114574,1,10,0:0:0:0:
256,192,114638,1,0,0:0:0:0:
256,192,114734,1,0,0:0:0:0:
256,192,114830,1,10,0:0:0:0:
256,192,114878,1,10,0:0:0:0:
256,192,114926,1,10,0:0:0:0:
256,192,115023,1,10,0:0:0:0:
256,192,115071,1,10,0:0:0:0:
256,192,115119,1,10,0:0:0:0:
256,192,115215,1,10,0:0:0:0:
256,192,115263,1,10,0:0:0:0:
256,192,115311,1,10,0:0:0:0:
256,192,115407,1,0,0:0:0:0:
256,192,115455,1,0,0:0:0:0:
256,192,115503,1,0,0:0:0:0:
256,192,115551,1,10,0:0:0:0:
256,192,115600,1,10,0:0:0:0:
256,192,115696,1,10,0:0:0:0:
256,192,115792,1,0,0:0:0:0:
256,192,115888,1,10,0:0:0:0:
256,192,116080,1,10,0:0:0:0:
256,192,116176,1,0,0:0:0:0:
256,192,116369,1,0,0:0:0:0:
256,192,116465,1,0,0:0:0:0:
256,192,116561,1,10,0:0:0:0:
256,192,116657,1,0,0:0:0:0:
256,192,116850,1,0,0:0:0:0:
256,192,116946,1,10,0:0:0:0:
256,192,117138,1,10,0:0:0:0:
256,192,117330,1,10,0:0:0:0:
256,192,117426,1,0,0:0:0:0:
256,192,117523,1,0,0:0:0:0:
256,192,117715,1,10,0:0:0:0:
256,192,117907,1,0,0:0:0:0:
256,192,118100,1,10,0:0:0:0:
256,192,118196,1,0,0:0:0:0:
256,192,118324,1,0,0:0:0:0:
256,192,118452,1,0,0:0:0:0:
256,192,118580,1,0,0:0:0:0:
256,192,118676,1,10,0:0:0:0:
256,192,118869,1,10,0:0:0:0:
256,192,118965,1,0,0:0:0:0:
256,192,119157,1,0,0:0:0:0:
256,192,119253,1,10,0:0:0:0:
256,192,119446,1,0,0:0:0:0:
256,192,119638,1,10,0:0:0:0:
256,192,119830,1,0,0:0:0:0:
256,192,119926,1,10,0:0:0:0:
256,192,120023,1,10,0:0:0:0:
256,192,120087,1,0,0:0:0:0:
256,192,120151,1,0,0:0:0:0:
256,192,120215,1,10,0:0:0:0:
256,192,120407,1,10,0:0:0:0:
256,192,120503,1,0,0:0:0:0:
256,192,120696,1,0,0:0:0:0:
256,192,120792,1,10,0:0:0:0:
256,192,120984,1,0,0:0:0:0:
256,192,121080,1,0,0:0:0:0:
256,192,121176,1,0,0:0:0:0:
256,192,121273,1,10,0:0:0:0:
256,192,121465,1,0,0:0:0:0:
256,192,121561,1,10,0:0:0:0:
256,192,121753,1,0,0:0:0:0:
256,192,121882,1,0,0:0:0:0:
256,192,122010,1,10,0:0:0:0:
256,192,122138,1,0,0:0:0:0:
256,192,122266,1,0,0:0:0:0:
256,192,122394,1,10,0:0:0:0:
256,192,122523,1,10,0:0:0:0:
256,192,122651,1,10,0:0:0:0:
256,192,122779,1,0,0:0:0:0:
256,192,122907,1,10,0:0:0:0:
256,192,123035,1,10,0:0:0:0:
256,192,123164,1,0,0:0:0:0:
256,192,123292,1,4,0:0:0:0:
256,192,123773,1,0,0:0:0:0:
256,192,123869,1,0,0:0:0:0:
256,192,123965,1,0,0:0:0:0:
256,192,124061,1,10,0:0:0:0:
256,192,124317,1,10,0:0:0:0:
256,192,124574,1,0,0:0:0:0:
256,192,124830,1,10,0:0:0:0:
256,192,124958,1,0,0:0:0:0:
256,192,125087,1,0,0:0:0:0:
256,192,125215,1,10,0:0:0:0:
256,192,125343,1,0,0:0:0:0:
256,192,125471,1,0,0:0:0:0:
256,192,125600,1,10,0:0:0:0:
256,192,125728,1,0,0:0:0:0:
256,192,125856,1,0,0:0:0:0:
256,192,125984,1,10,0:0:0:0:
256,192,126112,1,10,0:0:0:0:
256,192,126241,1,0,0:0:0:0:
256,192,126369,1,14,0:0:0:0:
256,192,126850,1,0,0:0:0:0:
256,192,126946,1,0,0:0:0:0:
256,192,127042,1,0,0:0:0:0:
256,192,127138,1,10,0:0:0:0:
256,192,127651,1,0,0:0:0:0:
256,192,127779,1,0,0:0:0:0:
256,192,127907,1,14,0:0:0:0:
256,192,128164,1,0,0:0:0:0:
256,192,128292,1,10,0:0:0:0:
256,192,128420,1,10,0:0:0:0:
256,192,128548,1,0,0:0:0:0:
256,192,128676,1,0,0:0:0:0:
256,192,128805,1,10,0:0:0:0:
256,192,128933,1,0,0:0:0:0:
256,192,129013,1,10,0:0:0:0:
256,192,129085,1,10,0:0:0:0:
256,192,129157,1,10,0:0:0:0:
256,192,129253,1,10,0:0:0:0:
256,192,129350,1,0,0:0:0:0:
256,192,129446,1,4,0:0:0:0:
256,192,129734,1,0,0:0:0:0:
256,192,129830,1,10,0:0:0:0:
256,192,129926,1,0,0:0:0:0:
256,192,129991,1,10,0:0:0:0:
256,192,130055,1,10,0:0:0:0:
256,192,130119,1,10,0:0:0:0:
256,192,130183,1,0,0:0:0:0:
256,192,130471,1,10,0:0:0:0:
256,192,130728,1,10,0:0:0:0:
256,192,130984,1,4,0:0:0:0:
256,192,131497,1,0,0:0:0:0:
256,192,131753,1,10,0:0:0:0:
256,192,131850,1,10,0:0:0:0:
256,192,131946,1,10,0:0:0:0:
256,192,132042,1,0,0:0:0:0:
256,192,132106,1,10,0:0:0:0:
256,192,132170,1,10,0:0:0:0:
256,192,132234,1,0,0:0:0:0:
256,192,132523,1,14,0:0:0:0:
256,192,133003,1,10,0:0:0:0:
256,192,133100,1,10,0:0:0:0:
256,192,133196,1,10,0:0:0:0:
256,192,133292,1,4,0:0:0:0:
256,192,134061,1,14,0:0:0:0:
256,192,134446,1,0,0:0:0:0:
256,192,134830,1,10,0:0:0:0:
256,192,135087,1,0,0:0:0:0:
256,192,135343,1,0,0:0:0:0:
256,192,135600,1,4,0:0:0:0:
256,192,136080,1,0,0:0:0:0:
256,192,136176,1,0,0:0:0:0:
256,192,136273,1,0,0:0:0:0:
256,192,136369,1,10,0:0:0:0:
256,192,136625,1,10,0:0:0:0:
256,192,136882,1,0,0:0:0:0:
256,192,137138,1,10,0:0:0:0:
256,192,137266,1,0,0:0:0:0:
256,192,137394,1,0,0:0:0:0:
256,192,137523,1,10,0:0:0:0:
256,192,137651,1,0,0:0:0:0:
256,192,137779,1,0,0:0:0:0:
256,192,137907,1,10,0:0:0:0:
256,192,138035,1,10,0:0:0:0:
256,192,138164,1,0,0:0:0:0:
256,192,138292,1,10,0:0:0:0:
256,192,138420,1,10,0:0:0:0:
256,192,138548,1,0,0:0:0:0:
256,192,138676,1,14,0:0:0:0:
256,192,139157,1,0,0:0:0:0:
256,192,139253,1,0,0:0:0:0:
256,192,139350,1,0,0:0:0:0:
256,192,139446,1,10,0:0:0:0:
256,192,139702,1,10,0:0:0:0:
256,192,139958,1,0,0:0:0:0:
256,192,140215,1,14,0:0:0:0:
256,192,140728,1,10,0:0:0:0:
256,192,140792,1,10,0:0:0:0:
256,192,140856,1,0,0:0:0:0:
256,192,140920,1,10,0:0:0:0:
256,192,140984,1,0,0:0:0:0:
256,192,141241,1,0,0:0:0:0:
256,192,141305,1,10,0:0:0:0:
256,192,141369,1,0,0:0:0:0:
256,192,141433,1,0,0:0:0:0:
256,192,141497,1,10,0:0:0:0:
256,192,141753,1,0,0:0:0:0:
256,192,141882,1,0,0:0:0:0:
256,192,142010,1,10,0:0:0:0:
256,192,142138,1,0,0:0:0:0:
256,192,142266,1,0,0:0:0:0:
256,192,142394,1,10,0:0:0:0:
256,192,142523,1,0,0:0:0:0:
256,192,142651,1,10,0:0:0:0:
256,192,142779,1,10,0:0:0:0:
256,192,142907,1,0,0:0:0:0:
256,192,143035,1,0,0:0:0:0:
256,192,143164,1,10,0:0:0:0:
256,192,143292,1,0,0:0:0:0:
256,192,143373,1,2,0:0:0:0:
256,192,143456,1,10,0:0:0:0:
256,192,143540,1,0,0:0:0:0:
256,192,143623,1,0,0:0:0:0:
256,192,143707,1,10,0:0:0:0:
256,192,143790,1,0,0:0:0:0:
256,192,143872,1,10,0:0:0:0:
256,192,143959,1,10,0:0:0:0:
256,192,144044,1,0,0:0:0:0:
256,192,144131,1,0,0:0:0:0:
256,192,144217,1,10,0:0:0:0:
256,192,144304,1,0,0:0:0:0:
256,192,144391,1,0,0:0:0:0:
256,192,144479,1,10,0:0:0:0:
256,192,144565,1,10,0:0:0:0:
256,192,144651,1,0,0:0:0:0:
256,192,144740,1,0,0:0:0:0:
256,192,144830,1,10,0:0:0:0:
256,192,145215,1,10,0:0:0:0:
256,192,145343,1,0,0:0:0:0:
256,192,145471,1,0,0:0:0:0:
256,192,145600,1,0,0:0:0:0:
256,192,145728,1,10,0:0:0:0:
256,192,145856,1,0,0:0:0:0:
256,192,145984,1,0,0:0:0:0:
256,192,146112,1,10,0:0:0:0:
256,192,146241,1,10,0:0:0:0:
256,192,146369,1,4,0:0:0:0:
256,192,146561,1,4,0:0:0:0:
256,192,146753,1,4,0:0:0:0:
256,192,146946,1,4,0:0:0:0:
256,192,147138,1,14,0:0:0:0:
256,192,147330,1,14,0:0:0:0:
256,192,147523,1,14,0:0:0:0:
256,192,147715,1,14,0:0:0:0:
256,192,147907,1,4,0:0:0:0:
256,192,148100,1,0,0:0:0:0:
256,192,148196,1,10,0:0:0:0:
256,192,148388,1,10,0:0:0:0:
256,192,148484,1,0,0:0:0:0:
256,192,148580,1,10,0:0:0:0:
256,192,148676,1,10,0:0:0:0:
256,192,148773,1,10,0:0:0:0:
256,192,148869,1,0,0:0:0:0:
256,192,148965,1,10,0:0:0:0:
256,192,149061,1,0,0:0:0:0:
256,192,149157,1,10,0:0:0:0:
256,192,149253,1,10,0:0:0:0:
256,192,149350,1,0,0:0:0:0:
256,192,149446,1,10,0:0:0:0:
256,192,149542,1,0,0:0:0:0:
256,192,149638,1,0,0:0:0:0:
256,192,149734,1,10,0:0:0:0:
256,192,149830,1,0,0:0:0:0:
256,192,149926,1,10,0:0:0:0:
256,192,150023,1,0,0:0:0:0:
256,192,150119,1,0,0:0:0:0:
256,192,150215,1,10,0:0:0:0:
256,192,150311,1,0,0:0:0:0:
256,192,150407,1,0,0:0:0:0:
256,192,150503,1,0,0:0:0:0:
256,192,150600,1,10,0:0:0:0:
256,192,150696,1,0,0:0:0:0:
256,192,150792,1,10,0:0:0:0:
256,192,150888,1,0,0:0:0:0:
256,192,150984,1,10,0:0:0:0:
256,192,151176,1,0,0:0:0:0:
256,192,151273,1,0,0:0:0:0:
256,192,151369,1,10,0:0:0:0:
256,192,151561,1,0,0:0:0:0:
256,192,151657,1,0,0:0:0:0:
256,192,151753,1,10,0:0:0:0:
256,192,151850,1,0,0:0:0:0:
256,192,152042,1,10,0:0:0:0:
256,192,152138,1,0,0:0:0:0:
256,192,152330,1,0,0:0:0:0:
256,192,152426,1,10,0:0:0:0:
256,192,152619,1,0,0:0:0:0:
256,192,152715,1,10,0:0:0:0:
256,192,152907,1,0,0:0:0:0:
256,192,153003,1,0,0:0:0:0:
256,192,153196,1,0,0:0:0:0:
256,192,153292,1,10,0:0:0:0:
256,192,153388,1,10,0:0:0:0:
256,192,153484,1,10,0:0:0:0:
256,192,153580,1,0,0:0:0:0:
256,192,153676,1,10,0:0:0:0:
256,192,153773,1,0,0:0:0:0:
256,192,153869,1,0,0:0:0:0:
256,192,153965,1,0,0:0:0:0:
256,192,154061,1,10,0:0:0:0:
256,192,154253,1,10,0:0:0:0:
256,192,154350,1,0,0:0:0:0:
256,192,154446,1,0,0:0:0:0:
256,192,154542,1,0,0:0:0:0:
256,192,154638,1,10,0:0:0:0:
256,192,154734,1,0,0:0:0:0:
256,192,154830,1,10,0:0:0:0:
256,192,154926,1,0,0:0:0:0:
256,192,155023,1,0,0:0:0:0:
256,192,155119,1,0,0:0:0:0:
256,192,155215,1,10,0:0:0:0:
256,192,155311,1,0,0:0:0:0:
256,192,155407,1,10,0:0:0:0:
256,192,155503,1,10,0:0:0:0:
256,192,155600,1,0,0:0:0:0:
256,192,155696,1,10,0:0:0:0:
256,192,155888,1,10,0:0:0:0:
256,192,155984,1,0,0:0:0:0:
256,192,156176,1,10,0:0:0:0:
256,192,156273,1,0,0:0:0:0:
256,192,156369,1,0,0:0:0:0:
256,192,156417,1,0,0:0:0:0:
256,192,156465,1,10,0:0:0:0:
256,192,156657,1,10,0:0:0:0:
256,192,156753,1,0,0:0:0:0:
256,192,156850,1,0,0:0:0:0:
256,192,156946,1,10,0:0:0:0:
256,192,157042,1,0,0:0:0:0:
256,192,157138,1,0,0:0:0:0:
256,192,157330,1,10,0:0:0:0:
256,192,157394,1,10,0:0:0:0:
256,192,157458,1,10,0:0:0:0:
256,192,157522,1,0,0:0:0:0:
256,192,157619,1,0,0:0:0:0:
256,192,157715,1,10,0:0:0:0:
256,192,157811,1,0,0:0:0:0:
256,192,157907,1,0,0:0:0:0:
256,192,157971,1,0,0:0:0:0:
256,192,158035,1,0,0:0:0:0:
256,192,158100,1,10,0:0:0:0:
256,192,158196,1,0,0:0:0:0:
256,192,158292,1,10,0:0:0:0:
256,192,158356,1,10,0:0:0:0:
256,192,158420,1,10,0:0:0:0:
256,192,158484,1,10,0:0:0:0:
256,192,158548,1,10,0:0:0:0:
256,192,158612,1,0,0:0:0:0:
256,192,158676,1,0,0:0:0:0:
256,192,158869,1,0,0:0:0:0:
256,192,158965,1,0,0:0:0:0:
256,192,159061,1,10,0:0:0:0:
256,192,159253,1,10,0:0:0:0:
256,192,159350,1,10,0:0:0:0:
256,192,159446,1,0,0:0:0:0:
256,192,159542,1,0,0:0:0:0:
256,192,159638,1,10,0:0:0:0:
256,192,159702,1,10,0:0:0:0:
256,192,159766,1,10,0:0:0:0:
256,192,159830,1,0,0:0:0:0:
256,192,159926,1,0,0:0:0:0:
256,192,160023,1,10,0:0:0:0:
256,192,160119,1,10,0:0:0:0:
256,192,160215,1,0,0:0:0:0:
256,192,160407,1,0,0:0:0:0:
256,192,160503,1,10,0:0:0:0:
256,192,160696,1,10,0:0:0:0:
256,192,160792,1,0,0:0:0:0:
256,192,160888,1,0,0:0:0:0:
256,192,160984,1,10,0:0:0:0:
256,192,161080,1,10,0:0:0:0:
256,192,161176,1,0,0:0:0:0:
256,192,161273,1,10,0:0:0:0:
256,192,161369,1,0,0:0:0:0:
256,192,161465,1,10,0:0:0:0:
256,192,161561,1,0,0:0:0:0:
256,192,161657,1,0,0:0:0:0:
256,192,161753,1,10,0:0:0:0:
256,192,161850,1,0,0:0:0:0:
256,192,161946,1,0,0:0:0:0:
256,192,162042,1,0,0:0:0:0:
256,192,162138,1,10,0:0:0:0:
256,192,162234,1,10,0:0:0:0:
256,192,162330,1,0,0:0:0:0:
256,192,162426,1,0,0:0:0:0:
256,192,162523,1,0,0:0:0:0:
256,192,162619,1,10,0:0:0:0:
256,192,162715,1,0,0:0:0:0:
256,192,162811,1,0,0:0:0:0:
256,192,162907,1,10,0:0:0:0:
256,192,163003,1,0,0:0:0:0:
256,192,163100,1,0,0:0:0:0:
256,192,163196,1,0,0:0:0:0:
256,192,163292,1,10,0:0:0:0:
256,192,163388,1,0,0:0:0:0:
256,192,163484,1,0,0:0:0:0:
256,192,163580,1,10,0:0:0:0:
256,192,163676,1,0,0:0:0:0:
256,192,163741,1,10,0:0:0:0:
256,192,163805,1,10,0:0:0:0:
256,192,163869,1,10,0:0:0:0:
256,192,163965,1,0,0:0:0:0:
256,192,164061,1,10,0:0:0:0:
256,192,164157,1,0,0:0:0:0:
256,192,164253,1,0,0:0:0:0:
256,192,164350,1,10,0:0:0:0:
256,192,164446,1,0,0:0:0:0:
256,192,164510,1,10,0:0:0:0:
256,192,164574,1,10,0:0:0:0:
256,192,164638,1,10,0:0:0:0:
256,192,164734,1,0,0:0:0:0:
256,192,164830,1,0,0:0:0:0:
256,192,164926,1,10,0:0:0:0:
256,192,165119,1,10,0:0:0:0:
256,192,165215,1,0,0:0:0:0:
256,192,165407,1,0,0:0:0:0:
256,192,165503,1,10,0:0:0:0:
256,192,165696,1,0,0:0:0:0:
256,192,165792,1,10,0:0:0:0:
256,192,165888,1,0,0:0:0:0:
256,192,165984,1,0,0:0:0:0:
256,192,166080,1,0,0:0:0:0:
256,192,166176,1,10,0:0:0:0:
256,192,166273,1,10,0:0:0:0:
256,192,166369,1,10,0:0:0:0:
256,192,166465,1,0,0:0:0:0:
256,192,166561,1,10,0:0:0:0:
256,192,166657,1,0,0:0:0:0:
256,192,166753,1,0,0:0:0:0:
256,192,166850,1,10,0:0:0:0:
256,192,166946,1,0,0:0:0:0:
256,192,167042,1,0,0:0:0:0:
256,192,167138,1,10,0:0:0:0:
256,192,167234,1,0,0:0:0:0:
256,192,167330,1,10,0:0:0:0:
256,192,167426,1,10,0:0:0:0:
256,192,167523,1,0,0:0:0:0:
256,192,167619,1,0,0:0:0:0:
256,192,167715,1,10,0:0:0:0:
256,192,167811,1,10,0:0:0:0:
256,192,167907,1,0,0:0:0:0:
256,192,168100,1,10,0:0:0:0:
256,192,168196,1,0,0:0:0:0:
256,192,168388,1,0,0:0:0:0:
256,192,168484,1,10,0:0:0:0:
256,192,168580,1,0,0:0:0:0:
256,192,168676,1,0,0:0:0:0:
256,192,168725,1,0,0:0:0:0:
256,192,168773,1,10,0:0:0:0:
256,192,168965,1,0,0:0:0:0:
256,192,169061,1,10,0:0:0:0:
256,192,169157,1,0,0:0:0:0:
256,192,169253,1,10,0:0:0:0:
256,192,169350,1,10,0:0:0:0:
256,192,169446,1,10,0:0:0:0:
256,192,169638,1,0,0:0:0:0:
256,192,169830,1,10,0:0:0:0:
256,192,170023,1,0,0:0:0:0:
256,192,170119,1,0,0:0:0:0:
256,192,170311,1,10,0:0:0:0:
256,192,170375,1,10,0:0:0:0:
256,192,170439,1,10,0:0:0:0:
256,192,170503,1,0,0:0:0:0:
256,192,170600,1,0,0:0:0:0:
256,192,170664,1,10,0:0:0:0:
256,192,170728,1,10,0:0:0:0:
256,192,170792,1,10,0:0:0:0:
256,192,170856,1,0,0:0:0:0:
256,192,170920,1,0,0:0:0:0:
256,192,170984,1,0,0:0:0:0:
256,192,171176,1,0,0:0:0:0:
256,192,171273,1,0,0:0:0:0:
256,192,171369,1,10,0:0:0:0:
256,192,171561,1,10,0:0:0:0:
256,192,171657,1,10,0:0:0:0:
256,192,171753,1,0,0:0:0:0:
256,192,171850,1,0,0:0:0:0:
256,192,171946,1,10,0:0:0:0:
256,192,172042,1,0,0:0:0:0:
256,192,172138,1,0,0:0:0:0:
256,192,172202,1,0,0:0:0:0:
256,192,172266,1,0,0:0:0:0:
256,192,172330,1,0,0:0:0:0:
256,192,172426,1,0,0:0:0:0:
256,192,172523,1,10,0:0:0:0:
256,192,172715,1,0,0:0:0:0:
256,192,172907,1,0,0:0:0:0:
256,192,173003,1,10,0:0:0:0:
256,192,173100,1,10,0:0:0:0:
256,192,173196,1,0,0:0:0:0:
256,192,173388,1,10,0:0:0:0:
256,192,173580,1,0,0:0:0:0:
256,192,173676,1,10,0:0:0:0:
256,192,173869,1,0,0:0:0:0:
256,192,174061,1,10,0:0:0:0:
256,192,174253,1,0,0:0:0:0:
256,192,174445,1,0,0:0:0:0:
256,192,174541,1,10,0:0:0:0:
256,192,174638,1,10,0:0:0:0:
256,192,174734,1,0,0:0:0:0:
256,192,174926,1,10,0:0:0:0:
256,192,175118,1,0,0:0:0:0:
256,192,175214,1,10,0:0:0:0:
256,192,175407,1,0,0:0:0:0:
256,192,175600,1,10,0:0:0:0:
256,192,175792,1,0,0:0:0:0:
256,192,175984,1,0,0:0:0:0:
256,192,176080,1,10,0:0:0:0:
256,192,176176,1,10,0:0:0:0:
256,192,176273,1,0,0:0:0:0:
256,192,176465,1,10,0:0:0:0:
256,192,176561,1,0,0:0:0:0:
256,192,176657,1,0,0:0:0:0:
256,192,176753,1,10,0:0:0:0:
256,192,176946,1,0,0:0:0:0:
256,192,177138,1,10,0:0:0:0:
256,192,177330,1,0,0:0:0:0:
256,192,177522,1,0,0:0:0:0:
256,192,177618,1,10,0:0:0:0:
256,192,177811,1,0,0:0:0:0:
256,192,177907,1,10,0:0:0:0:
256,192,178100,1,0,0:0:0:0:
256,192,178196,1,10,0:0:0:0:
256,192,178388,1,10,0:0:0:0:
256,192,178484,1,0,0:0:0:0:
256,192,178676,1,10,0:0:0:0:
256,192,178869,1,10,0:0:0:0:
256,192,178965,1,0,0:0:0:0:
256,192,179157,1,0,0:0:0:0:
256,192,179253,1,10,0:0:0:0:
256,192,179446,1,0,0:0:0:0:
256,192,179542,1,0,0:0:0:0:
256,192,179638,1,10,0:0:0:0:
256,192,179830,1,0,0:0:0:0:
256,192,179926,1,0,0:0:0:0:
256,192,180023,1,10,0:0:0:0:
256,192,180119,1,0,0:0:0:0:
256,192,180215,1,10,0:0:0:0:
256,192,180279,1,10,0:0:0:0:
256,192,180343,1,0,0:0:0:0:
256,192,180407,1,0,0:0:0:0:
256,192,180503,1,0,0:0:0:0:
256,192,180600,1,10,0:0:0:0:
256,192,180664,1,10,0:0:0:0:
256,192,180728,1,0,0:0:0:0:
256,192,180792,1,0,0:0:0:0:
256,192,180888,1,0,0:0:0:0:
256,192,180984,1,10,0:0:0:0:
256,192,181048,1,2,0:0:0:0:
256,192,181112,1,8,0:0:0:0:
256,192,181176,1,0,0:0:0:0:
256,192,181272,1,0,0:0:0:0:
256,192,181369,1,10,0:0:0:0:
256,192,181433,1,10,0:0:0:0:
256,192,181497,1,8,0:0:0:0:
256,192,181561,1,0,0:0:0:0:
256,192,181657,1,0,0:0:0:0:
256,192,181753,1,10,0:0:0:0:
256,192,181817,1,0,0:0:0:0:
256,192,181881,1,8,0:0:0:0:
256,192,181945,1,10,0:0:0:0:
256,192,182041,1,0,0:0:0:0:
256,192,182138,1,10,0:0:0:0:
256,192,182202,1,0,0:0:0:0:
256,192,182266,1,8,0:0:0:0:
256,192,182330,1,2,0:0:0:0:
256,192,182426,1,0,0:0:0:0:
256,192,182523,1,10,0:0:0:0:
256,192,182587,1,0,0:0:0:0:
256,192,182651,1,8,0:0:0:0:
256,192,182715,1,10,0:0:0:0:
256,192,182811,1,0,0:0:0:0:
256,192,182907,1,10,0:0:0:0:
256,192,182971,1,0,0:0:0:0:
256,192,183035,1,8,0:0:0:0:
256,192,183099,1,10,0:0:0:0:
256,192,183195,1,0,0:0:0:0:
256,192,183292,1,10,0:0:0:0:
256,192,183580,1,0,0:0:0:0:
256,192,183869,1,0,0:0:0:0:
256,192,184061,1,10,0:0:0:0:
256,192,184350,1,10,0:0:0:0:
256,192,184638,1,0,0:0:0:0:
256,192,184830,1,10,0:0:0:0:
256,192,185022,1,0,0:0:0:0:
256,192,185214,1,0,0:0:0:0:
256,192,185310,1,10,0:0:0:0:
256,192,185407,1,10,0:0:0:0:
256,192,185503,1,0,0:0:0:0:
256,192,185695,1,10,0:0:0:0:
256,192,185792,1,0,0:0:0:0:
256,192,185887,1,0,0:0:0:0:
256,192,185983,1,10,0:0:0:0:
256,192,186176,1,0,0:0:0:0:
256,192,186368,1,10,0:0:0:0:
256,192,186560,1,0,0:0:0:0:
256,192,186752,1,0,0:0:0:0:
256,192,186848,1,10,0:0:0:0:
256,192,187041,1,0,0:0:0:0:
256,192,187138,1,10,0:0:0:0:
256,192,187330,1,0,0:0:0:0:
256,192,187426,1,10,0:0:0:0:
256,192,187619,1,0,0:0:0:0:
256,192,187715,1,10,0:0:0:0:
256,192,187907,1,0,0:0:0:0:
256,192,188100,1,10,0:0:0:0:
256,192,188292,1,0,0:0:0:0:
256,192,188388,1,10,0:0:0:0:
256,192,188580,1,0,0:0:0:0:
256,192,188676,1,10,0:0:0:0:
256,192,188805,1,10,0:0:0:0:
256,192,188933,1,0,0:0:0:0:
256,192,189061,1,10,0:0:0:0:
256,192,189189,1,10,0:0:0:0:
256,192,189317,1,10,0:0:0:0:
256,192,189446,1,4,0:0:0:0:
256,192,189638,1,0,0:0:0:0:
256,192,189734,1,10,0:0:0:0:
256,192,189926,1,10,0:0:0:0:
256,192,190023,1,0,0:0:0:0:
256,192,190215,1,0,0:0:0:0:
256,192,190311,1,10,0:0:0:0:
256,192,190503,1,10,0:0:0:0:
256,192,190600,1,0,0:0:0:0:
256,192,190792,1,10,0:0:0:0:
256,192,190984,1,14,0:0:0:0:
256,192,191176,1,10,0:0:0:0:
256,192,191273,1,0,0:0:0:0:
256,192,191465,1,0,0:0:0:0:
256,192,191561,1,10,0:0:0:0:
256,192,191753,1,0,0:0:0:0:
256,192,191850,1,0,0:0:0:0:
256,192,191946,1,10,0:0:0:0:
256,192,192138,1,0,0:0:0:0:
256,192,192234,1,0,0:0:0:0:
256,192,192330,1,10,0:0:0:0:
256,192,192426,1,0,0:0:0:0:
256,192,192523,1,10,0:0:0:0:
256,192,192587,1,0,0:0:0:0:
256,192,192651,1,10,0:0:0:0:
256,192,192715,1,10,0:0:0:0:
256,192,192779,1,0,0:0:0:0:
256,192,192843,1,10,0:0:0:0:
256,192,192907,1,10,0:0:0:0:
256,192,192971,1,0,0:0:0:0:
256,192,193035,1,10,0:0:0:0:
256,192,193100,1,0,0:0:0:0:
256,192,193164,1,0,0:0:0:0:
256,192,193228,1,10,0:0:0:0:
256,192,193292,1,10,0:0:0:0:
256,192,193356,1,10,0:0:0:0:
256,192,193420,1,10,0:0:0:0:
256,192,193484,1,0,0:0:0:0:
256,192,193773,1,10,0:0:0:0:
256,192,193869,1,0,0:0:0:0:
256,192,193965,1,0,0:0:0:0:
256,192,194061,1,10,0:0:0:0:
256,192,194253,1,10,0:0:0:0:
256,192,194446,1,0,0:0:0:0:
256,192,194542,1,10,0:0:0:0:
256,192,194734,1,0,0:0:0:0:
256,192,194830,1,10,0:0:0:0:
256,192,195023,1,10,0:0:0:0:
256,192,195215,1,0,0:0:0:0:
256,192,195343,1,0,0:0:0:0:
256,192,195471,1,0,0:0:0:0:
256,192,195599,1,10,0:0:0:0:
256,192,195792,1,10,0:0:0:0:
256,192,195984,1,0,0:0:0:0:
256,192,196176,1,0,0:0:0:0:
256,192,196273,1,10,0:0:0:0:
256,192,196465,1,10,0:0:0:0:
256,192,196561,1,0,0:0:0:0:
256,192,196657,1,0,0:0:0:0:
256,192,196753,1,10,0:0:0:0:
256,192,197138,1,4,0:0:0:0:
256,192,197330,1,10,0:0:0:0:
256,192,197523,1,0,0:0:0:0:
256,192,197619,1,10,0:0:0:0:
256,192,197715,1,10,0:0:0:0:
256,192,197811,1,0,0:0:0:0:
256,192,198003,1,10,0:0:0:0:
256,192,198100,1,10,0:0:0:0:
256,192,198196,1,0,0:0:0:0:
256,192,198292,1,10,0:0:0:0:
256,192,198388,1,10,0:0:0:0:
256,192,198484,1,10,0:0:0:0:
256,192,198580,1,0,0:0:0:0:
256,192,198676,1,10,0:0:0:0:
256,192,198741,1,10,0:0:0:0:
256,192,198805,1,10,0:0:0:0:
256,192,198869,1,10,0:0:0:0:
256,192,198965,1,10,0:0:0:0:
256,192,199061,1,0,0:0:0:0:
256,192,199125,1,0,0:0:0:0:
256,192,199189,1,0,0:0:0:0:
256,192,199253,1,0,0:0:0:0:
256,192,199350,1,0,0:0:0:0:
256,192,199446,1,0,0:0:0:0:
256,192,199542,1,10,0:0:0:0:
256,192,199638,1,10,0:0:0:0:
256,192,199702,1,10,0:0:0:0:
256,192,199766,1,10,0:0:0:0:
256,192,199830,1,0,0:0:0:0:
256,192,199894,1,0,0:0:0:0:
256,192,199958,1,0,0:0:0:0:
256,192,200023,1,0,0:0:0:0:
256,192,200214,1,10,0:0:0:0:
256,192,200311,1,0,0:0:0:0:
256,192,200407,1,0,0:0:0:0:
256,192,200503,1,10,0:0:0:0:
256,192,200599,1,0,0:0:0:0:
256,192,200695,1,10,0:0:0:0:
256,192,200888,1,0,0:0:0:0:
256,192,201080,1,0,0:0:0:0:
256,192,201176,1,10,0:0:0:0:
256,192,201272,1,0,0:0:0:0:
256,192,201368,1,10,0:0:0:0:
256,192,201432,1,10,0:0:0:0:
256,192,201496,1,10,0:0:0:0:
256,192,201561,1,0,0:0:0:0:
256,192,201625,1,0,0:0:0:0:
256,192,201689,1,10,0:0:0:0:
256,192,201753,1,10,0:0:0:0:
256,192,201849,1,0,0:0:0:0:
256,192,201945,1,0,0:0:0:0:
256,192,202041,1,10,0:0:0:0:
256,192,202138,1,0,0:0:0:0:
256,192,202234,1,10,0:0:0:0:
256,192,202426,1,4,0:0:0:0:
256,192,202618,1,4,0:0:0:0:
256,192,202811,1,14,0:0:0:0:
256,192,203194,1,10,0:0:0:0:
256,192,203291,1,0,0:0:0:0:
256,192,203387,1,0,0:0:0:0:
256,192,203483,1,8,0:0:0:0:
256,192,203579,1,0,0:0:0:0:
256,192,203675,1,10,0:0:0:0:
256,192,203868,1,0,0:0:0:0:
256,192,204060,1,0,0:0:0:0:
256,192,204156,1,10,0:0:0:0:
256,192,204252,1,0,0:0:0:0:
256,192,204348,1,10,0:0:0:0:
256,192,204412,1,10,0:0:0:0:
256,192,204476,1,10,0:0:0:0:
256,192,204541,1,0,0:0:0:0:
256,192,204605,1,0,0:0:0:0:
256,192,204669,1,10,0:0:0:0:
256,192,204733,1,10,0:0:0:0:
256,192,204829,1,0,0:0:0:0:
256,192,204925,1,0,0:0:0:0:
256,192,205021,1,10,0:0:0:0:
256,192,205118,1,0,0:0:0:0:
256,192,205214,1,10,0:0:0:0:
256,192,205406,1,4,0:0:0:0:
256,192,205598,1,14,0:0:0:0:
256,192,205791,1,14,0:0:0:0:
256,192,206173,1,10,0:0:0:0:
256,192,206270,1,0,0:0:0:0:
256,192,206366,1,0,0:0:0:0:
256,192,206461,1,10,0:0:0:0:
256,192,206558,1,0,0:0:0:0:
256,192,206654,1,10,0:0:0:0:
256,192,206847,1,0,0:0:0:0:
256,192,207039,1,0,0:0:0:0:
256,192,207135,1,10,0:0:0:0:
256,192,207231,1,0,0:0:0:0:
256,192,207327,1,10,0:0:0:0:
256,192,207391,1,10,0:0:0:0:
256,192,207455,1,10,0:0:0:0:
256,192,207520,1,0,0:0:0:0:
256,192,207584,1,0,0:0:0:0:
256,192,207648,1,10,0:0:0:0:
256,192,207712,1,10,0:0:0:0:
256,192,207808,1,0,0:0:0:0:
256,192,207904,1,0,0:0:0:0:
256,192,208000,1,10,0:0:0:0:
256,192,208097,1,0,0:0:0:0:
256,192,208192,1,0,0:0:0:0:
256,192,208288,1,10,0:0:0:0:
256,192,208384,1,0,0:0:0:0:
256,192,208480,1,0,0:0:0:0:
256,192,208576,1,10,0:0:0:0:
256,192,208673,1,0,0:0:0:0:
256,192,208769,1,0,0:0:0:0:
256,192,208865,1,10,0:0:0:0:
256,192,208961,1,0,0:0:0:0:
256,192,209057,1,0,0:0:0:0:
256,192,209346,1,14,0:0:0:0:
256,192,209923,1,14,0:0:0:0:
256,192,210307,1,4,0:0:0:0:
256,192,210596,1,4,0:0:0:0:
96,208,210884,2,0,L|256:128,1,160
256,192,211461,1,0,0:0:0:0:
256,192,211557,1,0,0:0:0:0:
256,192,211653,1,0,0:0:0:0:
256,192,211749,1,10,0:0:0:0:
256,192,211846,1,10,0:0:0:0:
256,192,211942,1,0,0:0:0:0:
256,192,212038,1,0,0:0:0:0:
256,192,212134,1,10,0:0:0:0:
256,192,212228,1,10,0:0:0:0:
256,192,212325,1,0,0:0:0:0:
256,192,212421,1,10,0:0:0:0:
256,192,212517,1,2,0:0:0:0:
256,192,212613,1,0,0:0:0:0:
256,192,212709,1,10,0:0:0:0:
256,192,212902,1,0,0:0:0:0:
256,192,213094,1,0,0:0:0:0:
256,192,213190,1,10,0:0:0:0:
256,192,213286,1,0,0:0:0:0:
256,192,213382,1,10,0:0:0:0:
256,192,213446,1,10,0:0:0:0:
256,192,213510,1,10,0:0:0:0:
256,192,213575,1,0,0:0:0:0:
256,192,213639,1,0,0:0:0:0:
256,192,213703,1,10,0:0:0:0:
256,192,213767,1,10,0:0:0:0:
256,192,213863,1,0,0:0:0:0:
256,192,213959,1,10,0:0:0:0:
256,192,214055,1,2,0:0:0:0:
256,192,214152,1,0,0:0:0:0:
256,192,214248,1,10,0:0:0:0:
256,192,214440,1,4,0:0:0:0:
256,192,214632,1,4,0:0:0:0:
256,192,214825,1,14,0:0:0:0:
256,192,215208,1,10,0:0:0:0:
256,192,215305,1,0,0:0:0:0:
256,192,215401,1,2,0:0:0:0:
256,192,215497,1,10,0:0:0:0:
256,192,215593,1,0,0:0:0:0:
256,192,215689,1,10,0:0:0:0:
256,192,215882,1,0,0:0:0:0:
256,192,216074,1,0,0:0:0:0:
256,192,216170,1,10,0:0:0:0:
256,192,216266,1,0,0:0:0:0:
256,192,216362,1,10,0:0:0:0:
256,192,216426,1,10,0:0:0:0:
256,192,216490,1,10,0:0:0:0:
256,192,216555,1,0,0:0:0:0:
256,192,216619,1,0,0:0:0:0:
256,192,216683,1,10,0:0:0:0:
256,192,216747,1,10,0:0:0:0:
256,192,216843,1,0,0:0:0:0:
256,192,216939,1,10,0:0:0:0:
256,192,217034,1,10,0:0:0:0:
256,192,217132,1,0,0:0:0:0:
256,192,217228,1,10,0:0:0:0:
256,192,217420,1,4,0:0:0:0:
256,192,217612,1,14,0:0:0:0:
256,192,217805,1,14,0:0:0:0:
256,192,218189,1,10,0:0:0:0:
256,192,218286,1,0,0:0:0:0:
256,192,218382,1,10,0:0:0:0:
256,192,218478,1,2,0:0:0:0:
256,192,218574,1,0,0:0:0:0:
256,192,218670,1,10,0:0:0:0:
256,192,218863,1,0,0:0:0:0:
256,192,219055,1,0,0:0:0:0:
256,192,219151,1,10,0:0:0:0:
256,192,219247,1,0,0:0:0:0:
256,192,219343,1,10,0:0:0:0:
256,192,219407,1,10,0:0:0:0:
256,192,219471,1,10,0:0:0:0:
256,192,219536,1,0,0:0:0:0:
256,192,219600,1,0,0:0:0:0:
256,192,219664,1,10,0:0:0:0:
256,192,219728,1,10,0:0:0:0:
256,192,219824,1,0,0:0:0:0:
256,192,219920,1,0,0:0:0:0:
256,192,220016,1,10,0:0:0:0:
256,192,220113,1,10,0:0:0:0:
256,192,220208,1,0,0:0:0:0:
256,192,220304,1,10,0:0:0:0:
256,192,220400,1,0,0:0:0:0:
256,192,220496,1,0,0:0:0:0:
256,192,220592,1,10,0:0:0:0:
256,192,220689,1,10,0:0:0:0:
256,192,220785,1,0,0:0:0:0:
256,192,220881,1,10,0:0:0:0:
256,192,220977,1,8,0:0:0:0:
256,192,221073,1,0,0:0:0:0:
256,192,221362,1,14,0:0:0:0:
256,192,221939,1,14,0:0:0:0:
256,192,222323,1,4,0:0:0:0:
256,192,222612,1,4,0:0:0:0:
256,192,222868,1,0,0:0:0:0:
256,192,222996,1,0,0:0:0:0:
256,192,223124,1,0,0:0:0:0:
256,192,223253,1,10,0:0:0:0:
256,192,223381,1,10,0:0:0:0:
256,192,223509,1,4,0:0:0:0:
256,192,223894,1,14,0:0:0:0:
256,192,224278,1,0,0:0:0:0:
256,192,224406,1,0,0:0:0:0:
256,192,224535,1,0,0:0:0:0:
256,192,224663,1,10,0:0:0:0:
256,192,224791,1,10,0:0:0:0:
256,192,224919,1,10,0:0:0:0:
256,192,225047,1,0,0:0:0:0:
256,192,225176,1,0,0:0:0:0:
256,192,225304,1,0,0:0:0:0:
256,192,225432,1,10,0:0:0:0:
256,192,225560,1,10,0:0:0:0:
256,192,225688,1,10,0:0:0:0:
256,192,225817,1,10,0:0:0:0:
256,192,225881,1,10,0:0:0:0:
256,192,225945,1,0,0:0:0:0:
256,192,226073,1,0,0:0:0:0:
256,192,226201,1,10,0:0:0:0:
256,192,226265,1,0,0:0:0:0:
256,192,226329,1,0,0:0:0:0:
256,192,226458,1,0,0:0:0:0:
256,192,226586,1,0,0:0:0:0:
256,192,226650,1,0,0:0:0:0:
256,192,226714,1,0,0:0:0:0:
256,192,226842,1,0,0:0:0:0:
256,192,226970,1,14,0:0:0:0:
256,192,227322,1,14,0:0:0:0:
256,192,227578,1,14,0:0:0:0:
256,192,227834,1,14,0:0:0:0:
256,192,228091,1,14,0:0:0:0:
256,192,228604,1,4,0:0:0:0:
256,192,228860,1,4,0:0:0:0:
256,192,229116,1,14,0:0:0:0:
256,192,229629,1,10,0:0:0:0:
256,192,229693,1,10,0:0:0:0:
256,192,229757,1,10,0:0:0:0:
256,192,229822,1,0,0:0:0:0:
256,192,229886,1,0,0:0:0:0:
256,192,229950,1,0,0:0:0:0:
256,192,230014,1,0,0:0:0:0:
