osu file format v14

[General]
AudioFilename: xi - Happy End of the World.mp3
AudioLeadIn: 1825
PreviewTime: 81543
Countdown: 0
SampleSet: Soft
StackLeniency: 0.7
Mode: 3
LetterboxInBreaks: 0
SpecialStyle: 1
WidescreenStoryboard: 0

[Editor]
DistanceSpacing: 1.6
BeatDivisor: 16
GridSize: 8
TimelineZoom: 2.3

[Metadata]
Title:Happy End of the World
TitleUnicode:ハッピーエンドオブザワールド
Artist:xi
ArtistUnicode:xi
Creator:Blocko
Version:8K Insane
Source:
Tags:agartha 100sec records marathon remillion cross fullerene- hellgert -kamikaze- ajeemaniz exusagi ijinjin squishykorean
BeatmapID:454328
BeatmapSetID:171880

[Difficulty]
HPDrainRate:8
CircleSize:8
OverallDifficulty:8.5
ApproachRate:8.5
SliderMultiplier:1.4
SliderTickRate:1

[Events]
//Background and Video events
0,0,"background.jpg",0,0
//Break Periods
//Storyboard Layer 0 (Background)
//Storyboard Layer 1 (Fail)
//Storyboard Layer 2 (Pass)
//Storyboard Layer 3 (Foreground)
//Storyboard Sound Samples

[TimingPoints]
706,315.789473684211,4,2,0,10,1,0
706,-166.666666666667,4,2,0,10,0,0
20916,-125,4,2,1,25,0,0
36074,-166.666666666667,4,2,1,25,0,0
36706,-166.666666666667,4,2,1,15,0,0
38600,-125,4,2,1,30,0,0
41127,-100,4,2,1,35,0,0
76495,-166.666666666667,4,2,1,35,0,0
77758,-166.666666666667,4,2,1,20,0,0
79021,-125,4,2,1,35,0,0
81548,-100,4,2,1,40,0,0
121969,-100,4,2,1,40,0,1
142100,-100,4,2,1,40,0,0
142179,-166.666666666667,4,2,0,40,0,1
142811,-166.666666666667,4,2,0,30,0,1
144706,-169.491525423729,4,2,0,20,0,0
147232,-169.491525423729,4,2,0,15,0,0
149758,-172.413793103448,4,2,0,15,0,0
152284,-172.413793103448,4,2,0,14,0,0
153548,-175.438596491228,4,2,0,14,0,0
155495,335.195530726257,4,2,0,14,1,0
155495,-163.934426229508,4,2,0,14,0,0
156165,-166.666666666667,4,2,0,14,0,0
156479,333.333333333333,4,2,0,14,1,0
156479,-166.666666666667,4,2,0,14,0,0
157479,-169.491525423729,4,2,0,13,0,0
158167,348.837209302326,4,2,0,13,1,0
158167,-161.290322580645,4,2,0,13,0,0
158864,-163.934426229508,4,2,0,13,0,0
160260,-166.666666666667,4,2,0,12,0,0
160936,352.941176470588,4,2,0,12,1,0
160936,-166.666666666667,4,2,0,12,0,0
161288,-169.491525423729,4,2,0,12,0,0
161641,361.44578313253,4,2,0,12,1,0
161641,-166.666666666667,4,2,0,12,0,0
162002,-169.491525423729,4,2,0,12,0,0
162363,400,4,2,0,12,1,0
162363,-153.846153846154,4,2,0,12,0,0
162763,-156.25,4,2,0,12,0,0
163163,315.789473684211,4,2,0,15,1,0
163163,-166.666666666667,4,2,0,15,0,0
170741,-156.25,4,2,0,18,0,0
172005,-147.058823529412,4,2,0,21,0,0
172320,-138.888888888889,4,2,0,24,0,0
172636,-131.578947368421,4,2,0,27,0,0
172794,-125,4,2,0,30,0,0
172952,-119.047619047619,4,2,0,33,0,0
173031,-113.636363636364,4,2,0,36,0,0
173110,-108.695652173913,4,2,0,39,0,0
173189,-104.166666666667,4,2,0,42,0,0
173268,-100,4,2,1,45,0,0
180847,-100,4,2,1,30,0,0
182110,-100,4,2,1,45,0,0
182268,-57.1428571428571,4,2,1,45,0,0
182426,-158.730158730159,4,2,1,45,0,0
182741,-100,4,2,1,45,0,0
183373,-100,4,2,1,50,0,1
203584,-166.666666666667,4,2,0,50,0,0
204215,-166.666666666667,4,2,0,30,0,0
204847,-166.666666666667,4,2,0,25,0,0
206110,-166.666666666667,4,2,0,20,0,0
208636,-166.666666666667,4,2,0,15,0,0
213689,-125,4,2,1,25,0,0
218741,-166.666666666667,4,2,1,25,0,0
219373,-166.666666666667,4,2,1,20,0,0
221268,-125,4,2,1,35,0,0
223794,-100,4,2,1,45,0,0
228847,-100,4,2,1,50,0,0
244005,-100,4,2,1,45,0,0
249057,-100,4,2,1,50,0,0
259163,-166.666666666667,4,2,1,45,0,0
260426,-166.666666666667,4,2,1,25,0,0
261689,-125,4,2,1,40,0,0
264215,-100,4,2,1,50,0,1
284347,-100,4,2,1,50,0,0
284426,-100,4,2,1,50,0,1
304557,-100,4,2,1,50,0,0
304636,-100,4,2,1,50,0,1
324768,-100,4,2,1,50,0,0
324847,-166.666666666667,4,2,0,80,0,1
325478,-166.666666666667,4,2,0,30,0,1
327373,-169.491525423729,4,2,0,20,0,0
328636,314.13612565445,4,2,0,20,1,0
328636,-169.491525423729,4,2,0,20,0,0
329892,315.789473684211,4,2,0,15,1,0
329892,-169.491525423729,4,2,0,15,0,0
332418,307.692307692308,4,2,0,14,1,0
332418,-175.438596491228,4,2,0,14,0,0
333341,333.333333333333,4,2,0,14,1,0
333341,-163.934426229508,4,2,0,14,0,0
333640,325.644504748982,4,2,0,14,1,0
333640,-166.666666666667,4,2,0,14,0,0
334942,315.789473684211,4,2,0,13,1,0
334942,-172.413793103448,4,2,0,13,0,0
336205,309.677419354839,4,2,0,13,1,0
336205,-178.571428571429,4,2,0,13,0,0
336495,314.13612565445,4,2,0,13,1,0
336495,-175.438596491228,4,2,0,13,0,0
337482,314.13612565445,4,2,0,12,1,0
337482,-175.438596491228,4,2,0,12,0,0
338738,-178.571428571429,4,2,0,12,0,0
339995,315.789473684211,4,2,0,11,1,0
339995,-178.571428571429,4,2,0,11,0,0
345047,-181.818181818182,4,2,0,10,0,0
347573,319.148936170213,4,2,0,10,1,0
347573,-181.818181818182,4,2,0,10,0,0
350126,322.58064516129,4,2,0,10,1,0
350126,-181.818181818182,4,2,0,10,0,0
352061,310.880829015544,4,2,0,10,1,0
352061,-188.679245283019,4,2,0,10,0,0
352682,326.086956521739,4,2,0,10,1,0
352682,-181.818181818182,4,2,0,10,0,0
353965,333.333333333333,4,2,0,10,1,0
353965,-178.571428571429,4,2,0,10,0,0
354604,397.350993377483,4,2,0,10,1,0
354604,-149.253731343284,4,2,0,10,0,0
355001,310.880829015544,4,2,0,10,1,0
355001,-192.307692307692,4,2,0,10,0,0
355311,370.37037037037,4,2,0,10,1,0
355311,-161.290322580645,4,2,0,10,0,0
355681,333.333333333333,4,2,0,10,1,0
355681,-178.571428571429,4,2,0,10,0,0
356681,315.789473684211,4,2,0,10,1,0
356681,-188.679245283019,4,2,0,10,0,0
356996,333.333333333333,4,2,0,10,1,0
356996,-181.818181818182,4,2,0,10,0,0
358329,315.789473684211,4,2,0,10,1,0
358329,-192.307692307692,4,2,0,10,0,0
358681,333.333333333333,4,2,0,10,1,0
358681,-181.818181818182,4,2,0,10,0,0
359347,410.958904109589,4,2,0,10,1,0
359347,-147.058823529412,4,2,0,10,0,0
359757,352.941176470588,4,2,0,10,1,0
359757,-172.413793103448,4,2,0,10,0,0
361516,315.789473684211,4,2,0,10,1,0
361516,-192.307692307692,4,2,0,10,0,0
361831,352.941176470588,4,2,0,10,1,0
361831,-172.413793103448,4,2,0,10,0,0
362183,-175.438596491228,4,2,0,10,0,0
363507,365.853658536585,4,2,0,10,1,0
363507,-169.491525423729,4,2,0,10,0,0
363872,375,4,2,0,10,1,0
363872,-163.934426229508,4,2,0,10,0,0
364247,384.615384615385,4,2,0,10,1,0
364247,-161.290322580645,4,2,0,10,0,0
364631,394.736842105263,4,2,0,10,1,0
364631,-156.25,4,2,0,10,0,0
365025,393.44262295082,4,2,0,10,1,0
365025,-158.730158730159,4,2,0,10,0,0
365418,413.793103448276,4,2,0,10,1,0
365418,-151.515151515152,4,2,0,10,0,0
366245,315.789473684211,4,2,0,10,1,0
366245,-196.078431372549,4,2,0,10,0,0
366580,-200,4,2,0,10,0,0
367981,441.176470588235,4,2,0,9,1,0
367981,-142.857142857143,4,2,0,9,0,0
368422,410.958904109589,4,2,0,9,1,0
368422,-153.846153846154,4,2,0,9,0,0
368832,413.793103448276,4,2,0,9,1,0
368832,-151.515151515152,4,2,0,9,0,0
369245,526.315789473684,4,2,0,9,1,0
369245,-120.481927710843,4,2,0,9,0,0
369771,500,4,2,0,9,1,0
369771,-126.582278481013,4,2,0,9,0,0
370271,428.571428571429,4,2,0,8,1,0
370271,-149.253731343284,4,2,0,8,0,0
370699,468.75,4,2,0,8,1,0
370699,-136.986301369863,4,2,0,8,0,0
371167,451.127819548872,4,2,0,8,1,0
371167,-140.845070422535,4,2,0,8,0,0
371618,521.739130434783,4,2,0,8,1,0
371618,-123.456790123457,4,2,0,8,0,0
372139,441.176470588235,4,2,0,8,1,0
372139,-144.927536231884,4,2,0,8,0,0
372580,422.535211267606,4,2,0,8,1,0
372580,-151.515151515152,4,2,0,8,0,0
373002,600,4,2,0,7,1,0
373002,-107.52688172043,4,2,0,7,0,0
373602,652.173913043478,4,2,0,7,1,0
373602,-99.009900990099,4,2,0,7,0,0
374254,681.818181818182,4,2,0,7,1,0
374254,-95.2380952380952,4,2,0,7,0,0
374935,740.740740740741,4,2,0,6,1,0
374935,-87.719298245614,4,2,0,6,0,0
375675,750,4,2,0,6,1,0
375675,-86.9565217391304,4,2,0,6,0,0
376425,956.175298804781,4,2,0,6,1,0
376425,-68.4931506849315,4,2,0,6,0,0
377381,638.297872340426,4,2,0,5,1,0
377381,-103.092783505155,4,2,0,5,0,0

[HitObjects]
96,192,706,5,0,0:0:0:0:
160,192,1021,1,0,0:0:0:0:
224,192,1337,1,2,0:0:0:0:
352,192,1337,1,0,0:0:0:0:
160,192,1653,1,0,0:0:0:0:
416,192,1969,1,2,0:0:0:0:
288,192,1969,1,0,0:0:0:0:
352,192,3232,1,2,0:0:0:0:
224,192,3232,1,0,0:0:0:0:
416,192,3863,1,2,0:0:0:0:
160,192,3863,1,0,0:0:0:0:
352,192,4811,1,2,0:0:0:0:
288,192,5127,1,2,0:0:0:0:
480,192,5442,1,2,0:0:0:0:
96,192,5758,1,0,0:0:0:0:
160,192,6074,1,0,0:0:0:0:
224,192,6390,1,0,0:0:0:0:
288,192,6706,1,0,0:0:0:0:
352,192,7021,1,0,0:0:0:0:
480,192,7337,1,2,0:0:0:0:
416,192,7495,1,2,0:0:0:0:
160,192,8284,1,0,0:0:0:0:
224,192,8600,1,0,0:0:0:0:
288,192,8916,1,0,0:0:0:0:
352,192,9232,1,0,0:0:0:0:
480,192,9548,1,2,0:0:0:0:
96,192,9548,1,0,0:0:0:0:
416,192,9863,1,0,0:0:0:0:
352,192,10179,1,2,0:0:0:0:
224,192,10179,1,0,0:0:0:0:
288,192,10495,1,0,0:0:0:0:
96,192,10811,1,0,0:0:0:0:
160,192,11127,1,0,0:0:0:0:
224,192,11442,1,2,0:0:0:0:
416,192,11442,1,0,0:0:0:0:
160,192,11758,1,0,0:0:0:0:
480,192,12074,1,2,0:0:0:0:
288,192,12074,1,0,0:0:0:0:
160,192,13337,1,2,0:0:0:0:
416,192,13337,1,0,0:0:0:0:
480,192,13969,1,2,0:0:0:0:
96,192,13969,1,0,0:0:0:0:
288,192,13969,1,0,0:0:0:0:
480,192,14916,1,2,0:0:0:0:
288,192,14916,1,0,0:0:0:0:
224,192,15232,1,2,0:0:0:0:
416,192,15232,1,0,0:0:0:0:
160,192,15548,1,2,0:0:0:0:
352,192,15548,1,0,0:0:0:0:
96,192,15863,1,0,0:0:0:0:
160,192,16179,1,0,0:0:0:0:
224,192,16495,1,0,0:0:0:0:
288,192,16811,1,0,0:0:0:0:
352,192,17127,1,0,0:0:0:0:
480,192,17442,1,2,0:0:0:0:
416,192,17600,1,2,0:0:0:0:
32,192,18390,1,0,0:0:0:25:LR_Chm Echo long.wav
96,192,18390,1,0,0:0:0:0:
160,192,18706,1,0,0:0:0:0:
224,192,19021,1,0,0:0:0:0:
288,192,19337,1,0,0:0:0:0:
416,192,19653,1,0,0:0:0:0:
480,192,19969,1,0,0:0:0:8:LR_Drum Kick Low.wav
288,192,19969,1,0,0:0:0:0:
416,192,20284,1,0,0:0:0:8:LR_Drum Kick Low.wav
224,192,20284,1,0,0:0:0:0:
352,192,20600,1,0,0:0:0:8:LR_Drum Kick Low.wav
160,192,20600,1,0,0:0:0:0:
288,192,20916,1,0,0:0:0:80:LR_Drum Crush Finish.wav
96,192,20916,1,0,0:0:0:15:LR_Drum Kick Low.wav
32,192,20916,1,4,0:0:0:0:
480,192,20916,1,2,0:0:0:0:
160,192,21232,1,0,0:0:0:35:LR_HiHat SClick 2.wav
352,192,21232,1,0,0:0:0:0:
224,192,21548,1,0,0:0:0:50:LR_HiHat Click.wav
416,192,21548,1,2,0:0:0:0:
96,192,21548,1,0,0:0:0:0:
160,192,21863,1,0,0:0:0:35:LR_HiHat SClick 2.wav
352,192,21863,1,0,0:0:0:0:
480,192,22179,1,0,0:0:0:50:LR_HiHat Click.wav
416,192,22179,1,2,0:0:0:0:
224,192,22179,1,0,0:0:0:0:
96,192,22495,1,0,0:0:0:60:LR_Hat Synth.wav
352,192,22495,1,0,0:0:0:0:
160,192,22811,1,0,0:0:0:35:LR_HiHat SClick 2.wav
416,192,22811,1,0,0:0:0:0:
224,192,23127,1,0,0:0:0:35:LR_HiHat SClick 2.wav
480,192,23127,1,0,0:0:0:0:
160,192,23442,1,0,0:0:0:60:LR_Hat Synth.wav
288,192,23442,1,2,0:0:0:0:
416,192,23442,1,0,0:0:0:0:
224,192,23758,1,0,0:0:0:35:LR_HiHat SClick 2.wav
352,192,23758,1,0,0:0:0:0:
96,192,24074,1,0,0:0:0:60:LR_Hat Synth.wav
288,192,24074,1,2,0:0:0:0:
480,192,24074,1,0,0:0:0:0:
160,192,24390,1,0,0:0:0:35:LR_HiHat SClick 2.wav
416,192,24390,1,0,0:0:0:0:
224,192,24706,1,0,0:0:0:35:LR_HiHat SClick 2.wav
352,192,24706,1,0,0:0:0:0:
160,192,25021,1,0,0:0:0:35:LR_HiHat SClick 2.wav
288,192,25021,1,2,0:0:0:0:
416,192,25021,1,0,0:0:0:0:
352,192,25337,1,0,0:0:0:50:LR_HiHat Click.wav
224,192,25337,1,2,0:0:0:0:
480,192,25495,1,0,0:0:0:25:LR_Drum Rpd Fast .wav
96,192,25495,1,0,0:0:0:50:LR_Drum Rpd.wav
160,192,25653,1,0,0:0:0:50:LR_HiHat Click.wav
416,192,25653,1,2,0:0:0:0:
352,192,25811,1,0,0:0:0:20:LR_Drum Hit Clap Sn.wav
224,192,25811,1,0,0:0:0:13:LR_Drum Kick Low.wav
480,192,25969,1,0,0:0:0:80:LR_Drum Crush Finish.wav
96,192,25969,1,0,0:0:0:15:LR_Drum Kick Low.wav
288,192,25969,1,2,0:0:0:0:
32,192,25969,1,4,0:0:0:0:
416,192,26284,1,0,0:0:0:35:LR_HiHat SClick 2.wav
160,192,26284,1,0,0:0:0:0:
224,192,26600,1,0,0:0:0:50:LR_HiHat Click.wav
480,192,26600,1,2,0:0:0:0:
416,192,26916,1,0,0:0:0:35:LR_HiHat SClick 2.wav
160,192,26916,1,0,0:0:0:0:
96,192,27232,1,0,0:0:0:50:LR_HiHat Click.wav
352,192,27232,1,2,0:0:0:0:
288,192,27548,1,0,0:0:0:60:LR_Hat Synth.wav
480,192,27548,1,2,0:0:0:0:
224,192,27706,1,2,0:0:0:0:
416,192,27706,1,0,0:0:0:0:
160,192,27863,1,0,0:0:0:35:LR_HiHat SClick 2.wav
352,192,27863,1,2,0:0:0:0:
288,192,28179,1,0,0:0:0:35:LR_HiHat SClick 2.wav
96,192,28179,1,2,0:0:0:0:
416,192,28179,1,0,0:0:0:25:LR_Drum Hit Clap Sn.wav
480,192,28495,1,0,0:0:0:50:LR_HiHat Click.wav
352,192,28495,1,2,0:0:0:0:
160,192,28653,1,0,0:0:0:50:LR_HiHat Click.wav
288,192,28811,1,0,0:0:0:60:LR_Hat Synth.wav
416,192,28811,1,0,0:0:0:0:
224,192,29127,1,0,0:0:0:35:LR_HiHat SClick 2.wav
352,192,29127,1,2,0:0:0:0:
96,192,29284,1,0,0:0:0:30:LR_Drum Rpd Fast .wav
288,192,29442,1,0,0:0:0:35:LR_HiHat SClick 2.wav
160,192,29442,1,0,0:0:0:0:
416,192,29600,1,0,0:0:0:30:LR_Drum Rpd Fast .wav
224,192,29758,1,0,0:0:0:60:LR_Hat Synth.wav
480,192,29758,1,2,0:0:0:0:
352,192,29758,1,0,0:0:0:0:
96,192,29916,1,0,0:0:0:0:
160,192,30074,1,0,0:0:0:50:LR_HiHat Click.wav
288,192,30074,1,2,0:0:0:0:
416,192,30074,1,0,0:0:0:0:
96,192,30232,1,0,0:0:0:30:LR_Drum Rpd Fast .wav
288,192,30390,1,0,0:0:0:30:LR_Drum Hit Clap Sn.wav
480,192,30390,1,2,0:0:0:0:
352,192,30390,1,0,0:0:0:0:
224,192,30495,1,0,0:0:0:30:LR_Drum Rpd Fast .wav
160,192,30600,1,0,0:0:0:30:LR_Drum Hit Clap Sn.wav
416,192,30706,1,0,0:0:0:15:LR_Drum Kick Low.wav
96,192,30706,1,2,0:0:0:0:
224,192,30890,1,0,0:0:0:30:LR_Tom Hit 3.wav
352,192,30890,1,0,0:0:0:30:LR_Drum Rpd.wav
32,192,31021,1,0,0:0:0:80:LR_Drum Crush Finish.wav
160,192,31021,1,0,0:0:0:20:LR_Drum Kick Low.wav
480,192,31021,1,6,0:0:0:0:
288,192,31021,1,0,0:0:0:0:
96,192,31337,1,0,0:0:0:35:LR_HiHat SClick 2.wav
352,192,31337,1,0,0:0:0:0:
224,192,31653,1,0,0:0:0:50:LR_HiHat Click.wav
416,192,31653,1,2,0:0:0:0:
480,192,31653,1,0,0:0:0:0:
160,192,31969,1,0,0:0:0:35:LR_HiHat SClick 2.wav
352,192,31969,1,0,0:0:0:0:
288,192,32284,1,0,0:0:0:50:LR_HiHat Click.wav
480,192,32284,1,2,0:0:0:0:
96,192,32284,1,0,0:0:0:0:
160,192,32600,1,0,0:0:0:60:LR_Hat Synth.wav
352,192,32600,1,0,0:0:0:0:
224,192,32916,1,0,0:0:0:50:LR_HiHat Click.wav
416,192,32916,1,0,0:0:0:12:LR_Drum Kick Low.wav
96,192,33074,1,0,0:0:0:25:LR_Drum Hit Clap Sn.wav
288,192,33232,1,0,0:0:0:35:LR_HiHat SClick 2.wav
480,192,33232,1,0,0:0:0:0:
160,192,33390,1,0,0:0:0:50:LR_HiHat Click.wav
224,192,33548,1,0,0:0:0:25:LR_Drum Hit Clap Sn.wav
416,192,33548,1,0,0:0:0:60:LR_Hat Synth.wav
352,192,33548,1,2,0:0:0:0:
288,192,33863,1,0,0:0:0:35:LR_HiHat SClick 2.wav
160,192,33863,1,0,0:0:0:0:
224,192,34179,1,0,0:0:0:25:LR_Drum Hit Clap Sn.wav
352,192,34179,1,0,0:0:0:60:LR_Hat Synth.wav
480,192,34179,1,2,0:0:0:0:
32,192,34179,1,4,0:0:0:0:
160,192,34495,1,0,0:0:0:35:LR_HiHat SClick 2.wav
416,192,34495,1,0,0:0:0:0:
96,192,34811,1,0,0:0:0:50:LR_HiHat Click.wav
352,192,34811,1,0,0:0:0:0:
480,192,35127,1,0,0:0:0:50:LR_HiHat Click.wav
352,192,35127,1,2,0:0:0:0:
224,192,35127,1,0,0:0:0:0:
160,192,35442,1,0,0:0:0:30:LR_Drum Hit Clap Sn.wav
224,192,35442,1,0,0:0:0:25:LR_Drum Barrel Hit.wav
416,192,35442,1,2,0:0:0:0:
480,192,35548,1,0,0:0:0:30:LR_Drum Rpd Fast .wav
416,192,35653,1,0,0:0:0:30:LR_Drum Hit Clap Sn.wav
352,192,35758,1,0,0:0:0:50:LR_Drum Rpd.wav
96,192,35758,1,2,0:0:0:0:
288,192,35863,1,0,0:0:0:50:LR_Tom Hit 2.wav
224,192,35969,1,0,0:0:0:50:LR_Tom Hit 3.wav
160,192,36074,1,0,0:0:0:15:LR_Drum Kick Low.wav
288,192,36074,1,2,0:0:0:0:
416,192,36074,1,0,0:0:0:100:LR_Drum Crush Finish.wav
32,192,36074,1,4,0:0:0:0:
480,192,36706,1,2,0:0:0:0:
96,192,36706,1,2,0:0:0:0:
224,192,37653,1,0,0:0:0:15:LR2_KickDBeatBass.wav
352,192,37653,1,0,0:0:0:0:
480,192,37969,1,0,0:0:0:35:LR_Drum Hit Clap Sn.wav
96,192,37969,1,0,0:0:0:25:LR_Drum Barrel Hit.wav
288,192,38127,1,0,0:0:0:15:LR2_KickDBeatBass.wav
160,192,38284,1,0,0:0:0:25:LR_HiHat SClick 2.wav
416,192,38284,1,0,0:0:0:0:
288,192,38442,1,0,0:0:0:15:LR2_KickDBeatBass.wav
480,192,38600,1,0,0:0:0:20:LR_Drum Kick Low.wav
224,192,38600,1,4,0:0:0:0:
352,192,38600,1,0,0:0:0:80:LR_Drum Rpd.wav
32,192,38600,1,0,0:0:0:0:
224,192,38758,1,0,0:0:0:20:LR_Drum Kick Low.wav
352,192,38758,1,0,0:0:0:80:LR_Drum Rpd.wav
480,192,38758,1,4,0:0:0:0:
480,192,39074,1,0,0:0:0:20:LR_Drum Kick Low.wav
352,192,39074,1,0,0:0:0:80:LR_Drum Rpd.wav
224,192,39074,1,4,0:0:0:0:
224,192,39232,1,0,0:0:0:20:LR_Drum Kick Low.wav
352,192,39232,1,0,0:0:0:80:LR_Drum Rpd.wav
480,192,39232,1,4,0:0:0:0:
416,192,39548,1,0,0:0:0:20:LR_Drum Kick Low.wav
288,192,39548,1,0,0:0:0:80:LR_Drum Rpd.wav
160,192,39548,1,4,0:0:0:0:
160,192,39706,1,0,0:0:0:20:LR_Drum Kick Low.wav
288,192,39706,1,0,0:0:0:80:LR_Drum Rpd.wav
416,192,39706,1,4,0:0:0:0:
416,192,40021,1,0,0:0:0:20:LR_Drum Kick Low.wav
288,192,40021,1,0,0:0:0:80:LR_Drum Rpd.wav
160,192,40021,1,4,0:0:0:0:
160,192,40179,1,0,0:0:0:20:LR_Drum Kick Low.wav
416,192,40179,1,0,0:0:0:80:LR_Drum Rpd.wav
288,192,40179,1,4,0:0:0:0:
224,192,40495,1,0,0:0:0:80:LR_Drum Rpd.wav
352,192,40495,1,0,0:0:0:20:LR_Drum Kick Low.wav
32,192,40495,1,0,0:0:0:30:LR_RevCyRDW.wav
96,192,40495,1,4,0:0:0:0:
96,192,40811,1,0,0:0:0:20:LR_Drum Kick Low.wav
224,192,40811,1,0,0:0:0:80:LR_Drum Rpd.wav
352,192,40811,1,4,0:0:0:0:
32,192,41127,1,0,0:0:0:40:crash.wav
160,192,41127,1,4,1:0:0:0:
288,192,41127,1,0,0:0:0:33:LR_Drum Kick Low.wav
416,192,41127,1,6,0:0:0:0:
480,192,41127,1,0,0:0:0:0:
96,192,41284,1,0,0:0:0:45:LR_Drum Rpd Fast .wav
288,192,41442,1,0,0:0:0:40:LR_HiHat SClick 2.wav
160,192,41600,1,0,0:0:0:20:LR_Drum Kick Low.wav
480,192,41758,1,0,0:0:0:25:LR_Drum Hit Clap Sn.wav
352,192,41758,1,0,0:0:0:45:LR_Drum Rpd Fast .wav
224,192,41758,1,2,0:0:0:0:
288,192,42074,1,0,0:0:0:20:LR_Drum Kick Low.wav
160,192,42232,1,0,0:0:0:45:LR_Drum Rpd Fast .wav
352,192,42390,1,0,0:0:0:40:LR_HiHat SClick 2.wav
224,192,42548,1,0,0:0:0:20:LR_Drum Kick Low.wav
416,192,42706,1,0,0:0:0:50:LR_Drum Rpd Fast .wav
288,192,42706,1,0,0:0:0:90:LR_Hat Synth.wav
352,192,43021,1,0,0:0:0:20:LR_Drum Kick Low.wav
224,192,43179,1,0,0:0:0:40:LR_Drum Rpd Fast .wav
416,192,43337,1,0,0:0:0:40:LR_HiHat SClick 2.wav
288,192,43495,1,0,0:0:0:20:LR_Drum Kick Low.wav
480,192,43653,1,0,0:0:0:90:LR_Hat Synth.wav
352,192,43653,1,0,0:0:0:45:LR_Drum Rpd Fast .wav
96,192,43653,1,2,0:0:0:0:
160,192,43969,1,0,0:0:0:20:LR_Drum Kick Low.wav
288,192,44127,1,0,0:0:0:45:LR_Drum Rpd Fast .wav
416,192,44284,1,0,0:0:0:40:LR_HiHat SClick 2.wav
224,192,44442,1,0,0:0:0:20:LR_Drum Kick Low.wav
352,192,44600,1,0,0:0:0:40:LR_Drum Hit Clap Sn.wav
160,192,44600,1,2,3:0:0:0:
288,192,44916,1,0,0:0:0:20:LR_Drum Kick Low.wav
416,192,44916,1,0,0:0:0:40:LR_Drum Hit Clap Sn.wav
96,192,44916,1,2,0:0:0:0:
160,192,45074,1,0,0:0:0:40:LR_Drum Barrel Hit.wav
480,192,45074,1,2,3:0:0:0:
224,192,45232,1,0,0:0:0:90:LR_Hat Synth.wav
352,192,45232,1,0,0:0:0:20:LR_Drum Kick Low.wav
160,192,45390,1,0,0:0:0:100:LR_Drum Rpd.wav
480,192,45548,1,0,0:0:0:20:LR_Drum Kick Low.wav
96,192,45548,1,0,0:0:0:50:LR_Drum Rpd Fast .wav
288,192,45548,1,2,0:0:0:0:
416,192,45627,1,0,0:0:0:100:LR_Drum Rpd.wav
352,192,45706,1,0,0:0:0:40:LR_Drum Hit Clap Sn.wav
224,192,45863,1,0,0:0:0:20:LR_Drum Kick Low.wav
352,192,46048,1,0,0:0:0:80:LR_Tom Hit 3.wav
160,192,46179,1,0,0:0:0:30:LR_Drum Kick Low.wav
32,192,46179,1,4,0:0:0:0:
288,192,46179,1,0,0:0:0:90:LR_Drum Crush Finish.wav
416,192,46179,1,2,0:0:0:0:
96,192,46337,1,0,0:0:0:45:LR_Drum Rpd Fast .wav
480,192,46495,1,0,0:0:0:40:LR_HiHat SClick 2.wav
160,192,46653,1,0,0:0:0:20:LR_Drum Kick Low.wav
416,192,46811,1,0,0:0:0:45:LR_Drum Rpd Fast .wav
224,192,46811,1,0,0:0:0:0:
352,192,47127,1,0,0:0:0:20:LR_Drum Kick Low.wav
160,192,47284,1,0,0:0:0:45:LR_Drum Rpd Fast .wav
416,192,47442,1,0,0:0:0:40:LR_HiHat SClick 2.wav
96,192,47600,1,0,0:0:0:20:LR_Drum Kick Low.wav
160,192,47758,1,0,0:0:0:45:LR_Drum Rpd Fast .wav
480,192,47758,1,0,0:0:0:90:LR_Hat Synth.wav
416,192,48074,1,0,0:0:0:20:LR_Drum Kick Low.wav
96,192,48074,1,2,0:0:0:0:
224,192,48074,1,0,0:0:0:0:
288,192,48232,1,0,0:0:0:45:LR_Drum Rpd Fast .wav
352,192,48390,1,0,0:0:0:40:LR_HiHat SClick 2.wav
160,192,48548,1,0,0:0:0:20:LR_Drum Kick Low.wav
480,192,48706,1,0,0:0:0:45:LR_Drum Rpd Fast .wav
96,192,48706,1,0,0:0:0:40:LR_Drum Barrel Hit.wav
288,192,48706,1,2,0:0:0:0:
160,192,49021,1,0,0:0:0:20:LR_Drum Kick Low.wav
224,192,49179,1,0,0:0:0:45:LR_Drum Rpd Fast .wav
480,192,49337,1,0,0:0:0:40:LR_HiHat SClick 2.wav
288,192,49337,1,0,0:0:0:0:
416,192,49495,1,0,0:0:0:20:LR_Drum Kick Low.wav
352,192,49653,1,0,0:0:0:45:LR_Drum Rpd Fast .wav
160,192,49653,1,0,0:0:0:20:LR_Drum Kick Low.wav
224,192,49837,1,0,0:0:0:100:LR_Drum Rpd.wav
96,192,49969,5,0,0:0:0:40:LR_Drum Hit Clap Sn.wav
480,192,49969,1,0,0:0:0:20:LR_Drum Kick Low.wav
288,192,49969,1,0,0:0:0:60:LR_Drum Rpd.wav
224,192,50074,1,0,0:0:0:40:LR_Drum Hit Clap Sn.wav
160,192,50179,1,0,0:0:0:40:LR_Drum Hit Clap Sn.wav
288,192,50284,1,0,0:0:0:50:LR_Drum Rpd Fast .wav
96,192,50284,1,0,0:0:0:20:LR_Drum Kick Low.wav
480,192,50284,1,0,0:0:0:60:LR_Drum Rpd.wav
352,192,50390,1,0,0:0:0:50:LR_Drum Rpd Fast .wav
416,192,50495,1,0,0:0:0:50:LR_Drum Rpd Fast .wav
160,192,50600,1,2,0:0:0:0:
96,192,50600,1,0,0:0:0:20:LR_Drum Kick Low.wav
288,192,50758,1,0,0:0:0:40:LR_HiHat SClick 2.wav
352,192,50758,1,2,0:0:0:0:
224,192,50916,1,0,0:0:0:20:LR_Drum Kick Low.wav
160,192,50916,1,2,0:0:0:0:
416,192,51074,1,0,0:0:0:40:LR_HiHat SClick 2.wav
352,192,51074,1,2,0:0:0:0:
480,192,51232,5,0,0:0:0:90:LR_Drum Crush Finish.wav
32,192,51232,1,4,0:0:0:0:
96,192,51232,1,0,0:0:0:25:LR_Drum Kick Low.wav
224,192,51232,1,2,0:0:0:0:
288,192,51390,1,0,0:0:0:40:LR_Drum Rpd Fast .wav
352,192,51548,1,0,0:0:0:40:LR_HiHat SClick 2.wav
160,192,51706,1,0,0:0:0:20:LR_Drum Kick Low.wav
416,192,51863,1,0,0:0:0:45:LR_Drum Rpd Fast .wav
288,192,51863,1,0,0:0:0:0:
352,192,52179,1,0,0:0:0:20:LR_Drum Kick Low.wav
224,192,52337,1,0,0:0:0:40:LR_Drum Rpd Fast .wav
160,192,52495,1,0,0:0:0:40:LR_HiHat SClick 2.wav
288,192,52495,1,2,0:0:0:0:
416,192,52495,1,0,0:0:0:0:
96,192,52653,1,0,0:0:0:20:LR_Drum Kick Low.wav
224,192,52811,1,0,0:0:0:45:LR_Drum Rpd Fast .wav
480,192,52811,1,0,0:0:0:90:LR_Hat Synth.wav
416,192,53127,1,0,0:0:0:20:LR_Drum Kick Low.wav
224,192,53284,1,0,0:0:0:45:LR_Drum Rpd Fast .wav
352,192,53442,1,0,0:0:0:40:LR_HiHat SClick 2.wav
160,192,53600,1,0,0:0:0:20:LR_Drum Kick Low.wav
96,192,53758,1,0,0:0:0:90:LR_Hat Synth.wav
224,192,53758,1,0,0:0:0:45:LR_Drum Rpd Fast .wav
416,192,53758,1,2,0:0:0:0:
288,192,54074,1,0,0:0:0:20:LR_Drum Kick Low.wav
96,192,54232,1,0,0:0:0:45:LR_Drum Rpd Fast .wav
480,192,54390,1,0,0:0:0:40:LR_HiHat SClick 2.wav
352,192,54548,1,0,0:0:0:20:LR_Drum Kick Low.wav
416,192,54706,1,0,0:0:0:45:LR_Drum Rpd Fast .wav
160,192,54706,1,0,0:0:0:0:
480,192,55021,1,0,0:0:0:20:LR_Drum Kick Low.wav
96,192,55021,1,2,0:0:0:0:
288,192,55021,1,0,0:0:0:0:
224,192,55179,5,0,0:0:0:45:LR_Drum Rpd Fast .wav
352,192,55337,1,0,0:0:0:40:LR_HiHat SClick 2.wav
160,192,55495,1,0,0:0:0:20:LR_Drum Kick Low.wav
416,192,55653,1,0,0:0:0:45:LR_Drum Rpd Fast .wav
224,192,55653,1,2,0:0:0:0:
96,192,55653,1,0,0:0:0:40:LR_Drum Hit Clap Sn.wav
288,192,55831,1,0,0:0:0:100:LR_Drum Rpd.wav
160,192,55969,1,0,0:0:0:70:LR_Tom Hit 2.wav
416,192,56127,1,0,0:0:0:70:LR_Tom Hit 3.wav
96,192,56284,5,0,0:0:0:25:LR_Drum Kick Low.wav
32,192,56284,1,4,0:0:0:0:
480,192,56284,1,0,0:0:0:90:LR_Drum Crush Finish.wav
288,192,56284,1,2,0:0:0:0:
352,192,56442,1,0,0:0:0:45:LR_Drum Rpd Fast .wav
224,192,56600,1,0,0:0:0:40:LR_HiHat SClick 2.wav
416,192,56758,1,0,0:0:0:20:LR_Drum Kick Low.wav
480,192,56916,1,0,0:0:0:45:LR_Drum Rpd Fast .wav
352,192,56916,1,2,0:0:0:0:
96,192,56916,1,0,0:0:0:0:
224,192,57074,1,0,0:0:0:0:
288,192,57232,1,0,0:0:0:20:LR_Drum Kick Low.wav
160,192,57390,1,0,0:0:0:45:LR_Drum Rpd Fast .wav
288,192,57548,1,0,0:0:0:40:LR_HiHat SClick 2.wav
416,192,57706,1,0,0:0:0:20:LR_Drum Kick Low.wav
224,192,57863,1,0,0:0:0:45:LR_Drum Rpd Fast .wav
352,192,57863,1,0,0:0:0:90:LR_Hat Synth.wav
96,192,58021,1,0,0:0:0:0:
480,192,58179,1,0,0:0:0:20:LR_Drum Kick Low.wav
224,192,58179,1,0,0:0:0:0:
352,192,58337,1,0,0:0:0:45:LR_Drum Rpd Fast .wav
288,192,58495,1,0,0:0:0:40:LR_Drum Hit Clap Sn.wav
96,192,58495,1,0,0:0:0:0:
160,192,58653,1,0,0:0:0:100:LR_Drum Rpd.wav
32,192,58811,1,0,0:0:0:90:LR_Drum Crush Finish.wav
224,192,58811,1,0,0:0:0:100:LR_Drum Rpd.wav
352,192,58969,1,0,0:0:0:20:LR_Drum Kick Low.wav
160,192,59127,1,0,0:0:0:20:LR_Drum Kick Low.wav
288,192,59284,1,0,0:0:0:100:LR_Drum Rpd.wav
480,192,59442,1,0,0:0:0:40:LR_HiHat SClick 2.wav
96,192,59442,1,2,0:0:0:0:
352,192,59442,1,0,0:0:0:0:
224,192,59600,1,0,0:0:0:0:
288,192,59758,1,0,0:0:0:20:LR_Drum Kick Low.wav
160,192,59916,1,0,0:0:0:20:LR_Drum Kick Low.wav
224,192,60074,1,0,0:0:0:90:LR_Drum Crush Finish.wav
480,192,60074,1,0,0:0:0:25:LR_Drum Kick Low.wav
32,192,60074,1,4,0:0:0:0:
224,192,60284,5,0,0:0:0:90:LR_Drum Crush Finish.wav
32,192,60284,1,4,0:0:0:0:
480,192,60284,1,0,0:0:0:0:
288,192,60495,1,0,0:0:0:90:LR_Drum Crush Finish.wav
32,192,60495,1,4,0:0:0:0:
480,192,60495,1,0,0:0:0:0:
288,192,60706,1,0,0:0:0:90:LR_Drum Crush Finish.wav
480,192,60706,1,0,0:0:0:40:LR_Drum Hit Clap Sn.wav
32,192,60706,1,4,0:0:0:0:
416,192,60811,1,0,0:0:0:40:LR_Drum Rpd Fast .wav
224,192,60811,1,0,0:0:0:60:LR_Drum Rpd.wav
352,192,60916,1,0,0:0:0:40:LR_Drum Hit Clap Sn.wav
160,192,60916,1,0,0:0:0:60:LR_Drum Rpd.wav
96,192,61021,1,0,0:0:0:25:LR_Drum Kick Low.wav
288,192,61021,1,0,0:0:0:70:LR_Tom Hit 2.wav
160,192,61179,1,0,0:0:0:40:LR_Drum Rpd Fast .wav
352,192,61179,1,0,0:0:0:70:LR_Tom Hit 3.wav
224,192,61337,5,0,0:0:0:25:LR_Drum Kick Low.wav
96,192,61337,1,4,1:0:0:0:
32,192,61337,1,4,0:0:0:0:
416,192,61337,1,0,0:0:0:90:LR_Drum Crush Finish.wav
480,192,61337,1,2,0:0:0:0:
288,192,61495,1,0,0:0:0:45:LR_Drum Rpd Fast .wav
352,192,61653,1,0,0:0:0:40:LR_HiHat SClick 2.wav
224,192,61811,1,0,0:0:0:20:LR_Drum Kick Low.wav
96,192,61969,1,0,0:0:0:45:LR_Drum Rpd Fast .wav
288,192,61969,1,2,0:0:0:0:
480,192,61969,1,0,0:0:0:0:
352,192,62284,1,0,0:0:0:20:LR_Drum Kick Low.wav
96,192,62442,1,0,0:0:0:45:LR_Drum Rpd Fast .wav
416,192,62600,1,0,0:0:0:40:LR_HiHat SClick 2.wav
160,192,62758,1,0,0:0:0:20:LR_Drum Kick Low.wav
224,192,62916,1,0,0:0:0:45:LR_Drum Rpd Fast .wav
480,192,62916,1,0,0:0:0:90:LR_Hat Synth.wav
416,192,63232,1,0,0:0:0:20:LR_Drum Kick Low.wav
160,192,63390,1,0,0:0:0:45:LR_Drum Rpd Fast .wav
352,192,63548,1,0,0:0:0:40:LR_HiHat SClick 2.wav
96,192,63706,1,0,0:0:0:20:LR_Drum Kick Low.wav
160,192,63863,1,0,0:0:0:45:LR_Drum Rpd Fast .wav
288,192,63863,1,0,0:0:0:90:LR_Hat Synth.wav
480,192,63863,1,2,0:0:0:0:
96,192,64179,1,0,0:0:0:20:LR_Drum Kick Low.wav
224,192,64337,1,0,0:0:0:45:LR_Drum Rpd Fast .wav
480,192,64495,1,0,0:0:0:40:LR_HiHat SClick 2.wav
352,192,64653,1,0,0:0:0:20:LR_Drum Kick Low.wav
160,192,64811,1,0,0:0:0:40:LR_Drum Hit Clap Sn.wav
416,192,64811,1,2,3:0:0:0:
480,192,65127,1,0,0:0:0:20:LR_Drum Kick Low.wav
288,192,65127,1,0,0:0:0:40:LR_Drum Hit Clap Sn.wav
224,192,65127,1,2,0:0:0:0:
416,192,65284,5,0,0:0:0:40:LR_Drum Barrel Hit.wav
160,192,65284,1,2,3:0:0:0:
352,192,65442,1,0,0:0:0:20:LR_Drum Kick Low.wav
96,192,65442,1,0,0:0:0:90:LR_Hat Synth.wav
288,192,65600,1,0,0:0:0:100:LR_Drum Rpd.wav
96,192,65758,1,0,0:0:0:20:LR_Drum Kick Low.wav
480,192,65758,1,0,0:0:0:50:LR_Drum Rpd Fast .wav
352,192,65758,1,2,0:0:0:0:
160,192,65837,1,0,0:0:0:100:LR_Drum Rpd.wav
224,192,65916,1,0,0:0:0:40:LR_Drum Hit Clap Sn.wav
288,192,66074,1,0,0:0:0:20:LR_Drum Kick Low.wav
352,192,66232,1,0,0:0:0:80:LR_Tom Hit 3.wav
416,192,66390,5,0,0:0:0:90:LR_Drum Crush Finish.wav
480,192,66390,1,0,0:0:0:25:LR_Drum Kick Low.wav
32,192,66390,1,4,0:0:0:0:
224,192,66390,1,2,0:0:0:0:
160,192,66548,1,0,0:0:0:45:LR_Drum Rpd Fast .wav
352,192,66706,1,0,0:0:0:40:LR_HiHat SClick 2.wav
288,192,66863,1,0,0:0:0:20:LR_Drum Kick Low.wav
416,192,67021,1,0,0:0:0:45:LR_Drum Rpd Fast .wav
96,192,67021,1,0,0:0:0:0:
480,192,67337,1,0,0:0:0:20:LR_Drum Kick Low.wav
160,192,67495,1,0,0:0:0:45:LR_Drum Rpd Fast .wav
352,192,67653,1,0,0:0:0:40:LR_HiHat SClick 2.wav
288,192,67811,1,0,0:0:0:20:LR_Drum Kick Low.wav
416,192,67969,1,0,0:0:0:45:LR_Drum Rpd Fast .wav
224,192,67969,1,0,0:0:0:90:LR_Hat Synth.wav
160,192,68284,1,0,0:0:0:20:LR_Drum Kick Low.wav
288,192,68284,1,2,0:0:0:0:
416,192,68284,1,0,0:0:0:0:
224,192,68442,1,0,0:0:0:45:LR_Drum Rpd Fast .wav
352,192,68600,1,0,0:0:0:40:LR_HiHat SClick 2.wav
96,192,68758,1,0,0:0:0:20:LR_Drum Kick Low.wav
160,192,68916,1,0,0:0:0:90:LR_Hat Synth.wav
480,192,68916,1,0,0:0:0:45:LR_Drum Rpd Fast .wav
288,192,68916,1,2,0:0:0:0:
352,192,69232,1,0,0:0:0:20:LR_Drum Kick Low.wav
224,192,69390,1,0,0:0:0:45:LR_Drum Rpd Fast .wav
416,192,69548,1,0,0:0:0:40:LR_HiHat SClick 2.wav
160,192,69706,1,0,0:0:0:20:LR_Drum Kick Low.wav
352,192,69863,1,0,0:0:0:45:LR_Drum Rpd Fast .wav
224,192,70041,1,0,0:0:0:100:LR_Drum Rpd.wav
160,192,70179,1,0,0:0:0:20:LR_Drum Kick Low.wav
96,192,70179,1,0,0:0:0:40:LR_Drum Hit Clap Sn.wav
352,192,70179,1,2,0:0:0:0:
224,192,70284,5,0,0:0:0:40:LR_Drum Hit Clap Sn.wav
288,192,70390,1,0,0:0:0:40:LR_Drum Hit Clap Sn.wav
480,192,70495,1,0,0:0:0:50:LR_Drum Rpd Fast .wav
416,192,70600,1,0,0:0:0:60:LR_Drum Rpd.wav
160,192,70600,1,0,0:0:0:50:LR_Drum Rpd Fast .wav
224,192,70600,1,2,0:0:0:0:
352,192,70706,1,0,0:0:0:50:LR_Drum Rpd Fast .wav
96,192,70811,1,0,0:0:0:20:LR_Drum Kick Low.wav
160,192,70916,1,0,0:0:0:70:LR_Tom Hit 2.wav
224,192,71021,1,0,0:0:0:60:LR_Drum Rpd.wav
288,192,71021,1,0,0:0:0:70:LR_Tom Hit 2.wav
480,192,71021,1,2,0:0:0:0:
416,192,71127,1,0,0:0:0:20:LR_Drum Kick Low.wav
352,192,71232,1,0,0:0:0:70:LR_Tom Hit 3.wav
288,192,71337,1,0,0:0:0:70:LR_Tom Hit 3.wav
224,192,71442,5,0,0:0:0:90:LR_Drum Crush Finish.wav
480,192,71442,1,2,0:0:0:0:
32,192,71442,1,4,0:0:0:0:
96,192,71442,1,0,0:0:0:25:LR_Drum Kick Low.wav
352,192,71600,1,0,0:0:0:45:LR_Drum Rpd Fast .wav
416,192,71758,1,0,0:0:0:40:LR_HiHat SClick 2.wav
288,192,71916,1,0,0:0:0:20:LR_Drum Kick Low.wav
480,192,72074,1,0,0:0:0:45:LR_Drum Rpd Fast .wav
160,192,72074,1,0,0:0:0:0:
352,192,72390,1,0,0:0:0:20:LR_Drum Kick Low.wav
224,192,72548,1,0,0:0:0:45:LR_Drum Rpd Fast .wav
288,192,72706,1,0,0:0:0:40:LR_HiHat SClick 2.wav
160,192,72863,1,0,0:0:0:20:LR_Drum Kick Low.wav
352,192,73021,1,0,0:0:0:45:LR_Drum Rpd Fast .wav
480,192,73021,1,0,0:0:0:90:LR_Hat Synth.wav
160,192,73337,1,0,0:0:0:20:LR_Drum Kick Low.wav
288,192,73337,1,2,0:0:0:0:
416,192,73337,1,0,0:0:0:0:
96,192,73495,1,0,0:0:0:45:LR_Drum Rpd Fast .wav
352,192,73653,1,0,0:0:0:40:LR_HiHat SClick 2.wav
224,192,73811,1,0,0:0:0:20:LR_Drum Kick Low.wav
480,192,73969,1,0,0:0:0:90:LR_Drum Crush Finish.wav
160,192,73969,1,2,0:0:0:0:
32,192,73969,1,4,0:0:0:0:
352,192,73969,1,0,0:0:0:45:LR_Drum Rpd Fast .wav
96,192,74284,1,0,0:0:0:20:LR_Drum Kick Low.wav
352,192,74442,1,0,0:0:0:20:LR_Drum Kick Low.wav
480,192,74600,1,0,0:0:0:45:LR_Drum Rpd Fast .wav
224,192,74758,1,0,0:0:0:40:LR_HiHat SClick 2.wav
416,192,74916,1,0,0:0:0:40:LR_HiHat SClick 2.wav
160,192,75074,1,0,0:0:0:100:LR_Drum Rpd.wav
96,192,75232,1,0,0:0:0:20:LR_Drum Kick Low.wav
480,192,75232,1,0,0:0:0:100:LR_Drum Rpd.wav
288,192,75232,1,0,0:0:0:0:
160,192,75390,1,0,0:0:0:45:LR_Drum Rpd Fast .wav
224,192,75548,1,0,0:0:0:45:LR_Drum Hit Clap Sn.wav
416,192,75548,1,0,0:0:0:45:LR_Drum Rpd Fast .wav
288,192,75706,1,0,0:0:0:20:LR_Drum Kick Low.wav
480,192,75863,1,0,0:0:0:40:LR_Drum Hit Clap Sn.wav
224,192,75863,1,0,0:0:0:40:LR_Drum Barrel Hit.wav
416,192,75969,1,0,0:0:0:45:LR_Drum Rpd Fast .wav
160,192,75969,1,0,0:0:0:80:LR_Drum Rpd.wav
352,192,76074,1,0,0:0:0:40:LR_Drum Hit Clap Sn.wav
96,192,76074,1,0,0:0:0:80:LR_Drum Rpd.wav
480,192,76179,1,0,0:0:0:80:LR_Drum Rpd.wav
288,192,76179,1,0,0:0:0:20:LR_Drum Kick Low.wav
224,192,76284,1,0,0:0:0:70:LR_Tom Hit 2.wav
416,192,76284,1,0,0:0:0:80:LR_Drum Rpd.wav
160,192,76390,1,0,0:0:0:70:LR_Tom Hit 3.wav
352,192,76390,1,0,0:0:0:80:LR_Drum Rpd.wav
96,192,76495,1,0,0:0:0:25:LR_Drum Kick Low.wav
480,192,76495,1,0,0:0:0:100:LR_Drum Crush Finish.wav
32,192,76495,1,4,0:0:0:0:
288,192,76495,1,2,0:0:0:0:
160,192,77758,1,2,0:0:0:0:
416,192,77758,1,2,0:0:0:0:
224,192,78074,1,0,0:0:0:18:LR2_KickDBeatBass.wav
480,192,78390,1,0,0:0:0:35:LR_Drum Barrel Hit.wav
96,192,78390,1,0,0:0:0:35:LR_Drum Hit Clap Sn.wav
352,192,78548,1,0,0:0:0:18:LR2_KickDBeatBass.wav
416,192,78706,1,0,0:0:0:25:LR_HiHat SClick 2.wav
160,192,78706,1,0,0:0:0:0:
224,192,78863,1,0,0:0:0:18:LR2_KickDBeatBass.wav
416,192,79021,1,0,0:0:0:90:LR_Drum Crush Finish.wav
160,192,79021,1,0,0:0:0:25:LR_Drum Kick Low.wav
288,192,79021,1,4,0:0:0:0:
32,192,79021,1,0,0:0:0:0:
416,192,79179,1,0,0:0:0:90:LR_Drum Crush Finish.wav
288,192,79179,1,0,0:0:0:25:LR_Drum Kick Low.wav
160,192,79179,1,4,0:0:0:0:
288,192,79495,1,0,0:0:0:90:LR_Drum Crush Finish.wav
160,192,79495,1,0,0:0:0:25:LR_Drum Kick Low.wav
416,192,79495,1,4,0:0:0:0:
160,192,79653,1,0,0:0:0:90:LR_Drum Crush Finish.wav
416,192,79653,1,0,0:0:0:25:LR_Drum Kick Low.wav
288,192,79653,1,4,0:0:0:0:
96,192,79969,1,0,0:0:0:95:LR_Drum Crush Finish.wav
352,192,79969,1,0,0:0:0:25:LR_Drum Kick Low.wav
224,192,79969,1,4,0:0:0:0:
96,192,80127,1,0,0:0:0:95:LR_Drum Crush Finish.wav
224,192,80127,1,0,0:0:0:25:LR_Drum Kick Low.wav
352,192,80127,1,4,0:0:0:0:
96,192,80442,1,0,0:0:0:95:LR_Drum Crush Finish.wav
224,192,80442,1,0,0:0:0:25:LR_Drum Kick Low.wav
352,192,80442,1,4,0:0:0:0:
352,192,80600,1,0,0:0:0:95:LR_Drum Crush Finish.wav
96,192,80600,1,0,0:0:0:25:LR_Drum Kick Low.wav
224,192,80600,1,4,0:0:0:0:
352,192,80916,1,0,0:0:0:90:LR_Drum Crush Finish.wav
480,192,80916,1,0,0:0:0:25:LR_Drum Kick Low.wav
32,192,80916,1,0,0:0:0:30:LR_RevCyRDW.wav
224,192,80916,1,4,0:0:0:0:
480,192,81232,1,0,0:0:0:25:LR_Drum Kick Low.wav
352,192,81232,1,0,0:0:0:90:LR_Drum Crush Finish.wav
224,192,81232,1,4,0:0:0:0:
224,192,81548,5,0,0:0:0:20:LR_Drum Kick Low.wav
32,192,81548,1,0,0:0:0:50:crash.wav
96,192,81548,1,4,1:0:0:0:
480,192,81548,1,6,0:0:0:0:
352,192,81548,1,0,0:0:0:100:LR_Drum Crush Finish.wav
416,192,81863,1,0,0:0:0:20:LR_Drum Kick Low.wav
288,192,81863,1,0,0:0:0:40:LR_HiHat SClick 2.wav
224,192,82179,1,0,0:0:0:20:LR_Drum Kick Low.wav
96,192,82179,1,0,0:0:0:40:LR_HiHat SClick 2.wav
288,192,82495,1,0,0:0:0:20:LR_Drum Kick Low.wav
416,192,82495,1,0,0:0:0:40:LR_HiHat SClick 2.wav
224,192,82653,1,0,0:0:0:40:LR_Drum Hit Clap Sn.wav
160,192,82811,1,2,0:0:0:0:
288,192,82811,1,0,0:0:0:20:LR_Drum Kick Low.wav
416,192,82811,1,0,0:0:0:40:LR_HiHat SClick 2.wav
96,192,82969,1,0,0:0:0:40:LR_Drum Hit Clap Sn.wav
352,192,83127,1,0,0:0:0:20:LR_Drum Kick Low.wav
480,192,83127,1,0,0:0:0:90:LR_Hat Synth.wav
160,192,83442,1,0,0:0:0:20:LR_Drum Kick Low.wav
288,192,83442,1,0,0:0:0:40:LR_HiHat SClick 2.wav
352,192,83758,1,0,0:0:0:40:LR_HiHat SClick 2.wav
480,192,83758,1,0,0:0:0:20:LR_Drum Kick Low.wav
96,192,84074,1,0,0:0:0:50:LR_Drum Rpd Fast .wav
224,192,84074,1,0,0:0:0:20:LR_Drum Kick Low.wav
32,192,84074,1,6,0:0:0:0:
416,192,84074,1,0,0:0:0:0:
480,192,84390,1,0,0:0:0:40:LR_HiHat SClick 2.wav
352,192,84390,1,0,0:0:0:20:LR_Drum Kick Low.wav
288,192,84706,1,0,0:0:0:20:LR_Drum Kick Low.wav
160,192,84706,1,0,0:0:0:50:LR_Drum Rpd Fast .wav
32,192,84706,1,4,0:0:0:0:
416,192,84706,1,0,0:0:0:0:
480,192,85021,1,0,0:0:0:40:LR_HiHat SClick 2.wav
352,192,85021,1,0,0:0:0:20:LR_Drum Kick Low.wav
288,192,85179,1,0,0:0:0:40:LR_Drum Hit Clap Sn.wav
96,192,85337,1,0,0:0:0:40:LR_HiHat SClick 2.wav
224,192,85337,1,0,0:0:0:20:LR_Drum Kick Low.wav
416,192,85337,1,2,0:0:0:0:
288,192,85495,1,0,0:0:0:40:LR_Drum Hit Clap Sn.wav
352,192,85653,1,0,0:0:0:40:LR_HiHat SClick 2.wav
160,192,85653,1,0,0:0:0:20:LR_Drum Kick Low.wav
96,192,85969,1,0,0:0:0:40:LR_Drum Hit Clap Sn.wav
288,192,85969,1,0,0:0:0:20:LR_Drum Kick Low.wav
224,192,86074,1,0,0:0:0:50:LR_Drum Rpd Fast .wav
352,192,86179,1,0,0:0:0:40:LR_Drum Hit Clap Sn.wav
160,192,86284,1,0,0:0:0:50:LR_Drum Rpd Fast .wav
480,192,86284,1,0,0:0:0:20:LR_Drum Kick Low.wav
352,192,86390,1,0,0:0:0:70:LR_Tom Hit 2.wav
224,192,86495,1,0,0:0:0:70:LR_Tom Hit 3.wav
96,192,86600,1,0,0:0:0:100:LR_Drum Crush Finish.wav
352,192,86600,1,0,0:0:0:20:LR_Drum Kick Low.wav
480,192,86600,1,2,0:0:0:0:
32,192,86600,1,4,0:0:0:0:
224,192,86916,1,0,0:0:0:40:LR_HiHat SClick 2.wav
480,192,86916,1,0,0:0:0:20:LR_Drum Kick Low.wav
96,192,87232,1,0,0:0:0:20:LR_Drum Kick Low.wav
352,192,87232,1,0,0:0:0:40:LR_HiHat SClick 2.wav
480,192,87548,1,0,0:0:0:40:LR_HiHat SClick 2.wav
224,192,87548,1,0,0:0:0:20:LR_Drum Kick Low.wav
288,192,87706,1,0,0:0:0:40:LR_Drum Hit Clap Sn.wav
96,192,87863,1,0,0:0:0:40:LR_HiHat SClick 2.wav
352,192,87863,1,0,0:0:0:20:LR_Drum Kick Low.wav
480,192,87863,1,2,0:0:0:0:
288,192,88021,1,0,0:0:0:40:LR_Drum Hit Clap Sn.wav
160,192,88179,1,0,0:0:0:20:LR_Drum Kick Low.wav
416,192,88179,1,0,0:0:0:90:LR_Hat Synth.wav
96,192,88495,1,2,3:0:0:0:
352,192,88495,1,0,0:0:0:20:LR_Drum Kick Low.wav
480,192,88495,1,0,0:0:0:40:LR_HiHat SClick 2.wav
160,192,88811,1,0,0:0:0:40:LR_HiHat SClick 2.wav
416,192,88811,1,0,0:0:0:20:LR_Drum Kick Low.wav
96,192,89127,1,2,0:0:0:0:
288,192,89127,1,0,0:0:0:20:LR_Drum Kick Low.wav
480,192,89127,1,0,0:0:0:90:LR_Hat Synth.wav
416,192,89442,1,0,0:0:0:40:LR_HiHat SClick 2.wav
224,192,89442,1,0,0:0:0:20:LR_Drum Kick Low.wav
96,192,89600,1,0,0:0:0:40:LR_Drum Hit Clap Sn.wav
160,192,89758,1,2,3:0:0:0:
352,192,89758,1,0,0:0:0:20:LR_Drum Kick Low.wav
288,192,89758,1,0,0:0:0:40:LR_HiHat SClick 2.wav
480,192,89942,1,0,0:0:0:40:LR_Drum Hit Clap Sn.wav
224,192,90074,1,0,0:0:0:40:LR_HiHat SClick 2.wav
416,192,90074,1,0,0:0:0:20:LR_Drum Kick Low.wav
160,192,90232,1,0,0:0:0:50:LR_Drum Rpd Fast .wav
480,192,90390,1,0,0:0:0:40:LR_HiHat SClick 2.wav
288,192,90390,1,0,0:0:0:20:LR_Drum Kick Low.wav
96,192,90390,1,2,0:0:0:0:
352,192,90548,1,0,0:0:0:15:LR_Drum Kick Low.wav
416,192,90706,1,0,0:0:0:20:LR_Drum Kick Low.wav
224,192,90706,1,0,0:0:0:90:LR_Hat Synth.wav
288,192,90863,1,0,0:0:0:50:LR_Drum Rpd Fast .wav
352,192,91021,1,0,0:0:0:40:LR_Drum Hit Clap Sn.wav
96,192,91021,1,0,0:0:0:20:LR_Drum Kick Low.wav
288,192,91127,1,0,0:0:0:50:LR_Drum Rpd Fast .wav
224,192,91232,1,0,0:0:0:40:LR_Drum Hit Clap Sn.wav
160,192,91337,1,0,0:0:0:20:LR_Drum Kick Low.wav
416,192,91337,1,0,0:0:0:70:LR_Tom Hit 2.wav
288,192,91521,1,0,0:0:0:70:LR_Tom Hit 3.wav
160,192,91653,1,0,0:0:0:100:LR_Drum Crush Finish.wav
352,192,91653,1,0,0:0:0:20:LR_Drum Kick Low.wav
480,192,91653,1,2,0:0:0:0:
32,192,91653,1,4,0:0:0:0:
224,192,91969,1,0,0:0:0:20:LR_Drum Kick Low.wav
480,192,91969,1,0,0:0:0:90:LR_Hat Synth.wav
160,192,92284,1,0,0:0:0:20:LR_Drum Kick Low.wav
416,192,92284,1,0,0:0:0:40:LR_HiHat SClick 2.wav
480,192,92600,1,0,0:0:0:40:LR_HiHat SClick 2.wav
224,192,92600,1,0,0:0:0:20:LR_Drum Kick Low.wav
352,192,92758,1,0,0:0:0:40:LR_Drum Hit Clap Sn.wav
96,192,92916,1,0,0:0:0:40:LR_HiHat SClick 2.wav
416,192,92916,1,0,0:0:0:20:LR_Drum Kick Low.wav
224,192,92916,1,2,0:0:0:0:
288,192,93074,1,0,0:0:0:40:LR_Drum Hit Clap Sn.wav
480,192,93232,1,0,0:0:0:20:LR_Drum Kick Low.wav
160,192,93232,1,0,0:0:0:90:LR_Hat Synth.wav
96,192,93548,1,2,3:0:0:0:
416,192,93548,1,0,0:0:0:20:LR_Drum Kick Low.wav
288,192,93548,1,0,0:0:0:40:LR_HiHat SClick 2.wav
352,192,93863,1,0,0:0:0:40:LR_HiHat SClick 2.wav
160,192,93863,1,0,0:0:0:20:LR_Drum Kick Low.wav
96,192,94179,1,0,0:0:0:90:LR_Hat Synth.wav
224,192,94179,1,2,0:0:0:0:
480,192,94179,1,0,0:0:0:20:LR_Drum Kick Low.wav
416,192,94495,1,0,0:0:0:40:LR_HiHat SClick 2.wav
288,192,94495,1,0,0:0:0:20:LR_Drum Kick Low.wav
224,192,94653,1,0,0:0:0:40:LR_Drum Hit Clap Sn.wav
160,192,94811,1,0,0:0:0:20:LR_Drum Kick Low.wav
288,192,94811,1,0,0:0:0:100:LR_Drum Rpd.wav
352,192,94890,1,0,0:0:0:50:LR_Drum Rpd Fast .wav
416,192,94969,1,0,0:0:0:40:LR_Drum Hit Clap Sn.wav
480,192,95127,1,0,0:0:0:40:LR_HiHat SClick 2.wav
288,192,95127,1,0,0:0:0:20:LR_Drum Kick Low.wav
160,192,95284,1,0,0:0:0:50:LR_Drum Rpd Fast .wav
96,192,95442,1,0,0:0:0:40:LR_HiHat SClick 2.wav
224,192,95442,1,0,0:0:0:20:LR_Drum Kick Low.wav
480,192,95442,1,2,0:0:0:0:
352,192,95600,1,2,3:0:0:0:
288,192,95758,1,0,0:0:0:20:LR_Drum Kick Low.wav
416,192,95758,1,0,0:0:0:90:LR_Hat Synth.wav
224,192,95916,1,0,0:0:0:50:LR_Drum Rpd Fast .wav
160,192,96074,1,0,0:0:0:40:LR_Drum Hit Clap Sn.wav
352,192,96074,1,0,0:0:0:20:LR_Drum Kick Low.wav
416,192,96179,1,0,0:0:0:50:LR_Drum Rpd Fast .wav
480,192,96284,1,0,0:0:0:40:LR_Drum Hit Clap Sn.wav
96,192,96390,1,0,0:0:0:50:LR_Drum Rpd Fast .wav
288,192,96390,1,0,0:0:0:20:LR_Drum Kick Low.wav
160,192,96495,1,0,0:0:0:70:LR_Tom Hit 2.wav
224,192,96600,1,0,0:0:0:70:LR_Tom Hit 3.wav
96,192,96706,1,0,0:0:0:100:LR_Drum Crush Finish.wav
288,192,96706,1,0,0:0:0:20:LR_Drum Kick Low.wav
32,192,96706,1,4,0:0:0:0:
480,192,96706,1,2,0:0:0:0:
416,192,97021,1,0,0:0:0:40:LR_HiHat SClick 2.wav
224,192,97021,1,0,0:0:0:20:LR_Drum Kick Low.wav
160,192,97337,1,0,0:0:0:40:LR_HiHat SClick 2.wav
352,192,97337,1,0,0:0:0:20:LR_Drum Kick Low.wav
480,192,97653,1,0,0:0:0:40:LR_HiHat SClick 2.wav
224,192,97653,1,0,0:0:0:20:LR_Drum Kick Low.wav
416,192,97811,1,0,0:0:0:40:LR_Drum Hit Clap Sn.wav
96,192,97969,1,0,0:0:0:40:LR_HiHat SClick 2.wav
288,192,97969,1,0,0:0:0:20:LR_Drum Kick Low.wav
352,192,97969,1,2,0:0:0:0:
160,192,98127,1,0,0:0:0:40:LR_Drum Hit Clap Sn.wav
224,192,98284,1,0,0:0:0:20:LR_Drum Kick Low.wav
416,192,98284,1,0,0:0:0:90:LR_Hat Synth.wav
160,192,98600,1,2,3:0:0:0:
352,192,98600,1,0,0:0:0:20:LR_Drum Kick Low.wav
480,192,98600,1,0,0:0:0:40:LR_HiHat SClick 2.wav
288,192,98916,1,0,0:0:0:40:LR_HiHat SClick 2.wav
416,192,98916,1,0,0:0:0:20:LR_Drum Kick Low.wav
96,192,99232,1,2,0:0:0:0:
352,192,99232,1,0,0:0:0:20:LR_Drum Kick Low.wav
224,192,99232,1,0,0:0:0:90:LR_Hat Synth.wav
224,192,99548,1,0,0:0:0:20:LR_Drum Kick Low.wav
480,192,99548,1,0,0:0:0:90:LR_Hat Synth.wav
96,192,99863,1,0,0:0:0:40:LR_HiHat SClick 2.wav
352,192,99863,1,0,0:0:0:20:LR_Drum Kick Low.wav
160,192,100179,1,0,0:0:0:40:LR_HiHat SClick 2.wav
416,192,100179,1,0,0:0:0:20:LR_Drum Kick Low.wav
224,192,100337,1,0,0:0:0:50:LR_Drum Rpd Fast .wav
480,192,100495,1,2,0:0:0:0:
96,192,100495,1,0,0:0:0:40:LR_Drum Hit Clap Sn.wav
288,192,100495,1,0,0:0:0:20:LR_Drum Kick Low.wav
352,192,100600,1,0,0:0:0:40:LR_Drum Hit Clap Sn.wav
224,192,100706,1,0,0:0:0:40:LR_Drum Hit Clap Sn.wav
416,192,100811,1,0,0:0:0:50:LR_Drum Rpd Fast .wav
96,192,100811,1,0,0:0:0:20:LR_Drum Kick Low.wav
288,192,100916,1,0,0:0:0:50:LR_Drum Rpd Fast .wav
160,192,101021,1,0,0:0:0:50:LR_Drum Rpd Fast .wav
352,192,101127,1,0,0:0:0:20:LR_Drum Kick Low.wav
480,192,101127,1,0,0:0:0:70:LR_Tom Hit 2.wav
416,192,101127,1,2,0:0:0:0:
224,192,101232,1,0,0:0:0:70:LR_Tom Hit 2.wav
96,192,101337,1,0,0:0:0:70:LR_Tom Hit 2.wav
416,192,101442,1,0,0:0:0:20:LR_Drum Kick Low.wav
480,192,101442,1,0,0:0:0:70:LR_Tom Hit 3.wav
288,192,101548,1,0,0:0:0:70:LR_Tom Hit 3.wav
160,192,101653,1,0,0:0:0:70:LR_Tom Hit 3.wav
32,192,101758,1,4,0:0:0:0:
96,192,101758,1,2,0:0:0:0:
480,192,101758,1,0,0:0:0:20:LR_Drum Kick Low.wav
352,192,101758,1,0,0:0:0:100:LR_Drum Crush Finish.wav
224,192,102074,1,0,0:0:0:20:LR_Drum Kick Low.wav
416,192,102074,1,0,0:0:0:90:LR_Hat Synth.wav
96,192,102390,1,0,0:0:0:20:LR_Drum Kick Low.wav
352,192,102390,1,0,0:0:0:40:LR_HiHat SClick 2.wav
224,192,102706,1,0,0:0:0:40:LR_HiHat SClick 2.wav
480,192,102706,1,0,0:0:0:20:LR_Drum Kick Low.wav
288,192,102863,1,0,0:0:0:40:LR_Drum Hit Clap Sn.wav
160,192,103021,1,0,0:0:0:20:LR_Drum Kick Low.wav
352,192,103021,1,0,0:0:0:40:LR_HiHat SClick 2.wav
96,192,103021,1,2,0:0:0:0:
288,192,103179,1,0,0:0:0:40:LR_Drum Hit Clap Sn.wav
224,192,103337,1,0,0:0:0:90:LR_Hat Synth.wav
416,192,103337,1,0,0:0:0:20:LR_Drum Kick Low.wav
96,192,103653,1,2,3:0:0:0:
352,192,103653,1,0,0:0:0:20:LR_Drum Kick Low.wav
288,192,103653,1,0,0:0:0:40:LR_HiHat SClick 2.wav
224,192,103969,1,0,0:0:0:40:LR_HiHat SClick 2.wav
480,192,103969,1,0,0:0:0:20:LR_Drum Kick Low.wav
96,192,104284,1,0,0:0:0:40:LR_Drum Hit Clap Sn.wav
288,192,104284,1,2,0:0:0:0:
480,192,104284,1,0,0:0:0:20:LR_Drum Kick Low.wav
352,192,104284,1,0,0:0:0:90:LR_Hat Synth.wav
416,192,104600,1,0,0:0:0:40:LR_HiHat SClick 2.wav
224,192,104600,1,0,0:0:0:20:LR_Drum Kick Low.wav
352,192,104916,1,0,0:0:0:20:LR_Drum Kick Low.wav
160,192,104916,1,0,0:0:0:90:LR_Hat Synth.wav
480,192,105232,1,0,0:0:0:40:LR_HiHat SClick 2.wav
288,192,105232,1,0,0:0:0:20:LR_Drum Kick Low.wav
96,192,105390,1,0,0:0:0:40:LR_Drum Hit Clap Sn.wav
160,192,105548,1,2,0:0:0:0:
224,192,105548,1,0,0:0:0:20:LR_Drum Kick Low.wav
416,192,105548,1,0,0:0:0:40:LR_HiHat SClick 2.wav
352,192,105706,1,0,0:0:0:40:LR_Drum Hit Clap Sn.wav
480,192,105863,1,0,0:0:0:20:LR_Drum Kick Low.wav
96,192,105863,1,0,0:0:0:90:LR_Hat Synth.wav
224,192,106021,1,0,0:0:0:50:LR_Drum Rpd Fast .wav
416,192,106179,1,0,0:0:0:20:LR_Drum Kick Low.wav
32,192,106179,1,4,0:0:0:0:
160,192,106179,1,2,0:0:0:0:
416,192,106390,1,0,0:0:0:20:LR_Drum Kick Low.wav
160,192,106390,1,2,0:0:0:0:
32,192,106390,1,4,0:0:0:0:
352,192,106600,1,0,0:0:0:20:LR_Drum Kick Low.wav
32,192,106600,1,4,0:0:0:0:
224,192,106600,1,2,0:0:0:0:
32,192,106811,1,4,0:0:0:0:
288,192,106811,1,2,0:0:0:0:
480,192,106811,1,0,0:0:0:20:LR_Drum Kick Low.wav
96,192,106811,1,0,0:0:0:100:LR_Drum Crush Finish.wav
224,192,107127,1,0,0:0:0:20:LR_Drum Kick Low.wav
416,192,107127,1,0,0:0:0:40:LR_HiHat SClick 2.wav
160,192,107442,1,0,0:0:0:20:LR_Drum Kick Low.wav
352,192,107442,1,0,0:0:0:40:LR_HiHat SClick 2.wav
96,192,107442,1,2,3:0:0:0:
288,192,107758,1,0,0:0:0:40:LR_HiHat SClick 2.wav
480,192,107758,1,0,0:0:0:20:LR_Drum Kick Low.wav
224,192,107916,1,0,0:0:0:40:LR_Drum Hit Clap Sn.wav
96,192,108074,1,0,0:0:0:40:LR_HiHat SClick 2.wav
352,192,108074,1,0,0:0:0:20:LR_Drum Kick Low.wav
416,192,108074,1,2,0:0:0:0:
160,192,108232,1,0,0:0:0:40:LR_Drum Hit Clap Sn.wav
224,192,108390,1,0,0:0:0:20:LR_Drum Kick Low.wav
480,192,108390,1,0,0:0:0:90:LR_Hat Synth.wav
160,192,108706,1,2,3:0:0:0:
288,192,108706,1,0,0:0:0:20:LR_Drum Kick Low.wav
416,192,108706,1,0,0:0:0:40:LR_HiHat SClick 2.wav
352,192,109021,1,0,0:0:0:40:LR_HiHat SClick 2.wav
224,192,109021,1,0,0:0:0:20:LR_Drum Kick Low.wav
96,192,109337,1,0,0:0:0:90:LR_Hat Synth.wav
480,192,109337,1,0,0:0:0:20:LR_Drum Kick Low.wav
288,192,109337,1,2,0:0:0:0:
416,192,109653,1,0,0:0:0:40:LR_HiHat SClick 2.wav
224,192,109653,1,0,0:0:0:20:LR_Drum Kick Low.wav
352,192,109811,1,0,0:0:0:40:LR_Drum Hit Clap Sn.wav
160,192,109969,1,0,0:0:0:40:LR_HiHat SClick 2.wav
96,192,109969,1,0,0:0:0:20:LR_Drum Kick Low.wav
288,192,110127,1,0,0:0:0:40:LR_Drum Hit Clap Sn.wav
416,192,110284,1,0,0:0:0:20:LR_Drum Kick Low.wav
224,192,110284,1,2,0:0:0:0:
480,192,110284,1,0,0:0:0:40:LR_HiHat SClick 2.wav
352,192,110442,1,2,0:0:0:0:
160,192,110442,1,0,0:0:0:50:LR_Drum Rpd Fast .wav
480,192,110600,1,0,0:0:0:90:LR_Hat Synth.wav
288,192,110600,1,0,0:0:0:20:LR_Drum Kick Low.wav
96,192,110600,1,2,0:0:0:0:
160,192,110758,1,0,0:0:0:20:LR_Drum Kick Low.wav
416,192,110916,1,0,0:0:0:20:LR_Drum Kick Low.wav
224,192,110916,1,0,0:0:0:40:LR_HiHat SClick 2.wav
352,192,111021,1,2,0:0:0:0:
160,192,111074,1,0,0:0:0:50:LR_Drum Rpd Fast .wav
96,192,111232,1,0,0:0:0:20:LR_Drum Kick Low.wav
480,192,111232,1,0,0:0:0:0:
416,192,111337,1,0,0:0:0:50:LR_Drum Rpd Fast .wav
352,192,111442,1,0,0:0:0:40:LR_Drum Hit Clap Sn.wav
224,192,111442,1,2,0:0:0:0:
160,192,111548,1,0,0:0:0:20:LR_Drum Kick Low.wav
288,192,111548,1,0,0:0:0:0:
352,192,111706,1,0,0:0:0:70:LR_Tom Hit 3.wav
224,192,111863,1,0,0:0:0:100:LR_Drum Crush Finish.wav
96,192,111863,1,0,0:0:0:20:LR_Drum Kick Low.wav
480,192,111863,1,2,0:0:0:0:
32,192,111863,1,4,0:0:0:0:
288,192,112179,1,0,0:0:0:20:LR_Drum Kick Low.wav
416,192,112179,1,0,0:0:0:90:LR_Hat Synth.wav
352,192,112337,1,2,0:0:0:0:
96,192,112495,1,0,0:0:0:20:LR_Drum Kick Low.wav
224,192,112495,1,0,0:0:0:40:LR_HiHat SClick 2.wav
352,192,112495,1,2,0:0:0:0:
352,192,112811,1,0,0:0:0:20:LR_Drum Kick Low.wav
416,192,112811,1,0,0:0:0:40:LR_HiHat SClick 2.wav
160,192,112811,1,2,0:0:0:0:
288,192,112969,1,0,0:0:0:40:LR_Drum Hit Clap Sn.wav
480,192,113127,1,0,0:0:0:20:LR_Drum Kick Low.wav
224,192,113127,1,0,0:0:0:40:LR_HiHat SClick 2.wav
352,192,113284,1,0,0:0:0:40:LR_Drum Hit Clap Sn.wav
96,192,113284,1,2,0:0:0:0:
416,192,113442,1,0,0:0:0:90:LR_Hat Synth.wav
288,192,113442,1,0,0:0:0:20:LR_Drum Kick Low.wav
96,192,113442,1,2,0:0:0:0:
416,192,113758,1,0,0:0:0:20:LR_Drum Kick Low.wav
288,192,113758,1,0,0:0:0:40:LR_Drum Hit Clap Sn.wav
480,192,113758,1,0,0:0:0:40:LR_HiHat SClick 2.wav
160,192,113758,1,2,0:0:0:0:
224,192,114074,1,0,0:0:0:20:LR_Drum Kick Low.wav
352,192,114074,1,0,0:0:0:40:LR_HiHat SClick 2.wav
96,192,114074,1,2,0:0:0:0:
416,192,114232,1,0,0:0:0:50:LR_Drum Rpd Fast .wav
224,192,114232,1,2,0:0:0:0:
160,192,114390,1,0,0:0:0:20:LR_Drum Kick Low.wav
288,192,114390,1,0,0:0:0:90:LR_Hat Synth.wav
32,192,114390,1,4,0:0:0:0:
480,192,114390,1,2,0:0:0:0:
352,192,114706,1,0,0:0:0:20:LR_Drum Kick Low.wav
416,192,114706,1,0,0:0:0:40:LR_HiHat SClick 2.wav
96,192,114706,1,2,0:0:0:0:
288,192,114863,1,0,0:0:0:40:LR_Drum Hit Clap Sn.wav
96,192,114863,1,2,0:0:0:0:
160,192,115021,1,0,0:0:0:20:LR_Drum Kick Low.wav
352,192,115021,1,0,0:0:0:40:LR_HiHat SClick 2.wav
416,192,115179,1,0,0:0:0:40:LR_Drum Hit Clap Sn.wav
224,192,115179,1,2,0:0:0:0:
352,192,115337,1,0,0:0:0:20:LR_Drum Kick Low.wav
160,192,115337,1,0,0:0:0:40:LR_HiHat SClick 2.wav
416,192,115495,1,0,0:0:0:40:LR_Drum Hit Clap Sn.wav
224,192,115495,1,2,0:0:0:0:
96,192,115653,1,0,0:0:0:20:LR_Drum Kick Low.wav
288,192,115653,1,0,0:0:0:40:LR_HiHat SClick 2.wav
480,192,115653,1,2,0:0:0:0:
224,192,115811,1,2,3:0:0:0:
352,192,115969,1,0,0:0:0:40:LR_HiHat SClick 2.wav
416,192,115969,1,0,0:0:0:20:LR_Drum Kick Low.wav
96,192,115969,1,2,0:0:0:0:
288,192,116127,1,0,0:0:0:50:LR_Drum Rpd Fast .wav
96,192,116127,1,2,0:0:0:0:
480,192,116284,1,0,0:0:0:40:LR_HiHat SClick 2.wav
224,192,116284,1,0,0:0:0:20:LR_Drum Kick Low.wav
288,192,116390,1,0,0:0:0:40:LR_Drum Hit Clap Sn.wav
96,192,116442,1,2,0:0:0:0:
352,192,116495,1,0,0:0:0:50:LR_Drum Rpd Fast .wav
416,192,116600,1,0,0:0:0:40:LR_HiHat SClick 2.wav
480,192,116600,1,0,0:0:0:20:LR_Drum Kick Low.wav
352,192,116706,1,0,0:0:0:70:LR_Tom Hit 2.wav
96,192,116758,1,2,0:0:0:0:
288,192,116811,1,0,0:0:0:70:LR_Tom Hit 3.wav
160,192,116916,1,0,0:0:0:100:LR_Drum Crush Finish.wav
224,192,116916,1,4,0:0:0:0:
480,192,116916,1,2,0:0:0:0:
32,192,116916,1,0,0:0:0:20:LR_Drum Kick Low.wav
96,192,117232,1,0,0:0:0:40:LR_HiHat SClick 2.wav
288,192,117232,1,0,0:0:0:20:LR_Drum Kick Low.wav
416,192,117232,1,2,0:0:0:0:
416,192,117390,1,2,0:0:0:0:
160,192,117548,1,0,0:0:0:40:LR_HiHat SClick 2.wav
224,192,117548,1,0,0:0:0:20:LR_Drum Kick Low.wav
480,192,117863,1,0,0:0:0:40:LR_HiHat SClick 2.wav
96,192,117863,1,0,0:0:0:20:LR_Drum Kick Low.wav
352,192,117863,1,2,0:0:0:0:
352,192,118021,1,2,0:0:0:0:
224,192,118021,1,0,0:0:0:40:LR_Drum Hit Clap Sn.wav
288,192,118179,1,0,0:0:0:40:LR_HiHat SClick 2.wav
160,192,118179,1,0,0:0:0:20:LR_Drum Kick Low.wav
480,192,118179,1,2,0:0:0:0:
96,192,118337,1,0,0:0:0:40:LR_Drum Hit Clap Sn.wav
352,192,118495,1,0,0:0:0:90:LR_Hat Synth.wav
224,192,118495,1,0,0:0:0:20:LR_Drum Kick Low.wav
416,192,118495,1,2,0:0:0:0:
96,192,118811,1,0,0:0:0:40:LR_HiHat SClick 2.wav
288,192,118811,1,2,3:0:0:0:
480,192,118811,1,0,0:0:0:20:LR_Drum Kick Low.wav
352,192,118969,1,2,0:0:0:0:
416,192,119127,1,0,0:0:0:40:LR_HiHat SClick 2.wav
160,192,119127,1,0,0:0:0:20:LR_Drum Kick Low.wav
288,192,119284,1,2,0:0:0:0:
480,192,119442,1,0,0:0:0:20:LR_Drum Kick Low.wav
32,192,119442,1,4,0:0:0:0:
224,192,119442,1,0,0:0:0:40:LR_Drum Hit Clap Sn.wav
96,192,119442,1,2,0:0:0:0:
416,192,119548,1,0,0:0:0:50:LR_Drum Rpd Fast .wav
352,192,119653,1,0,0:0:0:40:LR_Drum Hit Clap Sn.wav
288,192,119758,1,0,0:0:0:50:LR_Drum Rpd Fast .wav
224,192,119863,1,2,0:0:0:0:
160,192,119863,1,0,0:0:0:0:
96,192,120074,1,0,0:0:0:40:LR_Drum Hit Clap Sn.wav
160,192,120179,1,0,0:0:0:50:LR_Drum Rpd Fast .wav
224,192,120284,1,0,0:0:0:40:LR_Drum Hit Clap Sn.wav
416,192,120284,1,2,0:0:0:0:
480,192,120284,1,0,0:0:0:0:
288,192,120390,1,0,0:0:0:50:LR_Drum Rpd Fast .wav
352,192,120574,1,0,0:0:0:100:LR_Drum Rpd.wav
160,192,120706,5,0,0:0:0:20:LR_Drum Kick Low.wav
480,192,120706,1,0,0:0:0:40:LR_Drum Hit Clap Sn.wav
224,192,120706,1,2,0:0:0:0:
32,192,120706,1,0,0:0:0:0:
416,192,120811,1,0,0:0:0:40:LR_Drum Hit Clap Sn.wav
352,192,120916,1,0,0:0:0:40:LR_Drum Hit Clap Sn.wav
96,192,121021,1,0,0:0:0:50:LR_Drum Rpd Fast .wav
288,192,121021,1,0,0:0:0:20:LR_Drum Kick Low.wav
160,192,121127,1,0,0:0:0:50:LR_Drum Rpd Fast .wav
224,192,121232,1,0,0:0:0:50:LR_Drum Rpd Fast .wav
480,192,121337,1,0,0:0:0:20:LR_Drum Kick Low.wav
32,192,121337,1,0,0:0:0:30:LR_RevCyRDW.wav
288,192,121337,1,2,0:0:0:0:
416,192,121442,1,0,0:0:0:70:LR_Tom Hit 2.wav
352,192,121548,1,0,0:0:0:70:LR_Tom Hit 2.wav
96,192,121653,1,0,0:0:0:20:LR_Drum Kick Low.wav
288,192,121653,1,0,0:0:0:70:LR_Tom Hit 3.wav
160,192,121771,1,0,0:0:0:70:LR_Tom Hit 3.wav
224,192,121890,1,0,0:0:0:70:LR_Tom Hit 3.wav
288,192,121969,5,0,0:0:0:100:LR_Drum Crush Finish.wav
96,192,121969,1,4,1:0:0:0:
32,192,121969,1,4,0:0:0:0:
480,192,121969,1,0,0:0:0:20:LR_Drum Kick Low.wav
160,192,121969,1,2,0:0:0:0:
352,192,122127,1,0,0:0:0:55:LR_HiHat Click.wav
224,192,122284,1,0,0:0:0:45:LR_HiHat SClick 2.wav
416,192,122442,1,0,0:0:0:55:LR_HiHat Click.wav
160,192,122600,1,0,0:0:0:45:LR_HiHat SClick 2.wav
288,192,122600,1,0,0:0:0:0:
352,192,122758,1,0,0:0:0:55:LR_HiHat Click.wav
224,192,122916,1,0,0:0:0:45:LR_HiHat SClick 2.wav
416,192,123074,1,0,0:0:0:45:LR_Drum Hit Clap Sn.wav
160,192,123232,1,0,0:0:0:45:LR_HiHat SClick 2.wav
288,192,123232,1,2,0:0:0:0:
352,192,123232,1,0,0:0:0:0:
480,192,123390,1,0,0:0:0:45:LR_Drum Hit Clap Sn.wav
96,192,123548,1,0,0:0:0:90:LR_Hat Synth.wav
416,192,123706,1,0,0:0:0:55:LR_HiHat Click.wav
160,192,123863,1,0,0:0:0:45:LR_HiHat SClick 2.wav
224,192,123863,1,2,3:0:0:0:
352,192,123863,1,0,0:0:0:0:
480,192,124021,1,0,0:0:0:55:LR_HiHat Click.wav
96,192,124179,1,0,0:0:0:45:LR_HiHat SClick 2.wav
416,192,124337,1,0,0:0:0:55:LR_HiHat Click.wav
288,192,124495,1,2,0:0:0:0:
352,192,124495,1,0,0:0:0:90:LR_Hat Synth.wav
32,192,124495,1,4,0:0:0:0:
160,192,124495,1,0,0:0:0:0:
480,192,124653,1,0,0:0:0:55:LR_HiHat Click.wav
96,192,124811,1,0,0:0:0:45:LR_HiHat SClick 2.wav
352,192,124969,1,0,0:0:0:45:LR_Drum Hit Clap Sn.wav
224,192,125127,1,0,0:0:0:45:LR_HiHat SClick 2.wav
416,192,125127,1,0,0:0:0:0:
480,192,125284,1,0,0:0:0:45:LR_Drum Hit Clap Sn.wav
96,192,125442,1,0,0:0:0:45:LR_HiHat SClick 2.wav
352,192,125600,1,0,0:0:0:45:LR_Drum Hit Clap Sn.wav
288,192,125758,1,0,0:0:0:90:LR_Hat Synth.wav
416,192,125758,1,2,0:0:0:0:
224,192,125758,1,0,0:0:0:0:
352,192,125916,1,0,0:0:0:55:LR_HiHat Click.wav
160,192,126074,1,0,0:0:0:45:LR_HiHat SClick 2.wav
416,192,126232,1,0,0:0:0:55:LR_Drum Rpd Fast .wav
96,192,126390,1,0,0:0:0:45:LR_Drum Hit Clap Sn.wav
480,192,126390,1,0,0:0:0:45:LR_HiHat SClick 2.wav
352,192,126495,1,0,0:0:0:55:LR_Drum Rpd Fast .wav
224,192,126600,1,0,0:0:0:45:LR_Drum Hit Clap Sn.wav
96,192,126706,1,0,0:0:0:100:LR_Drum Rpd.wav
480,192,126706,1,0,0:0:0:45:LR_HiHat SClick 2.wav
224,192,126811,1,0,0:0:0:70:LR_Tom Hit 2.wav
352,192,126916,1,0,0:0:0:70:LR_Tom Hit 3.wav
480,192,127021,1,0,0:0:0:100:LR_Drum Crush Finish.wav
224,192,127021,1,0,0:0:0:20:LR_Drum Kick Low.wav
32,192,127021,1,4,0:0:0:0:
96,192,127021,1,2,0:0:0:0:
288,192,127179,1,0,0:0:0:55:LR_HiHat Click.wav
160,192,127337,1,0,0:0:0:90:LR_Hat Synth.wav
352,192,127495,1,0,0:0:0:55:LR_HiHat Click.wav
224,192,127653,1,0,0:0:0:45:LR_HiHat SClick 2.wav
96,192,127653,1,2,3:0:0:0:
480,192,127653,1,0,0:0:0:0:
416,192,127811,1,0,0:0:0:55:LR_HiHat Click.wav
288,192,127969,1,0,0:0:0:45:LR_HiHat SClick 2.wav
480,192,128127,1,0,0:0:0:45:LR_Drum Hit Clap Sn.wav
96,192,128284,1,2,0:0:0:0:
224,192,128284,1,0,0:0:0:45:LR_HiHat SClick 2.wav
416,192,128284,1,0,0:0:0:0:
352,192,128442,1,0,0:0:0:45:LR_Drum Hit Clap Sn.wav
160,192,128600,1,0,0:0:0:90:LR_Hat Synth.wav
416,192,128758,1,0,0:0:0:55:LR_HiHat Click.wav
224,192,128916,1,0,0:0:0:45:LR_HiHat SClick 2.wav
352,192,128916,1,2,3:0:0:0:
96,192,128916,1,0,0:0:0:0:
480,192,129074,1,0,0:0:0:55:LR_HiHat Click.wav
160,192,129232,1,0,0:0:0:45:LR_HiHat SClick 2.wav
416,192,129390,1,0,0:0:0:55:LR_HiHat Click.wav
96,192,129548,1,2,0:0:0:0:
32,192,129548,1,4,0:0:0:0:
352,192,129548,1,0,0:0:0:45:LR_HiHat SClick 2.wav
224,192,129548,1,0,0:0:0:0:
480,192,129706,1,0,0:0:0:55:LR_HiHat Click.wav
160,192,129863,1,0,0:0:0:45:LR_HiHat SClick 2.wav
416,192,130021,1,0,0:0:0:45:LR_Drum Hit Clap Sn.wav
224,192,130179,1,0,0:0:0:45:LR_HiHat SClick 2.wav
288,192,130179,1,0,0:0:0:0:
352,192,130337,1,0,0:0:0:45:LR_Drum Hit Clap Sn.wav
160,192,130495,1,0,0:0:0:45:LR_HiHat SClick 2.wav
416,192,130653,1,0,0:0:0:55:LR_Drum Rpd Fast .wav
96,192,130811,1,0,0:0:0:90:LR_Hat Synth.wav
224,192,130811,1,2,0:0:0:0:
352,192,130811,1,0,0:0:0:0:
480,192,130969,1,0,0:0:0:45:LR_Drum Hit Clap Sn.wav
352,192,131127,1,0,0:0:0:45:LR_HiHat SClick 2.wav
224,192,131284,1,0,0:0:0:55:LR_Drum Rpd Fast .wav
96,192,131442,1,0,0:0:0:45:LR_Drum Hit Clap Sn.wav
480,192,131442,1,0,0:0:0:45:LR_HiHat SClick 2.wav
224,192,131548,1,0,0:0:0:55:LR_Drum Rpd Fast .wav
352,192,131653,1,0,0:0:0:45:LR_Drum Hit Clap Sn.wav
480,192,131758,1,0,0:0:0:45:LR_HiHat SClick 2.wav
96,192,131758,1,0,0:0:0:70:LR_Tom Hit 2.wav
224,192,131916,1,0,0:0:0:70:LR_Tom Hit 3.wav
96,192,132074,1,0,0:0:0:100:LR_Drum Crush Finish.wav
288,192,132074,1,0,0:0:0:20:LR_Drum Kick Low.wav
480,192,132074,1,2,0:0:0:0:
32,192,132074,1,4,0:0:0:0:
352,192,132232,1,0,0:0:0:55:LR_HiHat Click.wav
160,192,132390,1,0,0:0:0:90:LR_Hat Synth.wav
416,192,132548,1,0,0:0:0:55:LR_HiHat Click.wav
224,192,132706,1,0,0:0:0:45:LR_HiHat SClick 2.wav
96,192,132706,1,0,0:0:0:0:
352,192,132863,1,0,0:0:0:55:LR_HiHat Click.wav
160,192,133021,1,0,0:0:0:45:LR_HiHat SClick 2.wav
416,192,133179,1,0,0:0:0:45:LR_Drum Hit Clap Sn.wav
224,192,133337,1,0,0:0:0:45:LR_HiHat SClick 2.wav
96,192,133337,1,2,0:0:0:0:
480,192,133337,1,0,0:0:0:0:
352,192,133495,1,0,0:0:0:45:LR_Drum Hit Clap Sn.wav
160,192,133653,1,0,0:0:0:90:LR_Hat Synth.wav
480,192,133811,1,0,0:0:0:55:LR_HiHat Click.wav
224,192,133969,1,0,0:0:0:45:LR_HiHat SClick 2.wav
416,192,133969,1,2,3:0:0:0:
96,192,133969,1,0,0:0:0:0:
352,192,134127,1,0,0:0:0:55:LR_HiHat Click.wav
160,192,134284,1,0,0:0:0:45:LR_HiHat SClick 2.wav
480,192,134442,1,0,0:0:0:55:LR_HiHat Click.wav
96,192,134600,1,0,0:0:0:90:LR_Hat Synth.wav
32,192,134600,1,4,0:0:0:0:
352,192,134600,1,2,0:0:0:0:
224,192,134600,1,0,0:0:0:0:
416,192,134758,1,0,0:0:0:55:LR_HiHat Click.wav
160,192,134916,1,0,0:0:0:45:LR_HiHat SClick 2.wav
480,192,135074,1,0,0:0:0:45:LR_Drum Hit Clap Sn.wav
96,192,135232,1,0,0:0:0:90:LR_Hat Synth.wav
288,192,135232,1,0,0:0:0:0:
416,192,135390,1,0,0:0:0:55:LR_HiHat Click.wav
160,192,135548,1,0,0:0:0:45:LR_HiHat SClick 2.wav
480,192,135706,1,0,0:0:0:45:LR_Drum Hit Clap Sn.wav
96,192,135863,1,0,0:0:0:90:LR_Hat Synth.wav
224,192,135863,1,2,0:0:0:0:
352,192,135863,1,0,0:0:0:0:
480,192,136021,1,0,0:0:0:45:LR_HiHat Click.wav
160,192,136179,1,0,0:0:0:45:LR_Drum Hit Clap Sn.wav
416,192,136337,1,0,0:0:0:55:LR_Drum Rpd Fast .wav
224,192,136495,1,0,0:0:0:45:LR_Drum Hit Clap Sn.wav
288,192,136495,1,0,0:0:0:45:LR_HiHat SClick 2.wav
160,192,136600,1,0,0:0:0:55:LR_Drum Rpd Fast .wav
96,192,136706,1,0,0:0:0:45:LR_Drum Hit Clap Sn.wav
352,192,136811,1,0,0:0:0:45:LR_HiHat SClick 2.wav
288,192,136811,1,0,0:0:0:100:LR_Drum Rpd.wav
416,192,136929,1,0,0:0:0:70:LR_Tom Hit 2.wav
480,192,137048,1,0,0:0:0:70:LR_Tom Hit 3.wav
96,192,137127,1,0,0:0:0:100:LR_Drum Crush Finish.wav
288,192,137127,1,0,0:0:0:20:LR_Drum Kick Low.wav
352,192,137127,1,2,0:0:0:0:
32,192,137127,1,4,0:0:0:0:
224,192,137284,1,0,0:0:0:20:LR_Drum Kick Low.wav
160,192,137442,1,0,0:0:0:20:LR_Drum Kick Low.wav
416,192,137442,1,0,0:0:0:0:
288,192,137600,1,0,0:0:0:20:LR_Drum Kick Low.wav
224,192,137758,1,0,0:0:0:20:LR_Drum Kick Low.wav
480,192,137758,1,0,0:0:0:0:
352,192,137916,1,0,0:0:0:20:LR_Drum Kick Low.wav
288,192,138074,1,0,0:0:0:20:LR_Drum Kick Low.wav
160,192,138074,1,0,0:0:0:0:
416,192,138232,1,0,0:0:0:20:LR_Drum Kick Low.wav
352,192,138390,1,0,0:0:0:20:LR_Drum Kick Low.wav
224,192,138390,1,2,0:0:0:0:
96,192,138390,1,0,0:0:0:0:
480,192,138548,1,0,0:0:0:20:LR_Drum Kick Low.wav
288,192,138706,1,0,0:0:0:20:LR_Drum Kick Low.wav
160,192,138706,1,0,0:0:0:0:
416,192,138863,1,0,0:0:0:20:LR_Drum Kick Low.wav
224,192,139021,1,0,0:0:0:20:LR_Drum Kick Low.wav
96,192,139021,1,0,0:0:0:0:
352,192,139179,1,0,0:0:0:20:LR_Drum Kick Low.wav
160,192,139337,1,0,0:0:0:20:LR_Drum Kick Low.wav
480,192,139337,1,0,0:0:0:0:
288,192,139495,1,0,0:0:0:20:LR_Drum Kick Low.wav
96,192,139653,1,0,0:0:0:45:LR_Drum Hit Clap Sn.wav
416,192,139653,1,0,0:0:0:66:LR_Drum Rpd.wav
160,192,139653,1,2,0:0:0:0:
224,192,139758,1,0,0:0:0:45:LR_Drum Hit Clap Sn.wav
352,192,139863,1,0,0:0:0:45:LR_Drum Hit Clap Sn.wav
416,192,139969,1,0,0:0:0:45:LR_Drum Hit Clap Sn.wav
480,192,139969,1,0,0:0:0:66:LR_Drum Rpd.wav
288,192,140074,1,0,0:0:0:45:LR_Drum Hit Clap Sn.wav
160,192,140179,1,0,0:0:0:45:LR_Drum Hit Clap Sn.wav
352,192,140284,1,0,0:0:0:45:LR_Drum Hit Clap Sn.wav
416,192,140284,1,0,0:0:0:66:LR_Drum Rpd.wav
224,192,140390,1,0,0:0:0:45:LR_Drum Hit Clap Sn.wav
96,192,140495,1,0,0:0:0:45:LR_Drum Hit Clap Sn.wav
480,192,140600,1,0,0:0:0:66:LR_Drum Rpd.wav
160,192,140600,1,0,0:0:0:70:LR_Tom Hit 2.wav
352,192,140706,1,0,0:0:0:70:LR_Tom Hit 2.wav
224,192,140811,1,0,0:0:0:70:LR_Tom Hit 2.wav
288,192,140916,1,0,0:0:0:45:LR_Drum Hit Clap Sn.wav
480,192,140916,1,0,0:0:0:66:LR_Drum Rpd.wav
96,192,140916,1,2,0:0:0:0:
160,192,141021,1,0,0:0:0:45:LR_Drum Hit Clap Sn.wav
288,192,141127,1,0,0:0:0:45:LR_Drum Hit Clap Sn.wav
416,192,141232,1,0,0:0:0:45:LR_Drum Hit Clap Sn.wav
224,192,141232,1,0,0:0:0:66:LR_Drum Rpd.wav
96,192,141337,1,0,0:0:0:45:LR_Drum Hit Clap Sn.wav
352,192,141442,1,0,0:0:0:45:LR_Drum Hit Clap Sn.wav
480,192,141548,1,0,0:0:0:45:LR_Drum Hit Clap Sn.wav
288,192,141548,1,0,0:0:0:66:LR_Drum Rpd.wav
32,192,141548,1,0,0:0:0:30:LR_RevCyRDW.wav
416,192,141627,1,0,0:0:0:45:LR_Drum Hit Clap Sn.wav
224,192,141627,1,0,0:0:0:66:LR_Drum Rpd.wav
352,192,141706,1,0,0:0:0:45:LR_Drum Hit Clap Sn.wav
160,192,141706,1,0,0:0:0:66:LR_Drum Rpd.wav
288,192,141784,1,0,0:0:0:45:LR_Drum Hit Clap Sn.wav
96,192,141784,1,0,0:0:0:66:LR_Drum Rpd.wav
224,192,141863,1,0,0:0:0:45:LR_Drum Hit Clap Sn.wav
480,192,141863,1,0,0:0:0:66:LR_Drum Rpd.wav
160,192,141969,1,0,0:0:0:45:LR_Drum Hit Clap Sn.wav
416,192,141969,1,0,0:0:0:66:LR_Drum Rpd.wav
96,192,142074,1,0,0:0:0:45:LR_Drum Hit Clap Sn.wav
352,192,142074,1,0,0:0:0:66:LR_Drum Rpd.wav
480,192,142179,5,0,0:0:0:30:LR_Drum Kick Low.wav
32,192,142179,1,0,0:0:0:60:crash.wav
416,192,142179,1,4,1:0:0:0:
160,192,142179,1,2,0:0:0:0:
288,192,142179,1,4,0:0:0:0:
96,192,142811,1,2,0:0:0:0:
224,192,143442,1,2,0:0:0:0:
96,192,144706,1,2,0:0:0:0:
352,192,144706,1,0,0:0:0:0:
224,192,145337,1,2,0:0:0:0:
480,192,145337,1,0,0:0:0:0:
352,192,146284,1,2,0:0:0:0:
288,192,146600,1,2,0:0:0:0:
480,192,146916,1,2,0:0:0:0:
288,192,147232,1,0,0:0:0:0:
416,192,147232,1,0,0:0:0:0:
96,192,147232,1,0,0:0:0:0:
160,192,147548,1,0,0:0:0:0:
224,192,147863,1,0,0:0:0:0:
288,192,148179,1,0,0:0:0:0:
352,192,148495,1,0,0:0:0:0:
480,192,148811,1,2,0:0:0:0:
416,192,148969,1,2,0:0:0:0:
160,192,149758,1,0,0:0:0:0:
288,192,149758,1,0,0:0:0:0:
416,192,149758,1,0,0:0:0:0:
224,192,150074,1,0,0:0:0:0:
288,192,150390,1,0,0:0:0:0:
160,192,150706,1,2,0:0:0:0:
416,192,150706,1,0,0:0:0:0:
96,192,151021,1,2,0:0:0:0:
288,192,151021,1,0,0:0:0:0:
480,192,151021,1,0,0:0:0:0:
416,192,151337,1,0,0:0:0:0:
224,192,151653,1,2,0:0:0:0:
352,192,151653,1,0,0:0:0:0:
96,192,151969,1,0,0:0:0:0:
288,192,152245,1,0,0:0:0:0:
160,192,152284,1,2,0:0:0:0:
416,192,152284,1,0,0:0:0:0:
96,192,152600,1,0,0:0:0:0:
224,192,152916,1,2,0:0:0:0:
352,192,152916,1,0,0:0:0:0:
160,192,153232,1,0,0:0:0:0:
288,192,153548,1,2,0:0:0:0:
416,192,153548,1,0,0:0:0:0:
96,192,153863,1,2,0:0:0:0:
352,192,153863,1,0,0:0:0:0:
160,192,154179,1,2,0:0:0:0:
416,192,154179,1,0,0:0:0:0:
480,192,154495,1,2,0:0:0:0:
224,192,154495,1,0,0:0:0:0:
288,192,154784,1,0,0:0:0:0:
416,192,154811,1,2,0:0:0:0:
160,192,154811,1,0,0:0:0:0:
288,192,155462,1,0,0:0:0:0:
480,192,155495,1,2,0:0:0:0:
96,192,155495,1,0,0:0:0:0:
480,192,156479,1,2,0:0:0:0:
224,192,156479,1,0,0:0:0:0:
416,192,156812,1,2,0:0:0:0:
160,192,156812,1,0,0:0:0:0:
352,192,157145,1,2,0:0:0:0:
96,192,157145,1,0,0:0:0:0:
96,192,157458,1,0,0:0:0:0:
224,192,157506,1,2,0:0:0:0:
352,192,157534,1,0,0:0:0:0:
480,192,157562,1,0,0:0:0:0:
160,192,157812,1,0,0:0:0:0:
224,192,158167,1,0,0:0:0:0:
480,192,158515,1,2,0:0:0:0:
288,192,158515,1,0,0:0:0:0:
352,192,158864,1,0,0:0:0:0:
416,192,159191,1,2,0:0:0:0:
224,192,159191,1,0,0:0:0:0:
352,192,159366,1,2,0:0:0:0:
160,192,159366,1,0,0:0:0:0:
352,192,160194,1,0,0:0:0:0:
224,192,160216,1,0,0:0:0:0:
480,192,160238,1,0,0:0:0:0:
96,192,160238,1,2,0:0:0:0:
160,192,160587,1,2,0:0:0:0:
288,192,160587,1,0,0:0:0:0:
224,192,160936,1,2,0:0:0:0:
352,192,160936,1,0,0:0:0:0:
416,192,161288,1,2,0:0:0:0:
288,192,161288,1,0,0:0:0:0:
32,192,161641,1,0,0:0:0:25:LR_Chm Echo long.wav
480,192,161641,1,2,0:0:0:0:
96,192,161641,1,0,0:0:0:0:
416,192,162002,1,2,0:0:0:0:
352,192,162363,1,2,0:0:0:0:
224,192,162763,1,2,0:0:0:0:
96,192,163163,1,0,0:0:0:30:LR_Drum Kick Low.wav
32,192,163163,1,0,0:0:0:40:crash.wav
480,192,163163,1,4,1:0:0:0:
288,192,163163,1,6,0:0:0:0:
160,192,163163,1,0,0:0:0:0:
416,192,163320,1,0,0:0:0:0:
160,192,163478,1,0,0:0:0:50:LR_HiHat SClick 2.wav
416,192,163636,1,0,0:0:0:0:
160,192,163794,1,0,0:0:0:0:
416,192,163952,1,0,0:0:0:0:
160,192,164110,1,0,0:0:0:50:LR_HiHat SClick 2.wav
416,192,164268,1,0,0:0:0:0:
96,192,164426,1,0,0:0:0:0:
352,192,164584,1,0,0:0:0:0:
96,192,164741,1,0,0:0:0:50:LR_HiHat SClick 2.wav
352,192,164899,1,0,0:0:0:0:
96,192,165057,1,0,0:0:0:0:
352,192,165215,1,0,0:0:0:0:
96,192,165373,1,0,0:0:0:50:LR_HiHat SClick 2.wav
352,192,165531,1,0,0:0:0:0:
224,192,165689,1,2,0:0:0:0:
96,192,165689,1,0,0:0:0:0:
480,192,165847,1,0,0:0:0:0:
224,192,166005,1,0,0:0:0:50:LR_HiHat SClick 2.wav
480,192,166163,1,0,0:0:0:0:
224,192,166320,1,0,0:0:0:0:
480,192,166478,1,0,0:0:0:0:
224,192,166636,1,0,0:0:0:50:LR_HiHat SClick 2.wav
480,192,166794,1,0,0:0:0:0:
160,192,166952,1,2,0:0:0:0:
352,192,166952,1,0,0:0:0:0:
416,192,167110,1,0,0:0:0:0:
160,192,167268,1,0,0:0:0:50:LR_HiHat SClick 2.wav
416,192,167426,1,0,0:0:0:0:
96,192,167584,1,2,0:0:0:0:
160,192,167584,1,0,0:0:0:0:
416,192,167741,1,0,0:0:0:0:
160,192,167899,1,0,0:0:0:50:LR_HiHat SClick 2.wav
416,192,168057,1,0,0:0:0:0:
32,192,168215,1,0,0:0:0:80:LR_Drum Crush Finish.wav
480,192,168215,1,0,0:0:0:25:LR_Chm loong.wav
96,192,168215,1,4,1:0:0:0:
288,192,168215,1,0,0:0:0:0:
352,192,168373,1,0,0:0:0:0:
160,192,168531,1,0,0:0:0:50:LR_HiHat SClick 2.wav
416,192,168689,1,0,0:0:0:0:
224,192,168847,1,0,0:0:0:0:
480,192,169005,1,0,0:0:0:0:
160,192,169163,1,0,0:0:0:50:LR_HiHat SClick 2.wav
416,192,169320,1,0,0:0:0:0:
96,192,169478,1,0,0:0:0:0:
352,192,169636,1,0,0:0:0:0:
160,192,169794,1,0,0:0:0:50:LR_HiHat SClick 2.wav
416,192,169952,1,0,0:0:0:0:
224,192,170110,1,0,0:0:0:0:
480,192,170268,1,0,0:0:0:0:
160,192,170426,1,0,0:0:0:50:LR_HiHat SClick 2.wav
416,192,170584,1,0,0:0:0:0:
96,192,170741,1,0,0:0:0:25:LR_Chm loong.wav
288,192,170741,1,2,0:0:0:0:
480,192,170899,1,0,0:0:0:0:
160,192,171057,1,0,0:0:0:50:LR_HiHat SClick 2.wav
416,192,171215,1,0,0:0:0:0:
224,192,171373,1,0,0:0:0:0:
352,192,171531,1,0,0:0:0:0:
160,192,171689,1,0,0:0:0:50:LR_HiHat SClick 2.wav
416,192,171847,1,0,0:0:0:0:
32,192,172005,1,0,0:0:0:25:LR_Chm loong.wav
288,192,172005,1,0,0:0:0:0:
96,192,172005,1,0,0:0:0:0:
480,192,172163,1,0,0:0:0:0:
160,192,172320,1,0,0:0:0:50:LR_HiHat SClick 2.wav
352,192,172320,1,0,0:0:0:0:
224,192,172478,1,0,0:0:0:0:
32,192,172636,1,0,0:0:0:25:LR_Chm loong.wav
96,192,172636,1,0,0:0:0:30:LR_RevCyRDW.wav
480,192,172636,1,0,0:0:0:0:
288,192,172794,1,0,0:0:0:0:
160,192,172952,1,0,0:0:0:0:
224,192,172952,1,0,0:0:0:50:LR_HiHat SClick 2.wav
416,192,172952,1,0,0:0:0:0:
352,192,173110,1,0,0:0:0:0:
480,192,173268,1,0,0:0:0:20:LR_Drum Kick Low.wav
288,192,173268,1,0,0:0:0:25:LR_Chm loong.wav
96,192,173268,1,2,0:0:0:0:
32,192,173268,1,4,0:0:0:0:
352,192,173426,1,0,0:0:0:0:
224,192,173584,1,0,0:0:0:20:LR_Drum Kick Low.wav
416,192,173584,1,0,0:0:0:0:
352,192,173741,1,0,0:0:0:0:
224,192,173899,1,0,0:0:0:20:LR_Drum Kick Low.wav
160,192,173899,1,0,0:0:0:0:
352,192,174057,1,0,0:0:0:40:LR_Drum Hit Clap Sn.wav
416,192,174057,1,0,0:0:0:0:
224,192,174215,1,0,0:0:0:20:LR_Drum Kick Low.wav
160,192,174215,1,0,0:0:0:0:
352,192,174373,1,0,0:0:0:0:
224,192,174531,1,0,0:0:0:20:LR_Drum Kick Low.wav
96,192,174531,1,0,0:0:0:90:LR_Hat Synth.wav
352,192,174689,1,0,0:0:0:40:LR_Drum Hit Clap Sn.wav
480,192,174689,1,0,0:0:0:0:
224,192,174847,1,0,0:0:0:20:LR_Drum Kick Low.wav
96,192,174847,1,0,0:0:0:0:
352,192,175005,1,0,0:0:0:0:
224,192,175163,1,0,0:0:0:50:LR_Drum Rpd Fast .wav
480,192,175163,1,0,0:0:0:20:LR_Drum Kick Low.wav
352,192,175320,1,0,0:0:0:0:
224,192,175478,1,0,0:0:0:20:LR_Drum Kick Low.wav
96,192,175478,1,0,0:0:0:90:LR_Hat Synth.wav
352,192,175636,1,0,0:0:0:40:LR_Drum Hit Clap Sn.wav
480,192,175636,1,0,0:0:0:0:
160,192,175794,1,0,0:0:0:20:LR_Drum Kick Low.wav
288,192,175794,1,0,0:0:0:25:LR_Chm loong.wav
96,192,175794,1,2,0:0:0:0:
32,192,175794,1,4,0:0:0:0:
416,192,175952,1,0,0:0:0:40:LR_Drum Hit Clap Sn.wav
224,192,175952,1,0,0:0:0:0:
160,192,176110,1,0,0:0:0:20:LR_Drum Kick Low.wav
352,192,176110,1,0,0:0:0:90:LR_Hat Synth.wav
416,192,176268,1,0,0:0:0:40:LR_Drum Hit Clap Sn.wav
224,192,176268,1,0,0:0:0:0:
160,192,176426,1,0,0:0:0:20:LR_Drum Kick Low.wav
352,192,176426,1,0,0:0:0:0:
416,192,176584,1,0,0:0:0:0:
160,192,176741,1,0,0:0:0:20:LR_Drum Kick Low.wav
288,192,176741,1,0,0:0:0:0:
416,192,176899,1,0,0:0:0:50:LR_Drum Rpd Fast .wav
96,192,177057,1,0,0:0:0:20:LR_Drum Kick Low.wav
224,192,177057,1,0,0:0:0:25:LR_Chm loong.wav
352,192,177057,1,2,0:0:0:0:
480,192,177215,1,0,0:0:0:0:
96,192,177373,1,0,0:0:0:50:LR_Drum Rpd Fast .wav
288,192,177373,1,0,0:0:0:20:LR_Drum Kick Low.wav
480,192,177531,1,0,0:0:0:0:
96,192,177689,1,0,0:0:0:20:LR_Drum Kick Low.wav
224,192,177689,1,0,0:0:0:25:LR_Chm loong.wav
352,192,177689,1,2,0:0:0:0:
480,192,177847,1,0,0:0:0:0:
352,192,178005,1,0,0:0:0:40:LR_Drum Hit Clap Sn.wav
96,192,178005,1,0,0:0:0:20:LR_Drum Kick Low.wav
288,192,178110,1,0,0:0:0:40:LR_Drum Hit Clap Sn.wav
224,192,178215,1,0,0:0:0:40:LR_Drum Hit Clap Sn.wav
96,192,178320,1,0,0:0:0:20:LR_Drum Kick Low.wav
416,192,178320,1,0,0:0:0:25:LR_Chm loong.wav
160,192,178320,1,2,0:0:0:0:
32,192,178320,1,4,0:0:0:0:
224,192,178478,1,0,0:0:0:55:LR_Drum Rpd Fast .wav
480,192,178478,1,0,0:0:0:20:LR_Drum Kick Low.wav
96,192,178636,1,0,0:0:0:20:LR_Drum Kick Low.wav
352,192,178636,1,0,0:0:0:100:LR_Drum Rpd.wav
224,192,178794,1,0,0:0:0:45:LR_Drum Hit Clap Sn.wav
480,192,178794,1,0,0:0:0:20:LR_Drum Kick Low.wav
352,192,178952,1,0,0:0:0:55:LR_Drum Rpd Fast .wav
160,192,178952,1,0,0:0:0:20:LR_Drum Kick Low.wav
224,192,179110,1,0,0:0:0:20:LR_Drum Kick Low.wav
416,192,179110,1,0,0:0:0:100:LR_Drum Rpd.wav
160,192,179268,1,0,0:0:0:45:LR_Drum Hit Clap Sn.wav
352,192,179268,1,0,0:0:0:20:LR_Drum Kick Low.wav
416,192,179426,1,0,0:0:0:55:LR_Drum Rpd Fast .wav
224,192,179426,1,0,0:0:0:20:LR_Drum Kick Low.wav
96,192,179584,1,0,0:0:0:20:LR_Drum Kick Low.wav
352,192,179584,1,0,0:0:0:100:LR_Drum Rpd.wav
224,192,179741,5,0,0:0:0:45:LR_Drum Hit Clap Sn.wav
480,192,179741,1,0,0:0:0:20:LR_Drum Kick Low.wav
416,192,179899,1,0,0:0:0:55:LR_Drum Rpd Fast .wav
96,192,179899,1,0,0:0:0:20:LR_Drum Kick Low.wav
480,192,180057,1,0,0:0:0:20:LR_Drum Kick Low.wav
160,192,180057,1,0,0:0:0:100:LR_Drum Rpd.wav
96,192,180215,1,0,0:0:0:45:LR_Drum Hit Clap Sn.wav
416,192,180215,1,0,0:0:0:20:LR_Drum Kick Low.wav
160,192,180373,1,0,0:0:0:55:LR_Drum Rpd Fast .wav
480,192,180373,1,0,0:0:0:20:LR_Drum Kick Low.wav
352,192,180531,1,0,0:0:0:45:LR_Drum Hit Clap Sn.wav
224,192,180531,1,0,0:0:0:20:LR_Drum Kick Low.wav
416,192,180689,1,0,0:0:0:55:LR_Drum Rpd Fast .wav
160,192,180689,1,0,0:0:0:20:LR_Drum Kick Low.wav
96,192,180847,1,0,0:0:0:20:LR_Drum Kick Low.wav
32,192,180847,1,0,0:0:0:25:LR_Chm loong.wav
224,192,180847,1,6,0:0:0:0:
352,192,180926,1,0,0:0:0:55:LR_Drum Rpd Fast .wav
160,192,181005,1,0,0:0:0:20:LR_Drum Kick Low.wav
288,192,181005,1,6,0:0:0:0:
416,192,181084,1,0,0:0:0:55:LR_Drum Rpd Fast .wav
352,192,181163,1,0,0:0:0:20:LR_Drum Kick Low.wav
224,192,181163,1,6,0:0:0:0:
480,192,181241,1,0,0:0:0:55:LR_Drum Rpd Fast .wav
288,192,181320,1,0,0:0:0:20:LR_Drum Kick Low.wav
160,192,181320,1,6,0:0:0:0:
416,192,181399,1,0,0:0:0:55:LR_Drum Rpd Fast .wav
224,192,181478,1,0,0:0:0:20:LR_Drum Kick Low.wav
96,192,181478,1,6,0:0:0:0:
352,192,181557,1,0,0:0:0:55:LR_Drum Rpd Fast .wav
288,192,181636,1,0,0:0:0:20:LR_Drum Kick Low.wav
160,192,181636,1,6,0:0:0:0:
416,192,181715,1,0,0:0:0:55:LR_Drum Rpd Fast .wav
352,192,181794,1,0,0:0:0:20:LR_Drum Kick Low.wav
224,192,181794,1,6,0:0:0:0:
480,192,181873,1,0,0:0:0:55:LR_Drum Rpd Fast .wav
288,192,181952,1,0,0:0:0:20:LR_Drum Kick Low.wav
160,192,181952,1,6,0:0:0:0:
416,192,182031,1,0,0:0:0:55:LR_Drum Rpd Fast .wav
96,192,182110,1,0,0:0:0:45:LR_Drum Hit Clap Sn.wav
480,192,182110,1,0,0:0:0:55:LR_Drum Rpd Fast .wav
288,192,182110,1,6,0:0:0:0:
480,192,182268,1,0,0:0:0:45:LR_Drum Hit Clap Sn.wav
96,192,182268,1,0,0:0:0:55:LR_Drum Rpd Fast .wav
32,192,182268,1,0,0:0:0:50:LR_Clap Loud L.wav
224,192,182268,1,14,0:0:0:0:
352,192,182268,1,14,0:0:0:0:
32,192,182741,1,0,0:0:0:30:LR_RevCyRDW.wav
480,192,182741,1,2,0:0:0:0:
288,192,182741,1,0,0:0:0:0:
160,192,183057,1,2,0:0:0:0:
416,192,183057,1,2,0:0:0:0:
288,192,183057,1,0,0:0:0:0:
352,192,183373,1,0,0:0:0:30:LR_Drum Kick Low.wav
32,192,183373,1,0,0:0:0:60:crash.wav
224,192,183373,1,2,0:0:0:0:
96,192,183373,1,4,1:0:0:0:
480,192,183373,1,4,0:0:0:0:
160,192,183531,1,0,0:0:0:100:LR_Drum Rpd.wav
416,192,183689,1,0,0:0:0:45:LR_Drum Hit Clap Sn.wav
288,192,183689,1,0,0:0:0:55:LR_Drum Rpd Fast .wav
96,192,183847,1,0,0:0:0:100:LR_Drum Rpd.wav
352,192,184005,1,0,0:0:0:25:LR_Drum Kick Low.wav
480,192,184005,1,2,0:0:0:0:
224,192,184163,1,0,0:0:0:25:LR_Drum Kick Low.wav
96,192,184241,1,0,0:0:0:0:
288,192,184320,1,0,0:0:0:45:LR_Drum Hit Clap Sn.wav
416,192,184320,1,0,0:0:0:55:LR_Drum Rpd Fast .wav
480,192,184399,1,0,0:0:0:0:
352,192,184478,1,0,0:0:0:45:LR_Drum Hit Clap Sn.wav
160,192,184478,1,0,0:0:0:0:
224,192,184478,1,0,0:0:0:0:
96,192,184636,1,0,0:0:0:25:LR_Drum Kick Low.wav
288,192,184636,1,2,0:0:0:0:
224,192,184794,1,0,0:0:0:25:LR_Drum Kick Low.wav
160,192,184952,1,0,0:0:0:45:LR_Drum Hit Clap Sn.wav
352,192,184952,1,0,0:0:0:55:LR_Drum Rpd Fast .wav
288,192,185110,1,0,0:0:0:25:LR_Drum Kick Low.wav
224,192,185268,1,0,0:0:0:100:LR_Drum Rpd.wav
416,192,185268,1,2,0:0:0:0:
96,192,185268,1,0,0:0:0:0:
352,192,185426,1,0,0:0:0:25:LR_Drum Kick Low.wav
480,192,185584,1,0,0:0:0:45:LR_Drum Hit Clap Sn.wav
96,192,185584,1,0,0:0:0:55:LR_Drum Rpd Fast .wav
288,192,185584,1,0,0:0:0:0:
160,192,185663,1,0,0:0:0:0:
224,192,185741,1,0,0:0:0:100:LR_Drum Rpd.wav
416,192,185741,1,0,0:0:0:0:
288,192,185820,1,0,0:0:0:0:
96,192,185899,1,0,0:0:0:25:LR_Drum Kick Low.wav
480,192,185899,1,2,0:0:0:0:
32,192,185899,1,4,0:0:0:0:
352,192,185899,1,0,0:0:0:0:
160,192,185978,1,0,0:0:0:0:
416,192,186057,1,0,0:0:0:100:LR_Drum Rpd.wav
224,192,186057,1,0,0:0:0:0:
352,192,186136,1,0,0:0:0:0:
288,192,186215,1,0,0:0:0:45:LR_Drum Hit Clap Sn.wav
96,192,186215,1,0,0:0:0:55:LR_Drum Rpd Fast .wav
352,192,186294,1,0,0:0:0:0:
416,192,186373,1,0,0:0:0:25:LR_Drum Kick Low.wav
32,192,186373,1,4,0:0:0:0:
224,192,186373,1,0,0:0:0:0:
480,192,186373,1,0,0:0:0:0:
96,192,186531,1,0,0:0:0:100:LR_Drum Rpd.wav
352,192,186531,1,2,0:0:0:0:
160,192,186610,1,0,0:0:0:0:
224,192,186689,1,0,0:0:0:45:LR_Drum Hit Clap Sn.wav
416,192,186689,1,0,0:0:0:55:LR_Drum Rpd Fast .wav
288,192,186768,1,0,0:0:0:0:
352,192,186847,1,0,0:0:0:100:LR_Drum Rpd.wav
96,192,186847,1,0,0:0:0:0:
416,192,186926,1,0,0:0:0:0:
480,192,187005,1,0,0:0:0:25:LR_Drum Kick Low.wav
160,192,187005,1,0,0:0:0:100:LR_Drum Rpd.wav
32,192,187005,1,4,0:0:0:0:
224,192,187005,1,0,0:0:0:0:
96,192,187163,1,0,0:0:0:100:LR_Drum Rpd.wav
416,192,187163,1,2,0:0:0:0:
352,192,187320,1,0,0:0:0:25:LR_Drum Kick Low.wav
288,192,187399,1,0,0:0:0:0:
224,192,187478,1,0,0:0:0:45:LR_Drum Hit Clap Sn.wav
160,192,187478,1,0,0:0:0:55:LR_Drum Rpd Fast .wav
32,192,187478,1,4,0:0:0:0:
480,192,187478,1,0,0:0:0:0:
352,192,187636,1,0,0:0:0:100:LR_Drum Rpd.wav
480,192,187794,1,0,0:0:0:25:LR_Drum Kick Low.wav
96,192,187794,1,2,0:0:0:0:
288,192,187794,1,0,0:0:0:0:
160,192,187952,1,0,0:0:0:25:LR_Drum Kick Low.wav
416,192,187952,1,0,0:0:0:0:
352,192,188110,1,0,0:0:0:55:LR_Drum Rpd Fast .wav
96,192,188110,1,0,0:0:0:0:
224,192,188110,1,0,0:0:0:0:
160,192,188268,1,0,0:0:0:55:LR_Drum Rpd Fast .wav
416,192,188268,1,0,0:0:0:0:
288,192,188268,1,0,0:0:0:0:
480,192,188426,1,0,0:0:0:25:LR_Drum Kick Low.wav
32,192,188426,1,4,0:0:0:0:
96,192,188426,1,2,0:0:0:0:
352,192,188426,1,0,0:0:0:0:
224,192,188584,1,0,0:0:0:100:LR_Drum Rpd.wav
416,192,188741,1,0,0:0:0:45:LR_Drum Hit Clap Sn.wav
288,192,188741,1,0,0:0:0:55:LR_Drum Rpd Fast .wav
160,192,188899,1,0,0:0:0:100:LR_Drum Rpd.wav
480,192,189057,1,0,0:0:0:25:LR_Drum Kick Low.wav
416,192,189057,1,2,0:0:0:0:
352,192,189136,1,0,0:0:0:0:
288,192,189215,1,0,0:0:0:25:LR_Drum Kick Low.wav
96,192,189215,1,0,0:0:0:0:
160,192,189294,1,0,0:0:0:0:
224,192,189373,1,0,0:0:0:45:LR_Drum Hit Clap Sn.wav
480,192,189373,1,0,0:0:0:55:LR_Drum Rpd Fast .wav
288,192,189452,1,0,0:0:0:0:
416,192,189531,1,0,0:0:0:25:LR_Drum Kick Low.wav
352,192,189531,1,0,0:0:0:0:
96,192,189531,1,0,0:0:0:0:
480,192,189689,1,0,0:0:0:100:LR_Drum Rpd.wav
160,192,189689,1,2,0:0:0:0:
288,192,189847,1,0,0:0:0:25:LR_Drum Kick Low.wav
224,192,190005,1,0,0:0:0:45:LR_Drum Hit Clap Sn.wav
96,192,190005,1,0,0:0:0:55:LR_Drum Rpd Fast .wav
352,192,190084,1,0,0:0:0:0:
416,192,190163,1,0,0:0:0:45:LR_Drum Hit Clap Sn.wav
160,192,190163,1,0,0:0:0:0:
480,192,190241,1,0,0:0:0:0:
224,192,190241,1,0,0:0:0:0:
352,192,190320,1,0,0:0:0:25:LR_Drum Kick Low.wav
288,192,190320,1,2,0:0:0:0:
96,192,190320,1,0,0:0:0:0:
416,192,190478,1,0,0:0:0:25:LR_Drum Kick Low.wav
160,192,190636,1,0,0:0:0:45:LR_Drum Hit Clap Sn.wav
480,192,190636,1,0,0:0:0:55:LR_Drum Rpd Fast .wav
288,192,190794,1,0,0:0:0:100:LR_Drum Rpd.wav
96,192,190952,1,0,0:0:0:25:LR_Drum Kick Low.wav
416,192,190952,1,2,0:0:0:0:
32,192,190952,1,4,0:0:0:0:
224,192,190952,1,0,0:0:0:0:
160,192,191110,1,0,0:0:0:100:LR_Drum Rpd.wav
288,192,191110,1,0,0:0:0:0:
224,192,191268,1,0,0:0:0:45:LR_Drum Hit Clap Sn.wav
352,192,191268,1,0,0:0:0:55:LR_Drum Rpd Fast .wav
96,192,191268,1,0,0:0:0:0:
288,192,191426,1,0,0:0:0:25:LR_Drum Kick Low.wav
416,192,191426,1,0,0:0:0:0:
160,192,191584,1,0,0:0:0:100:LR_Drum Rpd.wav
480,192,191584,1,2,0:0:0:0:
352,192,191584,1,0,0:0:0:0:
224,192,191663,1,0,0:0:0:0:
96,192,191741,1,0,0:0:0:45:LR_Drum Hit Clap Sn.wav
288,192,191741,1,0,0:0:0:55:LR_Drum Rpd Fast .wav
352,192,191820,1,0,0:0:0:0:
416,192,191899,1,0,0:0:0:100:LR_Drum Rpd.wav
160,192,191899,1,0,0:0:0:0:
480,192,191978,1,0,0:0:0:0:
352,192,192057,1,0,0:0:0:25:LR_Drum Kick Low.wav
224,192,192057,1,0,0:0:0:100:LR_Drum Rpd.wav
288,192,192057,1,0,0:0:0:0:
160,192,192215,1,2,0:0:0:0:
480,192,192373,1,0,0:0:0:25:LR_Drum Kick Low.wav
224,192,192373,1,0,0:0:0:0:
96,192,192373,1,0,0:0:0:0:
352,192,192531,1,0,0:0:0:45:LR_Drum Hit Clap Sn.wav
160,192,192531,1,0,0:0:0:55:LR_Drum Rpd Fast .wav
416,192,192689,1,0,0:0:0:100:LR_Drum Rpd.wav
480,192,192847,1,0,0:0:0:25:LR_Drum Kick Low.wav
352,192,192847,1,2,0:0:0:0:
224,192,192847,1,0,0:0:0:0:
288,192,193005,1,0,0:0:0:25:LR_Drum Kick Low.wav
160,192,193005,1,0,0:0:0:0:
96,192,193163,1,0,0:0:0:100:LR_Drum Rpd.wav
224,192,193163,1,2,0:0:0:0:
352,192,193163,1,0,0:0:0:0:
288,192,193320,1,0,0:0:0:45:LR_Drum Hit Clap Sn.wav
416,192,193320,1,0,0:0:0:0:
160,192,193320,1,0,0:0:0:0:
480,192,193478,1,0,0:0:0:25:LR_Drum Kick Low.wav
224,192,193478,1,2,0:0:0:0:
32,192,193478,1,4,0:0:0:0:
352,192,193478,1,0,0:0:0:0:
160,192,193636,1,0,0:0:0:100:LR_Drum Rpd.wav
352,192,193794,1,0,0:0:0:45:LR_Drum Hit Clap Sn.wav
224,192,193794,1,0,0:0:0:55:LR_Drum Rpd Fast .wav
96,192,193794,1,0,0:0:0:0:
288,192,193952,1,0,0:0:0:100:LR_Drum Rpd.wav
224,192,194031,1,0,0:0:0:0:
96,192,194110,1,0,0:0:0:25:LR_Drum Kick Low.wav
352,192,194110,1,2,0:0:0:0:
416,192,194110,1,0,0:0:0:0:
160,192,194189,1,0,0:0:0:0:
224,192,194268,1,0,0:0:0:25:LR_Drum Kick Low.wav
480,192,194268,1,0,0:0:0:0:
288,192,194347,1,0,0:0:0:0:
352,192,194426,1,0,0:0:0:45:LR_Drum Hit Clap Sn.wav
96,192,194426,1,0,0:0:0:55:LR_Drum Rpd Fast .wav
416,192,194505,1,0,0:0:0:0:
480,192,194584,1,0,0:0:0:100:LR_Drum Rpd.wav
224,192,194584,1,0,0:0:0:0:
160,192,194584,1,0,0:0:0:0:
352,192,194741,1,0,0:0:0:25:LR_Drum Kick Low.wav
288,192,194741,1,2,0:0:0:0:
160,192,194899,1,0,0:0:0:25:LR_Drum Kick Low.wav
416,192,194899,1,0,0:0:0:0:
96,192,195057,1,0,0:0:0:0:
480,192,195057,1,0,0:0:0:45:LR_Drum Hit Clap Sn.wav
352,192,195057,1,0,0:0:0:55:LR_Drum Rpd Fast .wav
288,192,195215,1,0,0:0:0:25:LR_Drum Kick Low.wav
160,192,195215,1,0,0:0:0:0:
352,192,195373,1,0,0:0:0:100:LR_Drum Rpd.wav
224,192,195373,1,2,0:0:0:0:
96,192,195373,1,0,0:0:0:0:
416,192,195610,1,0,0:0:0:100:LR_Drum Rpd.wav
160,192,195610,1,2,0:0:0:0:
288,192,195610,1,0,0:0:0:0:
352,192,195847,1,0,0:0:0:100:LR_Drum Rpd.wav
224,192,195847,1,2,0:0:0:0:
480,192,195847,1,0,0:0:0:0:
160,192,196005,1,0,0:0:0:25:LR_Drum Kick Low.wav
416,192,196005,1,2,0:0:0:0:
32,192,196005,1,4,0:0:0:0:
224,192,196163,1,0,0:0:0:100:LR_Drum Rpd.wav
480,192,196320,1,0,0:0:0:45:LR_Drum Hit Clap Sn.wav
352,192,196320,1,0,0:0:0:55:LR_Drum Rpd Fast .wav
96,192,196478,1,0,0:0:0:25:LR_Drum Kick Low.wav
224,192,196636,1,0,0:0:0:100:LR_Drum Rpd.wav
288,192,196636,1,2,0:0:0:0:
352,192,196715,1,0,0:0:0:0:
416,192,196794,1,0,0:0:0:45:LR_Drum Hit Clap Sn.wav
160,192,196794,1,0,0:0:0:55:LR_Drum Rpd Fast .wav
96,192,196952,1,0,0:0:0:100:LR_Drum Rpd.wav
288,192,196952,1,0,0:0:0:0:
160,192,197031,1,0,0:0:0:0:
224,192,197110,1,0,0:0:0:25:LR_Drum Kick Low.wav
32,192,197110,1,4,0:0:0:0:
480,192,197110,1,0,0:0:0:0:
352,192,197110,1,0,0:0:0:0:
416,192,197268,1,2,0:0:0:0:
160,192,197268,1,0,0:0:0:0:
96,192,197426,1,0,0:0:0:25:LR_Drum Kick Low.wav
32,192,197426,1,4,0:0:0:0:
352,192,197426,1,0,0:0:0:0:
224,192,197426,1,0,0:0:0:0:
480,192,197584,1,0,0:0:0:45:LR_Drum Hit Clap Sn.wav
288,192,197584,1,0,0:0:0:55:LR_Drum Rpd Fast .wav
224,192,197663,1,0,0:0:0:0:
352,192,197741,1,0,0:0:0:100:LR_Drum Rpd.wav
160,192,197741,1,0,0:0:0:0:
96,192,197820,1,0,0:0:0:0:
416,192,197899,1,0,0:0:0:25:LR_Drum Kick Low.wav
288,192,197899,1,2,0:0:0:0:
480,192,197978,1,0,0:0:0:0:
224,192,198057,1,0,0:0:0:25:LR_Drum Kick Low.wav
160,192,198057,1,0,0:0:0:0:
416,192,198136,1,0,0:0:0:0:
352,192,198215,1,0,0:0:0:45:LR_Drum Hit Clap Sn.wav
96,192,198215,1,0,0:0:0:55:LR_Drum Rpd Fast .wav
288,192,198294,1,0,0:0:0:0:
224,192,198373,1,0,0:0:0:45:LR_Drum Hit Clap Sn.wav
480,192,198373,1,0,0:0:0:55:LR_Drum Rpd Fast .wav
160,192,198452,1,0,0:0:0:0:
96,192,198531,1,0,0:0:0:25:LR_Drum Kick Low.wav
416,192,198531,1,2,0:0:0:0:
32,192,198531,1,4,0:0:0:0:
288,192,198531,1,0,0:0:0:0:
224,192,198610,1,0,0:0:0:0:
160,192,198689,1,0,0:0:0:100:LR_Drum Rpd.wav
352,192,198689,1,0,0:0:0:0:
480,192,198847,1,0,0:0:0:45:LR_Drum Hit Clap Sn.wav
288,192,198847,1,0,0:0:0:55:LR_Drum Rpd Fast .wav
160,192,199005,1,0,0:0:0:100:LR_Drum Rpd.wav
352,192,199005,1,2,0:0:0:0:
96,192,199163,1,0,0:0:0:25:LR_Drum Kick Low.wav
416,192,199163,1,0,0:0:0:0:
160,192,199241,1,0,0:0:0:0:
224,192,199320,1,0,0:0:0:25:LR_Drum Kick Low.wav
480,192,199320,1,0,0:0:0:0:
288,192,199399,1,0,0:0:0:0:
352,192,199478,1,2,0:0:0:0:
96,192,199478,1,0,0:0:0:45:LR_Drum Hit Clap Sn.wav
416,192,199557,1,0,0:0:0:0:
480,192,199636,1,0,0:0:0:25:LR_Drum Kick Low.wav
160,192,199636,1,0,0:0:0:0:
224,192,199636,1,0,0:0:0:0:
96,192,199794,1,2,0:0:0:0:
288,192,199794,1,0,0:0:0:100:LR_Drum Rpd.wav
224,192,199952,1,0,0:0:0:25:LR_Drum Kick Low.wav
352,192,200070,1,0,0:0:0:0:
480,192,200110,1,0,0:0:0:45:LR_Drum Hit Clap Sn.wav
96,192,200110,1,0,0:0:0:55:LR_Drum Rpd Fast .wav
160,192,200268,1,0,0:0:0:100:LR_Drum Rpd.wav
480,192,200426,1,0,0:0:0:25:LR_Drum Kick Low.wav
352,192,200426,1,2,0:0:0:0:
224,192,200426,1,0,0:0:0:0:
160,192,200584,1,0,0:0:0:25:LR_Drum Kick Low.wav
288,192,200584,1,0,0:0:0:0:
416,192,200584,1,0,0:0:0:0:
96,192,200741,1,0,0:0:0:45:LR_Drum Hit Clap Sn.wav
224,192,200741,1,0,0:0:0:55:LR_Drum Rpd Fast .wav
352,192,200741,1,2,0:0:0:0:
160,192,200899,1,0,0:0:0:100:LR_Drum Rpd.wav
288,192,200899,1,0,0:0:0:0:
416,192,200899,1,0,0:0:0:0:
224,192,201057,1,0,0:0:0:25:LR_Drum Kick Low.wav
352,192,201057,1,2,0:0:0:0:
32,192,201057,1,4,0:0:0:0:
480,192,201057,1,0,0:0:0:0:
160,192,201215,1,0,0:0:0:100:LR_Drum Rpd.wav
96,192,201373,1,0,0:0:0:45:LR_Drum Hit Clap Sn.wav
352,192,201373,1,0,0:0:0:55:LR_Drum Rpd Fast .wav
224,192,201531,1,0,0:0:0:25:LR_Drum Kick Low.wav
288,192,201610,1,0,0:0:0:0:
480,192,201689,1,0,0:0:0:100:LR_Drum Rpd.wav
32,192,201689,1,4,0:0:0:0:
352,192,201689,1,2,0:0:0:0:
96,192,201689,1,0,0:0:0:0:
160,192,201768,1,0,0:0:0:0:
224,192,201847,1,0,0:0:0:45:LR_Drum Hit Clap Sn.wav
416,192,201847,1,0,0:0:0:55:LR_Drum Rpd Fast .wav
288,192,201926,1,0,0:0:0:0:
160,192,202005,1,0,0:0:0:100:LR_Drum Rpd.wav
352,192,202005,1,0,0:0:0:0:
224,192,202084,1,0,0:0:0:0:
416,192,202163,1,0,0:0:0:25:LR_Drum Kick Low.wav
288,192,202163,1,0,0:0:0:0:
352,192,202241,1,0,0:0:0:0:
480,192,202320,1,0,0:0:0:100:LR_Drum Rpd.wav
32,192,202320,1,4,0:0:0:0:
224,192,202320,1,2,0:0:0:0:
96,192,202320,1,0,0:0:0:0:
416,192,202399,1,0,0:0:0:0:
352,192,202478,1,0,0:0:0:25:LR_Drum Kick Low.wav
160,192,202478,1,0,0:0:0:0:
224,192,202557,1,0,0:0:0:0:
288,192,202636,1,0,0:0:0:55:LR_Drum Rpd Fast .wav
480,192,202636,1,2,0:0:0:0:
32,192,202636,1,4,0:0:0:0:
96,192,202636,1,0,0:0:0:0:
224,192,202715,1,0,0:0:0:0:
416,192,202794,1,0,0:0:0:100:LR_Drum Rpd.wav
160,192,202794,1,0,0:0:0:0:
96,192,202873,1,0,0:0:0:45:LR_Drum Hit Clap Sn.wav
352,192,202873,1,0,0:0:0:0:
288,192,202952,1,0,0:0:0:45:LR_Drum Hit Clap Sn.wav
480,192,202952,1,0,0:0:0:25:LR_Drum Kick Low.wav
224,192,203031,1,0,0:0:0:45:LR_Drum Hit Clap Sn.wav
416,192,203031,1,0,0:0:0:100:LR_Drum Rpd.wav
160,192,203110,1,0,0:0:0:45:LR_Drum Hit Clap Sn.wav
352,192,203110,1,0,0:0:0:25:LR_Drum Kick Low.wav
96,192,203189,1,0,0:0:0:45:LR_Drum Hit Clap Sn.wav
288,192,203189,1,0,0:0:0:100:LR_Drum Rpd.wav
224,192,203268,1,0,0:0:0:45:LR_Drum Hit Clap Sn.wav
480,192,203268,1,0,0:0:0:100:LR_Drum Rpd.wav
416,192,203373,1,0,0:0:0:45:LR_Drum Hit Clap Sn.wav
160,192,203373,1,0,0:0:0:100:LR_Drum Rpd.wav
352,192,203478,1,0,0:0:0:45:LR_Drum Hit Clap Sn.wav
96,192,203478,1,0,0:0:0:100:LR_Drum Rpd.wav
224,192,203584,1,0,0:0:0:100:LR_Drum Crush Finish.wav
288,192,203584,1,2,0:0:0:0:
32,192,203584,1,4,0:0:0:0:
480,192,203584,1,0,0:0:0:100:LR_Drum Crush Finish.wav
160,192,204215,1,2,0:0:0:0:
416,192,204215,1,0,0:0:0:0:
288,192,204531,1,0,0:0:0:0:
96,192,204847,1,2,0:0:0:0:
480,192,204847,1,0,0:0:0:0:
416,192,205163,1,0,0:0:0:0:
352,192,205478,1,0,0:0:0:0:
288,192,205794,1,0,0:0:0:0:
160,192,206110,1,2,0:0:0:0:
416,192,206110,1,0,0:0:0:0:
288,192,206426,1,0,0:0:0:0:
96,192,206741,1,2,0:0:0:0:
480,192,206741,1,0,0:0:0:0:
352,192,207057,1,0,0:0:0:0:
224,192,207373,1,0,0:0:0:0:
160,192,207689,1,2,0:0:0:0:
416,192,207689,1,0,0:0:0:0:
352,192,208005,1,2,0:0:0:0:
224,192,208005,1,0,0:0:0:0:
96,192,208320,1,2,0:0:0:0:
480,192,208320,1,0,0:0:0:0:
160,192,208636,1,0,0:0:0:0:
352,192,208636,1,0,0:0:0:0:
288,192,208952,1,0,0:0:0:0:
224,192,209268,1,0,0:0:0:0:
160,192,209584,1,0,0:0:0:0:
96,192,209899,1,0,0:0:0:0:
480,192,210215,1,2,0:0:0:0:
224,192,210215,1,0,0:0:0:0:
160,192,210373,1,2,0:0:0:0:
416,192,210531,1,0,0:0:0:0:
352,192,210847,1,0,0:0:0:0:
96,192,210847,1,0,0:0:0:0:
160,192,211163,1,0,0:0:0:0:
288,192,211163,1,0,0:0:0:0:
224,192,211478,1,0,0:0:0:0:
160,192,211794,1,0,0:0:0:0:
96,192,212110,1,0,0:0:0:0:
160,192,212426,1,0,0:0:0:0:
480,192,212426,1,0,0:0:0:0:
416,192,212741,1,0,0:0:0:0:
224,192,212899,1,0,0:0:0:30:LR_Drum Rpd Fast .wav
288,192,212899,1,0,0:0:0:0:
96,192,213057,1,0,0:0:0:30:LR_Drum Hit Clap Sn.wav
480,192,213057,1,0,0:0:0:40:LR_Drum Rpd.wav
160,192,213163,1,0,0:0:0:30:LR_Drum Rpd Fast .wav
416,192,213163,1,0,0:0:0:0:
224,192,213268,1,0,0:0:0:30:LR_Drum Hit Clap Sn.wav
352,192,213268,1,0,0:0:0:0:
160,192,213373,1,0,0:0:0:15:LR_Drum Kick Low.wav
416,192,213373,1,0,0:0:0:40:LR_Drum Rpd.wav
352,192,213557,1,0,0:0:0:0:
224,192,213557,1,0,0:0:0:15:LR_Drum Kick Low.wav
288,192,213689,1,0,0:0:0:80:LR_Drum Crush Finish.wav
96,192,213689,1,0,0:0:0:20:LR_Drum Kick Low.wav
480,192,213689,1,2,0:0:0:0:
32,192,213689,1,4,0:0:0:0:
160,192,214005,1,0,0:0:0:50:LR_HiHat Click.wav
352,192,214005,1,0,0:0:0:0:
288,192,214163,1,0,0:0:0:50:LR_HiHat Click.wav
224,192,214320,1,0,0:0:0:35:LR_HiHat SClick 2.wav
416,192,214320,1,2,0:0:0:0:
96,192,214636,1,0,0:0:0:50:LR_HiHat Click.wav
288,192,214636,1,0,0:0:0:0:
352,192,214952,1,0,0:0:0:35:LR_HiHat SClick 2.wav
480,192,214952,1,2,0:0:0:0:
96,192,215268,1,0,0:0:0:60:LR_Hat Synth.wav
224,192,215268,1,0,0:0:0:0:
416,192,215584,1,0,0:0:0:35:LR_HiHat SClick 2.wav
288,192,215584,1,0,0:0:0:0:
160,192,215741,1,0,0:0:0:30:LR_Drum Rpd Fast .wav
224,192,215899,1,0,0:0:0:50:LR_HiHat Click.wav
352,192,215899,1,0,0:0:0:0:
96,192,216057,1,0,0:0:0:50:LR_HiHat Click.wav
288,192,216215,1,0,0:0:0:30:LR_Drum Rpd Fast .wav
416,192,216215,1,0,0:0:0:60:LR_Hat Synth.wav
160,192,216215,1,2,0:0:0:0:
224,192,216531,1,0,0:0:0:50:LR_HiHat Click.wav
352,192,216531,1,0,0:0:0:0:
480,192,216847,1,0,0:0:0:35:LR_HiHat SClick 2.wav
288,192,216847,1,0,0:0:0:30:LR_Drum Rpd Fast .wav
96,192,216847,1,2,0:0:0:0:
32,192,216847,1,4,0:0:0:0:
160,192,217163,1,0,0:0:0:50:LR_HiHat Click.wav
416,192,217163,1,0,0:0:0:0:
288,192,217320,1,0,0:0:0:50:LR_HiHat Click.wav
224,192,217478,1,0,0:0:0:35:LR_HiHat SClick 2.wav
352,192,217478,1,0,0:0:0:0:
96,192,217794,1,0,0:0:0:30:LR_Drum Rpd Fast .wav
288,192,217794,1,0,0:0:0:50:LR_HiHat Click.wav
480,192,217794,1,2,0:0:0:0:
160,192,218110,1,0,0:0:0:30:LR_Drum Hit Clap Sn.wav
288,192,218110,1,0,0:0:0:25:LR_Drum Barrel Hit.wav
416,192,218110,1,2,0:0:0:0:
352,192,218215,1,0,0:0:0:30:LR_Drum Rpd Fast .wav
224,192,218320,1,0,0:0:0:30:LR_Drum Hit Clap Sn.wav
96,192,218426,1,0,0:0:0:40:LR_Drum Rpd.wav
288,192,218426,1,0,0:0:0:50:LR_Drum Rpd.wav
480,192,218426,1,2,0:0:0:0:
224,192,218531,1,0,0:0:0:50:LR_Tom Hit 2.wav
352,192,218636,1,0,0:0:0:50:LR_Tom Hit 3.wav
160,192,218741,1,0,0:0:0:80:LR_Drum Crush Finish.wav
32,192,218741,1,4,0:0:0:0:
288,192,218741,1,0,0:0:0:20:LR_Drum Kick Low.wav
416,192,218741,1,2,0:0:0:0:
96,192,219373,1,2,0:0:0:0:
480,192,219373,1,2,0:0:0:0:
160,192,220320,1,0,0:0:0:15:LR2_KickDBeatBass.wav
480,192,220636,1,0,0:0:0:35:LR_Drum Hit Clap Sn.wav
288,192,220636,1,0,0:0:0:25:LR_Drum Barrel Hit.wav
32,192,220636,1,0,0:0:0:0:
224,192,220794,1,0,0:0:0:15:LR2_KickDBeatBass.wav
160,192,220952,1,0,0:0:0:25:LR_HiHat SClick 2.wav
96,192,221110,1,0,0:0:0:15:LR2_KickDBeatBass.wav
224,192,221268,1,0,0:0:0:90:LR_Drum Crush Finish.wav
352,192,221268,1,0,0:0:0:25:LR_Drum Kick Low.wav
480,192,221268,1,4,0:0:0:0:
32,192,221268,1,0,0:0:0:0:
480,192,221426,1,0,0:0:0:90:LR_Drum Crush Finish.wav
352,192,221426,1,4,0:0:0:0:
224,192,221426,1,0,0:0:0:25:LR_Drum Kick Low.wav
224,192,221741,1,4,0:0:0:0:
352,192,221741,1,0,0:0:0:25:LR_Drum Kick Low.wav
480,192,221741,1,0,0:0:0:90:LR_Drum Crush Finish.wav
480,192,221899,1,4,0:0:0:0:
352,192,221899,1,0,0:0:0:90:LR_Drum Crush Finish.wav
224,192,221899,1,0,0:0:0:25:LR_Drum Kick Low.wav
416,192,222215,1,4,0:0:0:0:
288,192,222215,1,0,0:0:0:25:LR_Drum Kick Low.wav
160,192,222215,1,0,0:0:0:90:LR_Drum Crush Finish.wav
416,192,222373,1,4,0:0:0:0:
288,192,222373,1,0,0:0:0:25:LR_Drum Kick Low.wav
160,192,222373,1,0,0:0:0:90:LR_Drum Crush Finish.wav
160,192,222689,1,4,0:0:0:0:
288,192,222689,1,0,0:0:0:25:LR_Drum Kick Low.wav
416,192,222689,1,0,0:0:0:90:LR_Drum Crush Finish.wav
160,192,222847,1,0,0:0:0:25:LR_Drum Kick Low.wav
288,192,222847,1,0,0:0:0:90:LR_Drum Crush Finish.wav
416,192,222847,1,4,0:0:0:0:
352,192,223163,1,4,0:0:0:0:
224,192,223163,1,0,0:0:0:25:LR_Drum Kick Low.wav
96,192,223163,1,0,0:0:0:90:LR_Drum Crush Finish.wav
352,192,223478,1,4,0:0:0:0:
224,192,223478,1,0,0:0:0:25:LR_Drum Kick Low.wav
96,192,223478,1,0,0:0:0:90:LR_Drum Crush Finish.wav
416,192,223794,1,0,0:0:0:90:LR_Drum Crush Finish.wav
160,192,223794,1,4,0:0:0:0:
288,192,223794,1,0,0:0:0:25:LR_Drum Kick Low.wav
32,192,223794,1,4,1:0:0:0:
416,192,223952,1,4,0:0:0:0:
288,192,223952,1,0,0:0:0:90:LR_Drum Crush Finish.wav
160,192,223952,1,0,0:0:0:25:LR_Drum Kick Low.wav
160,192,224268,1,0,0:0:0:90:LR_Drum Crush Finish.wav
288,192,224268,1,4,0:0:0:0:
416,192,224268,1,0,0:0:0:25:LR_Drum Kick Low.wav
416,192,224426,1,4,0:0:0:0:
288,192,224426,1,0,0:0:0:90:LR_Drum Crush Finish.wav
160,192,224426,1,0,0:0:0:25:LR_Drum Kick Low.wav
96,192,224741,1,4,0:0:0:0:
288,192,224741,1,0,0:0:0:25:LR_Drum Kick Low.wav
480,192,224741,1,0,0:0:0:90:LR_Drum Crush Finish.wav
480,192,224899,1,0,0:0:0:25:LR_Drum Kick Low.wav
288,192,224899,1,4,0:0:0:0:
96,192,224899,1,0,0:0:0:90:LR_Drum Crush Finish.wav
160,192,225057,1,2,0:0:0:0:
288,192,225215,1,0,0:0:0:20:LR_Drum Kick Low.wav
416,192,225373,1,0,0:0:0:50:LR_Drum Rpd Fast .wav
160,192,225373,1,2,0:0:0:0:
352,192,225689,1,0,0:0:0:20:LR_Drum Kick Low.wav
224,192,225768,1,0,0:0:0:30:LR_Drum Hit Clap Sn.wav
352,192,225847,1,0,0:0:0:30:LR_Drum Hit Clap Sn.wav
224,192,225926,1,0,0:0:0:30:LR_Drum Hit Clap Sn.wav
480,192,226005,1,0,0:0:0:50:LR_Drum Rpd Fast .wav
416,192,226005,1,0,0:0:0:0:
96,192,226163,1,0,0:0:0:20:LR_Drum Kick Low.wav
160,192,226320,1,0,0:0:0:25:LR_Drum Kick Low.wav
416,192,226320,1,4,0:0:0:0:
288,192,226320,1,0,0:0:0:90:LR_Drum Crush Finish.wav
160,192,226478,1,0,0:0:0:25:LR_Drum Kick Low.wav
288,192,226478,1,0,0:0:0:90:LR_Drum Crush Finish.wav
416,192,226478,1,4,0:0:0:0:
416,192,226794,1,0,0:0:0:25:LR_Drum Kick Low.wav
288,192,226794,1,4,0:0:0:0:
160,192,226794,1,0,0:0:0:90:LR_Drum Crush Finish.wav
160,192,226952,1,0,0:0:0:25:LR_Drum Kick Low.wav
416,192,226952,1,0,0:0:0:90:LR_Drum Crush Finish.wav
288,192,226952,1,4,0:0:0:0:
160,192,227268,1,0,0:0:0:90:LR_Drum Crush Finish.wav
288,192,227268,1,0,0:0:0:25:LR_Drum Kick Low.wav
416,192,227268,1,4,0:0:0:0:
480,192,227426,1,0,0:0:0:90:LR_Drum Crush Finish.wav
352,192,227426,1,4,0:0:0:0:
224,192,227426,1,0,0:0:0:25:LR_Drum Kick Low.wav
96,192,227584,1,0,0:0:0:25:LR_Drum Kick Low.wav
160,192,227741,1,0,0:0:0:40:LR_Drum Hit Clap Sn.wav
224,192,227899,1,0,0:0:0:25:LR_Drum Kick Low.wav
288,192,228057,1,0,0:0:0:50:LR_Drum Rpd Fast .wav
480,192,228215,1,0,0:0:0:25:LR_Drum Kick Low.wav
352,192,228215,1,4,0:0:0:0:
224,192,228215,1,0,0:0:0:90:LR_Drum Crush Finish.wav
416,192,228531,1,0,0:0:0:90:LR_Drum Crush Finish.wav
288,192,228531,1,4,0:0:0:0:
160,192,228531,1,0,0:0:0:25:LR_Drum Kick Low.wav
352,192,228847,1,0,0:0:0:100:LR_Drum Crush Finish.wav
224,192,228847,1,0,0:0:0:25:LR_Drum Kick Low.wav
32,192,228847,1,6,0:0:0:0:
96,192,228847,1,4,1:0:0:0:
416,192,229005,1,0,0:0:0:100:LR_Drum Rpd.wav
480,192,229163,1,0,0:0:0:45:LR_Drum Hit Clap Sn.wav
224,192,229163,1,0,0:0:0:55:LR_Drum Rpd Fast .wav
160,192,229320,1,0,0:0:0:100:LR_Drum Rpd.wav
96,192,229478,1,0,0:0:0:25:LR_Drum Kick Low.wav
352,192,229478,1,2,0:0:0:0:
160,192,229557,1,0,0:0:0:0:
224,192,229636,1,0,0:0:0:25:LR_Drum Kick Low.wav
416,192,229636,1,0,0:0:0:0:
288,192,229715,1,0,0:0:0:0:
352,192,229794,1,0,0:0:0:45:LR_Drum Hit Clap Sn.wav
480,192,229794,1,0,0:0:0:55:LR_Drum Rpd Fast .wav
96,192,229794,1,0,0:0:0:0:
160,192,229873,1,0,0:0:0:0:
224,192,229952,1,0,0:0:0:0:
288,192,230031,1,0,0:0:0:0:
352,192,230110,1,0,0:0:0:25:LR_Drum Kick Low.wav
160,192,230110,1,2,0:0:0:0:
224,192,230189,1,0,0:0:0:0:
96,192,230268,1,0,0:0:0:25:LR_Drum Kick Low.wav
288,192,230268,1,0,0:0:0:0:
352,192,230347,1,0,0:0:0:0:
416,192,230426,1,0,0:0:0:45:LR_Drum Hit Clap Sn.wav
480,192,230426,1,0,0:0:0:55:LR_Drum Rpd Fast .wav
224,192,230426,1,0,0:0:0:0:
288,192,230505,1,0,0:0:0:0:
160,192,230584,1,0,0:0:0:25:LR_Drum Kick Low.wav
352,192,230584,1,0,0:0:0:0:
416,192,230663,1,0,0:0:0:0:
480,192,230741,1,0,0:0:0:100:LR_Drum Rpd.wav
96,192,230741,1,2,0:0:0:0:
288,192,230741,1,0,0:0:0:0:
416,192,230899,1,0,0:0:0:25:LR_Drum Kick Low.wav
224,192,230899,1,0,0:0:0:0:
288,192,230978,1,0,0:0:0:0:
96,192,231057,1,0,0:0:0:45:LR_Drum Hit Clap Sn.wav
160,192,231057,1,0,0:0:0:55:LR_Drum Rpd Fast .wav
352,192,231057,1,0,0:0:0:0:
416,192,231136,1,0,0:0:0:0:
480,192,231215,1,0,0:0:0:100:LR_Drum Rpd.wav
288,192,231215,1,2,0:0:0:0:
224,192,231215,1,0,0:0:0:0:
160,192,231373,1,0,0:0:0:25:LR_Drum Kick Low.wav
96,192,231531,1,0,0:0:0:100:LR_Drum Rpd.wav
224,192,231531,1,2,0:0:0:0:
352,192,231531,1,0,0:0:0:0:
480,192,231689,1,0,0:0:0:45:LR_Drum Hit Clap Sn.wav
416,192,231689,1,0,0:0:0:55:LR_Drum Rpd Fast .wav
288,192,231689,1,0,0:0:0:0:
224,192,231768,1,0,0:0:0:0:
160,192,231847,1,0,0:0:0:25:LR_Drum Kick Low.wav
352,192,231847,1,0,0:0:0:0:
416,192,231926,1,0,0:0:0:0:
224,192,232005,1,0,0:0:0:100:LR_Drum Rpd.wav
480,192,232005,1,2,0:0:0:0:
160,192,232084,1,0,0:0:0:0:
96,192,232163,1,0,0:0:0:45:LR_Drum Hit Clap Sn.wav
352,192,232163,1,0,0:0:0:55:LR_Drum Rpd Fast .wav
288,192,232163,1,0,0:0:0:0:
416,192,232241,1,0,0:0:0:0:
224,192,232320,1,0,0:0:0:100:LR_Drum Rpd.wav
480,192,232320,1,0,0:0:0:0:
160,192,232399,1,0,0:0:0:0:
352,192,232478,1,0,0:0:0:25:LR_Drum Kick Low.wav
96,192,232478,1,2,0:0:0:0:
288,192,232557,1,0,0:0:0:0:
160,192,232636,1,0,0:0:0:45:LR_Drum Hit Clap Sn.wav
480,192,232636,1,0,0:0:0:25:LR_Drum Kick Low.wav
224,192,232636,1,2,0:0:0:0:
416,192,232715,1,0,0:0:0:0:
352,192,232794,1,0,0:0:0:0:
288,192,232873,1,0,0:0:0:0:
416,192,232952,1,2,0:0:0:0:
224,192,232952,1,0,0:0:0:55:LR_Drum Rpd Fast .wav
480,192,232952,1,0,0:0:0:25:LR_Drum Kick Low.wav
96,192,233031,1,0,0:0:0:0:
160,192,233110,1,0,0:0:0:0:
224,192,233189,1,0,0:0:0:0:
288,192,233268,1,0,0:0:0:25:LR_Drum Kick Low.wav
480,192,233268,1,0,0:0:0:70:LR_Tom Hit 2.wav
96,192,233268,1,2,0:0:0:0:
352,192,233347,1,0,0:0:0:0:
224,192,233426,1,0,0:0:0:0:
288,192,233505,1,0,0:0:0:0:
96,192,233584,1,2,0:0:0:0:
352,192,233584,1,0,0:0:0:25:LR_Drum Kick Low.wav
160,192,233584,1,0,0:0:0:70:LR_Tom Hit 3.wav
416,192,233663,1,0,0:0:0:0:
480,192,233741,1,0,0:0:0:100:LR_Drum Crush Finish.wav
224,192,233741,1,0,0:0:0:25:LR_Drum Kick Low.wav
288,192,233741,1,4,1:0:0:0:
32,192,233741,1,6,0:0:0:0:
96,192,234057,1,0,0:0:0:25:LR_Drum Kick Low.wav
224,192,234057,1,0,0:0:0:0:
160,192,234215,1,0,0:0:0:45:LR_Drum Hit Clap Sn.wav
288,192,234215,1,0,0:0:0:55:LR_Drum Rpd Fast .wav
416,192,234215,1,0,0:0:0:0:
224,192,234373,1,0,0:0:0:100:LR_Drum Rpd.wav
352,192,234373,1,0,0:0:0:0:
288,192,234531,1,0,0:0:0:25:LR_Drum Kick Low.wav
480,192,234531,1,2,0:0:0:0:
416,192,234689,1,0,0:0:0:25:LR_Drum Kick Low.wav
224,192,234689,1,0,0:0:0:0:
160,192,234768,1,0,0:0:0:0:
96,192,234847,1,0,0:0:0:45:LR_Drum Hit Clap Sn.wav
352,192,234847,1,0,0:0:0:55:LR_Drum Rpd Fast .wav
288,192,234847,1,0,0:0:0:0:
160,192,234926,1,0,0:0:0:0:
224,192,235005,1,0,0:0:0:0:
416,192,235005,1,0,0:0:0:100:LR_Drum Rpd.wav
288,192,235084,1,0,0:0:0:0:
96,192,235163,1,0,0:0:0:25:LR_Drum Kick Low.wav
480,192,235163,1,2,0:0:0:0:
352,192,235163,1,0,0:0:0:0:
160,192,235320,1,0,0:0:0:25:LR_Drum Kick Low.wav
416,192,235320,1,0,0:0:0:0:
480,192,235478,1,0,0:0:0:0:
288,192,235478,1,0,0:0:0:45:LR_Drum Hit Clap Sn.wav
224,192,235478,1,0,0:0:0:55:LR_Drum Rpd Fast .wav
416,192,235557,1,0,0:0:0:0:
160,192,235636,1,0,0:0:0:25:LR_Drum Kick Low.wav
352,192,235636,1,0,0:0:0:0:
288,192,235715,1,0,0:0:0:0:
224,192,235794,1,0,0:0:0:100:LR_Drum Rpd.wav
480,192,235794,1,2,0:0:0:0:
96,192,235873,1,0,0:0:0:0:
416,192,235952,1,0,0:0:0:0:
160,192,235952,1,0,0:0:0:25:LR_Drum Kick Low.wav
352,192,236031,1,0,0:0:0:0:
288,192,236110,1,0,0:0:0:45:LR_Drum Hit Clap Sn.wav
480,192,236110,1,0,0:0:0:55:LR_Drum Rpd Fast .wav
96,192,236110,1,0,0:0:0:0:
224,192,236189,1,0,0:0:0:0:
160,192,236268,1,0,0:0:0:0:
416,192,236268,1,0,0:0:0:0:
96,192,236347,1,0,0:0:0:0:
160,192,236426,1,0,0:0:0:25:LR_Drum Kick Low.wav
352,192,236426,1,2,0:0:0:0:
480,192,236426,1,0,0:0:0:0:
224,192,236505,1,0,0:0:0:0:
288,192,236584,1,0,0:0:0:100:LR_Drum Rpd.wav
416,192,236584,1,0,0:0:0:0:
96,192,236741,1,0,0:0:0:45:LR_Drum Hit Clap Sn.wav
352,192,236741,1,0,0:0:0:55:LR_Drum Rpd Fast .wav
480,192,236741,1,0,0:0:0:0:
160,192,236820,1,0,0:0:0:0:
224,192,236899,1,0,0:0:0:25:LR_Drum Kick Low.wav
416,192,236899,1,0,0:0:0:0:
288,192,236978,1,0,0:0:0:0:
352,192,237057,1,0,0:0:0:100:LR_Drum Rpd.wav
160,192,237057,1,2,0:0:0:0:
224,192,237136,1,0,0:0:0:0:
288,192,237215,1,0,0:0:0:45:LR_Drum Hit Clap Sn.wav
96,192,237215,1,0,0:0:0:55:LR_Drum Rpd Fast .wav
480,192,237215,1,0,0:0:0:0:
352,192,237294,1,0,0:0:0:0:
416,192,237373,1,0,0:0:0:100:LR_Drum Rpd.wav
224,192,237373,1,0,0:0:0:0:
480,192,237452,1,0,0:0:0:0:
160,192,237531,1,0,0:0:0:40:LR_Drum Hit Clap Sn.wav
288,192,237531,1,0,0:0:0:25:LR_Drum Kick Low.wav
352,192,237531,1,2,0:0:0:0:
416,192,237610,1,0,0:0:0:40:LR_Drum Hit Clap Sn.wav
160,192,237689,1,0,0:0:0:40:LR_Drum Hit Clap Sn.wav
416,192,237768,1,0,0:0:0:40:LR_Drum Hit Clap Sn.wav
160,192,237847,1,0,0:0:0:40:LR_Drum Hit Clap Sn.wav
416,192,237926,1,0,0:0:0:40:LR_Drum Hit Clap Sn.wav
160,192,238005,1,0,0:0:0:40:LR_Drum Hit Clap Sn.wav
416,192,238084,1,0,0:0:0:40:LR_Drum Hit Clap Sn.wav
160,192,238163,1,0,0:0:0:40:LR_Drum Hit Clap Sn.wav
416,192,238241,1,0,0:0:0:40:LR_Drum Hit Clap Sn.wav
288,192,238320,1,0,0:0:0:40:LR_Drum Hit Clap Sn.wav
96,192,238320,1,0,0:0:0:25:LR_Drum Kick Low.wav
480,192,238320,1,2,0:0:0:0:
160,192,238478,1,0,0:0:0:55:LR_Drum Rpd Fast .wav
416,192,238478,1,0,0:0:0:25:LR_Drum Kick Low.wav
224,192,238636,1,0,0:0:0:45:LR_Drum Hit Clap Sn.wav
352,192,238636,1,0,0:0:0:100:LR_Drum Rpd.wav
96,192,238794,1,0,0:0:0:100:LR_Drum Crush Finish.wav
480,192,238794,1,0,0:0:0:25:LR_Drum Kick Low.wav
32,192,238794,1,6,0:0:0:0:
288,192,238794,1,4,1:0:0:0:
288,192,239110,1,0,0:0:0:25:LR_Drum Kick Low.wav
160,192,239268,1,0,0:0:0:45:LR_Drum Hit Clap Sn.wav
416,192,239268,1,0,0:0:0:55:LR_Drum Rpd Fast .wav
96,192,239268,1,0,0:0:0:0:
224,192,239347,1,0,0:0:0:0:
288,192,239426,1,0,0:0:0:100:LR_Drum Rpd.wav
480,192,239426,1,0,0:0:0:0:
352,192,239505,1,0,0:0:0:0:
160,192,239584,1,0,0:0:0:25:LR_Drum Kick Low.wav
416,192,239584,1,2,0:0:0:0:
96,192,239584,1,0,0:0:0:0:
352,192,239741,1,0,0:0:0:25:LR_Drum Kick Low.wav
224,192,239741,1,0,0:0:0:0:
480,192,239820,1,0,0:0:0:0:
288,192,239899,1,0,0:0:0:45:LR_Drum Hit Clap Sn.wav
160,192,239899,1,0,0:0:0:55:LR_Drum Rpd Fast .wav
96,192,239899,1,0,0:0:0:0:
416,192,239978,1,0,0:0:0:0:
224,192,240057,1,0,0:0:0:25:LR_Drum Kick Low.wav
480,192,240057,1,0,0:0:0:0:
352,192,240136,1,0,0:0:0:0:
416,192,240215,1,0,0:0:0:100:LR_Drum Rpd.wav
160,192,240215,1,2,0:0:0:0:
288,192,240294,1,0,0:0:0:0:
352,192,240373,1,0,0:0:0:25:LR_Drum Kick Low.wav
96,192,240373,1,0,0:0:0:0:
416,192,240452,1,0,0:0:0:0:
288,192,240531,1,0,0:0:0:45:LR_Drum Hit Clap Sn.wav
480,192,240531,1,0,0:0:0:55:LR_Drum Rpd Fast .wav
160,192,240531,1,0,0:0:0:0:
352,192,240610,1,0,0:0:0:0:
224,192,240689,1,0,0:0:0:100:LR_Drum Rpd.wav
416,192,240689,1,0,0:0:0:0:
288,192,240768,1,0,0:0:0:0:
160,192,240847,1,0,0:0:0:25:LR_Drum Kick Low.wav
352,192,240847,1,2,0:0:0:0:
224,192,240926,1,0,0:0:0:0:
288,192,241005,1,0,0:0:0:25:LR_Drum Kick Low.wav
96,192,241005,1,0,0:0:0:0:
352,192,241084,1,0,0:0:0:0:
416,192,241163,1,0,0:0:0:45:LR_Drum Hit Clap Sn.wav
480,192,241163,1,0,0:0:0:55:LR_Drum Rpd Fast .wav
160,192,241163,1,0,0:0:0:0:
288,192,241241,1,0,0:0:0:0:
96,192,241320,1,0,0:0:0:100:LR_Drum Rpd.wav
224,192,241399,1,0,0:0:0:0:
352,192,241478,1,0,0:0:0:100:LR_Drum Crush Finish.wav
288,192,241478,1,0,0:0:0:25:LR_Drum Kick Low.wav
480,192,241478,1,0,0:0:0:0:
32,192,241478,1,6,0:0:0:0:
96,192,241557,1,0,0:0:0:0:
160,192,241636,1,0,0:0:0:100:LR_Drum Rpd.wav
416,192,241636,1,0,0:0:0:0:
224,192,241715,1,0,0:0:0:0:
96,192,241794,1,0,0:0:0:45:LR_Drum Hit Clap Sn.wav
480,192,241794,1,0,0:0:0:55:LR_Drum Rpd Fast .wav
288,192,241794,1,0,0:0:0:0:
352,192,241873,1,0,0:0:0:0:
416,192,241952,1,0,0:0:0:25:LR_Drum Kick Low.wav
160,192,241952,1,0,0:0:0:0:
480,192,242031,1,0,0:0:0:0:
96,192,242110,1,0,0:0:0:100:LR_Drum Rpd.wav
224,192,242110,1,2,0:0:0:0:
352,192,242110,1,0,0:0:0:0:
416,192,242268,1,0,0:0:0:45:LR_Drum Hit Clap Sn.wav
288,192,242268,1,0,0:0:0:55:LR_Drum Rpd Fast .wav
352,192,242426,1,0,0:0:0:25:LR_Drum Kick Low.wav
96,192,242426,1,0,0:0:0:0:
160,192,242505,1,0,0:0:0:0:
416,192,242584,1,0,0:0:0:100:LR_Drum Rpd.wav
224,192,242584,1,0,0:0:0:0:
288,192,242663,1,0,0:0:0:0:
96,192,242741,1,0,0:0:0:100:LR_Drum Crush Finish.wav
352,192,242741,1,0,0:0:0:25:LR_Drum Kick Low.wav
480,192,242741,1,2,0:0:0:0:
32,192,242741,1,4,0:0:0:0:
480,192,242952,1,2,0:0:0:0:
96,192,242952,1,0,0:0:0:100:LR_Drum Crush Finish.wav
288,192,242952,1,0,0:0:0:70:LR_Drum Rpd.wav
32,192,242952,1,4,0:0:0:0:
96,192,243163,1,0,0:0:0:100:LR_Drum Crush Finish.wav
224,192,243163,1,0,0:0:0:70:LR_Drum Rpd.wav
480,192,243163,1,2,0:0:0:0:
32,192,243163,1,4,0:0:0:0:
352,192,243373,1,0,0:0:0:100:LR_Drum Crush Finish.wav
480,192,243373,1,0,0:0:0:25:LR_Drum Kick Low.wav
32,192,243373,1,6,0:0:0:0:
96,192,243373,1,0,0:0:0:45:LR_Drum Hit Clap Sn.wav
288,192,243478,1,0,0:0:0:55:LR_Drum Rpd Fast .wav
224,192,243584,1,0,0:0:0:45:LR_Drum Hit Clap Sn.wav
160,192,243689,1,0,0:0:0:25:LR_Drum Kick Low.wav
224,192,243768,1,0,0:0:0:0:
288,192,243847,1,0,0:0:0:70:LR_Tom Hit 3.wav
352,192,243926,1,0,0:0:0:0:
416,192,244005,1,0,0:0:0:25:LR_Drum Kick Low.wav
96,192,244005,1,4,0:0:0:0:
224,192,244005,1,0,0:0:0:100:LR_Drum Crush Finish.wav
32,192,244005,1,4,1:0:0:0:
224,192,244163,1,0,0:0:0:25:LR_Drum Kick Low.wav
96,192,244163,1,0,0:0:0:100:LR_Drum Crush Finish.wav
416,192,244163,1,4,0:0:0:0:
416,192,244478,1,4,0:0:0:0:
224,192,244478,1,0,0:0:0:100:LR_Drum Crush Finish.wav
96,192,244478,1,0,0:0:0:25:LR_Drum Kick Low.wav
416,192,244636,1,0,0:0:0:25:LR_Drum Kick Low.wav
224,192,244636,1,0,0:0:0:100:LR_Drum Crush Finish.wav
96,192,244636,1,4,0:0:0:0:
160,192,244952,1,4,0:0:0:0:
352,192,244952,1,0,0:0:0:100:LR_Drum Crush Finish.wav
480,192,244952,1,0,0:0:0:25:LR_Drum Kick Low.wav
160,192,245110,1,0,0:0:0:100:LR_Drum Crush Finish.wav
352,192,245110,1,0,0:0:0:25:LR_Drum Kick Low.wav
480,192,245110,1,4,0:0:0:0:
480,192,245426,1,4,0:0:0:0:
352,192,245426,1,0,0:0:0:25:LR_Drum Kick Low.wav
160,192,245426,1,0,0:0:0:100:LR_Drum Crush Finish.wav
480,192,245584,1,0,0:0:0:100:LR_Drum Crush Finish.wav
352,192,245584,1,0,0:0:0:25:LR_Drum Kick Low.wav
160,192,245584,1,4,0:0:0:0:
480,192,245899,1,4,0:0:0:0:
352,192,245899,1,0,0:0:0:25:LR_Drum Kick Low.wav
160,192,245899,1,0,0:0:0:100:LR_Drum Crush Finish.wav
288,192,245978,1,0,0:0:0:30:LR_Drum Rpd Fast .wav
96,192,246057,1,0,0:0:0:30:LR_Drum Rpd Fast .wav
224,192,246136,1,0,0:0:0:30:LR_Drum Rpd Fast .wav
480,192,246215,1,0,0:0:0:40:LR_Drum Hit Clap Sn.wav
416,192,246215,1,0,0:0:0:0:
160,192,246294,1,0,0:0:0:0:
224,192,246373,1,0,0:0:0:25:LR_Drum Kick Low.wav
288,192,246452,1,0,0:0:0:0:
416,192,246531,1,0,0:0:0:100:LR_Drum Crush Finish.wav
352,192,246531,1,0,0:0:0:25:LR_Drum Kick Low.wav
160,192,246531,1,4,0:0:0:0:
416,192,246689,1,0,0:0:0:100:LR_Drum Crush Finish.wav
160,192,246689,1,0,0:0:0:25:LR_Drum Kick Low.wav
352,192,246689,1,4,0:0:0:0:
416,192,247005,1,4,0:0:0:0:
352,192,247005,1,0,0:0:0:25:LR_Drum Kick Low.wav
160,192,247005,1,0,0:0:0:100:LR_Drum Crush Finish.wav
160,192,247163,1,0,0:0:0:100:LR_Drum Crush Finish.wav
352,192,247163,1,0,0:0:0:25:LR_Drum Kick Low.wav
416,192,247163,1,4,0:0:0:0:
416,192,247478,1,4,0:0:0:0:
352,192,247478,1,0,0:0:0:25:LR_Drum Kick Low.wav
160,192,247478,1,0,0:0:0:100:LR_Drum Crush Finish.wav
288,192,247636,1,0,0:0:0:100:LR_Drum Crush Finish.wav
480,192,247636,1,0,0:0:0:25:LR_Drum Kick Low.wav
96,192,247636,1,4,0:0:0:0:
160,192,247794,1,0,0:0:0:25:LR_Drum Kick Low.wav
224,192,247952,1,0,0:0:0:40:LR_Drum Hit Clap Sn.wav
352,192,248110,1,0,0:0:0:25:LR_Drum Kick Low.wav
416,192,248268,1,0,0:0:0:50:LR_Drum Rpd Fast .wav
480,192,248426,1,4,0:0:0:0:
96,192,248426,1,0,0:0:0:25:LR_Drum Kick Low.wav
288,192,248426,1,0,0:0:0:100:LR_Drum Crush Finish.wav
96,192,248636,1,0,0:0:0:25:LR_Drum Kick Low.wav
288,192,248636,1,0,0:0:0:100:LR_Drum Crush Finish.wav
480,192,248636,1,4,0:0:0:0:
160,192,248847,1,4,0:0:0:0:
288,192,248847,1,0,0:0:0:100:LR_Drum Crush Finish.wav
416,192,248847,1,0,0:0:0:25:LR_Drum Kick Low.wav
352,192,249057,1,0,0:0:0:100:LR_Drum Crush Finish.wav
288,192,249057,1,0,0:0:0:25:LR_Drum Kick Low.wav
224,192,249057,1,4,1:0:0:0:
32,192,249057,1,6,0:0:0:0:
416,192,249215,1,0,0:0:0:100:LR_Drum Rpd.wav
480,192,249373,1,0,0:0:0:45:LR_Drum Hit Clap Sn.wav
96,192,249373,1,0,0:0:0:55:LR_Drum Rpd Fast .wav
224,192,249531,1,0,0:0:0:100:LR_Drum Rpd.wav
96,192,249689,1,0,0:0:0:25:LR_Drum Kick Low.wav
352,192,249689,1,2,0:0:0:0:
160,192,249768,1,0,0:0:0:0:
224,192,249847,1,0,0:0:0:25:LR_Drum Kick Low.wav
416,192,249847,1,0,0:0:0:0:
288,192,249926,1,0,0:0:0:0:
352,192,250005,1,0,0:0:0:45:LR_Drum Hit Clap Sn.wav
480,192,250005,1,0,0:0:0:55:LR_Drum Rpd Fast .wav
96,192,250005,1,0,0:0:0:0:
160,192,250084,1,0,0:0:0:0:
224,192,250163,1,0,0:0:0:0:
352,192,250241,1,0,0:0:0:0:
416,192,250320,1,0,0:0:0:25:LR_Drum Kick Low.wav
160,192,250320,1,2,0:0:0:0:
224,192,250399,1,0,0:0:0:0:
352,192,250478,1,0,0:0:0:25:LR_Drum Kick Low.wav
96,192,250478,1,0,0:0:0:0:
416,192,250557,1,0,0:0:0:0:
480,192,250636,1,0,0:0:0:45:LR_Drum Hit Clap Sn.wav
160,192,250636,1,0,0:0:0:55:LR_Drum Rpd Fast .wav
288,192,250636,1,0,0:0:0:0:
96,192,250715,1,0,0:0:0:0:
224,192,250794,1,0,0:0:0:25:LR_Drum Kick Low.wav
416,192,250794,1,0,0:0:0:0:
352,192,250873,1,0,0:0:0:0:
480,192,250952,1,0,0:0:0:100:LR_Drum Rpd.wav
96,192,250952,1,2,0:0:0:0:
288,192,250952,1,0,0:0:0:0:
224,192,251110,1,0,0:0:0:25:LR_Drum Kick Low.wav
416,192,251110,1,0,0:0:0:0:
352,192,251189,1,0,0:0:0:0:
288,192,251268,1,0,0:0:0:45:LR_Drum Hit Clap Sn.wav
96,192,251268,1,0,0:0:0:55:LR_Drum Rpd Fast .wav
160,192,251268,1,0,0:0:0:0:
352,192,251347,1,0,0:0:0:0:
480,192,251426,1,0,0:0:0:100:LR_Drum Rpd.wav
416,192,251426,1,2,0:0:0:0:
224,192,251426,1,0,0:0:0:0:
288,192,251584,1,0,0:0:0:25:LR_Drum Kick Low.wav
416,192,251741,1,0,0:0:0:100:LR_Drum Rpd.wav
160,192,251741,1,2,0:0:0:0:
224,192,251741,1,0,0:0:0:0:
288,192,251899,1,0,0:0:0:45:LR_Drum Hit Clap Sn.wav
96,192,251899,1,0,0:0:0:55:LR_Drum Rpd Fast .wav
480,192,251899,1,0,0:0:0:0:
416,192,251978,1,0,0:0:0:0:
160,192,252057,1,0,0:0:0:25:LR_Drum Kick Low.wav
352,192,252057,1,0,0:0:0:0:
288,192,252136,1,0,0:0:0:0:
480,192,252215,1,0,0:0:0:100:LR_Drum Rpd.wav
224,192,252215,1,2,0:0:0:0:
416,192,252294,1,0,0:0:0:0:
352,192,252373,1,0,0:0:0:45:LR_Drum Hit Clap Sn.wav
160,192,252373,1,0,0:0:0:55:LR_Drum Rpd Fast .wav
96,192,252373,1,0,0:0:0:0:
288,192,252452,1,0,0:0:0:0:
224,192,252531,1,0,0:0:0:100:LR_Drum Rpd.wav
416,192,252610,1,0,0:0:0:0:
96,192,252689,1,0,0:0:0:25:LR_Drum Kick Low.wav
288,192,252689,1,2,0:0:0:0:
224,192,252768,1,0,0:0:0:0:
352,192,252847,1,0,0:0:0:45:LR_Drum Hit Clap Sn.wav
416,192,252847,1,0,0:0:0:25:LR_Drum Kick Low.wav
160,192,252847,1,2,0:0:0:0:
288,192,252926,1,0,0:0:0:0:
224,192,253005,1,0,0:0:0:0:
160,192,253084,1,0,0:0:0:0:
416,192,253163,1,2,0:0:0:0:
96,192,253163,1,0,0:0:0:55:LR_Drum Rpd Fast .wav
480,192,253163,1,0,0:0:0:25:LR_Drum Kick Low.wav
160,192,253241,1,0,0:0:0:0:
224,192,253320,1,0,0:0:0:0:
288,192,253399,1,0,0:0:0:0:
352,192,253478,1,0,0:0:0:100:LR_Drum Crush Finish.wav
96,192,253478,1,0,0:0:0:25:LR_Drum Kick Low.wav
224,192,253478,1,6,0:0:0:0:
160,192,253689,1,6,0:0:0:0:
288,192,253689,1,0,0:0:0:100:LR_Drum Crush Finish.wav
416,192,253689,1,0,0:0:0:25:LR_Drum Kick Low.wav
480,192,253899,1,0,0:0:0:100:LR_Drum Crush Finish.wav
352,192,253899,1,0,0:0:0:25:LR_Drum Kick Low.wav
224,192,253899,1,6,0:0:0:0:
288,192,254110,1,0,0:0:0:100:LR_Drum Crush Finish.wav
160,192,254110,1,0,0:0:0:25:LR_Drum Kick Low.wav
32,192,254110,1,6,0:0:0:0:
416,192,254110,1,4,1:0:0:0:
224,192,254268,1,0,0:0:0:100:LR_Drum Rpd.wav
352,192,254426,1,0,0:0:0:25:LR_Drum Kick Low.wav
224,192,254584,1,0,0:0:0:45:LR_Drum Hit Clap Sn.wav
288,192,254663,1,0,0:0:0:0:
352,192,254741,1,0,0:0:0:25:LR_Drum Kick Low.wav
96,192,254741,1,2,0:0:0:0:
160,192,254741,1,0,0:0:0:0:
480,192,254820,1,0,0:0:0:0:
224,192,254899,1,0,0:0:0:100:LR_Drum Rpd.wav
416,192,254899,1,0,0:0:0:0:
352,192,254978,1,0,0:0:0:0:
160,192,255057,1,0,0:0:0:45:LR_Drum Hit Clap Sn.wav
480,192,255057,1,0,0:0:0:25:LR_Drum Kick Low.wav
224,192,255136,1,0,0:0:0:0:
96,192,255215,1,0,0:0:0:45:LR_Drum Hit Clap Sn.wav
288,192,255215,1,0,0:0:0:55:LR_Drum Rpd Fast .wav
416,192,255215,1,0,0:0:0:0:
160,192,255294,1,0,0:0:0:0:
224,192,255373,1,0,0:0:0:25:LR_Drum Kick Low.wav
480,192,255373,1,2,0:0:0:0:
96,192,255452,1,0,0:0:0:0:
224,192,255531,1,0,0:0:0:100:LR_Drum Rpd.wav
352,192,255610,1,0,0:0:0:0:
480,192,255689,1,0,0:0:0:25:LR_Drum Kick Low.wav
160,192,255689,1,0,0:0:0:0:
416,192,255768,1,0,0:0:0:0:
224,192,255847,1,0,0:0:0:45:LR_Drum Hit Clap Sn.wav
96,192,255847,1,0,0:0:0:55:LR_Drum Rpd Fast .wav
352,192,255847,1,0,0:0:0:0:
160,192,255926,1,0,0:0:0:0:
416,192,256005,1,0,0:0:0:25:LR_Drum Kick Low.wav
288,192,256005,1,2,0:0:0:0:
224,192,256005,1,0,0:0:0:0:
480,192,256084,1,0,0:0:0:0:
160,192,256163,1,0,0:0:0:100:LR_Drum Rpd.wav
352,192,256163,1,0,0:0:0:0:
416,192,256241,1,0,0:0:0:0:
96,192,256320,1,0,0:0:0:25:LR_Drum Kick Low.wav
352,192,256320,1,0,0:0:0:0:
288,192,256399,1,0,0:0:0:0:
416,192,256478,1,0,0:0:0:100:LR_Drum Rpd.wav
224,192,256478,1,0,0:0:0:0:
160,192,256557,1,0,0:0:0:0:
96,192,256636,1,0,0:0:0:100:LR_Drum Crush Finish.wav
352,192,256636,1,0,0:0:0:25:LR_Drum Kick Low.wav
32,192,256636,1,4,0:0:0:0:
480,192,256636,1,2,0:0:0:0:
224,192,256794,1,0,0:0:0:0:
160,192,256952,1,0,0:0:0:45:LR_Drum Hit Clap Sn.wav
352,192,256952,1,0,0:0:0:25:LR_Drum Kick Low.wav
96,192,256952,1,0,0:0:0:0:
224,192,257031,1,0,0:0:0:25:LR_Drum Kick Low.wav
288,192,257110,1,0,0:0:0:100:LR_Drum Rpd.wav
416,192,257110,1,2,0:0:0:0:
480,192,257268,1,0,0:0:0:25:LR_Drum Kick Low.wav
352,192,257268,1,0,0:0:0:100:LR_Drum Rpd.wav
160,192,257268,1,0,0:0:0:0:
96,192,257426,1,0,0:0:0:25:LR_Drum Kick Low.wav
416,192,257426,1,2,0:0:0:0:
160,192,257505,1,0,0:0:0:0:
224,192,257584,1,0,0:0:0:100:LR_Drum Rpd.wav
480,192,257584,1,0,0:0:0:0:
288,192,257663,1,0,0:0:0:0:
352,192,257741,1,0,0:0:0:45:LR_Drum Hit Clap Sn.wav
160,192,257741,1,2,0:0:0:0:
416,192,257820,1,0,0:0:0:0:
480,192,257899,1,0,0:0:0:25:LR_Drum Kick Low.wav
96,192,257899,1,0,0:0:0:100:LR_Drum Rpd.wav
224,192,257899,1,2,0:0:0:0:
160,192,258110,1,0,0:0:0:0:
224,192,258163,1,0,0:0:0:0:
288,192,258215,1,0,0:0:0:0:
352,192,258268,1,0,0:0:0:0:
480,192,258320,1,2,0:0:0:0:
416,192,258320,1,0,0:0:0:0:
96,192,258531,1,0,0:0:0:0:
160,192,258584,1,0,0:0:0:0:
224,192,258636,1,0,0:0:0:0:
288,192,258689,1,0,0:0:0:0:
416,192,258741,1,2,0:0:0:0:
352,192,258741,1,0,0:0:0:0:
224,192,258952,1,0,0:0:0:0:
288,192,259005,1,0,0:0:0:0:
352,192,259057,1,0,0:0:0:0:
416,192,259110,1,0,0:0:0:0:
96,192,259163,1,0,0:0:0:100:LR_Drum Crush Finish.wav
480,192,259163,1,0,0:0:0:25:LR_Drum Kick Low.wav
224,192,259163,1,2,0:0:0:0:
32,192,259163,1,4,0:0:0:0:
160,192,259163,1,0,0:0:0:0:
160,192,260426,1,2,0:0:0:0:
416,192,260426,1,2,0:0:0:0:
480,192,260741,1,0,0:0:0:20:LR_Drum Kick Low.wav
352,192,260847,1,0,0:0:0:0:
224,192,260952,1,0,0:0:0:0:
416,192,261057,1,0,0:0:0:45:LR_Drum Barrel Hit.wav
96,192,261057,1,0,0:0:0:35:LR_Drum Hit Clap Sn.wav
288,192,261163,1,0,0:0:0:0:
160,192,261268,1,0,0:0:0:0:
352,192,261373,1,0,0:0:0:25:LR_HiHat SClick 2.wav
288,192,261478,1,0,0:0:0:0:
224,192,261584,1,0,0:0:0:0:
32,192,261689,1,0,0:0:0:0:
416,192,261689,1,0,0:0:0:25:LR_Drum Kick Low.wav
160,192,261689,1,4,0:0:0:0:
96,192,261689,1,0,0:0:0:90:LR_Drum Crush Finish.wav
352,192,261689,1,0,0:0:0:100:LR_Drum Rpd.wav
416,192,261847,1,0,0:0:0:90:LR_Drum Crush Finish.wav
96,192,261847,1,4,0:0:0:0:
160,192,261847,1,0,0:0:0:25:LR_Drum Kick Low.wav
352,192,261847,1,0,0:0:0:100:LR_Drum Rpd.wav
160,192,262163,1,0,0:0:0:90:LR_Drum Crush Finish.wav
96,192,262163,1,4,0:0:0:0:
416,192,262163,1,0,0:0:0:25:LR_Drum Kick Low.wav
352,192,262163,1,0,0:0:0:100:LR_Drum Rpd.wav
416,192,262320,1,0,0:0:0:25:LR_Drum Kick Low.wav
96,192,262320,1,4,0:0:0:0:
160,192,262320,1,0,0:0:0:90:LR_Drum Crush Finish.wav
352,192,262320,1,0,0:0:0:100:LR_Drum Rpd.wav
96,192,262636,1,0,0:0:0:25:LR_Drum Kick Low.wav
224,192,262636,1,4,0:0:0:0:
352,192,262636,1,0,0:0:0:90:LR_Drum Crush Finish.wav
480,192,262636,1,0,0:0:0:100:LR_Drum Rpd.wav
352,192,262794,1,0,0:0:0:90:LR_Drum Crush Finish.wav
224,192,262794,1,4,0:0:0:0:
96,192,262794,1,0,0:0:0:25:LR_Drum Kick Low.wav
480,192,262794,1,0,0:0:0:100:LR_Drum Rpd.wav
480,192,263110,1,0,0:0:0:90:LR_Drum Crush Finish.wav
352,192,263110,1,4,0:0:0:0:
224,192,263110,1,0,0:0:0:25:LR_Drum Kick Low.wav
96,192,263110,1,0,0:0:0:100:LR_Drum Rpd.wav
480,192,263268,1,0,0:0:0:25:LR_Drum Kick Low.wav
352,192,263268,1,4,0:0:0:0:
224,192,263268,1,0,0:0:0:90:LR_Drum Crush Finish.wav
96,192,263268,1,0,0:0:0:100:LR_Drum Rpd.wav
32,192,263584,1,0,0:0:0:30:LR_RevCyRDW.wav
160,192,263584,1,0,0:0:0:25:LR_Drum Kick Low.wav
224,192,263584,1,4,0:0:0:0:
416,192,263584,1,0,0:0:0:90:LR_Drum Crush Finish.wav
480,192,263584,1,0,0:0:0:100:LR_Drum Rpd.wav
160,192,263899,1,0,0:0:0:90:LR_Drum Crush Finish.wav
224,192,263899,1,4,0:0:0:0:
416,192,263899,1,0,0:0:0:25:LR_Drum Kick Low.wav
480,192,263899,1,0,0:0:0:100:LR_Drum Rpd.wav
480,192,264215,1,0,0:0:0:25:LR_Drum Kick Low.wav
32,192,264215,1,0,0:0:0:60:crash.wav
224,192,264215,1,4,1:0:0:0:
352,192,264215,1,0,0:0:0:100:LR_Drum Crush Finish.wav
288,192,264215,1,2,0:0:0:0:
96,192,264215,1,4,0:0:0:0:
416,192,264373,1,0,0:0:0:100:LR_Drum Rpd.wav
160,192,264531,1,0,0:0:0:45:LR_Drum Hit Clap Sn.wav
352,192,264531,1,0,0:0:0:55:LR_Drum Rpd Fast .wav
224,192,264689,1,0,0:0:0:100:LR_Drum Rpd.wav
480,192,264847,1,0,0:0:0:25:LR_Drum Kick Low.wav
288,192,264847,1,2,0:0:0:0:
96,192,265005,1,0,0:0:0:25:LR_Drum Kick Low.wav
160,192,265084,1,0,0:0:0:0:
224,192,265163,1,0,0:0:0:45:LR_Drum Hit Clap Sn.wav
416,192,265163,1,0,0:0:0:55:LR_Drum Rpd Fast .wav
480,192,265241,1,0,0:0:0:0:
352,192,265320,1,0,0:0:0:45:LR_Drum Hit Clap Sn.wav
160,192,265320,1,0,0:0:0:0:
96,192,265320,1,0,0:0:0:0:
288,192,265478,1,2,0:0:0:0:
480,192,265478,1,0,0:0:0:25:LR_Drum Kick Low.wav
352,192,265636,1,0,0:0:0:25:LR_Drum Kick Low.wav
224,192,265794,1,0,0:0:0:55:LR_Drum Rpd Fast .wav
416,192,265794,1,0,0:0:0:45:LR_Drum Hit Clap Sn.wav
288,192,265952,1,0,0:0:0:25:LR_Drum Kick Low.wav
352,192,266110,1,2,0:0:0:0:
160,192,266110,1,0,0:0:0:100:LR_Drum Rpd.wav
480,192,266110,1,0,0:0:0:0:
224,192,266268,1,0,0:0:0:25:LR_Drum Kick Low.wav
288,192,266426,1,0,0:0:0:45:LR_Drum Hit Clap Sn.wav
96,192,266426,1,0,0:0:0:55:LR_Drum Rpd Fast .wav
416,192,266426,1,0,0:0:0:0:
160,192,266505,1,0,0:0:0:0:
224,192,266584,1,0,0:0:0:100:LR_Drum Rpd.wav
352,192,266663,1,0,0:0:0:0:
480,192,266741,1,2,0:0:0:0:
96,192,266741,1,0,0:0:0:25:LR_Drum Kick Low.wav
32,192,266741,1,4,0:0:0:0:
288,192,266741,1,0,0:0:0:0:
160,192,266820,1,0,0:0:0:0:
224,192,266899,1,0,0:0:0:100:LR_Drum Rpd.wav
352,192,266899,1,0,0:0:0:0:
416,192,266978,1,0,0:0:0:0:
480,192,267057,1,0,0:0:0:45:LR_Drum Hit Clap Sn.wav
96,192,267057,1,0,0:0:0:55:LR_Drum Rpd Fast .wav
160,192,267136,1,0,0:0:0:0:
32,192,267215,1,4,0:0:0:0:
224,192,267215,1,0,0:0:0:25:LR_Drum Kick Low.wav
352,192,267215,1,0,0:0:0:0:
288,192,267215,1,0,0:0:0:0:
480,192,267373,1,0,0:0:0:100:LR_Drum Rpd.wav
160,192,267373,1,2,0:0:0:0:
224,192,267452,1,0,0:0:0:0:
288,192,267531,1,0,0:0:0:45:LR_Drum Hit Clap Sn.wav
96,192,267531,1,0,0:0:0:55:LR_Drum Rpd Fast .wav
352,192,267610,1,0,0:0:0:0:
288,192,267689,1,0,0:0:0:100:LR_Drum Rpd.wav
160,192,267689,1,0,0:0:0:0:
352,192,267768,1,0,0:0:0:0:
416,192,267847,1,0,0:0:0:25:LR_Drum Kick Low.wav
224,192,267847,1,0,0:0:0:100:LR_Drum Rpd.wav
480,192,267847,1,0,0:0:0:0:
32,192,267847,1,4,0:0:0:0:
160,192,268005,1,2,0:0:0:0:
288,192,268005,1,0,0:0:0:100:LR_Drum Rpd.wav
416,192,268163,1,0,0:0:0:25:LR_Drum Kick Low.wav
352,192,268241,1,0,0:0:0:0:
96,192,268320,1,0,0:0:0:45:LR_Drum Hit Clap Sn.wav
224,192,268320,1,0,0:0:0:55:LR_Drum Rpd Fast .wav
32,192,268320,1,4,0:0:0:0:
288,192,268320,1,0,0:0:0:0:
416,192,268478,1,0,0:0:0:100:LR_Drum Rpd.wav
160,192,268636,1,0,0:0:0:25:LR_Drum Kick Low.wav
480,192,268636,1,2,0:0:0:0:
352,192,268636,1,0,0:0:0:0:
288,192,268794,1,0,0:0:0:25:LR_Drum Kick Low.wav
416,192,268794,1,0,0:0:0:0:
352,192,268952,1,0,0:0:0:55:LR_Drum Rpd Fast .wav
96,192,268952,1,0,0:0:0:0:
224,192,268952,1,0,0:0:0:0:
160,192,269110,1,0,0:0:0:55:LR_Drum Rpd Fast .wav
288,192,269110,1,0,0:0:0:0:
416,192,269110,1,0,0:0:0:0:
32,192,269268,1,2,0:0:0:0:
480,192,269268,1,4,0:0:0:0:
352,192,269268,1,0,0:0:0:25:LR_Drum Kick Low.wav
224,192,269268,1,0,0:0:0:0:
160,192,269426,1,0,0:0:0:100:LR_Drum Rpd.wav
96,192,269584,1,0,0:0:0:55:LR_Drum Rpd Fast .wav
288,192,269584,1,0,0:0:0:45:LR_Drum Hit Clap Sn.wav
352,192,269741,1,0,0:0:0:100:LR_Drum Rpd.wav
224,192,269899,1,2,0:0:0:0:
416,192,269899,1,0,0:0:0:25:LR_Drum Kick Low.wav
352,192,269978,1,0,0:0:0:0:
288,192,270057,1,0,0:0:0:25:LR_Drum Kick Low.wav
160,192,270057,1,0,0:0:0:0:
416,192,270136,1,0,0:0:0:0:
224,192,270215,1,0,0:0:0:45:LR_Drum Hit Clap Sn.wav
96,192,270215,1,0,0:0:0:55:LR_Drum Rpd Fast .wav
288,192,270294,1,0,0:0:0:0:
352,192,270373,1,0,0:0:0:25:LR_Drum Kick Low.wav
480,192,270373,1,0,0:0:0:0:
160,192,270373,1,0,0:0:0:0:
416,192,270531,1,0,0:0:0:100:LR_Drum Rpd.wav
224,192,270531,1,2,0:0:0:0:
288,192,270689,1,0,0:0:0:25:LR_Drum Kick Low.wav
96,192,270847,1,0,0:0:0:45:LR_Drum Hit Clap Sn.wav
480,192,270847,1,0,0:0:0:55:LR_Drum Rpd Fast .wav
288,192,270926,1,0,0:0:0:0:
352,192,271005,1,0,0:0:0:45:LR_Drum Hit Clap Sn.wav
224,192,271005,1,0,0:0:0:0:
416,192,271084,1,0,0:0:0:0:
160,192,271084,1,0,0:0:0:0:
480,192,271163,1,2,0:0:0:0:
288,192,271163,1,0,0:0:0:25:LR_Drum Kick Low.wav
96,192,271163,1,0,0:0:0:0:
160,192,271320,1,0,0:0:0:25:LR_Drum Kick Low.wav
352,192,271478,1,0,0:0:0:55:LR_Drum Rpd Fast .wav
480,192,271478,1,0,0:0:0:45:LR_Drum Hit Clap Sn.wav
224,192,271636,1,0,0:0:0:100:LR_Drum Rpd.wav
160,192,271794,1,0,0:0:0:25:LR_Drum Kick Low.wav
416,192,271794,1,2,0:0:0:0:
32,192,271794,1,4,0:0:0:0:
288,192,271794,1,0,0:0:0:0:
96,192,271952,1,0,0:0:0:100:LR_Drum Rpd.wav
224,192,271952,1,0,0:0:0:0:
160,192,272110,1,0,0:0:0:55:LR_Drum Rpd Fast .wav
288,192,272110,1,0,0:0:0:45:LR_Drum Hit Clap Sn.wav
480,192,272110,1,0,0:0:0:0:
224,192,272268,1,0,0:0:0:25:LR_Drum Kick Low.wav
352,192,272268,1,0,0:0:0:0:
96,192,272426,1,0,0:0:0:100:LR_Drum Rpd.wav
416,192,272426,1,2,0:0:0:0:
224,192,272505,1,0,0:0:0:0:
352,192,272584,1,0,0:0:0:45:LR_Drum Hit Clap Sn.wav
480,192,272584,1,0,0:0:0:55:LR_Drum Rpd Fast .wav
160,192,272663,1,0,0:0:0:0:
288,192,272741,1,0,0:0:0:100:LR_Drum Rpd.wav
96,192,272741,1,0,0:0:0:0:
416,192,272820,1,0,0:0:0:0:
480,192,272899,1,0,0:0:0:25:LR_Drum Kick Low.wav
352,192,272899,1,0,0:0:0:100:LR_Drum Rpd.wav
160,192,272899,1,0,0:0:0:0:
288,192,273057,1,2,0:0:0:0:
224,192,273215,1,0,0:0:0:25:LR_Drum Kick Low.wav
96,192,273215,1,0,0:0:0:0:
352,192,273215,1,0,0:0:0:0:
160,192,273373,1,0,0:0:0:45:LR_Drum Hit Clap Sn.wav
416,192,273373,1,0,0:0:0:55:LR_Drum Rpd Fast .wav
352,192,273531,1,0,0:0:0:100:LR_Drum Rpd.wav
224,192,273531,1,0,0:0:0:0:
480,192,273689,1,0,0:0:0:25:LR_Drum Kick Low.wav
288,192,273689,1,2,0:0:0:0:
96,192,273689,1,0,0:0:0:0:
352,192,273847,1,0,0:0:0:25:LR_Drum Kick Low.wav
224,192,273847,1,0,0:0:0:0:
416,192,274005,1,0,0:0:0:100:LR_Drum Rpd.wav
288,192,274005,1,2,0:0:0:0:
160,192,274005,1,0,0:0:0:0:
96,192,274163,1,0,0:0:0:45:LR_Drum Hit Clap Sn.wav
224,192,274163,1,0,0:0:0:0:
352,192,274163,1,0,0:0:0:0:
480,192,274320,1,2,0:0:0:0:
32,192,274320,1,4,0:0:0:0:
288,192,274320,1,0,0:0:0:25:LR_Drum Kick Low.wav
160,192,274320,1,0,0:0:0:0:
352,192,274478,1,0,0:0:0:100:LR_Drum Rpd.wav
224,192,274636,1,0,0:0:0:55:LR_Drum Rpd Fast .wav
416,192,274636,1,0,0:0:0:45:LR_Drum Hit Clap Sn.wav
96,192,274636,1,0,0:0:0:0:
288,192,274794,1,0,0:0:0:100:LR_Drum Rpd.wav
224,192,274873,1,0,0:0:0:0:
96,192,274952,1,0,0:0:0:25:LR_Drum Kick Low.wav
416,192,274952,1,2,0:0:0:0:
352,192,274952,1,0,0:0:0:0:
160,192,275031,1,0,0:0:0:0:
480,192,275110,1,0,0:0:0:25:LR_Drum Kick Low.wav
288,192,275110,1,0,0:0:0:0:
352,192,275189,1,0,0:0:0:0:
224,192,275268,1,0,0:0:0:55:LR_Drum Rpd Fast .wav
96,192,275268,1,0,0:0:0:45:LR_Drum Hit Clap Sn.wav
288,192,275347,1,0,0:0:0:0:
480,192,275426,1,0,0:0:0:100:LR_Drum Rpd.wav
416,192,275426,1,0,0:0:0:0:
160,192,275426,1,0,0:0:0:0:
352,192,275584,1,0,0:0:0:25:LR_Drum Kick Low.wav
224,192,275584,1,2,0:0:0:0:
160,192,275741,1,0,0:0:0:25:LR_Drum Kick Low.wav
288,192,275741,1,0,0:0:0:0:
96,192,275899,1,0,0:0:0:0:
480,192,275899,1,0,0:0:0:55:LR_Drum Rpd Fast .wav
352,192,275899,1,0,0:0:0:45:LR_Drum Hit Clap Sn.wav
224,192,276057,1,0,0:0:0:25:LR_Drum Kick Low.wav
416,192,276057,1,0,0:0:0:0:
288,192,276215,1,2,0:0:0:0:
96,192,276215,1,0,0:0:0:100:LR_Drum Rpd.wav
480,192,276215,1,0,0:0:0:0:
160,192,276452,1,0,0:0:0:100:LR_Drum Rpd.wav
224,192,276452,1,2,0:0:0:0:
416,192,276452,1,0,0:0:0:0:
480,192,276689,1,0,0:0:0:100:LR_Drum Rpd.wav
96,192,276689,1,2,0:0:0:0:
352,192,276689,1,0,0:0:0:0:
288,192,276847,1,0,0:0:0:25:LR_Drum Kick Low.wav
160,192,276847,1,2,0:0:0:0:
32,192,276847,1,4,0:0:0:0:
416,192,276847,1,0,0:0:0:0:
224,192,277005,1,0,0:0:0:100:LR_Drum Rpd.wav
480,192,277163,1,0,0:0:0:55:LR_Drum Rpd Fast .wav
288,192,277163,1,0,0:0:0:45:LR_Drum Hit Clap Sn.wav
416,192,277320,1,0,0:0:0:25:LR_Drum Kick Low.wav
96,192,277478,1,0,0:0:0:100:LR_Drum Rpd.wav
352,192,277478,1,2,0:0:0:0:
160,192,277557,1,0,0:0:0:0:
224,192,277636,1,0,0:0:0:55:LR_Drum Rpd Fast .wav
480,192,277636,1,0,0:0:0:45:LR_Drum Hit Clap Sn.wav
96,192,277794,1,0,0:0:0:100:LR_Drum Rpd.wav
352,192,277794,1,0,0:0:0:0:
416,192,277873,1,0,0:0:0:0:
160,192,277952,1,0,0:0:0:25:LR_Drum Kick Low.wav
32,192,277952,1,4,0:0:0:0:
480,192,277952,1,0,0:0:0:0:
224,192,277952,1,0,0:0:0:0:
288,192,278110,1,2,0:0:0:0:
416,192,278268,1,0,0:0:0:25:LR_Drum Kick Low.wav
32,192,278268,1,4,0:0:0:0:
96,192,278268,1,0,0:0:0:0:
352,192,278268,1,0,0:0:0:0:
480,192,278426,1,0,0:0:0:45:LR_Drum Hit Clap Sn.wav
224,192,278426,1,0,0:0:0:0:
416,192,278505,1,0,0:0:0:0:
288,192,278584,1,0,0:0:0:100:LR_Drum Rpd.wav
96,192,278584,1,0,0:0:0:0:
224,192,278663,1,0,0:0:0:0:
352,192,278741,1,0,0:0:0:25:LR_Drum Kick Low.wav
160,192,278741,1,2,0:0:0:0:
480,192,278820,1,0,0:0:0:0:
288,192,278899,1,0,0:0:0:25:LR_Drum Kick Low.wav
96,192,278899,1,0,0:0:0:0:
416,192,278978,1,0,0:0:0:0:
352,192,279057,1,0,0:0:0:55:LR_Drum Rpd Fast .wav
160,192,279057,1,0,0:0:0:45:LR_Drum Hit Clap Sn.wav
288,192,279136,1,0,0:0:0:0:
224,192,279215,1,0,0:0:0:45:LR_Drum Hit Clap Sn.wav
480,192,279215,1,0,0:0:0:55:LR_Drum Rpd Fast .wav
160,192,279294,1,0,0:0:0:0:
32,192,279373,1,4,0:0:0:0:
96,192,279373,1,2,0:0:0:0:
416,192,279373,1,0,0:0:0:25:LR_Drum Kick Low.wav
352,192,279373,1,0,0:0:0:0:
160,192,279452,1,0,0:0:0:0:
224,192,279531,1,0,0:0:0:100:LR_Drum Rpd.wav
480,192,279531,1,0,0:0:0:0:
416,192,279689,1,0,0:0:0:55:LR_Drum Rpd Fast .wav
160,192,279689,1,0,0:0:0:45:LR_Drum Hit Clap Sn.wav
96,192,279847,1,2,0:0:0:0:
352,192,279847,1,0,0:0:0:100:LR_Drum Rpd.wav
160,192,280005,1,0,0:0:0:25:LR_Drum Kick Low.wav
480,192,280005,1,0,0:0:0:0:
224,192,280084,1,0,0:0:0:0:
416,192,280163,1,0,0:0:0:25:LR_Drum Kick Low.wav
288,192,280163,1,0,0:0:0:0:
352,192,280241,1,0,0:0:0:0:
96,192,280320,1,2,0:0:0:0:
160,192,280320,1,0,0:0:0:55:LR_Drum Rpd Fast .wav
224,192,280399,1,0,0:0:0:0:
480,192,280478,1,0,0:0:0:25:LR_Drum Kick Low.wav
416,192,280478,1,0,0:0:0:0:
288,192,280478,1,0,0:0:0:0:
96,192,280636,1,0,0:0:0:100:LR_Drum Rpd.wav
352,192,280636,1,2,0:0:0:0:
160,192,280794,1,0,0:0:0:25:LR_Drum Kick Low.wav
288,192,280913,1,0,0:0:0:0:
416,192,280952,1,0,0:0:0:55:LR_Drum Rpd Fast .wav
352,192,280952,1,0,0:0:0:45:LR_Drum Hit Clap Sn.wav
160,192,281110,1,0,0:0:0:100:LR_Drum Rpd.wav
480,192,281268,1,0,0:0:0:25:LR_Drum Kick Low.wav
416,192,281268,1,2,0:0:0:0:
224,192,281268,1,0,0:0:0:0:
288,192,281426,1,0,0:0:0:25:LR_Drum Kick Low.wav
96,192,281426,1,0,0:0:0:0:
352,192,281426,1,0,0:0:0:0:
224,192,281584,1,0,0:0:0:45:LR_Drum Hit Clap Sn.wav
160,192,281584,1,0,0:0:0:55:LR_Drum Rpd Fast .wav
416,192,281584,1,2,0:0:0:0:
96,192,281741,1,0,0:0:0:100:LR_Drum Rpd.wav
352,192,281741,1,0,0:0:0:0:
288,192,281741,1,0,0:0:0:0:
480,192,281899,1,2,0:0:0:0:
32,192,281899,1,4,0:0:0:0:
416,192,281899,1,0,0:0:0:25:LR_Drum Kick Low.wav
224,192,281899,1,0,0:0:0:0:
160,192,282057,1,0,0:0:0:100:LR_Drum Rpd.wav
96,192,282215,1,0,0:0:0:55:LR_Drum Rpd Fast .wav
288,192,282215,1,0,0:0:0:45:LR_Drum Hit Clap Sn.wav
480,192,282373,1,0,0:0:0:25:LR_Drum Kick Low.wav
352,192,282452,1,0,0:0:0:0:
416,192,282531,1,2,0:0:0:0:
32,192,282531,1,4,0:0:0:0:
96,192,282531,1,0,0:0:0:100:LR_Drum Rpd.wav
224,192,282531,1,0,0:0:0:0:
288,192,282610,1,0,0:0:0:0:
160,192,282689,1,0,0:0:0:45:LR_Drum Hit Clap Sn.wav
352,192,282689,1,0,0:0:0:55:LR_Drum Rpd Fast .wav
416,192,282768,1,0,0:0:0:0:
224,192,282847,1,0,0:0:0:100:LR_Drum Rpd.wav
96,192,282847,1,0,0:0:0:0:
288,192,282926,1,0,0:0:0:0:
352,192,283005,1,0,0:0:0:25:LR_Drum Kick Low.wav
160,192,283005,1,0,0:0:0:0:
416,192,283084,1,0,0:0:0:0:
480,192,283163,1,0,0:0:0:100:LR_Drum Rpd.wav
32,192,283163,1,4,0:0:0:0:
96,192,283163,1,2,0:0:0:0:
224,192,283163,1,0,0:0:0:0:
416,192,283241,1,0,0:0:0:0:
352,192,283320,1,0,0:0:0:25:LR_Drum Kick Low.wav
160,192,283320,1,0,0:0:0:0:
288,192,283399,1,0,0:0:0:0:
224,192,283478,1,2,0:0:0:0:
416,192,283478,1,0,0:0:0:55:LR_Drum Rpd Fast .wav
32,192,283478,1,4,0:0:0:0:
480,192,283478,1,0,0:0:0:0:
288,192,283557,1,0,0:0:0:0:
352,192,283636,1,0,0:0:0:100:LR_Drum Rpd.wav
160,192,283636,1,0,0:0:0:0:
224,192,283715,1,0,0:0:0:45:LR_Drum Hit Clap Sn.wav
416,192,283715,1,0,0:0:0:0:
288,192,283794,1,0,0:0:0:25:LR_Drum Kick Low.wav
480,192,283794,1,0,0:0:0:45:LR_Drum Hit Clap Sn.wav
224,192,283873,1,0,0:0:0:100:LR_Drum Rpd.wav
416,192,283873,1,0,0:0:0:45:LR_Drum Hit Clap Sn.wav
160,192,283952,1,0,0:0:0:45:LR_Drum Hit Clap Sn.wav
352,192,283952,1,0,0:0:0:25:LR_Drum Kick Low.wav
96,192,284031,1,0,0:0:0:45:LR_Drum Hit Clap Sn.wav
288,192,284031,1,0,0:0:0:100:LR_Drum Rpd.wav
224,192,284110,1,0,0:0:0:100:LR_Drum Rpd.wav
480,192,284110,1,0,0:0:0:45:LR_Drum Hit Clap Sn.wav
416,192,284215,1,0,0:0:0:100:LR_Drum Rpd.wav
160,192,284215,1,0,0:0:0:45:LR_Drum Hit Clap Sn.wav
352,192,284320,1,0,0:0:0:100:LR_Drum Rpd.wav
96,192,284320,1,0,0:0:0:45:LR_Drum Hit Clap Sn.wav
288,192,284426,1,0,0:0:0:25:LR_Drum Kick Low.wav
224,192,284426,1,0,0:0:0:100:LR_Drum Rpd.wav
32,192,284426,1,0,0:0:0:60:crash.wav
416,192,284426,1,2,0:0:0:0:
480,192,284426,1,4,1:0:0:0:
160,192,284426,1,4,0:0:0:0:
352,192,284584,1,0,0:0:0:100:LR_Drum Rpd.wav
160,192,284741,1,0,0:0:0:45:LR_Drum Hit Clap Sn.wav
224,192,284741,1,0,0:0:0:55:LR_Drum Rpd Fast .wav
416,192,284899,1,0,0:0:0:100:LR_Drum Rpd.wav
352,192,284978,1,0,0:0:0:45:LR_Drum Hit Clap Sn.wav
288,192,285057,1,0,0:0:0:25:LR_Drum Kick Low.wav
96,192,285057,1,2,0:0:0:0:
480,192,285057,1,0,0:0:0:0:
224,192,285136,1,0,0:0:0:45:LR_Drum Hit Clap Sn.wav
160,192,285215,1,0,0:0:0:25:LR_Drum Kick Low.wav
224,192,285373,1,0,0:0:0:45:LR_Drum Hit Clap Sn.wav
416,192,285373,1,0,0:0:0:55:LR_Drum Rpd Fast .wav
352,192,285452,1,0,0:0:0:0:
288,192,285531,1,0,0:0:0:45:LR_Drum Hit Clap Sn.wav
96,192,285531,1,0,0:0:0:0:
160,192,285531,1,0,0:0:0:0:
224,192,285689,1,0,0:0:0:25:LR_Drum Kick Low.wav
416,192,285689,1,2,0:0:0:0:
480,192,285689,1,0,0:0:0:0:
288,192,285847,1,0,0:0:0:25:LR_Drum Kick Low.wav
352,192,286005,1,0,0:0:0:45:LR_Drum Hit Clap Sn.wav
160,192,286005,1,0,0:0:0:55:LR_Drum Rpd Fast .wav
288,192,286163,1,0,0:0:0:25:LR_Drum Kick Low.wav
224,192,286241,1,0,0:0:0:45:LR_Drum Hit Clap Sn.wav
160,192,286320,1,0,0:0:0:100:LR_Drum Rpd.wav
480,192,286320,1,2,0:0:0:0:
96,192,286320,1,0,0:0:0:0:
352,192,286399,1,0,0:0:0:45:LR_Drum Hit Clap Sn.wav
224,192,286478,1,0,0:0:0:25:LR_Drum Kick Low.wav
416,192,286636,1,0,0:0:0:45:LR_Drum Hit Clap Sn.wav
96,192,286636,1,0,0:0:0:55:LR_Drum Rpd Fast .wav
480,192,286636,1,0,0:0:0:0:
160,192,286794,1,0,0:0:0:100:LR_Drum Rpd.wav
352,192,286794,1,0,0:0:0:0:
224,192,286873,1,0,0:0:0:45:LR_Drum Hit Clap Sn.wav
416,192,286873,1,0,0:0:0:0:
288,192,286952,1,0,0:0:0:25:LR_Drum Kick Low.wav
32,192,286952,1,4,0:0:0:0:
480,192,286952,1,2,0:0:0:0:
96,192,286952,1,0,0:0:0:0:
224,192,287031,1,0,0:0:0:45:LR_Drum Hit Clap Sn.wav
416,192,287110,1,0,0:0:0:100:LR_Drum Rpd.wav
160,192,287110,1,0,0:0:0:0:
480,192,287189,1,0,0:0:0:0:
96,192,287268,1,0,0:0:0:45:LR_Drum Hit Clap Sn.wav
352,192,287268,1,0,0:0:0:55:LR_Drum Rpd Fast .wav
160,192,287347,1,0,0:0:0:0:
480,192,287426,1,0,0:0:0:25:LR_Drum Kick Low.wav
32,192,287426,1,4,0:0:0:0:
224,192,287426,1,0,0:0:0:0:
288,192,287426,1,0,0:0:0:0:
416,192,287505,1,0,0:0:0:45:LR_Drum Hit Clap Sn.wav
352,192,287584,1,0,0:0:0:100:LR_Drum Rpd.wav
160,192,287584,1,2,0:0:0:0:
224,192,287663,1,0,0:0:0:45:LR_Drum Hit Clap Sn.wav
96,192,287741,1,0,0:0:0:45:LR_Drum Hit Clap Sn.wav
480,192,287741,1,0,0:0:0:55:LR_Drum Rpd Fast .wav
288,192,287741,1,0,0:0:0:0:
352,192,287820,1,0,0:0:0:0:
416,192,287899,1,0,0:0:0:100:LR_Drum Rpd.wav
160,192,287899,1,0,0:0:0:0:
224,192,287978,1,0,0:0:0:45:LR_Drum Hit Clap Sn.wav
480,192,288057,1,0,0:0:0:25:LR_Drum Kick Low.wav
288,192,288057,1,0,0:0:0:100:LR_Drum Rpd.wav
32,192,288057,1,4,0:0:0:0:
96,192,288057,1,0,0:0:0:0:
160,192,288215,1,0,0:0:0:100:LR_Drum Rpd.wav
416,192,288215,1,2,0:0:0:0:
480,192,288373,1,0,0:0:0:25:LR_Drum Kick Low.wav
224,192,288373,1,0,0:0:0:0:
416,192,288452,1,0,0:0:0:0:
160,192,288452,1,0,0:0:0:0:
96,192,288531,1,0,0:0:0:45:LR_Drum Hit Clap Sn.wav
352,192,288531,1,0,0:0:0:55:LR_Drum Rpd Fast .wav
32,192,288531,1,4,0:0:0:0:
288,192,288531,1,0,0:0:0:0:
160,192,288689,1,0,0:0:0:100:LR_Drum Rpd.wav
96,192,288847,1,0,0:0:0:25:LR_Drum Kick Low.wav
480,192,288847,1,2,0:0:0:0:
352,192,288847,1,0,0:0:0:0:
416,192,289005,1,0,0:0:0:25:LR_Drum Kick Low.wav
288,192,289005,1,0,0:0:0:0:
160,192,289005,1,0,0:0:0:0:
96,192,289163,1,0,0:0:0:55:LR_Drum Rpd Fast .wav
224,192,289163,1,0,0:0:0:0:
480,192,289163,1,0,0:0:0:0:
160,192,289320,1,0,0:0:0:55:LR_Drum Rpd Fast .wav
416,192,289320,1,0,0:0:0:0:
288,192,289320,1,0,0:0:0:0:
352,192,289478,1,2,0:0:0:0:
480,192,289478,1,0,0:0:0:0:
96,192,289478,1,0,0:0:0:25:LR_Drum Kick Low.wav
32,192,289478,1,4,0:0:0:0:
288,192,289636,1,0,0:0:0:100:LR_Drum Rpd.wav
416,192,289794,1,0,0:0:0:45:LR_Drum Hit Clap Sn.wav
160,192,289794,1,0,0:0:0:55:LR_Drum Rpd Fast .wav
352,192,289952,1,0,0:0:0:100:LR_Drum Rpd.wav
288,192,290031,1,0,0:0:0:45:LR_Drum Hit Clap Sn.wav
96,192,290110,1,0,0:0:0:25:LR_Drum Kick Low.wav
224,192,290110,1,2,0:0:0:0:
480,192,290110,1,0,0:0:0:0:
288,192,290189,1,0,0:0:0:45:LR_Drum Hit Clap Sn.wav
160,192,290268,1,0,0:0:0:25:LR_Drum Kick Low.wav
352,192,290268,1,0,0:0:0:0:
224,192,290347,1,0,0:0:0:0:
288,192,290426,1,0,0:0:0:45:LR_Drum Hit Clap Sn.wav
480,192,290426,1,0,0:0:0:55:LR_Drum Rpd Fast .wav
96,192,290426,1,0,0:0:0:0:
352,192,290505,1,0,0:0:0:45:LR_Drum Hit Clap Sn.wav
416,192,290584,1,0,0:0:0:25:LR_Drum Kick Low.wav
160,192,290584,1,0,0:0:0:0:
224,192,290584,1,0,0:0:0:0:
480,192,290741,1,0,0:0:0:100:LR_Drum Rpd.wav
288,192,290741,1,2,0:0:0:0:
96,192,290741,1,0,0:0:0:0:
224,192,290899,1,0,0:0:0:25:LR_Drum Kick Low.wav
352,192,291057,1,0,0:0:0:45:LR_Drum Hit Clap Sn.wav
160,192,291057,1,0,0:0:0:55:LR_Drum Rpd Fast .wav
288,192,291136,1,0,0:0:0:45:LR_Drum Hit Clap Sn.wav
96,192,291136,1,0,0:0:0:0:
352,192,291215,1,0,0:0:0:45:LR_Drum Hit Clap Sn.wav
160,192,291215,1,0,0:0:0:0:
416,192,291294,1,0,0:0:0:45:LR_Drum Hit Clap Sn.wav
224,192,291294,1,0,0:0:0:0:
480,192,291373,1,0,0:0:0:25:LR_Drum Kick Low.wav
288,192,291373,1,2,0:0:0:0:
96,192,291373,1,0,0:0:0:0:
224,192,291531,1,0,0:0:0:25:LR_Drum Kick Low.wav
416,192,291689,1,0,0:0:0:45:LR_Drum Hit Clap Sn.wav
160,192,291689,1,0,0:0:0:55:LR_Drum Rpd Fast .wav
352,192,291847,1,0,0:0:0:100:LR_Drum Rpd.wav
96,192,292005,1,0,0:0:0:25:LR_Drum Kick Low.wav
32,192,292005,1,4,0:0:0:0:
288,192,292005,1,2,0:0:0:0:
480,192,292005,1,0,0:0:0:0:
352,192,292163,1,0,0:0:0:100:LR_Drum Rpd.wav
160,192,292163,1,0,0:0:0:0:
224,192,292320,1,0,0:0:0:45:LR_Drum Hit Clap Sn.wav
416,192,292320,1,0,0:0:0:55:LR_Drum Rpd Fast .wav
96,192,292320,1,0,0:0:0:0:
288,192,292478,1,0,0:0:0:25:LR_Drum Kick Low.wav
480,192,292478,1,0,0:0:0:0:
160,192,292636,1,0,0:0:0:100:LR_Drum Rpd.wav
224,192,292636,1,2,0:0:0:0:
352,192,292636,1,0,0:0:0:0:
416,192,292715,1,0,0:0:0:45:LR_Drum Hit Clap Sn.wav
288,192,292794,1,0,0:0:0:45:LR_Drum Hit Clap Sn.wav
480,192,292794,1,0,0:0:0:55:LR_Drum Rpd Fast .wav
224,192,292873,1,0,0:0:0:0:
160,192,292952,1,0,0:0:0:100:LR_Drum Rpd.wav
352,192,292952,1,0,0:0:0:0:
416,192,293031,1,0,0:0:0:45:LR_Drum Hit Clap Sn.wav
480,192,293110,1,0,0:0:0:25:LR_Drum Kick Low.wav
96,192,293110,1,0,0:0:0:100:LR_Drum Rpd.wav
288,192,293110,1,0,0:0:0:0:
224,192,293268,1,2,0:0:0:0:
160,192,293426,1,0,0:0:0:25:LR_Drum Kick Low.wav
416,192,293426,1,0,0:0:0:0:
352,192,293426,1,0,0:0:0:0:
480,192,293584,1,0,0:0:0:45:LR_Drum Hit Clap Sn.wav
96,192,293584,1,0,0:0:0:55:LR_Drum Rpd Fast .wav
224,192,293741,1,0,0:0:0:100:LR_Drum Rpd.wav
352,192,293741,1,0,0:0:0:0:
288,192,293899,1,0,0:0:0:25:LR_Drum Kick Low.wav
480,192,293899,1,2,0:0:0:0:
96,192,293899,1,0,0:0:0:0:
352,192,294057,1,0,0:0:0:25:LR_Drum Kick Low.wav
224,192,294057,1,0,0:0:0:0:
416,192,294057,1,0,0:0:0:0:
288,192,294215,1,0,0:0:0:100:LR_Drum Rpd.wav
480,192,294215,1,2,0:0:0:0:
96,192,294215,1,0,0:0:0:0:
224,192,294373,1,0,0:0:0:45:LR_Drum Hit Clap Sn.wav
352,192,294373,1,0,0:0:0:0:
160,192,294373,1,0,0:0:0:0:
288,192,294531,1,0,0:0:0:25:LR_Drum Kick Low.wav
480,192,294531,1,2,0:0:0:0:
32,192,294531,1,4,0:0:0:0:
96,192,294531,1,0,0:0:0:0:
224,192,294689,1,0,0:0:0:100:LR_Drum Rpd.wav
416,192,294847,1,0,0:0:0:45:LR_Drum Hit Clap Sn.wav
160,192,294847,1,0,0:0:0:55:LR_Drum Rpd Fast .wav
352,192,294847,1,0,0:0:0:0:
480,192,294926,1,0,0:0:0:0:
96,192,295005,1,0,0:0:0:100:LR_Drum Rpd.wav
288,192,295005,1,0,0:0:0:0:
224,192,295084,1,0,0:0:0:45:LR_Drum Hit Clap Sn.wav
160,192,295163,1,0,0:0:0:25:LR_Drum Kick Low.wav
416,192,295163,1,2,0:0:0:0:
480,192,295163,1,0,0:0:0:0:
224,192,295241,1,0,0:0:0:45:LR_Drum Hit Clap Sn.wav
288,192,295320,1,0,0:0:0:25:LR_Drum Kick Low.wav
96,192,295320,1,0,0:0:0:0:
352,192,295399,1,0,0:0:0:0:
288,192,295478,1,0,0:0:0:45:LR_Drum Hit Clap Sn.wav
160,192,295478,1,0,0:0:0:55:LR_Drum Rpd Fast .wav
352,192,295557,1,0,0:0:0:0:
416,192,295636,1,0,0:0:0:100:LR_Drum Rpd.wav
480,192,295636,1,0,0:0:0:0:
224,192,295636,1,0,0:0:0:0:
96,192,295794,1,0,0:0:0:25:LR_Drum Kick Low.wav
288,192,295794,1,2,0:0:0:0:
224,192,295952,1,0,0:0:0:25:LR_Drum Kick Low.wav
352,192,295952,1,0,0:0:0:0:
96,192,296110,1,0,0:0:0:0:
288,192,296110,1,0,0:0:0:45:LR_Drum Hit Clap Sn.wav
480,192,296110,1,0,0:0:0:55:LR_Drum Rpd Fast .wav
160,192,296268,1,0,0:0:0:25:LR_Drum Kick Low.wav
416,192,296268,1,0,0:0:0:0:
96,192,296426,1,0,0:0:0:100:LR_Drum Rpd.wav
224,192,296426,1,2,0:0:0:0:
352,192,296426,1,0,0:0:0:0:
480,192,296426,1,0,0:0:0:0:
416,192,296663,1,0,0:0:0:100:LR_Drum Rpd.wav
288,192,296663,1,2,0:0:0:0:
160,192,296663,1,0,0:0:0:0:
352,192,296899,1,0,0:0:0:100:LR_Drum Rpd.wav
224,192,296899,1,2,0:0:0:0:
480,192,296899,1,0,0:0:0:0:
96,192,296899,1,0,0:0:0:0:
32,192,297057,1,4,0:0:0:0:
416,192,297057,1,2,0:0:0:0:
288,192,297057,1,0,0:0:0:0:
160,192,297057,1,0,0:0:0:25:LR_Drum Kick Low.wav
352,192,297215,1,0,0:0:0:100:LR_Drum Rpd.wav
224,192,297373,1,0,0:0:0:45:LR_Drum Hit Clap Sn.wav
480,192,297373,1,0,0:0:0:55:LR_Drum Rpd Fast .wav
416,192,297531,1,0,0:0:0:25:LR_Drum Kick Low.wav
352,192,297610,1,0,0:0:0:45:LR_Drum Hit Clap Sn.wav
288,192,297689,1,0,0:0:0:100:LR_Drum Rpd.wav
96,192,297689,1,2,0:0:0:0:
480,192,297689,1,0,0:0:0:0:
224,192,297768,1,0,0:0:0:45:LR_Drum Hit Clap Sn.wav
416,192,297847,1,0,0:0:0:45:LR_Drum Hit Clap Sn.wav
160,192,297847,1,0,0:0:0:55:LR_Drum Rpd Fast .wav
352,192,297847,1,0,0:0:0:0:
96,192,298005,1,0,0:0:0:100:LR_Drum Rpd.wav
288,192,298005,1,0,0:0:0:0:
160,192,298084,1,0,0:0:0:45:LR_Drum Hit Clap Sn.wav
352,192,298084,1,0,0:0:0:0:
224,192,298163,1,0,0:0:0:25:LR_Drum Kick Low.wav
32,192,298163,1,4,0:0:0:0:
480,192,298163,1,0,0:0:0:0:
416,192,298163,1,0,0:0:0:0:
288,192,298320,1,2,0:0:0:0:
352,192,298478,1,0,0:0:0:25:LR_Drum Kick Low.wav
32,192,298478,1,4,0:0:0:0:
96,192,298478,1,0,0:0:0:0:
224,192,298478,1,0,0:0:0:0:
480,192,298636,1,0,0:0:0:45:LR_Drum Hit Clap Sn.wav
160,192,298636,1,0,0:0:0:55:LR_Drum Rpd Fast .wav
416,192,298715,1,0,0:0:0:0:
352,192,298794,1,0,0:0:0:100:LR_Drum Rpd.wav
96,192,298794,1,0,0:0:0:0:
288,192,298873,1,0,0:0:0:45:LR_Drum Hit Clap Sn.wav
224,192,298952,1,0,0:0:0:25:LR_Drum Kick Low.wav
160,192,298952,1,2,0:0:0:0:
416,192,299031,1,0,0:0:0:45:LR_Drum Hit Clap Sn.wav
288,192,299110,1,0,0:0:0:25:LR_Drum Kick Low.wav
96,192,299110,1,0,0:0:0:0:
480,192,299189,1,0,0:0:0:45:LR_Drum Hit Clap Sn.wav
416,192,299268,1,0,0:0:0:45:LR_Drum Hit Clap Sn.wav
224,192,299268,1,0,0:0:0:0:
352,192,299373,1,0,0:0:0:0:
160,192,299373,1,0,0:0:0:55:LR_Drum Rpd Fast .wav
288,192,299478,1,0,0:0:0:0:
96,192,299478,1,0,0:0:0:45:LR_Drum Hit Clap Sn.wav
352,192,299584,1,0,0:0:0:25:LR_Drum Kick Low.wav
160,192,299584,1,2,0:0:0:0:
32,192,299584,1,4,0:0:0:0:
480,192,299584,1,0,0:0:0:0:
224,192,299663,1,0,0:0:0:45:LR_Drum Hit Clap Sn.wav
288,192,299741,1,0,0:0:0:100:LR_Drum Rpd.wav
480,192,299899,1,0,0:0:0:45:LR_Drum Hit Clap Sn.wav
96,192,299899,1,0,0:0:0:55:LR_Drum Rpd Fast .wav
288,192,300057,1,0,0:0:0:100:LR_Drum Rpd.wav
160,192,300057,1,2,0:0:0:0:
416,192,300136,1,0,0:0:0:45:LR_Drum Hit Clap Sn.wav
96,192,300215,1,0,0:0:0:25:LR_Drum Kick Low.wav
352,192,300215,1,0,0:0:0:0:
160,192,300294,1,0,0:0:0:45:LR_Drum Hit Clap Sn.wav
480,192,300294,1,0,0:0:0:0:
224,192,300373,1,0,0:0:0:25:LR_Drum Kick Low.wav
416,192,300373,1,0,0:0:0:0:
288,192,300452,1,0,0:0:0:0:
352,192,300531,1,0,0:0:0:55:LR_Drum Rpd Fast .wav
96,192,300531,1,2,0:0:0:0:
416,192,300610,1,0,0:0:0:0:
480,192,300689,1,0,0:0:0:25:LR_Drum Kick Low.wav
224,192,300689,1,0,0:0:0:0:
160,192,300689,1,0,0:0:0:0:
96,192,300847,1,0,0:0:0:100:LR_Drum Rpd.wav
352,192,300847,1,2,0:0:0:0:
288,192,301005,1,0,0:0:0:25:LR_Drum Kick Low.wav
352,192,301123,1,0,0:0:0:0:
416,192,301163,1,0,0:0:0:45:LR_Drum Hit Clap Sn.wav
160,192,301163,1,0,0:0:0:55:LR_Drum Rpd Fast .wav
224,192,301241,1,0,0:0:0:0:
288,192,301320,1,0,0:0:0:100:LR_Drum Rpd.wav
352,192,301399,1,0,0:0:0:45:LR_Drum Hit Clap Sn.wav
480,192,301478,1,0,0:0:0:25:LR_Drum Kick Low.wav
416,192,301478,1,2,0:0:0:0:
96,192,301478,1,0,0:0:0:0:
224,192,301636,1,0,0:0:0:25:LR_Drum Kick Low.wav
288,192,301636,1,0,0:0:0:0:
352,192,301636,1,0,0:0:0:0:
160,192,301794,1,0,0:0:0:45:LR_Drum Hit Clap Sn.wav
480,192,301794,1,0,0:0:0:55:LR_Drum Rpd Fast .wav
96,192,301794,1,2,0:0:0:0:
352,192,301952,1,0,0:0:0:100:LR_Drum Rpd.wav
416,192,301952,1,0,0:0:0:0:
224,192,301952,1,0,0:0:0:0:
288,192,302110,1,0,0:0:0:25:LR_Drum Kick Low.wav
32,192,302110,1,4,0:0:0:0:
480,192,302110,1,2,0:0:0:0:
96,192,302110,1,0,0:0:0:0:
224,192,302268,1,0,0:0:0:100:LR_Drum Rpd.wav
352,192,302426,1,0,0:0:0:45:LR_Drum Hit Clap Sn.wav
160,192,302426,1,0,0:0:0:55:LR_Drum Rpd Fast .wav
224,192,302584,1,0,0:0:0:25:LR_Drum Kick Low.wav
160,192,302663,1,0,0:0:0:45:LR_Drum Hit Clap Sn.wav
480,192,302741,5,0,0:0:0:100:LR_Drum Rpd.wav
96,192,302741,1,2,0:0:0:0:
32,192,302741,1,4,0:0:0:0:
288,192,302741,1,0,0:0:0:0:
160,192,302820,1,0,0:0:0:45:LR_Drum Hit Clap Sn.wav
352,192,302820,1,0,0:0:0:0:
224,192,302899,1,0,0:0:0:45:LR_Drum Hit Clap Sn.wav
416,192,302899,1,0,0:0:0:55:LR_Drum Rpd Fast .wav
288,192,302978,1,0,0:0:0:0:
96,192,303057,1,0,0:0:0:100:LR_Drum Rpd.wav
352,192,303057,1,0,0:0:0:0:
416,192,303136,1,0,0:0:0:45:LR_Drum Hit Clap Sn.wav
160,192,303136,1,0,0:0:0:0:
480,192,303215,1,0,0:0:0:25:LR_Drum Kick Low.wav
224,192,303215,1,0,0:0:0:0:
352,192,303294,1,0,0:0:0:45:LR_Drum Hit Clap Sn.wav
160,192,303294,1,0,0:0:0:0:
96,192,303373,5,0,0:0:0:45:LR_Drum Hit Clap Sn.wav
480,192,303373,1,0,0:0:0:25:LR_Drum Kick Low.wav
32,192,303373,1,0,0:0:0:0:
416,192,303452,5,0,0:0:0:45:LR_Drum Hit Clap Sn.wav
352,192,303531,1,0,0:0:0:45:LR_Drum Hit Clap Sn.wav
160,192,303531,1,0,0:0:0:0:
288,192,303610,1,0,0:0:0:45:LR_Drum Hit Clap Sn.wav
224,192,303689,1,0,0:0:0:25:LR_Drum Kick Low.wav
480,192,303689,1,0,0:0:0:100:LR_Drum Rpd.wav
416,192,303689,1,0,0:0:0:45:LR_Drum Hit Clap Sn.wav
160,192,303768,1,0,0:0:0:45:LR_Drum Hit Clap Sn.wav
96,192,303847,1,0,0:0:0:45:LR_Drum Hit Clap Sn.wav
352,192,303847,1,0,0:0:0:0:
288,192,303926,1,0,0:0:0:45:LR_Drum Hit Clap Sn.wav
480,192,304005,1,0,0:0:0:25:LR_Drum Kick Low.wav
32,192,304005,1,0,0:0:0:30:LR_RevCyRDW.wav
224,192,304005,1,0,0:0:0:70:LR_Tom Hit 2.wav
416,192,304084,1,0,0:0:0:70:LR_Tom Hit 2.wav
352,192,304163,1,0,0:0:0:70:LR_Tom Hit 2.wav
96,192,304163,1,0,0:0:0:0:
288,192,304241,1,0,0:0:0:70:LR_Tom Hit 2.wav
480,192,304320,1,0,0:0:0:25:LR_Drum Kick Low.wav
224,192,304320,1,0,0:0:0:70:LR_Tom Hit 3.wav
416,192,304426,1,0,0:0:0:70:LR_Tom Hit 3.wav
160,192,304426,1,0,0:0:0:70:LR_Drum Rpd.wav
352,192,304531,1,0,0:0:0:70:LR_Tom Hit 3.wav
96,192,304531,1,0,0:0:0:70:LR_Drum Rpd.wav
288,192,304636,5,0,0:0:0:30:LR_Drum Kick Low.wav
32,192,304636,1,0,0:0:0:60:crash.wav
416,192,304636,1,4,1:0:0:0:
160,192,304636,1,2,0:0:0:0:
480,192,304636,1,4,0:0:0:0:
224,192,304636,1,0,0:0:0:100:LR_Drum Rpd.wav
96,192,304794,1,0,0:0:0:100:LR_Drum Rpd.wav
352,192,304794,1,0,0:0:0:0:
224,192,304952,1,0,0:0:0:60:LR_Drum Hit Clap Sn.wav
416,192,304952,1,0,0:0:0:55:LR_Drum Rpd Fast .wav
96,192,305110,1,0,0:0:0:100:LR_Drum Rpd.wav
480,192,305110,1,0,0:0:0:0:
288,192,305110,1,2,0:0:0:0:
160,192,305189,1,0,0:0:0:45:LR_Drum Hit Clap Sn.wav
224,192,305268,1,0,0:0:0:25:LR_Drum Kick Low.wav
416,192,305268,1,0,0:0:0:0:
160,192,305347,1,0,0:0:0:45:LR_Drum Hit Clap Sn.wav
96,192,305426,1,0,0:0:0:25:LR_Drum Kick Low.wav
352,192,305426,1,0,0:0:0:0:
480,192,305584,1,0,0:0:0:60:LR_Drum Hit Clap Sn.wav
224,192,305584,1,0,0:0:0:55:LR_Drum Rpd Fast .wav
160,192,305584,1,0,0:0:0:0:
416,192,305741,1,0,0:0:0:25:LR_Drum Kick Low.wav
352,192,305741,1,0,0:0:0:0:
480,192,305899,1,0,0:0:0:100:LR_Drum Rpd.wav
96,192,305899,1,2,0:0:0:0:
288,192,305899,1,0,0:0:0:0:
160,192,306057,1,0,0:0:0:25:LR_Drum Kick Low.wav
416,192,306057,1,0,0:0:0:0:
96,192,306215,1,0,0:0:0:60:LR_Drum Hit Clap Sn.wav
352,192,306215,1,0,0:0:0:55:LR_Drum Rpd Fast .wav
480,192,306373,1,0,0:0:0:100:LR_Drum Rpd.wav
160,192,306373,1,2,0:0:0:0:
288,192,306373,1,0,0:0:0:0:
416,192,306452,1,0,0:0:0:45:LR_Drum Hit Clap Sn.wav
352,192,306531,1,0,0:0:0:25:LR_Drum Kick Low.wav
96,192,306531,1,0,0:0:0:0:
416,192,306610,1,0,0:0:0:45:LR_Drum Hit Clap Sn.wav
480,192,306689,1,0,0:0:0:25:LR_Drum Kick Low.wav
224,192,306689,1,0,0:0:0:0:
96,192,306847,1,0,0:0:0:60:LR_Drum Hit Clap Sn.wav
480,192,306847,1,0,0:0:0:55:LR_Drum Rpd Fast .wav
288,192,306847,1,0,0:0:0:0:
224,192,307005,1,0,0:0:0:100:LR_Drum Rpd.wav
352,192,307005,1,0,0:0:0:0:
160,192,307163,1,0,0:0:0:25:LR_Drum Kick Low.wav
288,192,307163,1,2,0:0:0:0:
32,192,307163,1,4,0:0:0:0:
416,192,307163,1,0,0:0:0:0:
224,192,307320,1,0,0:0:0:100:LR_Drum Rpd.wav
352,192,307320,1,0,0:0:0:0:
96,192,307478,1,0,0:0:0:60:LR_Drum Hit Clap Sn.wav
480,192,307478,1,0,0:0:0:55:LR_Drum Rpd Fast .wav
224,192,307636,1,0,0:0:0:25:LR_Drum Kick Low.wav
160,192,307715,1,0,0:0:0:45:LR_Drum Hit Clap Sn.wav
352,192,307715,1,0,0:0:0:0:
96,192,307794,1,0,0:0:0:100:LR_Drum Rpd.wav
288,192,307794,1,0,0:0:0:0:
160,192,307873,1,0,0:0:0:45:LR_Drum Hit Clap Sn.wav
352,192,307873,1,0,0:0:0:0:
224,192,307952,1,0,0:0:0:60:LR_Drum Hit Clap Sn.wav
416,192,307952,1,0,0:0:0:55:LR_Drum Rpd Fast .wav
480,192,308031,1,0,0:0:0:0:
96,192,308110,1,0,0:0:0:25:LR_Drum Kick Low.wav
288,192,308110,1,0,0:0:0:0:
160,192,308189,1,0,0:0:0:45:LR_Drum Hit Clap Sn.wav
352,192,308189,1,0,0:0:0:0:
224,192,308268,1,0,0:0:0:100:LR_Drum Rpd.wav
416,192,308268,1,0,0:0:0:0:
160,192,308347,1,0,0:0:0:45:LR_Drum Hit Clap Sn.wav
480,192,308347,1,0,0:0:0:0:
96,192,308426,1,0,0:0:0:100:LR_Drum Rpd.wav
288,192,308426,1,2,0:0:0:0:
352,192,308426,1,0,0:0:0:0:
480,192,308584,1,0,0:0:0:25:LR_Drum Kick Low.wav
224,192,308584,1,0,0:0:0:0:
416,192,308663,1,0,0:0:0:0:
352,192,308741,1,0,0:0:0:60:LR_Drum Hit Clap Sn.wav
160,192,308741,1,0,0:0:0:55:LR_Drum Rpd Fast .wav
288,192,308820,1,0,0:0:0:0:
224,192,308899,1,0,0:0:0:100:LR_Drum Rpd.wav
480,192,308899,1,0,0:0:0:0:
160,192,308978,1,0,0:0:0:45:LR_Drum Hit Clap Sn.wav
416,192,308978,1,0,0:0:0:0:
96,192,309057,1,0,0:0:0:25:LR_Drum Kick Low.wav
352,192,309057,1,2,0:0:0:0:
288,192,309136,1,0,0:0:0:45:LR_Drum Hit Clap Sn.wav
416,192,309215,1,0,0:0:0:60:LR_Drum Hit Clap Sn.wav
224,192,309215,1,0,0:0:0:25:LR_Drum Kick Low.wav
352,192,309294,1,0,0:0:0:0:
288,192,309373,1,0,0:0:0:100:LR_Drum Rpd.wav
480,192,309373,1,0,0:0:0:0:
224,192,309452,1,0,0:0:0:45:LR_Drum Hit Clap Sn.wav
416,192,309452,1,0,0:0:0:0:
160,192,309531,1,0,0:0:0:100:LR_Drum Rpd.wav
352,192,309531,1,0,0:0:0:0:
96,192,309610,1,0,0:0:0:45:LR_Drum Hit Clap Sn.wav
288,192,309610,1,0,0:0:0:0:
416,192,309689,1,0,0:0:0:25:LR_Drum Kick Low.wav
32,192,309689,1,4,0:0:0:0:
224,192,309689,1,2,0:0:0:0:
480,192,309689,1,0,0:0:0:0:
160,192,309847,1,0,0:0:0:100:LR_Drum Rpd.wav
352,192,309847,1,0,0:0:0:0:
288,192,310005,1,0,0:0:0:60:LR_Drum Hit Clap Sn.wav
96,192,310005,1,0,0:0:0:55:LR_Drum Rpd Fast .wav
416,192,310163,1,0,0:0:0:100:LR_Drum Rpd.wav
160,192,310163,1,2,0:0:0:0:
480,192,310163,1,0,0:0:0:0:
352,192,310241,1,0,0:0:0:45:LR_Drum Hit Clap Sn.wav
288,192,310320,1,0,0:0:0:25:LR_Drum Kick Low.wav
96,192,310320,1,0,0:0:0:0:
224,192,310399,1,0,0:0:0:45:LR_Drum Hit Clap Sn.wav
160,192,310478,1,0,0:0:0:25:LR_Drum Kick Low.wav
416,192,310478,1,0,0:0:0:0:
480,192,310636,1,0,0:0:0:60:LR_Drum Hit Clap Sn.wav
352,192,310636,1,0,0:0:0:55:LR_Drum Rpd Fast .wav
224,192,310636,1,0,0:0:0:0:
96,192,310794,1,0,0:0:0:100:LR_Drum Rpd.wav
288,192,310794,1,0,0:0:0:0:
160,192,310952,1,0,0:0:0:25:LR_Drum Kick Low.wav
352,192,310952,1,2,0:0:0:0:
224,192,310952,1,0,0:0:0:0:
416,192,311110,1,0,0:0:0:25:LR_Drum Kick Low.wav
96,192,311110,1,0,0:0:0:0:
160,192,311189,1,0,0:0:0:0:
224,192,311268,1,0,0:0:0:60:LR_Drum Hit Clap Sn.wav
480,192,311268,1,0,0:0:0:55:LR_Drum Rpd Fast .wav
288,192,311347,1,0,0:0:0:0:
96,192,311426,1,0,0:0:0:25:LR_Drum Kick Low.wav
352,192,311426,1,0,0:0:0:0:
416,192,311505,1,0,0:0:0:45:LR_Drum Hit Clap Sn.wav
480,192,311584,1,0,0:0:0:100:LR_Drum Rpd.wav
160,192,311584,1,2,0:0:0:0:
224,192,311584,1,0,0:0:0:0:
96,192,311663,1,0,0:0:0:45:LR_Drum Hit Clap Sn.wav
288,192,311741,1,0,0:0:0:25:LR_Drum Kick Low.wav
416,192,311741,1,0,0:0:0:0:
224,192,311794,1,0,0:0:0:0:
160,192,311847,1,0,0:0:0:0:
96,192,311899,1,0,0:0:0:60:LR_Drum Hit Clap Sn.wav
480,192,311899,1,0,0:0:0:55:LR_Drum Rpd Fast .wav
352,192,311899,1,0,0:0:0:0:
224,192,312057,1,0,0:0:0:100:LR_Drum Rpd.wav
288,192,312215,1,0,0:0:0:25:LR_Drum Kick Low.wav
96,192,312215,1,2,0:0:0:0:
32,192,312215,1,4,0:0:0:0:
480,192,312215,1,0,0:0:0:0:
160,192,312373,1,0,0:0:0:100:LR_Drum Rpd.wav
416,192,312373,1,0,0:0:0:0:
480,192,312531,1,0,0:0:0:60:LR_Drum Hit Clap Sn.wav
96,192,312531,1,0,0:0:0:55:LR_Drum Rpd Fast .wav
288,192,312689,1,0,0:0:0:25:LR_Drum Kick Low.wav
352,192,312768,1,0,0:0:0:45:LR_Drum Hit Clap Sn.wav
416,192,312847,1,0,0:0:0:60:LR_Drum Hit Clap Sn.wav
224,192,312847,1,0,0:0:0:0:
480,192,312926,1,0,0:0:0:45:LR_Drum Hit Clap Sn.wav
96,192,312926,1,0,0:0:0:0:
352,192,313005,1,0,0:0:0:55:LR_Drum Rpd Fast .wav
160,192,313005,1,0,0:0:0:100:LR_Drum Rpd.wav
224,192,313084,1,0,0:0:0:0:
96,192,313163,1,0,0:0:0:100:LR_Drum Rpd.wav
288,192,313163,1,0,0:0:0:0:
160,192,313241,1,0,0:0:0:45:LR_Drum Hit Clap Sn.wav
352,192,313241,1,0,0:0:0:0:
224,192,313320,1,0,0:0:0:25:LR_Drum Kick Low.wav
416,192,313320,1,0,0:0:0:0:
288,192,313399,1,0,0:0:0:45:LR_Drum Hit Clap Sn.wav
480,192,313399,1,0,0:0:0:0:
96,192,313478,1,0,0:0:0:100:LR_Drum Rpd.wav
352,192,313478,1,2,0:0:0:0:
160,192,313478,1,0,0:0:0:0:
32,192,313478,1,4,0:0:0:0:
480,192,313636,1,0,0:0:0:25:LR_Drum Kick Low.wav
224,192,313636,1,0,0:0:0:0:
416,192,313715,1,0,0:0:0:0:
352,192,313794,1,0,0:0:0:60:LR_Drum Hit Clap Sn.wav
96,192,313794,1,0,0:0:0:55:LR_Drum Rpd Fast .wav
288,192,313873,1,0,0:0:0:0:
224,192,313952,1,0,0:0:0:100:LR_Drum Rpd.wav
352,192,313952,1,0,0:0:0:0:
160,192,314031,1,0,0:0:0:45:LR_Drum Hit Clap Sn.wav
416,192,314031,1,0,0:0:0:0:
96,192,314110,1,0,0:0:0:100:LR_Drum Rpd.wav
288,192,314110,1,2,0:0:0:0:
480,192,314110,1,0,0:0:0:0:
96,192,314347,1,0,0:0:0:100:LR_Drum Rpd.wav
288,192,314347,1,2,0:0:0:0:
480,192,314347,1,0,0:0:0:0:
96,192,314584,1,2,0:0:0:0:
288,192,314584,1,0,0:0:0:100:LR_Drum Rpd.wav
480,192,314584,1,0,0:0:0:0:
288,192,314741,1,0,0:0:0:25:LR_Drum Kick Low.wav
160,192,314741,1,2,0:0:0:0:
416,192,314741,1,0,0:0:0:0:
32,192,314741,1,4,0:0:0:0:
96,192,314899,1,0,0:0:0:100:LR_Drum Rpd.wav
224,192,314899,1,0,0:0:0:0:
288,192,315057,1,0,0:0:0:60:LR_Drum Hit Clap Sn.wav
416,192,315057,1,0,0:0:0:55:LR_Drum Rpd Fast .wav
480,192,315215,1,0,0:0:0:100:LR_Drum Rpd.wav
352,192,315215,1,2,0:0:0:0:
160,192,315215,1,0,0:0:0:0:
288,192,315294,1,0,0:0:0:45:LR_Drum Hit Clap Sn.wav
224,192,315373,1,0,0:0:0:25:LR_Drum Kick Low.wav
416,192,315373,1,0,0:0:0:0:
160,192,315452,1,0,0:0:0:45:LR_Drum Hit Clap Sn.wav
96,192,315531,1,0,0:0:0:25:LR_Drum Kick Low.wav
288,192,315531,1,0,0:0:0:0:
480,192,315689,1,0,0:0:0:60:LR_Drum Hit Clap Sn.wav
352,192,315689,1,0,0:0:0:55:LR_Drum Rpd Fast .wav
160,192,315689,1,0,0:0:0:0:
224,192,315847,1,0,0:0:0:25:LR_Drum Kick Low.wav
416,192,315847,1,0,0:0:0:0:
288,192,315926,1,0,0:0:0:45:LR_Drum Hit Clap Sn.wav
352,192,316005,1,0,0:0:0:100:LR_Drum Rpd.wav
160,192,316005,1,2,0:0:0:0:
416,192,316163,1,0,0:0:0:25:LR_Drum Kick Low.wav
224,192,316163,1,0,0:0:0:0:
480,192,316320,1,0,0:0:0:60:LR_Drum Hit Clap Sn.wav
160,192,316320,1,0,0:0:0:55:LR_Drum Rpd Fast .wav
224,192,316478,1,0,0:0:0:100:LR_Drum Rpd.wav
96,192,316478,1,2,0:0:0:0:
416,192,316478,1,0,0:0:0:0:
288,192,316557,1,0,0:0:0:45:LR_Drum Hit Clap Sn.wav
352,192,316636,1,0,0:0:0:25:LR_Drum Kick Low.wav
160,192,316636,1,0,0:0:0:0:
416,192,316715,1,0,0:0:0:45:LR_Drum Hit Clap Sn.wav
480,192,316794,1,0,0:0:0:25:LR_Drum Kick Low.wav
224,192,316794,1,0,0:0:0:0:
160,192,316952,1,0,0:0:0:60:LR_Drum Hit Clap Sn.wav
416,192,316952,1,0,0:0:0:55:LR_Drum Rpd Fast .wav
96,192,316952,1,0,0:0:0:0:
352,192,317110,1,0,0:0:0:100:LR_Drum Rpd.wav
224,192,317110,1,0,0:0:0:0:
416,192,317189,1,0,0:0:0:45:LR_Drum Hit Clap Sn.wav
288,192,317268,1,0,0:0:0:25:LR_Drum Kick Low.wav
480,192,317268,1,2,0:0:0:0:
32,192,317268,1,4,0:0:0:0:
96,192,317268,1,0,0:0:0:0:
160,192,317426,1,0,0:0:0:100:LR_Drum Rpd.wav
352,192,317426,1,0,0:0:0:0:
480,192,317584,1,0,0:0:0:60:LR_Drum Hit Clap Sn.wav
224,192,317584,1,0,0:0:0:55:LR_Drum Rpd Fast .wav
352,192,317741,1,0,0:0:0:25:LR_Drum Kick Low.wav
160,192,317820,1,0,0:0:0:45:LR_Drum Hit Clap Sn.wav
416,192,317820,1,0,0:0:0:0:
224,192,317899,1,0,0:0:0:100:LR_Drum Rpd.wav
480,192,317899,1,0,0:0:0:0:
96,192,317978,1,0,0:0:0:45:LR_Drum Hit Clap Sn.wav
416,192,317978,1,0,0:0:0:0:
160,192,318057,1,0,0:0:0:60:LR_Drum Hit Clap Sn.wav
352,192,318057,1,0,0:0:0:55:LR_Drum Rpd Fast .wav
224,192,318136,1,0,0:0:0:0:
288,192,318215,1,0,0:0:0:70:LR_Drum Rpd.wav
96,192,318215,1,0,0:0:0:0:
352,192,318294,1,0,0:0:0:45:LR_Drum Hit Clap Sn.wav
160,192,318294,1,0,0:0:0:0:
416,192,318373,1,0,0:0:0:25:LR_Drum Kick Low.wav
224,192,318373,1,0,0:0:0:0:
480,192,318452,1,0,0:0:0:45:LR_Drum Hit Clap Sn.wav
288,192,318452,1,0,0:0:0:0:
352,192,318531,1,0,0:0:0:45:LR_Drum Hit Clap Sn.wav
160,192,318531,1,0,0:0:0:25:LR_Drum Kick Low.wav
224,192,318531,1,2,0:0:0:0:
416,192,318610,1,0,0:0:0:55:LR_Drum Hit Clap Sn.wav
96,192,318689,1,0,0:0:0:55:LR_Drum Hit Clap Sn.wav
480,192,318689,1,0,0:0:0:0:
160,192,318768,1,0,0:0:0:55:LR_Drum Hit Clap Sn.wav
416,192,318768,1,0,0:0:0:0:
224,192,318847,1,0,0:0:0:45:LR_Drum Hit Clap Sn.wav
352,192,318847,1,0,0:0:0:25:LR_Drum Kick Low.wav
160,192,318926,1,0,0:0:0:55:LR_Drum Hit Clap Sn.wav
416,192,318926,1,0,0:0:0:0:
96,192,319005,1,0,0:0:0:55:LR_Drum Hit Clap Sn.wav
480,192,319005,1,0,0:0:0:0:
160,192,319084,1,0,0:0:0:55:LR_Drum Hit Clap Sn.wav
416,192,319084,1,0,0:0:0:0:
224,192,319163,1,0,0:0:0:25:LR_Drum Kick Low.wav
352,192,319163,1,0,0:0:0:70:LR_Tom Hit 2.wav
288,192,319163,1,2,0:0:0:0:
160,192,319268,1,0,0:0:0:70:LR_Tom Hit 2.wav
480,192,319320,1,0,0:0:0:0:
96,192,319373,1,0,0:0:0:70:LR_Tom Hit 2.wav
416,192,319399,1,0,0:0:0:0:
352,192,319478,1,0,0:0:0:25:LR_Drum Kick Low.wav
224,192,319478,1,0,0:0:0:70:LR_Tom Hit 3.wav
480,192,319557,1,0,0:0:0:0:
160,192,319584,1,0,0:0:0:70:LR_Tom Hit 3.wav
416,192,319636,1,0,0:0:0:0:
96,192,319689,1,0,0:0:0:70:LR_Tom Hit 3.wav
352,192,319715,1,0,0:0:0:0:
224,192,319794,1,0,0:0:0:25:LR_Drum Kick Low.wav
32,192,319794,1,4,0:0:0:0:
288,192,319794,1,2,0:0:0:0:
480,192,319794,1,0,0:0:0:0:
160,192,319952,1,0,0:0:0:45:LR_Drum Hit Clap Sn.wav
352,192,319952,1,0,0:0:0:0:
96,192,320110,1,0,0:0:0:25:LR_Drum Kick Low.wav
288,192,320110,1,0,0:0:0:0:
160,192,320189,1,0,0:0:0:100:LR_Drum Rpd.wav
480,192,320268,1,0,0:0:0:45:LR_Drum Hit Clap Sn.wav
224,192,320268,1,0,0:0:0:55:LR_Drum Rpd Fast .wav
416,192,320268,1,0,0:0:0:0:
96,192,320426,1,0,0:0:0:25:LR_Drum Kick Low.wav
352,192,320426,1,0,0:0:0:0:
160,192,320505,1,0,0:0:0:45:LR_Drum Hit Clap Sn.wav
416,192,320505,1,0,0:0:0:0:
224,192,320584,1,0,0:0:0:100:LR_Drum Rpd.wav
480,192,320584,1,0,0:0:0:0:
288,192,320663,1,0,0:0:0:0:
416,192,320741,1,0,0:0:0:45:LR_Drum Hit Clap Sn.wav
96,192,320741,1,0,0:0:0:55:LR_Drum Rpd Fast .wav
160,192,320820,1,0,0:0:0:0:
224,192,320899,1,0,0:0:0:100:LR_Drum Rpd.wav
352,192,320899,1,0,0:0:0:0:
416,192,320978,1,0,0:0:0:45:LR_Drum Hit Clap Sn.wav
160,192,320978,1,0,0:0:0:0:
288,192,321057,1,0,0:0:0:25:LR_Drum Kick Low.wav
480,192,321057,1,0,0:0:0:100:LR_Drum Rpd.wav
32,192,321057,1,4,0:0:0:0:
96,192,321057,1,2,0:0:0:0:
160,192,321215,1,0,0:0:0:45:LR_Drum Hit Clap Sn.wav
416,192,321215,1,0,0:0:0:55:LR_Drum Rpd Fast .wav
352,192,321373,1,0,0:0:0:25:LR_Drum Kick Low.wav
96,192,321373,1,0,0:0:0:0:
416,192,321452,1,0,0:0:0:45:LR_Drum Hit Clap Sn.wav
160,192,321452,1,0,0:0:0:0:
480,192,321531,1,0,0:0:0:100:LR_Drum Rpd.wav
224,192,321531,1,0,0:0:0:0:
288,192,321610,1,0,0:0:0:0:
160,192,321689,1,0,0:0:0:45:LR_Drum Hit Clap Sn.wav
352,192,321689,1,0,0:0:0:55:LR_Drum Rpd Fast .wav
224,192,321768,1,0,0:0:0:0:
288,192,321847,1,0,0:0:0:100:LR_Drum Rpd.wav
480,192,321847,1,0,0:0:0:0:
352,192,321926,1,0,0:0:0:0:
224,192,322005,1,0,0:0:0:45:LR_Drum Hit Clap Sn.wav
96,192,322005,1,0,0:0:0:55:LR_Drum Rpd Fast .wav
288,192,322084,1,0,0:0:0:0:
352,192,322163,1,0,0:0:0:100:LR_Drum Rpd.wav
160,192,322163,1,0,0:0:0:0:
416,192,322241,1,0,0:0:0:0:
96,192,322320,1,0,0:0:0:45:LR_Drum Hit Clap Sn.wav
288,192,322320,1,0,0:0:0:25:LR_Drum Kick Low.wav
480,192,322320,1,0,0:0:0:70:LR_Drum Rpd.wav
32,192,322320,1,6,0:0:0:0:
160,192,322399,1,0,0:0:0:45:LR_Drum Hit Clap Sn.wav
224,192,322478,1,0,0:0:0:45:LR_Drum Hit Clap Sn.wav
352,192,322478,1,0,0:0:0:25:LR_Drum Kick Low.wav
416,192,322557,1,0,0:0:0:45:LR_Drum Hit Clap Sn.wav
224,192,322636,1,0,0:0:0:45:LR_Drum Hit Clap Sn.wav
480,192,322636,1,0,0:0:0:25:LR_Drum Kick Low.wav
96,192,322715,1,0,0:0:0:45:LR_Drum Hit Clap Sn.wav
288,192,322715,1,0,0:0:0:70:LR_Drum Rpd.wav
160,192,322794,1,0,0:0:0:45:LR_Drum Hit Clap Sn.wav
352,192,322794,1,0,0:0:0:25:LR_Drum Kick Low.wav
416,192,322873,1,0,0:0:0:45:LR_Drum Hit Clap Sn.wav
224,192,322873,1,0,0:0:0:70:LR_Drum Rpd.wav
480,192,322952,1,0,0:0:0:45:LR_Drum Hit Clap Sn.wav
288,192,322952,1,0,0:0:0:25:LR_Drum Kick Low.wav
224,192,323031,1,0,0:0:0:45:LR_Drum Hit Clap Sn.wav
352,192,323031,1,0,0:0:0:70:LR_Drum Rpd.wav
160,192,323110,1,0,0:0:0:45:LR_Drum Hit Clap Sn.wav
416,192,323110,1,0,0:0:0:25:LR_Drum Kick Low.wav
96,192,323189,1,0,0:0:0:45:LR_Drum Hit Clap Sn.wav
480,192,323189,1,0,0:0:0:70:LR_Drum Rpd.wav
160,192,323268,1,0,0:0:0:25:LR_Drum Kick Low.wav
288,192,323268,1,0,0:0:0:50:LR_Drum Rpd.wav
352,192,323347,1,0,0:0:0:45:LR_Drum Hit Clap Sn.wav
416,192,323426,1,0,0:0:0:25:LR_Drum Kick Low.wav
224,192,323426,1,0,0:0:0:50:LR_Drum Rpd.wav
480,192,323505,1,0,0:0:0:45:LR_Drum Hit Clap Sn.wav
96,192,323584,1,0,0:0:0:45:LR_Drum Hit Clap Sn.wav
352,192,323584,1,0,0:0:0:25:LR_Drum Kick Low.wav
288,192,323584,1,0,0:0:0:70:LR_Drum Rpd.wav
32,192,323584,1,6,0:0:0:0:
224,192,323663,1,0,0:0:0:45:LR_Drum Hit Clap Sn.wav
480,192,323663,1,0,0:0:0:70:LR_Drum Rpd.wav
96,192,323741,1,0,0:0:0:45:LR_Drum Hit Clap Sn.wav
352,192,323741,1,0,0:0:0:25:LR_Drum Kick Low.wav
224,192,323820,1,0,0:0:0:45:LR_Drum Hit Clap Sn.wav
480,192,323820,1,0,0:0:0:70:LR_Drum Rpd.wav
352,192,323899,1,0,0:0:0:25:LR_Drum Kick Low.wav
96,192,323899,1,6,0:0:0:0:
480,192,323978,1,0,0:0:0:70:LR_Drum Rpd.wav
160,192,324057,1,0,0:0:0:45:LR_Drum Hit Clap Sn.wav
352,192,324057,1,0,0:0:0:25:LR_Drum Kick Low.wav
224,192,324136,1,0,0:0:0:45:LR_Drum Hit Clap Sn.wav
416,192,324136,1,0,0:0:0:70:LR_Drum Rpd.wav
288,192,324215,1,0,0:0:0:25:LR_Drum Kick Low.wav
480,192,324215,1,6,0:0:0:0:
32,192,324215,1,0,0:0:0:35:LR_RevCyRDW.wav
224,192,324294,1,0,0:0:0:45:LR_Drum Hit Clap Sn.wav
416,192,324294,1,0,0:0:0:70:LR_Drum Rpd.wav
160,192,324373,1,0,0:0:0:25:LR_Drum Kick Low.wav
352,192,324373,1,6,0:0:0:0:
288,192,324452,1,0,0:0:0:70:LR_Drum Rpd.wav
224,192,324531,1,0,0:0:0:45:LR_Drum Hit Clap Sn.wav
480,192,324531,1,6,0:0:0:0:
416,192,324584,1,2,0:0:0:0:
160,192,324610,1,0,0:0:0:45:LR_Drum Hit Clap Sn.wav
352,192,324636,1,2,0:0:0:0:
96,192,324689,1,0,0:0:0:45:LR_Drum Hit Clap Sn.wav
288,192,324689,1,6,0:0:0:0:
224,192,324741,1,2,0:0:0:0:
416,192,324768,1,0,0:0:0:45:LR_Drum Hit Clap Sn.wav
160,192,324794,1,2,0:0:0:0:
352,192,324847,1,0,0:0:0:100:LR_Drum Crush Finish.wav
224,192,324847,1,4,0:0:0:0:
96,192,324847,1,0,0:0:0:100:LR_Drum Crush Finish.wav
288,192,324847,1,4,1:0:0:0:
480,192,324847,1,2,0:0:0:0:
32,192,324847,1,0,0:0:0:70:crash.wav
160,192,325478,1,2,0:0:0:0:
416,192,326110,1,2,0:0:0:0:
352,192,327373,1,2,0:0:0:0:
96,192,327373,1,0,0:0:0:0:
480,192,328005,1,2,0:0:0:0:
224,192,328005,1,0,0:0:0:0:
352,192,328950,1,2,0:0:0:0:
224,192,329264,1,2,0:0:0:0:
480,192,329578,1,2,0:0:0:0:
288,192,329892,1,0,0:0:0:0:
160,192,329892,1,0,0:0:0:0:
416,192,329911,1,0,0:0:0:0:
96,192,330207,1,0,0:0:0:0:
160,192,330523,1,0,0:0:0:0:
224,192,330839,1,0,0:0:0:0:
288,192,331155,1,0,0:0:0:0:
480,192,331470,1,2,0:0:0:0:
416,192,331628,1,2,0:0:0:0:
288,192,332378,1,0,0:0:0:0:
96,192,332418,1,0,0:0:0:0:
480,192,332418,1,0,0:0:0:0:
352,192,332725,1,0,0:0:0:0:
160,192,333033,1,0,0:0:0:0:
224,192,333341,1,2,0:0:0:0:
288,192,333640,1,2,0:0:0:0:
480,192,333680,1,0,0:0:0:0:
96,192,333680,1,0,0:0:0:0:
288,192,333985,1,0,0:0:0:0:
160,192,334250,1,2,0:0:0:0:
416,192,334311,1,0,0:0:0:0:
288,192,334616,1,0,0:0:0:0:
352,192,334901,1,0,0:0:0:0:
224,192,334901,1,0,0:0:0:0:
96,192,334942,1,0,0:0:0:0:
480,192,334942,1,2,0:0:0:0:
160,192,335257,1,0,0:0:0:0:
352,192,335573,1,2,0:0:0:0:
224,192,335573,1,0,0:0:0:0:
288,192,335889,1,0,0:0:0:0:
160,192,336205,1,2,0:0:0:0:
416,192,336205,1,0,0:0:0:0:
96,192,336495,1,2,0:0:0:0:
352,192,336495,1,0,0:0:0:0:
160,192,336809,1,2,0:0:0:0:
416,192,336809,1,0,0:0:0:0:
224,192,337123,1,0,0:0:0:0:
480,192,337123,1,2,0:0:0:0:
288,192,337417,1,0,0:0:0:0:
160,192,337482,1,0,0:0:0:0:
416,192,337482,1,2,0:0:0:0:
288,192,338051,1,0,0:0:0:0:
480,192,338110,1,0,0:0:0:0:
96,192,338110,1,2,0:0:0:0:
480,192,339052,1,2,0:0:0:0:
288,192,339052,1,0,0:0:0:0:
416,192,339366,1,2,0:0:0:0:
224,192,339366,1,0,0:0:0:0:
352,192,339680,1,2,0:0:0:0:
160,192,339680,1,0,0:0:0:0:
96,192,339955,1,0,0:0:0:0:
224,192,339995,1,2,0:0:0:0:
352,192,339995,1,0,0:0:0:0:
480,192,340034,1,0,0:0:0:0:
160,192,340310,1,0,0:0:0:0:
224,192,340626,1,0,0:0:0:0:
480,192,340922,1,2,0:0:0:0:
288,192,340922,1,0,0:0:0:0:
352,192,341258,1,0,0:0:0:0:
416,192,341554,1,2,0:0:0:0:
224,192,341554,1,0,0:0:0:0:
160,192,341712,1,0,0:0:0:0:
352,192,341712,1,2,0:0:0:0:
224,192,342481,1,0,0:0:0:0:
352,192,342481,1,0,0:0:0:0:
96,192,342521,1,2,0:0:0:0:
480,192,342521,1,0,0:0:0:0:
160,192,342837,1,2,0:0:0:0:
288,192,342837,1,0,0:0:0:0:
224,192,343152,1,2,0:0:0:0:
352,192,343152,1,0,0:0:0:0:
288,192,343468,1,2,0:0:0:0:
416,192,343468,1,0,0:0:0:0:
32,192,343784,1,0,0:0:0:25:LR_Chm Echo long.wav
480,192,343784,1,2,0:0:0:0:
352,192,343784,1,0,0:0:0:0:
160,192,343784,1,0,0:0:0:0:
416,192,344100,1,0,0:0:0:0:
288,192,344416,1,0,0:0:0:0:
160,192,344731,1,0,0:0:0:0:
352,192,345027,1,0,0:0:0:0:
224,192,345027,1,0,0:0:0:0:
96,192,345047,1,2,0:0:0:0:
480,192,345047,1,0,0:0:0:0:
160,192,345363,1,0,0:0:0:0:
224,192,345679,1,2,0:0:0:0:
352,192,345679,1,0,0:0:0:0:
160,192,345995,1,0,0:0:0:0:
288,192,346310,1,2,0:0:0:0:
416,192,346310,1,0,0:0:0:0:
96,192,347573,1,2,0:0:0:0:
224,192,347573,1,0,0:0:0:0:
352,192,347573,1,0,0:0:0:0:
224,192,348211,1,2,0:0:0:0:
352,192,348211,1,0,0:0:0:0:
480,192,348211,1,0,0:0:0:0:
352,192,349168,1,2,0:0:0:0:
224,192,349487,1,2,0:0:0:0:
480,192,349807,1,2,0:0:0:0:
288,192,350106,1,0,0:0:0:0:
96,192,350126,1,0,0:0:0:0:
416,192,350126,1,2,0:0:0:0:
160,192,350448,1,0,0:0:0:0:
224,192,350771,1,0,0:0:0:0:
288,192,351093,1,0,0:0:0:0:
352,192,351416,1,0,0:0:0:0:
480,192,351738,1,2,0:0:0:0:
416,192,351900,1,2,0:0:0:0:
352,192,352682,1,0,0:0:0:0:
160,192,352702,1,2,0:0:0:0:
480,192,352702,1,0,0:0:0:0:
224,192,353008,1,0,0:0:0:0:
288,192,353334,1,0,0:0:0:0:
416,192,353660,1,2,0:0:0:0:
160,192,353660,1,0,0:0:0:0:
288,192,353965,1,0,0:0:0:0:
96,192,353965,1,2,0:0:0:0:
480,192,354006,1,0,0:0:0:0:
352,192,354340,1,0,0:0:0:0:
416,192,354604,1,2,0:0:0:0:
160,192,354653,1,0,0:0:0:0:
224,192,355001,1,0,0:0:0:0:
288,192,355311,1,0,0:0:0:0:
96,192,355357,1,0,0:0:0:0:
480,192,355357,1,2,0:0:0:0:
224,192,355681,1,0,0:0:0:0:
160,192,356014,1,2,0:0:0:0:
352,192,356014,1,0,0:0:0:0:
96,192,356347,1,0,0:0:0:0:
416,192,356681,1,2,0:0:0:0:
224,192,356681,1,0,0:0:0:0:
352,192,356996,1,2,0:0:0:0:
96,192,356996,1,0,0:0:0:0:
416,192,357329,1,2,0:0:0:0:
160,192,357329,1,0,0:0:0:0:
480,192,357662,1,2,0:0:0:0:
224,192,357662,1,0,0:0:0:0:
288,192,357996,1,0,0:0:0:0:
416,192,358037,1,2,0:0:0:0:
160,192,358037,1,0,0:0:0:0:
288,192,358681,1,2,0:0:0:0:
96,192,358722,1,0,0:0:0:0:
480,192,358722,1,0,0:0:0:0:
480,192,359757,1,2,0:0:0:0:
288,192,359757,1,0,0:0:0:0:
224,192,360109,1,2,0:0:0:0:
416,192,360109,1,0,0:0:0:0:
160,192,360462,1,2,0:0:0:0:
352,192,360462,1,0,0:0:0:0:
96,192,360771,1,0,0:0:0:0:
224,192,360815,1,2,0:0:0:0:
352,192,360845,1,0,0:0:0:0:
480,192,360874,1,0,0:0:0:0:
160,192,361168,1,0,0:0:0:0:
224,192,361516,1,0,0:0:0:0:
480,192,361831,1,2,0:0:0:0:
288,192,361831,1,0,0:0:0:0:
352,192,362183,1,0,0:0:0:0:
416,192,362492,1,2,0:0:0:0:
224,192,362492,1,0,0:0:0:0:
352,192,362669,1,2,0:0:0:0:
160,192,362669,1,0,0:0:0:0:
224,192,363463,1,0,0:0:0:0:
352,192,363463,1,0,0:0:0:0:
96,192,363507,1,2,0:0:0:0:
480,192,363507,1,0,0:0:0:0:
160,192,363872,1,2,0:0:0:0:
288,192,363872,1,0,0:0:0:0:
224,192,364247,1,2,0:0:0:0:
352,192,364247,1,0,0:0:0:0:
288,192,364631,1,2,0:0:0:0:
416,192,364631,1,0,0:0:0:0:
480,192,365025,1,2,0:0:0:0:
352,192,365025,1,0,0:0:0:0:
96,192,365025,1,0,0:0:0:0:
224,192,365025,1,0,0:0:0:0:
416,192,365418,1,2,0:0:0:0:
288,192,365831,1,2,0:0:0:0:
160,192,366245,1,2,0:0:0:0:
96,192,366560,1,0,0:0:0:0:
224,192,366698,1,2,0:0:0:0:
352,192,366758,1,2,0:0:0:0:
480,192,366837,1,2,0:0:0:0:
160,192,367981,1,0,0:0:0:0:
224,192,368422,1,0,0:0:0:0:
288,192,368832,1,0,0:0:0:0:
352,192,369245,1,0,0:0:0:0:
416,192,369771,1,0,0:0:0:0:
96,192,370271,1,0,0:0:0:0:
160,192,370699,1,0,0:0:0:0:
224,192,371167,1,0,0:0:0:0:
352,192,371618,1,0,0:0:0:0:
416,192,372139,1,0,0:0:0:0:
480,192,372580,1,0,0:0:0:0:
96,192,373002,1,0,0:0:0:0:
160,192,373602,1,0,0:0:0:0:
224,192,374254,1,0,0:0:0:0:
288,192,374935,1,0,0:0:0:0:
352,192,375675,1,0,0:0:0:0:
416,192,376425,1,0,0:0:0:0:
352,192,377381,1,0,0:0:0:0:
416,192,377487,1,0,0:0:0:0:
480,192,377593,1,0,0:0:0:10:LR_Chm Echo long.wav
