osu file format v14

[General]
AudioFilename: xi - Happy End of the World.mp3
AudioLeadIn: 1825
PreviewTime: 81543
Countdown: 0
SampleSet: Soft
StackLeniency: 0.7
Mode: 3
LetterboxInBreaks: 0
SpecialStyle: 0
WidescreenStoryboard: 0

[Editor]
DistanceSpacing: 1.6
BeatDivisor: 16
GridSize: 8
TimelineZoom: 0.5

[Metadata]
Title:Happy End of the World
TitleUnicode:ハッピーエンドオブザワールド
Artist:xi
ArtistUnicode:xi
Creator:Blocko
Version:7K Easy
Source:
Tags:agartha 100sec records marathon remillion cross fullerene- hellgert -kamikaze- ajeemaniz exusagi ijinjin squishykorean
BeatmapID:426448
BeatmapSetID:171880

[Difficulty]
HPDrainRate:7
CircleSize:7
OverallDifficulty:7
ApproachRate:7
SliderMultiplier:1.4
SliderTickRate:1

[Events]
//Background and Video events
0,0,"background.jpg",0,0
//Break Periods
//Storyboard Layer 0 (Background)
//Storyboard Layer 1 (Fail)
//Storyboard Layer 2 (Pass)
//Storyboard Layer 3 (Foreground)
//Storyboard Sound Samples

[TimingPoints]
706,315.789473684211,4,2,0,10,1,0
706,-111.111111111111,4,2,0,10,0,0
20916,-105.263157894737,4,2,1,25,0,0
36074,-111.111111111111,4,2,1,25,0,0
36706,-111.111111111111,4,2,1,15,0,0
38600,-105.263157894737,4,2,1,30,0,0
41127,-100,4,2,1,35,0,0
76495,-111.111111111111,4,2,1,35,0,0
77758,-111.111111111111,4,2,1,20,0,0
79021,-105.263157894737,4,2,1,35,0,0
81548,-100,4,2,1,40,0,0
121969,-100,4,2,1,40,0,1
142100,-100,4,2,1,40,0,0
142179,-111.111111111111,4,2,0,40,0,1
142811,-111.111111111111,4,2,0,30,0,1
144706,-111.111111111111,4,2,0,20,0,0
147232,-111.111111111111,4,2,0,15,0,0
148495,-112.359550561798,4,2,0,15,0,0
152284,-112.359550561798,4,2,0,14,0,0
155495,335.195530726257,4,2,0,14,1,0
155495,-106.382978723404,4,2,0,14,0,0
156479,333.333333333333,4,2,0,14,1,0
156479,-106.382978723404,4,2,0,14,0,0
157479,-107.52688172043,4,2,0,13,0,0
158167,348.837209302326,4,2,0,13,1,0
158167,-102.040816326531,4,2,0,13,0,0
159562,-103.092783505155,4,2,0,13,0,0
160260,-103.092783505155,4,2,0,12,0,0
160936,352.941176470588,4,2,0,12,1,0
160936,-102.040816326531,4,2,0,12,0,0
161641,361.44578313253,4,2,0,12,1,0
162002,-101.010101010101,4,2,0,12,0,0
162363,400,4,2,0,12,1,0
162363,-90.9090909090909,4,2,0,12,0,0
162763,-91.743119266055,4,2,0,12,0,0
163163,315.789473684211,4,2,0,15,1,0
163163,-111.111111111111,4,2,0,15,0,0
170741,-109.89010989011,4,2,0,18,0,0
172005,-108.695652173913,4,2,0,21,0,0
172320,-107.52688172043,4,2,0,24,0,0
172636,-106.382978723404,4,2,0,27,0,0
172794,-105.263157894737,4,2,0,30,0,0
172952,-104.166666666667,4,2,0,33,0,0
173031,-103.092783505155,4,2,0,36,0,0
173110,-102.040816326531,4,2,0,39,0,0
173189,-101.010101010101,4,2,0,42,0,0
173268,-100,4,2,1,45,0,0
180847,-100,4,2,1,30,0,0
182110,-100,4,2,1,45,0,0
183373,-100,4,2,1,50,0,1
203584,-111.111111111111,4,2,0,50,0,0
204215,-111.111111111111,4,2,0,30,0,0
204847,-111.111111111111,4,2,0,25,0,0
206110,-111.111111111111,4,2,0,20,0,0
208636,-111.111111111111,4,2,0,15,0,0
213689,-105.263157894737,4,2,1,25,0,0
218741,-111.111111111111,4,2,1,25,0,0
219373,-111.111111111111,4,2,1,20,0,0
221268,-105.263157894737,4,2,1,35,0,0
223794,-100,4,2,1,45,0,0
228847,-100,4,2,1,50,0,0
244005,-100,4,2,1,45,0,0
249057,-100,4,2,1,50,0,0
259163,-111.111111111111,4,2,1,45,0,0
260426,-111.111111111111,4,2,1,25,0,0
261689,-105.263157894737,4,2,1,40,0,0
264215,-100,4,2,1,50,0,1
284347,-100,4,2,1,50,0,0
284426,-100,4,2,1,50,0,1
304557,-100,4,2,1,50,0,0
304636,-100,4,2,1,50,0,1
324768,-100,4,2,1,50,0,0
324847,-111.111111111111,4,2,0,80,0,1
325478,-111.111111111111,4,2,0,30,0,1
327373,-111.111111111111,4,2,0,20,0,0
328636,314.13612565445,4,2,0,20,1,0
328636,-112.359550561798,4,2,0,20,0,0
329892,315.789473684211,4,2,0,15,1,0
329892,-111.111111111111,4,2,0,15,0,0
331155,-112.359550561798,4,2,0,15,0,0
332418,307.692307692308,4,2,0,14,1,0
332418,-114.942528735632,4,2,0,14,0,0
333341,333.333333333333,4,2,0,14,1,0
333341,-106.382978723404,4,2,0,14,0,0
333640,325.644504748982,4,2,0,14,1,0
333640,-108.695652173913,4,2,0,14,0,0
334942,315.789473684211,4,2,0,13,1,0
334942,-112.359550561798,4,2,0,13,0,0
336205,309.677419354839,4,2,0,13,1,0
336205,-114.942528735632,4,2,0,13,0,0
336495,314.13612565445,4,2,0,13,1,0
336495,-112.359550561798,4,2,0,13,0,0
337482,314.13612565445,4,2,0,12,1,0
337482,-113.636363636364,4,2,0,12,0,0
339995,315.789473684211,4,2,0,11,1,0
339995,-112.359550561798,4,2,0,11,0,0
342521,-113.636363636364,4,2,0,11,0,0
345047,-113.636363636364,4,2,0,10,0,0
347573,319.148936170213,4,2,0,10,1,0
347573,-112.359550561798,4,2,0,10,0,0
350126,322.58064516129,4,2,0,10,1,0
350126,-111.111111111111,4,2,0,10,0,0
352061,310.880829015544,4,2,0,10,1,0
352061,-116.279069767442,4,2,0,10,0,0
352682,326.086956521739,4,2,0,10,1,0
352682,-111.111111111111,4,2,0,10,0,0
353965,333.333333333333,4,2,0,10,1,0
353965,-108.695652173913,4,2,0,10,0,0
354604,397.350993377483,4,2,0,10,1,0
354604,-90.9090909090909,4,2,0,10,0,0
355001,310.880829015544,4,2,0,10,1,0
355001,-116.279069767442,4,2,0,10,0,0
355311,370.37037037037,4,2,0,10,1,0
355311,-98.0392156862745,4,2,0,10,0,0
355681,333.333333333333,4,2,0,10,1,0
355681,-108.695652173913,4,2,0,10,0,0
356681,315.789473684211,4,2,0,10,1,0
356681,-114.942528735632,4,2,0,10,0,0
356996,333.333333333333,4,2,0,10,1,0
356996,-108.695652173913,4,2,0,10,0,0
358329,315.789473684211,4,2,0,10,1,0
358329,-114.942528735632,4,2,0,10,0,0
358681,333.333333333333,4,2,0,10,1,0
358681,-108.695652173913,4,2,0,10,0,0
359347,410.958904109589,4,2,0,10,1,0
359347,-88.4955752212389,4,2,0,10,0,0
359757,352.941176470588,4,2,0,10,1,0
359757,-103.092783505155,4,2,0,10,0,0
361516,315.789473684211,4,2,0,10,1,0
361516,-114.942528735632,4,2,0,10,0,0
361831,352.941176470588,4,2,0,10,1,0
361831,-103.092783505155,4,2,0,10,0,0
363507,365.853658536585,4,2,0,10,1,0
363872,375,4,2,0,10,1,0
363872,-97.0873786407767,4,2,0,10,0,0
364247,384.615384615385,4,2,0,10,1,0
364247,-94.3396226415094,4,2,0,10,0,0
364631,394.736842105263,4,2,0,10,1,0
364631,-92.5925925925926,4,2,0,10,0,0
365025,393.44262295082,4,2,0,10,1,0
365025,-92.5925925925926,4,2,0,10,0,0
365418,413.793103448276,4,2,0,10,1,0
365418,-88.4955752212389,4,2,0,10,0,0
366245,315.789473684211,4,2,0,10,1,0
366245,-114.942528735632,4,2,0,10,0,0
366580,-116.279069767442,4,2,0,10,0,0
367981,441.176470588235,4,2,0,9,1,0
367981,-82.6446280991736,4,2,0,9,0,0
368422,410.958904109589,4,2,0,9,1,0
368422,-89.2857142857143,4,2,0,9,0,0
368832,413.793103448276,4,2,0,9,1,0
368832,-88.4955752212389,4,2,0,9,0,0
369245,526.315789473684,4,2,0,9,1,0
369245,-69.4444444444444,4,2,0,9,0,0
369771,500,4,2,0,9,1,0
369771,-73.5294117647059,4,2,0,9,0,0
370271,428.571428571429,4,2,0,8,1,0
370271,-85.4700854700855,4,2,0,8,0,0
370699,468.75,4,2,0,8,1,0
370699,-78.125,4,2,0,8,0,0
371167,451.127819548872,4,2,0,8,1,0
371167,-81.3008130081301,4,2,0,8,0,0
371618,521.739130434783,4,2,0,8,1,0
371618,-70.4225352112676,4,2,0,8,0,0
372139,441.176470588235,4,2,0,8,1,0
372139,-83.3333333333333,4,2,0,8,0,0
372580,422.535211267606,4,2,0,8,1,0
372580,-86.9565217391304,4,2,0,8,0,0
373002,600,4,2,0,7,1,0
373002,-61.3496932515337,4,2,0,7,0,0
373602,652.173913043478,4,2,0,7,1,0
373602,-56.4971751412429,4,2,0,7,0,0
374254,681.818181818182,4,2,0,7,1,0
374254,-54.054054054054,4,2,0,7,0,0
374935,740.740740740741,4,2,0,6,1,0
374935,-49.7512437810945,4,2,0,6,0,0
375675,750,4,2,0,6,1,0
375675,-49.2610837438424,4,2,0,6,0,0
376425,956.175298804781,4,2,0,6,1,0
376425,-38.6100386100386,4,2,0,6,0,0
377381,638.297872340426,4,2,0,5,1,0
377381,-57.8034682080925,4,2,0,5,0,0

[HitObjects]
36,192,706,5,0,0:0:0:0:
109,192,1337,5,2,0:0:0:0:
182,192,1969,1,2,0:0:0:0:
329,192,3232,1,2,0:0:0:0:
402,192,3863,1,2,0:0:0:0:
182,192,5758,1,0,0:0:0:0:
329,192,7337,1,2,0:0:0:0:
109,192,8284,1,0,0:0:0:0:
402,192,9548,1,2,0:0:0:0:
256,192,10179,1,2,0:0:0:0:
109,192,10811,1,0,0:0:0:0:
182,192,11442,1,2,0:0:0:0:
329,192,12074,1,2,0:0:0:0:
402,192,13337,1,2,0:0:0:0:
475,192,13969,1,2,0:0:0:0:
402,192,14916,128,2,15863:0:0:0:0:
109,192,15863,1,0,0:0:0:0:
329,192,17442,1,2,0:0:0:0:
256,192,18390,128,0,20916:0:0:0:25:LR_Chm Echo long.wav
402,192,20916,1,4,0:0:0:0:
36,192,20916,1,0,0:0:0:80:LR_Drum Crush Finish.wav
182,192,21548,1,2,0:0:0:0:
329,192,22179,1,2,0:0:0:0:
109,192,22811,1,0,0:0:0:35:LR_HiHat SClick 2.wav
256,192,23442,1,2,0:0:0:0:
402,192,24074,1,2,0:0:0:0:
182,192,24706,1,0,0:0:0:35:LR_HiHat SClick 2.wav
475,192,25337,1,2,0:0:0:0:
402,192,25969,1,2,0:0:0:0:
109,192,25969,1,4,0:0:0:0:
329,192,26600,1,0,0:0:0:35:LR_HiHat SClick 2.wav
182,192,27232,1,0,0:0:0:35:LR_HiHat SClick 2.wav
109,192,27863,1,0,0:0:0:35:LR_HiHat SClick 2.wav
256,192,28495,1,2,0:0:0:0:
36,192,29127,1,0,0:0:0:35:LR_HiHat SClick 2.wav
475,192,29758,1,2,0:0:0:0:
256,192,30390,1,2,0:0:0:0:
329,192,31021,1,2,0:0:0:0:
36,192,31021,1,4,0:0:0:0:
182,192,31653,1,2,0:0:0:0:
329,192,32284,1,2,0:0:0:0:
109,192,32916,1,0,0:0:0:35:LR_HiHat SClick 2.wav
256,192,33548,1,2,0:0:0:0:
475,192,34179,1,2,0:0:0:0:
36,192,34179,1,4,0:0:0:0:
109,192,34811,1,0,0:0:0:35:LR_HiHat SClick 2.wav
402,192,35442,1,2,3:0:0:0:
329,192,36074,1,6,0:0:0:0:
182,192,36074,1,0,0:0:0:80:LR_Drum Crush Finish.wav
402,192,36706,1,2,0:0:0:0:
109,192,36706,1,2,0:0:0:0:
475,192,38600,1,4,0:0:0:0:
329,192,39074,1,4,0:0:0:0:
182,192,39548,1,4,0:0:0:0:
36,192,40021,1,4,0:0:0:0:
329,192,40495,1,4,0:0:0:0:
182,192,40811,1,4,0:0:0:0:
402,192,41127,1,0,0:0:0:40:crash.wav
109,192,41127,1,4,1:0:0:0:
329,192,41758,1,2,0:0:0:0:
109,192,42390,1,0,0:0:0:45:LR_HiHat Click.wav
402,192,43021,1,0,0:0:0:45:LR_HiHat Click.wav
36,192,43653,1,2,0:0:0:0:
182,192,44284,1,0,0:0:0:45:LR_HiHat Click.wav
475,192,44916,1,2,0:0:0:0:
329,192,45548,1,2,0:0:0:0:
182,192,46179,1,2,0:0:0:0:
256,192,46179,1,4,0:0:0:0:
402,192,46811,1,0,0:0:0:45:LR_HiHat Click.wav
109,192,47442,1,0,0:0:0:45:LR_HiHat Click.wav
256,192,48074,1,2,0:0:0:0:
402,192,48706,1,2,0:0:0:0:
256,192,49337,1,0,0:0:0:45:LR_HiHat Click.wav
109,192,49969,128,0,50600:0:0:0:45:LR_Drum Hit Clap Sn.wav
402,192,50600,128,0,51232:0:0:0:45:LR_Drum Hit Clap Sn.wav
36,192,51232,1,2,0:0:0:0:
475,192,51232,1,4,0:0:0:0:
256,192,51863,1,0,0:0:0:45:LR_HiHat Click.wav
109,192,52495,1,2,0:0:0:0:
329,192,53127,1,0,0:0:0:45:LR_HiHat Click.wav
182,192,53758,1,2,0:0:0:0:
402,192,54390,1,0,0:0:0:45:LR_HiHat Click.wav
256,192,55021,1,2,0:0:0:0:
109,192,55653,1,2,0:0:0:0:
256,192,56284,1,4,0:0:0:0:
402,192,56284,1,2,0:0:0:0:
329,192,56916,1,2,0:0:0:0:
36,192,57548,1,0,0:0:0:45:LR_HiHat Click.wav
475,192,58179,1,0,0:0:0:45:LR_HiHat Click.wav
329,192,58811,128,0,59442:0:0:0:45:LR_HiHat Click.wav
256,192,58811,1,4,0:0:0:0:
182,192,59442,128,2,60074:0:0:0:0:
109,192,60074,1,2,0:0:0:0:
256,192,60074,1,4,0:0:0:0:
256,192,60706,1,4,0:0:0:0:
402,192,60706,1,2,0:0:0:0:
109,192,61337,1,4,1:0:0:0:
182,192,61337,1,6,0:0:0:0:
402,192,61969,1,2,0:0:0:0:
182,192,62600,1,0,0:0:0:45:LR_HiHat Click.wav
329,192,63232,1,0,0:0:0:45:LR_HiHat Click.wav
36,192,63863,1,2,0:0:0:0:
182,192,64495,1,0,0:0:0:45:LR_HiHat Click.wav
475,192,65127,1,2,0:0:0:0:
329,192,65758,1,2,0:0:0:0:
109,192,66390,1,2,0:0:0:0:
402,192,66390,1,4,0:0:0:0:
182,192,67021,1,0,0:0:0:45:LR_HiHat Click.wav
329,192,67653,1,0,0:0:0:45:LR_HiHat Click.wav
109,192,68284,1,2,0:0:0:0:
475,192,68916,1,2,0:0:0:0:
36,192,69548,1,0,0:0:0:45:LR_HiHat Click.wav
109,192,70179,1,2,0:0:0:0:
182,192,70600,1,2,0:0:0:0:
329,192,71021,1,2,0:0:0:0:
402,192,71442,1,2,0:0:0:0:
182,192,71442,1,4,0:0:0:0:
36,192,72074,1,0,0:0:0:45:LR_HiHat Click.wav
402,192,72706,1,0,0:0:0:45:LR_HiHat Click.wav
109,192,73337,1,2,0:0:0:0:
329,192,73969,1,4,0:0:0:0:
402,192,73969,1,2,0:0:0:0:
182,192,74600,1,0,0:0:0:45:LR_HiHat Click.wav
256,192,75232,1,2,0:0:0:0:
475,192,75653,1,2,0:0:0:0:
182,192,76074,1,2,0:0:0:0:
402,192,76495,128,0,77758:0:0:0:100:LR_Drum Crush Finish.wav
329,192,76495,1,6,0:0:0:0:
109,192,77758,128,2,79021:0:0:0:0:
329,192,79021,1,4,0:0:0:0:
182,192,79495,1,4,0:0:0:0:
402,192,79969,1,4,0:0:0:0:
109,192,80442,1,4,0:0:0:0:
475,192,80916,1,4,0:0:0:0:
36,192,81232,1,4,0:0:0:0:
109,192,81548,1,4,1:0:0:0:
402,192,81548,1,0,0:0:0:50:crash.wav
329,192,82179,1,0,0:0:0:45:LR_HiHat Click.wav
109,192,82811,1,2,0:0:0:0:
475,192,83442,1,0,0:0:0:45:LR_HiHat Click.wav
182,192,84074,1,4,0:0:0:0:
109,192,84074,1,2,0:0:0:0:
329,192,84706,1,0,0:0:0:45:LR_HiHat Click.wav
402,192,84706,1,4,0:0:0:0:
109,192,85337,1,2,0:0:0:0:
402,192,85969,1,0,0:0:0:80:LR_Drum Rpd.wav
329,192,86284,1,0,0:0:0:80:LR_Drum Rpd.wav
182,192,86600,1,2,0:0:0:0:
256,192,86600,1,4,0:0:0:0:
109,192,87232,1,0,0:0:0:45:LR_HiHat Click.wav
329,192,87863,1,2,0:0:0:0:
402,192,88495,1,0,0:0:0:45:LR_HiHat Click.wav
182,192,89127,1,2,0:0:0:0:
36,192,89758,1,0,0:0:0:45:LR_HiHat Click.wav
475,192,90390,1,2,0:0:0:0:
329,192,91021,1,0,0:0:0:80:LR_Drum Rpd.wav
256,192,91337,1,0,0:0:0:80:LR_Drum Rpd.wav
109,192,91653,1,4,0:0:0:0:
402,192,91653,1,2,0:0:0:0:
329,192,92284,1,0,0:0:0:45:LR_HiHat Click.wav
182,192,92916,1,2,0:0:0:0:
256,192,93548,1,0,0:0:0:45:LR_HiHat Click.wav
475,192,94179,1,2,0:0:0:0:
329,192,94811,1,0,0:0:0:45:LR_HiHat Click.wav
36,192,95442,1,2,0:0:0:0:
182,192,96074,1,0,0:0:0:80:LR_Drum Rpd.wav
256,192,96390,1,0,0:0:0:80:LR_Drum Rpd.wav
36,192,96706,1,4,0:0:0:0:
329,192,96706,1,2,0:0:0:0:
475,192,97337,1,0,0:0:0:45:LR_HiHat Click.wav
182,192,97969,1,2,0:0:0:0:
329,192,98600,1,0,0:0:0:45:LR_HiHat Click.wav
475,192,99232,1,2,0:0:0:0:
182,192,99863,1,0,0:0:0:45:LR_HiHat Click.wav
402,192,100495,128,2,101127:0:0:0:0:
109,192,101127,128,2,101758:0:0:0:0:
402,192,101758,1,2,0:0:0:0:
256,192,101758,1,4,0:0:0:0:
182,192,102390,1,0,0:0:0:45:LR_HiHat Click.wav
329,192,103021,1,2,0:0:0:0:
109,192,103653,1,0,0:0:0:45:LR_HiHat Click.wav
402,192,104284,1,2,0:0:0:0:
256,192,104284,1,2,3:0:0:0:
329,192,104916,1,0,0:0:0:45:LR_HiHat Click.wav
256,192,105548,1,2,0:0:0:0:
182,192,106179,128,2,106811:0:0:0:0:
109,192,106179,1,4,0:0:0:0:
329,192,106811,1,2,0:0:0:0:
402,192,106811,1,4,0:0:0:0:
182,192,107442,1,0,0:0:0:45:LR_HiHat Click.wav
256,192,108074,1,2,0:0:0:0:
109,192,108706,1,0,0:0:0:45:LR_HiHat Click.wav
402,192,109337,1,2,0:0:0:0:
329,192,109969,1,0,0:0:0:45:LR_HiHat Click.wav
256,192,110284,1,2,0:0:0:0:
109,192,110600,1,2,0:0:0:0:
182,192,111021,1,2,0:0:0:0:
256,192,111442,1,2,0:0:0:0:
402,192,111863,1,4,0:0:0:0:
329,192,111863,1,2,0:0:0:0:
109,192,112495,1,0,0:0:0:45:LR_HiHat Click.wav
329,192,113127,1,0,0:0:0:45:LR_HiHat Click.wav
182,192,113758,1,0,0:0:0:45:LR_HiHat Click.wav
475,192,114390,1,2,0:0:0:0:
329,192,114390,1,4,0:0:0:0:
36,192,115021,1,0,0:0:0:45:LR_HiHat Click.wav
329,192,115653,1,0,0:0:0:45:LR_HiHat Click.wav
109,192,116284,1,0,0:0:0:45:LR_HiHat Click.wav
475,192,116916,1,4,0:0:0:0:
182,192,116916,1,0,0:0:0:0:
109,192,117548,1,0,0:0:0:45:LR_HiHat Click.wav
402,192,118179,1,0,0:0:0:45:LR_HiHat Click.wav
36,192,118811,1,0,0:0:0:45:LR_HiHat Click.wav
402,192,119442,1,4,0:0:0:0:
329,192,119442,1,2,0:0:0:0:
182,192,119863,1,2,0:0:0:0:
109,192,120284,1,2,0:0:0:0:
256,192,120706,128,2,121969:0:0:0:0:
109,192,121337,1,2,0:0:0:0:
402,192,121969,1,4,1:0:0:0:
182,192,121969,1,6,0:0:0:0:
329,192,122600,1,0,0:0:0:45:LR_HiHat Click.wav
182,192,123232,1,2,0:0:0:0:
329,192,123863,1,0,0:0:0:45:LR_HiHat Click.wav
256,192,124495,1,4,0:0:0:0:
182,192,124495,1,2,0:0:0:0:
329,192,125127,1,0,0:0:0:45:LR_HiHat Click.wav
182,192,125758,1,2,0:0:0:0:
256,192,126390,1,2,0:0:0:0:
329,192,126706,1,2,0:0:0:0:
109,192,127021,1,2,0:0:0:0:
475,192,127021,1,4,0:0:0:0:
36,192,127653,1,0,0:0:0:45:LR_HiHat Click.wav
329,192,128284,1,2,0:0:0:0:
36,192,128916,1,0,0:0:0:45:LR_HiHat Click.wav
182,192,129548,1,4,0:0:0:0:
475,192,129548,1,2,0:0:0:0:
36,192,130179,1,0,0:0:0:45:LR_HiHat Click.wav
402,192,130811,1,2,0:0:0:0:
182,192,131442,1,2,0:0:0:0:
329,192,131758,1,2,0:0:0:0:
109,192,132074,1,2,0:0:0:0:
402,192,132074,1,4,0:0:0:0:
182,192,132706,1,0,0:0:0:45:LR_HiHat Click.wav
329,192,133337,1,2,0:0:0:0:
109,192,133969,1,0,0:0:0:45:LR_HiHat Click.wav
182,192,134600,1,4,0:0:0:0:
402,192,134600,1,2,0:0:0:0:
36,192,135232,1,0,0:0:0:45:LR_HiHat Click.wav
475,192,135863,1,2,0:0:0:0:
109,192,136495,1,2,0:0:0:0:
182,192,136811,1,2,0:0:0:0:
402,192,137127,1,2,0:0:0:0:
256,192,137127,1,4,0:0:0:0:
256,192,137758,1,0,0:0:0:45:LR_HiHat Click.wav
109,192,138390,1,2,0:0:0:0:
256,192,138390,1,0,0:0:0:45:LR_HiHat Click.wav
256,192,139021,1,0,0:0:0:45:LR_HiHat Click.wav
402,192,139653,1,2,0:0:0:0:
109,192,139653,1,0,0:0:0:45:LR_HiHat Click.wav
182,192,140284,1,0,0:0:0:45:LR_HiHat Click.wav
109,192,140916,1,2,0:0:0:0:
256,192,140916,1,0,0:0:0:45:LR_HiHat Click.wav
329,192,141548,1,2,0:0:0:0:
402,192,141863,1,2,0:0:0:0:
36,192,142179,128,4,144706:1:0:0:0:
475,192,142179,128,0,144706:0:0:0:50:crash.wav
182,192,144706,1,2,0:0:0:0:
329,192,145337,1,2,0:0:0:0:
109,192,147232,1,0,0:0:0:0:
329,192,149758,1,0,0:0:0:0:
475,192,151021,1,2,0:0:0:0:
256,192,151653,1,2,0:0:0:0:
36,192,152284,1,2,0:0:0:0:
182,192,152916,1,2,0:0:0:0:
329,192,153548,1,2,0:0:0:0:
109,192,154811,1,2,0:0:0:0:
475,192,155495,1,2,0:0:0:0:
402,192,157506,1,2,0:0:0:0:
36,192,160238,1,2,0:0:0:0:
256,192,161641,1,0,0:0:0:25:LR_Chm Echo long.wav
109,192,163163,1,4,1:0:0:0:
402,192,163163,1,0,0:0:0:40:crash.wav
36,192,165689,1,2,0:0:0:0:
329,192,166952,1,2,0:0:0:0:
182,192,167584,1,2,0:0:0:0:
36,192,168215,1,6,0:0:0:0:
475,192,168215,1,0,0:0:0:80:LR_Drum Crush Finish.wav
109,192,170741,1,2,0:0:0:0:
402,192,170741,1,2,0:0:0:0:
329,192,172005,128,2,173268:0:0:0:0:
182,192,172636,128,2,173268:0:0:0:0:
475,192,173268,1,4,0:0:0:0:
36,192,173268,1,2,0:0:0:0:
329,192,173899,1,0,0:0:0:90:LR_Drum Rpd.wav
109,192,174531,1,0,0:0:0:90:LR_Drum Rpd.wav
402,192,175163,1,0,0:0:0:90:LR_Drum Rpd.wav
36,192,175794,1,4,0:0:0:0:
182,192,175794,1,2,0:0:0:0:
329,192,176426,1,0,0:0:0:90:LR_Drum Rpd.wav
475,192,177057,1,2,0:0:0:0:
182,192,177689,1,2,0:0:0:0:
36,192,178320,1,4,0:0:0:0:
402,192,178320,1,2,0:0:0:0:
182,192,178952,1,0,0:0:0:45:LR_Drum Hit Clap Sn.wav
329,192,179584,1,0,0:0:0:45:LR_Drum Hit Clap Sn.wav
475,192,180215,1,0,0:0:0:45:LR_Drum Hit Clap Sn.wav
182,192,180847,1,0,0:0:0:45:LR_Drum Hit Clap Sn.wav
256,192,180847,1,6,0:0:0:0:
329,192,181163,1,0,0:0:0:45:LR_Drum Hit Clap Sn.wav
182,192,181478,1,0,0:0:0:45:LR_Drum Hit Clap Sn.wav
329,192,181794,1,0,0:0:0:45:LR_Drum Hit Clap Sn.wav
109,192,182268,1,6,0:0:0:0:
402,192,182268,1,8,0:0:0:0:
256,192,182268,1,0,0:0:0:50:LR_Clap Loud L.wav
256,192,182741,128,0,183373:0:0:0:30:LR_RevCyRDW.wav
475,192,183373,1,0,0:0:0:60:crash.wav
36,192,183373,1,4,1:0:0:0:
329,192,184005,1,2,0:0:0:0:
182,192,184636,1,2,0:0:0:0:
36,192,185268,1,2,0:0:0:0:
109,192,185899,1,2,0:0:0:0:
402,192,185899,1,4,0:0:0:0:
182,192,186215,1,2,3:0:0:0:
256,192,186531,1,2,0:0:0:0:
329,192,186847,1,2,3:0:0:0:
402,192,187163,1,2,0:0:0:0:
475,192,187478,1,4,0:0:0:0:
36,192,187478,1,2,0:0:0:0:
329,192,187794,1,2,0:0:0:0:
182,192,188110,1,2,0:0:0:0:
109,192,188426,1,2,0:0:0:0:
402,192,188426,1,4,0:0:0:0:
182,192,189057,1,2,0:0:0:0:
329,192,189373,1,2,3:0:0:0:
475,192,189689,1,2,0:0:0:0:
36,192,190005,1,2,3:0:0:0:
182,192,190320,1,2,0:0:0:0:
402,192,190952,1,2,0:0:0:0:
329,192,190952,1,4,0:0:0:0:
36,192,191268,1,2,3:0:0:0:
182,192,191584,1,2,0:0:0:0:
475,192,192057,1,2,0:0:0:0:
329,192,192373,1,2,0:0:0:0:
182,192,192847,1,2,0:0:0:0:
109,192,193163,1,2,0:0:0:0:
402,192,193478,1,4,0:0:0:0:
329,192,193478,1,2,0:0:0:0:
36,192,193794,1,2,3:0:0:0:
182,192,194110,1,2,0:0:0:0:
402,192,194584,1,2,0:0:0:0:
256,192,194899,1,2,0:0:0:0:
109,192,195373,1,2,0:0:0:0:
475,192,195689,1,2,0:0:0:0:
182,192,196005,1,4,0:0:0:0:
329,192,196005,1,2,0:0:0:0:
256,192,196636,1,2,0:0:0:0:
402,192,197268,1,2,0:0:0:0:
36,192,197584,1,2,3:0:0:0:
182,192,197899,1,2,0:0:0:0:
256,192,198215,1,2,0:0:0:0:
329,192,198531,1,4,0:0:0:0:
402,192,198531,1,2,0:0:0:0:
182,192,199005,1,2,0:0:0:0:
402,192,199478,1,2,0:0:0:0:
109,192,199794,1,2,0:0:0:0:
329,192,200426,1,2,0:0:0:0:
182,192,200741,1,2,0:0:0:0:
329,192,201057,1,4,0:0:0:0:
475,192,201057,1,2,0:0:0:0:
36,192,201689,1,2,0:0:0:0:
182,192,201689,1,4,0:0:0:0:
402,192,202320,1,2,0:0:0:0:
329,192,202320,1,4,0:0:0:0:
109,192,202636,1,2,0:0:0:0:
182,192,202636,1,4,0:0:0:0:
329,192,202952,1,2,0:0:0:0:
182,192,203268,1,2,0:0:0:0:
109,192,203584,128,6,208636:0:0:0:0:
402,192,203584,128,0,206110:0:0:0:100:LR_Drum Crush Finish.wav
256,192,208636,5,0,0:0:0:0:
182,192,211163,1,0,0:0:0:0:
329,192,212426,1,0,0:0:0:0:
402,192,213057,1,0,0:0:0:0:
182,192,213689,1,0,0:0:0:80:LR_Drum Crush Finish.wav
475,192,213689,1,4,0:0:0:0:
256,192,214320,1,2,0:0:0:0:
329,192,214952,1,2,0:0:0:0:
182,192,216215,1,2,0:0:0:0:
475,192,216847,1,6,0:0:0:0:
36,192,216847,1,0,0:0:0:80:LR_Drum Crush Finish.wav
329,192,217478,1,0,0:0:0:35:LR_HiHat SClick 2.wav
182,192,218110,1,2,3:0:0:0:
36,192,218741,128,2,219373:0:0:0:80:LR_Drum Crush Finish.wav
329,192,218741,1,6,0:0:0:0:
475,192,219373,128,2,221268:0:0:0:0:
402,192,221268,1,4,0:0:0:0:
109,192,221741,1,4,0:0:0:0:
329,192,222215,1,4,0:0:0:0:
182,192,222689,1,4,0:0:0:0:
402,192,223163,1,4,0:0:0:0:
256,192,223478,1,4,0:0:0:0:
109,192,223794,1,4,0:0:0:0:
182,192,224268,1,4,0:0:0:0:
329,192,224741,1,4,0:0:0:0:
256,192,225689,1,2,0:0:0:0:
182,192,226320,1,4,0:0:0:0:
329,192,226794,1,4,0:0:0:0:
402,192,227268,1,4,0:0:0:0:
402,192,228215,1,4,0:0:0:0:
182,192,228215,1,2,0:0:0:0:
109,192,228847,1,6,0:0:0:0:
329,192,228847,1,4,1:0:0:0:
36,192,229478,1,2,0:0:0:0:
109,192,229794,1,2,3:0:0:0:
182,192,230110,1,2,0:0:0:0:
256,192,230426,1,2,3:0:0:0:
329,192,230741,1,2,0:0:0:0:
475,192,231215,1,2,0:0:0:0:
402,192,231531,1,2,0:0:0:0:
329,192,232005,1,2,0:0:0:0:
256,192,232320,1,2,0:0:0:0:
182,192,232636,1,8,3:0:0:70:LR_Tom Hit 2.wav
36,192,232952,1,4,3:0:0:70:LR_Tom Hit 3.wav
109,192,233268,128,0,233741:0:0:0:70:LR_Tom Hit 3.wav
329,192,233741,1,4,1:0:0:0:
402,192,233741,1,6,0:0:0:0:
182,192,235163,1,0,0:0:0:45:LR_HiHat SClick 2.wav
329,192,235163,1,2,0:0:0:0:
109,192,236426,1,2,0:0:0:0:
402,192,236426,1,0,0:0:0:45:LR_HiHat SClick 2.wav
475,192,237531,1,2,0:0:0:0:
36,192,237531,1,0,0:0:0:45:LR_HiHat SClick 2.wav
182,192,238320,1,2,0:0:0:0:
109,192,238320,1,0,0:0:0:45:LR_HiHat SClick 2.wav
329,192,238794,1,6,0:0:0:0:
402,192,238794,1,4,1:0:0:0:
182,192,239584,1,0,0:0:0:45:LR_HiHat SClick 2.wav
329,192,239584,1,2,0:0:0:0:
109,192,241478,1,2,0:0:0:0:
402,192,241478,1,4,0:0:0:0:
256,192,242110,1,2,0:0:0:0:
329,192,242741,1,2,0:0:0:0:
109,192,242741,1,4,0:0:0:0:
402,192,243373,1,2,0:0:0:0:
182,192,243373,1,4,0:0:0:0:
36,192,244005,1,4,0:0:0:0:
182,192,244478,1,4,0:0:0:0:
329,192,244952,1,4,0:0:0:0:
329,192,245426,1,4,0:0:0:0:
329,192,245899,1,4,0:0:0:0:
182,192,246531,1,4,0:0:0:0:
329,192,247005,1,4,0:0:0:0:
475,192,247478,1,4,0:0:0:0:
256,192,248426,128,4,249057:0:0:0:0:
109,192,249057,1,6,0:0:0:0:
402,192,249057,1,4,1:0:0:0:
36,192,249689,1,2,0:0:0:0:
109,192,250005,1,2,3:0:0:0:
182,192,250320,1,2,0:0:0:0:
256,192,250636,1,2,3:0:0:0:
329,192,250952,1,2,0:0:0:0:
475,192,251426,1,2,0:0:0:0:
182,192,251741,1,2,0:0:0:0:
402,192,252215,1,2,0:0:0:0:
329,192,252531,1,2,0:0:0:0:
182,192,252847,1,2,0:0:0:0:
109,192,253163,1,2,0:0:0:0:
256,192,253478,128,6,254110:0:0:0:0:
36,192,254110,1,6,0:0:0:0:
475,192,254110,1,4,1:0:0:0:
109,192,254741,1,2,0:0:0:0:
182,192,255057,1,0,0:0:0:45:LR_HiHat SClick 2.wav
256,192,255373,1,2,0:0:0:0:
329,192,255689,1,0,0:0:0:45:LR_HiHat SClick 2.wav
402,192,256005,1,2,0:0:0:0:
182,192,256005,1,0,0:0:0:45:LR_HiHat SClick 2.wav
109,192,256320,1,0,0:0:0:45:LR_HiHat SClick 2.wav
36,192,256636,1,4,0:0:0:0:
475,192,256636,1,2,0:0:0:0:
182,192,257268,1,2,3:0:0:0:
256,192,257584,1,0,0:0:0:45:LR_HiHat SClick 2.wav
329,192,257899,1,2,0:0:0:0:
402,192,258320,1,2,0:0:0:0:
109,192,258741,1,2,0:0:0:0:
475,192,259163,128,0,260426:0:0:0:100:LR_Drum Crush Finish.wav
182,192,259163,1,6,0:0:0:0:
36,192,260426,128,2,261689:0:0:0:0:
329,192,261689,1,4,0:0:0:0:
182,192,262163,1,4,0:0:0:0:
402,192,262636,1,4,0:0:0:0:
109,192,263110,1,4,0:0:0:0:
329,192,263584,1,4,0:0:0:0:
182,192,263899,1,4,0:0:0:0:
36,192,264215,1,4,1:0:0:0:
475,192,264215,1,0,0:0:0:60:crash.wav
329,192,264847,1,2,0:0:0:0:
182,192,265478,1,2,0:0:0:0:
36,192,266110,1,2,0:0:0:0:
109,192,266741,1,2,0:0:0:0:
402,192,266741,1,4,0:0:0:0:
36,192,267057,1,2,3:0:0:0:
329,192,267373,1,2,0:0:0:0:
182,192,267689,1,2,3:0:0:0:
475,192,268005,1,2,0:0:0:0:
256,192,268320,1,2,0:0:0:0:
36,192,268320,1,4,0:0:0:0:
402,192,268636,1,2,0:0:0:0:
109,192,268952,1,2,0:0:0:0:
256,192,269268,1,2,0:0:0:0:
475,192,269268,1,4,0:0:0:0:
182,192,269899,1,2,0:0:0:0:
329,192,270215,1,2,3:0:0:0:
475,192,270531,1,2,0:0:0:0:
36,192,270847,1,2,3:0:0:0:
329,192,271163,1,2,0:0:0:0:
109,192,271794,1,2,0:0:0:0:
402,192,271794,1,4,0:0:0:0:
182,192,272110,1,2,3:0:0:0:
329,192,272426,1,2,0:0:0:0:
402,192,272899,1,2,0:0:0:0:
109,192,273215,1,2,0:0:0:0:
329,192,273689,1,2,0:0:0:0:
182,192,274005,1,2,0:0:0:0:
109,192,274320,1,4,0:0:0:0:
402,192,274320,1,2,0:0:0:0:
36,192,274636,1,2,3:0:0:0:
182,192,274952,1,2,0:0:0:0:
475,192,275426,1,2,0:0:0:0:
256,192,275741,1,2,0:0:0:0:
109,192,276215,1,2,0:0:0:0:
182,192,276531,1,2,0:0:0:0:
402,192,276847,1,2,0:0:0:0:
256,192,276847,1,4,0:0:0:0:
329,192,277478,1,2,0:0:0:0:
402,192,278110,1,2,0:0:0:0:
109,192,278426,1,2,3:0:0:0:
182,192,278741,1,2,0:0:0:0:
329,192,279057,1,2,0:0:0:0:
475,192,279373,1,4,0:0:0:0:
36,192,279373,1,2,0:0:0:0:
329,192,279847,1,2,0:0:0:0:
182,192,280320,1,2,0:0:0:0:
256,192,280636,1,2,0:0:0:0:
329,192,281268,1,2,0:0:0:0:
109,192,281584,1,2,0:0:0:0:
402,192,281899,1,2,0:0:0:0:
182,192,281899,1,4,0:0:0:0:
329,192,282531,1,2,0:0:0:0:
109,192,282531,1,4,0:0:0:0:
402,192,283163,1,2,0:0:0:0:
182,192,283163,1,4,0:0:0:0:
109,192,283478,1,4,0:0:0:0:
329,192,283478,1,2,0:0:0:0:
402,192,283794,1,2,0:0:0:0:
109,192,284110,1,2,0:0:0:0:
36,192,284426,1,4,1:0:0:0:
475,192,284426,1,0,0:0:0:60:crash.wav
329,192,284741,1,2,3:0:0:0:
182,192,285057,1,2,0:0:0:0:
109,192,285373,1,2,3:0:0:0:
402,192,285689,1,2,0:0:0:0:
182,192,286005,1,2,3:0:0:0:
36,192,286320,1,2,0:0:0:0:
256,192,286636,1,2,3:0:0:0:
329,192,286952,1,2,0:0:0:0:
182,192,286952,1,4,0:0:0:0:
402,192,287426,1,2,0:0:0:0:
109,192,287426,1,4,0:0:0:0:
109,192,288057,1,4,0:0:0:0:
402,192,288057,1,2,0:0:0:0:
475,192,288531,1,2,0:0:0:0:
36,192,288531,1,4,0:0:0:0:
329,192,288847,1,2,0:0:0:0:
182,192,289163,1,2,0:0:0:0:
402,192,289478,1,2,0:0:0:0:
109,192,289478,1,4,0:0:0:0:
329,192,289794,1,2,3:0:0:0:
182,192,290110,1,2,0:0:0:0:
329,192,290426,1,2,3:0:0:0:
475,192,290741,1,2,0:0:0:0:
182,192,291057,1,2,3:0:0:0:
329,192,291373,1,2,0:0:0:0:
182,192,291689,1,2,3:0:0:0:
36,192,292005,1,4,0:0:0:0:
475,192,292005,1,2,0:0:0:0:
256,192,292320,1,2,3:0:0:0:
109,192,292636,1,2,0:0:0:0:
256,192,292952,1,2,3:0:0:0:
475,192,293268,1,2,0:0:0:0:
36,192,293584,1,2,3:0:0:0:
329,192,293899,1,2,0:0:0:0:
182,192,294215,1,2,0:0:0:0:
402,192,294531,1,2,0:0:0:0:
109,192,294531,1,4,0:0:0:0:
36,192,294847,1,2,3:0:0:0:
182,192,295163,1,2,0:0:0:0:
329,192,295478,1,2,3:0:0:0:
475,192,295794,1,2,0:0:0:0:
36,192,296110,1,2,3:0:0:0:
182,192,296426,1,2,0:0:0:0:
329,192,296741,1,2,0:0:0:0:
109,192,297057,1,4,0:0:0:0:
402,192,297057,1,2,0:0:0:0:
182,192,297373,1,2,3:0:0:0:
329,192,297689,1,2,0:0:0:0:
109,192,298163,1,2,0:0:0:0:
402,192,298163,1,4,0:0:0:0:
182,192,298478,1,2,0:0:0:0:
329,192,298478,1,4,0:0:0:0:
109,192,298952,1,2,0:0:0:0:
329,192,299268,1,2,0:0:0:0:
475,192,299584,1,4,0:0:0:0:
36,192,299584,1,2,0:0:0:0:
109,192,300057,1,2,0:0:0:0:
402,192,300531,1,2,0:0:0:0:
109,192,300847,1,2,0:0:0:0:
475,192,301478,1,2,0:0:0:0:
36,192,301794,1,2,0:0:0:0:
475,192,302110,1,2,0:0:0:0:
256,192,302110,1,4,0:0:0:0:
36,192,302426,1,2,0:0:0:0:
475,192,302741,1,2,0:0:0:0:
256,192,302741,1,4,0:0:0:0:
36,192,303057,1,2,0:0:0:0:
109,192,303373,128,0,304636:0:0:0:45:LR_Drum Hit Clap Sn.wav
402,192,303373,128,0,304636:0:0:0:55:LR_Drum Rpd Fast .wav
182,192,304636,1,0,0:0:0:60:crash.wav
329,192,304636,1,4,1:0:0:0:
475,192,305110,1,2,0:0:0:0:
36,192,305110,1,0,0:0:0:0:
256,192,305584,1,2,3:0:0:0:
329,192,305899,1,2,0:0:0:0:
182,192,306373,1,2,0:0:0:0:
256,192,306847,1,2,3:0:0:0:
402,192,307163,1,4,0:0:0:0:
109,192,307163,1,2,0:0:0:0:
36,192,307478,1,2,3:0:0:0:
256,192,307794,1,2,0:0:0:0:
475,192,308110,1,2,3:0:0:0:
329,192,308426,1,2,0:0:0:0:
182,192,308426,1,0,0:0:0:0:
256,192,308741,1,2,3:0:0:0:
109,192,309057,1,2,0:0:0:0:
402,192,309057,1,0,0:0:0:0:
256,192,309373,1,0,0:0:0:100:LR_Drum Rpd.wav
36,192,309689,1,4,0:0:0:0:
475,192,309689,1,2,0:0:0:0:
109,192,310163,1,2,0:0:0:0:
402,192,310163,1,0,0:0:0:0:
182,192,310636,1,2,3:0:0:0:
36,192,310952,1,0,0:0:0:0:
329,192,310952,1,2,0:0:0:0:
256,192,311268,1,2,3:0:0:0:
109,192,311584,1,2,0:0:0:0:
402,192,311584,1,0,0:0:0:0:
256,192,311899,1,2,3:0:0:0:
182,192,312215,1,2,0:0:0:0:
475,192,312215,1,4,0:0:0:0:
109,192,312531,1,2,3:0:0:0:
256,192,312847,1,2,0:0:0:0:
329,192,313163,1,2,3:0:0:0:
475,192,313478,1,4,0:0:0:0:
182,192,313478,1,2,0:0:0:0:
256,192,313794,1,2,3:0:0:0:
109,192,314110,128,2,314741:0:0:0:0:
402,192,314110,1,0,0:0:0:0:
36,192,314741,1,4,0:0:0:0:
329,192,314741,1,2,0:0:0:0:
475,192,315215,1,2,0:0:0:0:
182,192,315215,1,0,0:0:0:0:
256,192,315689,1,2,3:0:0:0:
402,192,316005,1,2,0:0:0:0:
109,192,316478,1,2,0:0:0:0:
256,192,316952,1,2,3:0:0:0:
36,192,317268,1,2,0:0:0:0:
475,192,317268,1,4,0:0:0:0:
256,192,317899,1,2,0:0:0:0:
402,192,318531,1,2,0:0:0:0:
109,192,318531,1,0,0:0:0:0:
329,192,319163,1,2,0:0:0:0:
182,192,319163,1,0,0:0:0:0:
36,192,319794,1,2,0:0:0:0:
475,192,319794,1,4,0:0:0:0:
182,192,320110,1,2,0:0:0:0:
256,192,320426,1,2,0:0:0:0:
329,192,320741,1,2,0:0:0:0:
109,192,321057,1,4,0:0:0:0:
402,192,321057,1,2,0:0:0:0:
329,192,321373,1,2,0:0:0:0:
256,192,321689,1,2,0:0:0:0:
182,192,322005,1,2,0:0:0:0:
36,192,322320,1,2,0:0:0:0:
475,192,322320,1,4,0:0:0:0:
182,192,322636,1,2,0:0:0:0:
329,192,322952,1,2,0:0:0:0:
402,192,323268,1,2,0:0:0:0:
36,192,323584,1,4,0:0:0:0:
475,192,323584,128,2,323899:0:0:0:0:
329,192,323899,128,6,324215:0:0:0:0:
182,192,324215,128,6,324531:0:0:0:0:
109,192,324531,128,6,324847:0:0:0:0:
475,192,324847,128,6,327373:0:0:0:0:
36,192,324847,128,4,329892:1:0:0:0:
256,192,324847,1,0,0:0:0:70:crash.wav
256,192,327373,1,2,0:0:0:0:
402,192,328005,1,2,0:0:0:0:
182,192,329892,1,0,0:0:0:0:
329,192,329892,1,0,0:0:0:0:
402,192,332418,1,0,0:0:0:0:
109,192,332418,1,0,0:0:0:0:
475,192,333640,1,2,0:0:0:0:
329,192,334250,1,2,0:0:0:0:
182,192,334942,1,2,0:0:0:0:
36,192,334942,1,0,0:0:0:0:
329,192,335573,1,2,0:0:0:0:
475,192,336205,1,2,0:0:0:0:
36,192,337482,1,2,0:0:0:0:
329,192,337482,1,0,0:0:0:0:
182,192,338110,1,2,0:0:0:0:
475,192,338110,1,0,0:0:0:0:
109,192,339995,1,0,0:0:0:0:
402,192,339995,1,2,0:0:0:0:
475,192,340922,1,2,0:0:0:0:
329,192,341554,1,2,0:0:0:0:
36,192,341712,1,2,0:0:0:0:
182,192,342521,1,0,0:0:0:0:
329,192,342521,1,2,0:0:0:0:
109,192,343784,1,2,0:0:0:0:
402,192,343784,1,0,0:0:0:25:LR_Chm Echo long.wav
475,192,345047,1,2,0:0:0:0:
36,192,345047,1,0,0:0:0:0:
182,192,345679,1,2,0:0:0:0:
329,192,346310,1,2,0:0:0:0:
109,192,347573,1,2,0:0:0:0:
402,192,347573,1,0,0:0:0:0:
36,192,348211,1,0,0:0:0:0:
475,192,348211,1,2,0:0:0:0:
36,192,350126,1,2,0:0:0:0:
475,192,350126,1,0,0:0:0:0:
182,192,350771,1,0,0:0:0:0:
329,192,351416,1,0,0:0:0:0:
109,192,352682,1,0,0:0:0:0:
402,192,352682,1,2,0:0:0:0:
256,192,353334,1,0,0:0:0:0:
36,192,353965,1,0,0:0:0:0:
475,192,353965,1,2,0:0:0:0:
109,192,354604,1,0,0:0:0:0:
402,192,354604,1,2,0:0:0:0:
182,192,355311,1,0,0:0:0:0:
329,192,355311,1,2,0:0:0:0:
109,192,356014,1,2,0:0:0:0:
402,192,356681,1,2,0:0:0:0:
36,192,357996,1,0,0:0:0:0:
329,192,357996,1,2,0:0:0:0:
475,192,358681,1,0,0:0:0:0:
182,192,358681,1,2,0:0:0:0:
402,192,360815,1,2,0:0:0:0:
109,192,360815,1,0,0:0:0:0:
475,192,361831,1,2,0:0:0:0:
329,192,362492,1,2,0:0:0:0:
36,192,362669,1,2,0:0:0:0:
182,192,363507,1,0,0:0:0:0:
475,192,363507,1,2,0:0:0:0:
36,192,364247,1,2,0:0:0:0:
329,192,364247,1,0,0:0:0:0:
402,192,365025,1,2,0:0:0:0:
109,192,365025,1,0,0:0:0:0:
256,192,365831,1,0,0:0:0:0:
36,192,366560,1,0,0:0:0:0:
475,192,366837,1,2,0:0:0:0:
109,192,367981,1,0,0:0:0:0:
256,192,368832,1,0,0:0:0:0:
402,192,369771,1,0,0:0:0:0:
36,192,370271,1,0,0:0:0:0:
182,192,371167,1,0,0:0:0:0:
329,192,372139,1,0,0:0:0:0:
475,192,372580,1,0,0:0:0:0:
36,192,373002,1,0,0:0:0:0:
109,192,373602,1,0,0:0:0:0:
182,192,374254,1,0,0:0:0:0:
256,192,374935,1,0,0:0:0:0:
329,192,375675,1,0,0:0:0:0:
402,192,376425,1,0,0:0:0:0:
475,192,377593,1,0,0:0:0:10:LR_Chm Echo long.wav
