osu file format v14

[General]
AudioFilename: xi - Happy End of the World.mp3
AudioLeadIn: 1825
PreviewTime: 81543
Countdown: 0
SampleSet: Soft
StackLeniency: 0.7
Mode: 3
LetterboxInBreaks: 0
SpecialStyle: 0
WidescreenStoryboard: 0

[Editor]
DistanceSpacing: 1.6
BeatDivisor: 16
GridSize: 8
TimelineZoom: 1.8

[Metadata]
Title:Happy End of the World
TitleUnicode:ハッピーエンドオブザワールド
Artist:xi
ArtistUnicode:xi
Creator:Blocko
Version:5K Insane
Source:
Tags:agartha 100sec records marathon remillion cross fullerene- hellgert -kamikaze- ajeemaniz exusagi ijinjin squishykorean
BeatmapID:431993
BeatmapSetID:171880

[Difficulty]
HPDrainRate:8
CircleSize:5
OverallDifficulty:8
ApproachRate:8.5
SliderMultiplier:1.4
SliderTickRate:1

[Events]
//Background and Video events
0,0,"background.jpg",0,0
//Break Periods
//Storyboard Layer 0 (Background)
//Storyboard Layer 1 (Fail)
//Storyboard Layer 2 (Pass)
//Storyboard Layer 3 (Foreground)
//Storyboard Sound Samples

[TimingPoints]
706,315.789473684211,4,2,0,10,1,0
706,-166.666666666667,4,2,0,10,0,0
20916,-125,4,2,1,25,0,0
36074,-166.666666666667,4,2,1,25,0,0
36706,-166.666666666667,4,2,1,15,0,0
38600,-125,4,2,1,30,0,0
41127,-100,4,2,1,35,0,0
76495,-166.666666666667,4,2,1,35,0,0
77758,-166.666666666667,4,2,1,20,0,0
79021,-125,4,2,1,35,0,0
81548,-100,4,2,1,40,0,0
121969,-100,4,2,1,40,0,1
142100,-100,4,2,1,40,0,0
142179,-166.666666666667,4,2,0,40,0,1
142811,-166.666666666667,4,2,0,30,0,1
144706,-169.491525423729,4,2,0,20,0,0
147232,-169.491525423729,4,2,0,15,0,0
149758,-172.413793103448,4,2,0,15,0,0
152284,-172.413793103448,4,2,0,14,0,0
153548,-175.438596491228,4,2,0,14,0,0
155495,335.195530726257,4,2,0,14,1,0
155495,-163.934426229508,4,2,0,14,0,0
156165,-166.666666666667,4,2,0,14,0,0
156479,333.333333333333,4,2,0,14,1,0
156479,-166.666666666667,4,2,0,14,0,0
157479,-169.491525423729,4,2,0,13,0,0
158167,348.837209302326,4,2,0,13,1,0
158167,-161.290322580645,4,2,0,13,0,0
158864,-163.934426229508,4,2,0,13,0,0
160260,-166.666666666667,4,2,0,12,0,0
160936,352.941176470588,4,2,0,12,1,0
160936,-166.666666666667,4,2,0,12,0,0
161288,-169.491525423729,4,2,0,12,0,0
161641,361.44578313253,4,2,0,12,1,0
161641,-166.666666666667,4,2,0,12,0,0
162002,-169.491525423729,4,2,0,12,0,0
162363,400,4,2,0,12,1,0
162363,-153.846153846154,4,2,0,12,0,0
162763,-156.25,4,2,0,12,0,0
163163,315.789473684211,4,2,0,15,1,0
163163,-166.666666666667,4,2,0,15,0,0
170741,-156.25,4,2,0,18,0,0
172005,-147.058823529412,4,2,0,21,0,0
172320,-138.888888888889,4,2,0,24,0,0
172636,-131.578947368421,4,2,0,27,0,0
172794,-125,4,2,0,30,0,0
172952,-119.047619047619,4,2,0,33,0,0
173031,-113.636363636364,4,2,0,36,0,0
173110,-108.695652173913,4,2,0,39,0,0
173189,-104.166666666667,4,2,0,42,0,0
173268,-100,4,2,1,45,0,0
180847,-100,4,2,1,30,0,0
182110,-100,4,2,1,45,0,0
182268,-57.1428571428571,4,2,1,45,0,0
182426,-158.730158730159,4,2,1,45,0,0
182741,-100,4,2,1,45,0,0
183373,-100,4,2,1,50,0,1
203584,-166.666666666667,4,2,0,50,0,0
204215,-166.666666666667,4,2,0,30,0,0
204847,-166.666666666667,4,2,0,25,0,0
206110,-166.666666666667,4,2,0,20,0,0
208636,-166.666666666667,4,2,0,15,0,0
213689,-125,4,2,1,25,0,0
218741,-166.666666666667,4,2,1,25,0,0
219373,-166.666666666667,4,2,1,20,0,0
221268,-125,4,2,1,35,0,0
223794,-100,4,2,1,45,0,0
228847,-100,4,2,1,50,0,0
244005,-100,4,2,1,45,0,0
249057,-100,4,2,1,50,0,0
259163,-166.666666666667,4,2,1,45,0,0
260426,-166.666666666667,4,2,1,25,0,0
261689,-125,4,2,1,40,0,0
264215,-100,4,2,1,50,0,1
284347,-100,4,2,1,50,0,0
284426,-100,4,2,1,50,0,1
304557,-100,4,2,1,50,0,0
304636,-100,4,2,1,50,0,1
324768,-100,4,2,1,50,0,0
324847,-166.666666666667,4,2,0,80,0,1
325478,-166.666666666667,4,2,0,30,0,1
327373,-169.491525423729,4,2,0,20,0,0
328636,314.13612565445,4,2,0,20,1,0
328636,-169.491525423729,4,2,0,20,0,0
329892,315.789473684211,4,2,0,15,1,0
329892,-169.491525423729,4,2,0,15,0,0
332418,307.692307692308,4,2,0,14,1,0
332418,-175.438596491228,4,2,0,14,0,0
333341,333.333333333333,4,2,0,14,1,0
333341,-163.934426229508,4,2,0,14,0,0
333640,325.644504748982,4,2,0,14,1,0
333640,-166.666666666667,4,2,0,14,0,0
334942,315.789473684211,4,2,0,13,1,0
334942,-172.413793103448,4,2,0,13,0,0
336205,309.677419354839,4,2,0,13,1,0
336205,-178.571428571429,4,2,0,13,0,0
336495,314.13612565445,4,2,0,13,1,0
336495,-175.438596491228,4,2,0,13,0,0
337482,314.13612565445,4,2,0,12,1,0
337482,-175.438596491228,4,2,0,12,0,0
338738,-178.571428571429,4,2,0,12,0,0
339995,315.789473684211,4,2,0,11,1,0
339995,-178.571428571429,4,2,0,11,0,0
345047,-181.818181818182,4,2,0,10,0,0
347573,319.148936170213,4,2,0,10,1,0
347573,-181.818181818182,4,2,0,10,0,0
350126,322.58064516129,4,2,0,10,1,0
350126,-181.818181818182,4,2,0,10,0,0
352061,310.880829015544,4,2,0,10,1,0
352061,-188.679245283019,4,2,0,10,0,0
352682,326.086956521739,4,2,0,10,1,0
352682,-181.818181818182,4,2,0,10,0,0
353965,333.333333333333,4,2,0,10,1,0
353965,-178.571428571429,4,2,0,10,0,0
354604,397.350993377483,4,2,0,10,1,0
354604,-149.253731343284,4,2,0,10,0,0
355001,310.880829015544,4,2,0,10,1,0
355001,-192.307692307692,4,2,0,10,0,0
355311,370.37037037037,4,2,0,10,1,0
355311,-161.290322580645,4,2,0,10,0,0
355681,333.333333333333,4,2,0,10,1,0
355681,-178.571428571429,4,2,0,10,0,0
356681,315.789473684211,4,2,0,10,1,0
356681,-188.679245283019,4,2,0,10,0,0
356996,333.333333333333,4,2,0,10,1,0
356996,-181.818181818182,4,2,0,10,0,0
358329,315.789473684211,4,2,0,10,1,0
358329,-192.307692307692,4,2,0,10,0,0
358681,333.333333333333,4,2,0,10,1,0
358681,-181.818181818182,4,2,0,10,0,0
359347,410.958904109589,4,2,0,10,1,0
359347,-147.058823529412,4,2,0,10,0,0
359757,352.941176470588,4,2,0,10,1,0
359757,-172.413793103448,4,2,0,10,0,0
361516,315.789473684211,4,2,0,10,1,0
361516,-192.307692307692,4,2,0,10,0,0
361831,352.941176470588,4,2,0,10,1,0
361831,-172.413793103448,4,2,0,10,0,0
362183,-175.438596491228,4,2,0,10,0,0
363507,365.853658536585,4,2,0,10,1,0
363507,-169.491525423729,4,2,0,10,0,0
363872,375,4,2,0,10,1,0
363872,-163.934426229508,4,2,0,10,0,0
364247,384.615384615385,4,2,0,10,1,0
364247,-161.290322580645,4,2,0,10,0,0
364631,394.736842105263,4,2,0,10,1,0
364631,-156.25,4,2,0,10,0,0
365025,393.44262295082,4,2,0,10,1,0
365025,-158.730158730159,4,2,0,10,0,0
365418,413.793103448276,4,2,0,10,1,0
365418,-151.515151515152,4,2,0,10,0,0
366245,315.789473684211,4,2,0,10,1,0
366245,-196.078431372549,4,2,0,10,0,0
366580,-200,4,2,0,10,0,0
367981,441.176470588235,4,2,0,9,1,0
367981,-142.857142857143,4,2,0,9,0,0
368422,410.958904109589,4,2,0,9,1,0
368422,-153.846153846154,4,2,0,9,0,0
368832,413.793103448276,4,2,0,9,1,0
368832,-151.515151515152,4,2,0,9,0,0
369245,526.315789473684,4,2,0,9,1,0
369245,-120.481927710843,4,2,0,9,0,0
369771,500,4,2,0,9,1,0
369771,-126.582278481013,4,2,0,9,0,0
370271,428.571428571429,4,2,0,8,1,0
370271,-149.253731343284,4,2,0,8,0,0
370699,468.75,4,2,0,8,1,0
370699,-136.986301369863,4,2,0,8,0,0
371167,451.127819548872,4,2,0,8,1,0
371167,-140.845070422535,4,2,0,8,0,0
371618,521.739130434783,4,2,0,8,1,0
371618,-123.456790123457,4,2,0,8,0,0
372139,441.176470588235,4,2,0,8,1,0
372139,-144.927536231884,4,2,0,8,0,0
372580,422.535211267606,4,2,0,8,1,0
372580,-151.515151515152,4,2,0,8,0,0
373002,600,4,2,0,7,1,0
373002,-107.52688172043,4,2,0,7,0,0
373602,652.173913043478,4,2,0,7,1,0
373602,-99.009900990099,4,2,0,7,0,0
374254,681.818181818182,4,2,0,7,1,0
374254,-95.2380952380952,4,2,0,7,0,0
374935,740.740740740741,4,2,0,6,1,0
374935,-87.719298245614,4,2,0,6,0,0
375675,750,4,2,0,6,1,0
375675,-86.9565217391304,4,2,0,6,0,0
376425,956.175298804781,4,2,0,6,1,0
376425,-68.4931506849315,4,2,0,6,0,0
377381,638.297872340426,4,2,0,5,1,0
377381,-103.092783505155,4,2,0,5,0,0

[HitObjects]
51,192,706,5,0,0:0:0:0:
153,192,1021,1,0,0:0:0:0:
256,192,1337,1,2,0:0:0:0:
358,192,1337,128,0,1969:0:0:0:0:
153,192,1653,1,0,0:0:0:0:
256,192,1969,1,2,0:0:0:0:
460,192,1969,128,0,3232:0:0:0:0:
358,192,3232,128,2,3863:0:0:0:0:
51,192,3232,1,0,0:0:0:0:
460,192,3863,128,2,5758:0:0:0:0:
153,192,3863,1,0,0:0:0:0:
256,192,4811,1,2,0:0:0:0:
153,192,5127,1,2,0:0:0:0:
358,192,5442,1,2,0:0:0:0:
51,192,5758,1,0,0:0:0:0:
153,192,6074,1,0,0:0:0:0:
256,192,6390,1,0,0:0:0:0:
358,192,6706,1,0,0:0:0:0:
460,192,7021,1,0,0:0:0:0:
460,192,7337,1,2,0:0:0:0:
358,192,7495,1,2,0:0:0:0:
51,192,8284,1,0,0:0:0:0:
153,192,8600,1,0,0:0:0:0:
256,192,8916,1,0,0:0:0:0:
358,192,9232,1,0,0:0:0:0:
460,192,9548,1,2,0:0:0:0:
153,192,9548,1,0,0:0:0:0:
358,192,9863,1,0,0:0:0:0:
256,192,10179,1,2,0:0:0:0:
51,192,10179,1,0,0:0:0:0:
153,192,10495,1,0,0:0:0:0:
51,192,10811,1,0,0:0:0:0:
153,192,11127,1,0,0:0:0:0:
256,192,11442,1,2,0:0:0:0:
358,192,11442,128,0,12074:0:0:0:0:
51,192,11758,1,0,0:0:0:0:
256,192,12074,1,2,0:0:0:0:
460,192,12074,128,0,13337:0:0:0:0:
256,192,13337,128,2,13969:0:0:0:0:
153,192,13337,1,0,0:0:0:0:
460,192,13969,128,2,15863:0:0:0:0:
51,192,13969,1,0,0:0:0:0:
358,192,14916,1,2,0:0:0:0:
256,192,14916,1,0,0:0:0:0:
256,192,15232,1,2,0:0:0:0:
153,192,15232,1,0,0:0:0:0:
51,192,15548,1,2,0:0:0:0:
153,192,15548,1,0,0:0:0:0:
51,192,15863,1,0,0:0:0:0:
153,192,16179,1,0,0:0:0:0:
256,192,16495,1,0,0:0:0:0:
358,192,16811,1,0,0:0:0:0:
460,192,17127,1,0,0:0:0:0:
460,192,17442,1,2,0:0:0:0:
358,192,17600,1,2,0:0:0:0:
256,192,18390,128,0,20916:0:0:0:25:LR_Chm Echo long.wav
51,192,18390,1,0,0:0:0:0:
153,192,18706,1,0,0:0:0:0:
358,192,19021,1,0,0:0:0:0:
460,192,19337,1,0,0:0:0:0:
358,192,19653,1,0,0:0:0:0:
460,192,19969,1,0,0:0:0:8:LR_Drum Kick Low.wav
153,192,19969,1,0,0:0:0:0:
358,192,20284,1,0,0:0:0:8:LR_Drum Kick Low.wav
51,192,20284,1,0,0:0:0:0:
153,192,20600,1,0,0:0:0:8:LR_Drum Kick Low.wav
460,192,20600,1,0,0:0:0:0:
51,192,20916,1,0,0:0:0:80:LR_Drum Crush Finish.wav
460,192,20916,1,0,0:0:0:15:LR_Drum Kick Low.wav
358,192,20916,1,6,0:0:0:0:
153,192,21232,1,0,0:0:0:35:LR_HiHat SClick 2.wav
358,192,21232,1,0,0:0:0:0:
256,192,21548,1,0,0:0:0:50:LR_HiHat Click.wav
460,192,21548,1,2,0:0:0:0:
51,192,21863,1,0,0:0:0:35:LR_HiHat SClick 2.wav
358,192,21863,1,0,0:0:0:0:
153,192,22179,1,0,0:0:0:50:LR_HiHat Click.wav
460,192,22179,1,2,0:0:0:0:
256,192,22495,1,0,0:0:0:60:LR_Hat Synth.wav
51,192,22495,1,0,0:0:0:0:
153,192,22811,1,0,0:0:0:35:LR_HiHat SClick 2.wav
358,192,22811,1,0,0:0:0:0:
256,192,23127,1,0,0:0:0:35:LR_HiHat SClick 2.wav
460,192,23127,1,0,0:0:0:0:
460,192,23442,1,0,0:0:0:60:LR_Hat Synth.wav
358,192,23442,1,2,0:0:0:0:
153,192,23758,1,0,0:0:0:35:LR_HiHat SClick 2.wav
51,192,23758,1,0,0:0:0:0:
460,192,24074,1,0,0:0:0:60:LR_Hat Synth.wav
358,192,24074,1,2,0:0:0:0:
256,192,24390,1,0,0:0:0:35:LR_HiHat SClick 2.wav
153,192,24390,1,0,0:0:0:0:
51,192,24706,1,0,0:0:0:35:LR_HiHat SClick 2.wav
153,192,24706,1,0,0:0:0:0:
256,192,25021,1,0,0:0:0:35:LR_HiHat SClick 2.wav
358,192,25021,1,2,0:0:0:0:
256,192,25337,1,0,0:0:0:50:LR_HiHat Click.wav
51,192,25337,1,2,0:0:0:0:
358,192,25495,1,0,0:0:0:25:LR_Drum Rpd Fast .wav
153,192,25495,1,0,0:0:0:50:LR_Drum Rpd.wav
460,192,25653,1,0,0:0:0:50:LR_HiHat Click.wav
256,192,25653,1,2,0:0:0:0:
358,192,25811,1,0,0:0:0:20:LR_Drum Hit Clap Sn.wav
51,192,25811,1,0,0:0:0:13:LR_Drum Kick Low.wav
153,192,25969,1,0,0:0:0:80:LR_Drum Crush Finish.wav
256,192,25969,1,0,0:0:0:15:LR_Drum Kick Low.wav
460,192,25969,1,6,0:0:0:0:
358,192,26284,1,0,0:0:0:35:LR_HiHat SClick 2.wav
153,192,26284,1,0,0:0:0:0:
256,192,26600,1,0,0:0:0:50:LR_HiHat Click.wav
51,192,26600,1,2,0:0:0:0:
460,192,26916,1,0,0:0:0:35:LR_HiHat SClick 2.wav
153,192,26916,1,0,0:0:0:0:
51,192,27232,1,0,0:0:0:50:LR_HiHat Click.wav
358,192,27232,1,2,0:0:0:0:
256,192,27548,1,0,0:0:0:60:LR_Hat Synth.wav
460,192,27548,1,2,0:0:0:0:
358,192,27706,1,2,0:0:0:0:
153,192,27706,1,0,0:0:0:0:
256,192,27863,1,0,0:0:0:35:LR_HiHat SClick 2.wav
51,192,27863,1,2,0:0:0:0:
153,192,28179,1,0,0:0:0:25:LR_Drum Hit Clap Sn.wav
358,192,28179,1,2,0:0:0:0:
460,192,28495,1,0,0:0:0:50:LR_HiHat Click.wav
51,192,28495,1,2,0:0:0:0:
256,192,28653,1,0,0:0:0:50:LR_HiHat Click.wav
153,192,28811,1,0,0:0:0:60:LR_Hat Synth.wav
358,192,28811,1,0,0:0:0:0:
256,192,29127,1,0,0:0:0:35:LR_HiHat SClick 2.wav
51,192,29127,1,2,0:0:0:0:
460,192,29284,1,0,0:0:0:30:LR_Drum Rpd Fast .wav
153,192,29442,1,0,0:0:0:35:LR_HiHat SClick 2.wav
358,192,29442,1,0,0:0:0:0:
256,192,29600,1,0,0:0:0:30:LR_Drum Rpd Fast .wav
51,192,29758,1,0,0:0:0:60:LR_Hat Synth.wav
460,192,29758,1,2,0:0:0:0:
256,192,29916,1,0,0:0:0:0:
153,192,30074,1,0,0:0:0:50:LR_HiHat Click.wav
358,192,30074,1,2,0:0:0:0:
51,192,30232,1,0,0:0:0:30:LR_Drum Rpd Fast .wav
256,192,30390,1,0,0:0:0:30:LR_Drum Hit Clap Sn.wav
460,192,30390,1,2,0:0:0:0:
153,192,30495,1,0,0:0:0:30:LR_Drum Rpd Fast .wav
51,192,30600,1,0,0:0:0:30:LR_Drum Hit Clap Sn.wav
358,192,30706,1,0,0:0:0:15:LR_Drum Kick Low.wav
153,192,30706,1,2,0:0:0:0:
256,192,30890,1,0,0:0:0:30:LR_Tom Hit 3.wav
153,192,31021,1,0,0:0:0:80:LR_Drum Crush Finish.wav
51,192,31021,1,0,0:0:0:20:LR_Drum Kick Low.wav
460,192,31021,1,6,0:0:0:0:
51,192,31337,1,0,0:0:0:35:LR_HiHat SClick 2.wav
358,192,31337,1,0,0:0:0:0:
460,192,31653,1,0,0:0:0:50:LR_HiHat Click.wav
153,192,31653,1,2,0:0:0:0:
358,192,31653,1,0,0:0:0:0:
256,192,31969,1,0,0:0:0:35:LR_HiHat SClick 2.wav
358,192,31969,1,0,0:0:0:0:
51,192,32284,1,0,0:0:0:50:LR_HiHat Click.wav
460,192,32284,1,2,0:0:0:0:
153,192,32284,1,0,0:0:0:0:
153,192,32600,1,0,0:0:0:60:LR_Hat Synth.wav
256,192,32600,1,0,0:0:0:0:
51,192,32916,1,0,0:0:0:50:LR_HiHat Click.wav
358,192,32916,1,0,0:0:0:12:LR_Drum Kick Low.wav
256,192,33074,1,0,0:0:0:25:LR_Drum Hit Clap Sn.wav
153,192,33232,1,0,0:0:0:35:LR_HiHat SClick 2.wav
460,192,33232,1,0,0:0:0:0:
358,192,33390,1,0,0:0:0:50:LR_HiHat Click.wav
256,192,33548,1,0,0:0:0:25:LR_Drum Hit Clap Sn.wav
51,192,33548,1,0,0:0:0:60:LR_Hat Synth.wav
460,192,33548,1,2,0:0:0:0:
153,192,33863,1,0,0:0:0:35:LR_HiHat SClick 2.wav
358,192,33863,1,0,0:0:0:0:
460,192,34179,1,0,0:0:0:25:LR_Drum Hit Clap Sn.wav
256,192,34179,1,0,0:0:0:60:LR_Hat Synth.wav
51,192,34179,1,6,0:0:0:0:
153,192,34495,1,0,0:0:0:35:LR_HiHat SClick 2.wav
358,192,34495,1,0,0:0:0:0:
51,192,34811,1,0,0:0:0:50:LR_HiHat Click.wav
256,192,34811,1,0,0:0:0:0:
460,192,35127,1,0,0:0:0:50:LR_HiHat Click.wav
256,192,35127,1,2,0:0:0:0:
51,192,35127,1,0,0:0:0:0:
358,192,35442,1,0,0:0:0:30:LR_Drum Hit Clap Sn.wav
51,192,35442,1,0,0:0:0:25:LR_Drum Barrel Hit.wav
153,192,35442,1,2,0:0:0:0:
460,192,35548,1,0,0:0:0:30:LR_Drum Rpd Fast .wav
256,192,35653,1,0,0:0:0:30:LR_Drum Hit Clap Sn.wav
51,192,35758,1,0,0:0:0:50:LR_Drum Rpd.wav
358,192,35758,1,2,0:0:0:0:
153,192,35863,1,0,0:0:0:50:LR_Tom Hit 2.wav
256,192,35969,1,0,0:0:0:50:LR_Tom Hit 3.wav
153,192,36074,128,0,36706:0:0:0:15:LR_Drum Kick Low.wav
358,192,36074,128,6,36706:0:0:0:0:
460,192,36074,1,0,0:0:0:100:LR_Drum Crush Finish.wav
51,192,36706,128,2,38600:0:0:0:0:
460,192,36706,128,2,38600:0:0:0:0:
256,192,37653,1,0,0:0:0:15:LR2_KickDBeatBass.wav
358,192,37969,1,0,0:0:0:25:LR_Drum Barrel Hit.wav
256,192,38127,1,0,0:0:0:15:LR2_KickDBeatBass.wav
153,192,38284,1,0,0:0:0:25:LR_HiHat SClick 2.wav
256,192,38442,1,0,0:0:0:15:LR2_KickDBeatBass.wav
153,192,38600,1,0,0:0:0:20:LR_Drum Kick Low.wav
358,192,38600,1,4,0:0:0:0:
153,192,38758,1,0,0:0:0:20:LR_Drum Kick Low.wav
358,192,38758,1,4,0:0:0:0:
153,192,39074,1,0,0:0:0:20:LR_Drum Kick Low.wav
358,192,39074,1,4,0:0:0:0:
153,192,39232,1,0,0:0:0:20:LR_Drum Kick Low.wav
358,192,39232,1,4,0:0:0:0:
256,192,39548,1,0,0:0:0:20:LR_Drum Kick Low.wav
460,192,39548,1,4,0:0:0:0:
256,192,39706,1,0,0:0:0:20:LR_Drum Kick Low.wav
460,192,39706,1,4,0:0:0:0:
256,192,40021,1,0,0:0:0:20:LR_Drum Kick Low.wav
460,192,40021,1,4,0:0:0:0:
256,192,40179,1,0,0:0:0:20:LR_Drum Kick Low.wav
460,192,40179,1,4,0:0:0:0:
51,192,40495,1,0,0:0:0:20:LR_Drum Kick Low.wav
256,192,40495,1,4,0:0:0:0:
51,192,40811,1,0,0:0:0:20:LR_Drum Kick Low.wav
256,192,40811,1,4,0:0:0:0:
460,192,41127,1,0,0:0:0:40:crash.wav
358,192,41127,1,4,1:0:0:0:
153,192,41127,1,0,0:0:0:33:LR_Drum Kick Low.wav
51,192,41127,128,6,41758:0:0:0:0:
256,192,41284,1,0,0:0:0:45:LR_Drum Rpd Fast .wav
460,192,41442,1,0,0:0:0:40:LR_HiHat SClick 2.wav
358,192,41600,1,0,0:0:0:20:LR_Drum Kick Low.wav
460,192,41758,1,0,0:0:0:45:LR_Drum Rpd Fast .wav
256,192,41758,1,0,0:0:0:25:LR_Drum Hit Clap Sn.wav
153,192,41758,128,2,43653:0:0:0:0:
256,192,42074,1,0,0:0:0:20:LR_Drum Kick Low.wav
51,192,42232,1,0,0:0:0:45:LR_Drum Rpd Fast .wav
358,192,42390,1,0,0:0:0:40:LR_HiHat SClick 2.wav
256,192,42548,1,0,0:0:0:20:LR_Drum Kick Low.wav
460,192,42706,1,0,0:0:0:50:LR_Drum Rpd Fast .wav
51,192,42706,1,0,0:0:0:90:LR_Hat Synth.wav
256,192,43021,1,0,0:0:0:20:LR_Drum Kick Low.wav
460,192,43179,1,0,0:0:0:40:LR_Drum Rpd Fast .wav
358,192,43337,1,0,0:0:0:40:LR_HiHat SClick 2.wav
51,192,43495,1,0,0:0:0:20:LR_Drum Kick Low.wav
256,192,43653,1,0,0:0:0:45:LR_Drum Rpd Fast .wav
460,192,43653,1,0,0:0:0:90:LR_Hat Synth.wav
358,192,43653,128,2,44916:0:0:0:0:
51,192,43969,1,0,0:0:0:20:LR_Drum Kick Low.wav
256,192,44127,1,0,0:0:0:45:LR_Drum Rpd Fast .wav
460,192,44284,1,0,0:0:0:40:LR_HiHat SClick 2.wav
153,192,44442,1,0,0:0:0:20:LR_Drum Kick Low.wav
256,192,44600,1,0,0:0:0:40:LR_Drum Hit Clap Sn.wav
51,192,44600,1,2,3:0:0:0:
256,192,44916,1,0,0:0:0:20:LR_Drum Kick Low.wav
51,192,44916,1,0,0:0:0:40:LR_Drum Hit Clap Sn.wav
460,192,44916,128,2,45548:0:0:0:0:
358,192,45074,1,0,0:0:0:40:LR_Drum Barrel Hit.wav
153,192,45074,1,2,3:0:0:0:
256,192,45232,1,0,0:0:0:90:LR_Hat Synth.wav
51,192,45232,1,0,0:0:0:20:LR_Drum Kick Low.wav
153,192,45390,1,0,0:0:0:100:LR_Drum Rpd.wav
256,192,45548,1,0,0:0:0:50:LR_Drum Rpd Fast .wav
358,192,45548,128,2,46179:0:0:0:0:
51,192,45548,1,0,0:0:0:20:LR_Drum Kick Low.wav
153,192,45627,1,0,0:0:0:100:LR_Drum Rpd.wav
51,192,45706,1,0,0:0:0:40:LR_Drum Hit Clap Sn.wav
460,192,45863,1,0,0:0:0:20:LR_Drum Kick Low.wav
153,192,46048,1,0,0:0:0:80:LR_Tom Hit 3.wav
51,192,46179,1,0,0:0:0:90:LR_Drum Crush Finish.wav
460,192,46179,1,0,0:0:0:30:LR_Drum Kick Low.wav
256,192,46179,128,6,48074:0:0:0:0:
358,192,46337,1,0,0:0:0:45:LR_Drum Rpd Fast .wav
153,192,46495,1,0,0:0:0:40:LR_HiHat SClick 2.wav
51,192,46653,1,0,0:0:0:20:LR_Drum Kick Low.wav
460,192,46811,1,0,0:0:0:45:LR_Drum Rpd Fast .wav
358,192,46811,1,0,0:0:0:0:
51,192,47127,1,0,0:0:0:20:LR_Drum Kick Low.wav
153,192,47284,1,0,0:0:0:45:LR_Drum Rpd Fast .wav
358,192,47442,1,0,0:0:0:40:LR_HiHat SClick 2.wav
51,192,47600,1,0,0:0:0:20:LR_Drum Kick Low.wav
460,192,47758,1,0,0:0:0:45:LR_Drum Rpd Fast .wav
153,192,47758,1,0,0:0:0:90:LR_Hat Synth.wav
358,192,48074,1,0,0:0:0:0:
460,192,48074,1,0,0:0:0:20:LR_Drum Kick Low.wav
51,192,48074,128,2,48390:0:0:0:0:
153,192,48232,1,0,0:0:0:45:LR_Drum Rpd Fast .wav
358,192,48390,1,0,0:0:0:40:LR_HiHat SClick 2.wav
256,192,48548,1,0,0:0:0:20:LR_Drum Kick Low.wav
460,192,48706,1,0,0:0:0:40:LR_Drum Barrel Hit.wav
153,192,48706,1,0,0:0:0:45:LR_Drum Rpd Fast .wav
51,192,48706,128,2,49969:0:0:0:0:
358,192,49021,1,0,0:0:0:20:LR_Drum Kick Low.wav
256,192,49179,1,0,0:0:0:45:LR_Drum Rpd Fast .wav
460,192,49337,1,0,0:0:0:40:LR_HiHat SClick 2.wav
358,192,49495,1,0,0:0:0:20:LR_Drum Kick Low.wav
153,192,49653,1,0,0:0:0:45:LR_Drum Rpd Fast .wav
460,192,49653,1,0,0:0:0:20:LR_Drum Kick Low.wav
256,192,49837,1,0,0:0:0:100:LR_Drum Rpd.wav
460,192,49969,1,0,0:0:0:40:LR_Drum Hit Clap Sn.wav
153,192,49969,1,0,0:0:0:20:LR_Drum Kick Low.wav
358,192,50074,1,0,0:0:0:40:LR_Drum Hit Clap Sn.wav
256,192,50179,1,0,0:0:0:40:LR_Drum Hit Clap Sn.wav
51,192,50284,1,0,0:0:0:50:LR_Drum Rpd Fast .wav
460,192,50284,1,0,0:0:0:20:LR_Drum Kick Low.wav
153,192,50390,1,0,0:0:0:50:LR_Drum Rpd Fast .wav
358,192,50495,1,0,0:0:0:50:LR_Drum Rpd Fast .wav
51,192,50600,1,2,0:0:0:0:
256,192,50600,1,0,0:0:0:20:LR_Drum Kick Low.wav
153,192,50758,1,0,0:0:0:40:LR_HiHat SClick 2.wav
358,192,50758,1,2,0:0:0:0:
460,192,50916,1,0,0:0:0:20:LR_Drum Kick Low.wav
256,192,50916,1,2,0:0:0:0:
153,192,51074,1,0,0:0:0:40:LR_HiHat SClick 2.wav
358,192,51074,1,2,0:0:0:0:
51,192,51232,1,0,0:0:0:25:LR_Drum Kick Low.wav
256,192,51232,1,0,0:0:0:90:LR_Drum Crush Finish.wav
460,192,51232,128,6,52495:0:0:0:0:
358,192,51390,1,0,0:0:0:40:LR_Drum Rpd Fast .wav
256,192,51548,1,0,0:0:0:40:LR_HiHat SClick 2.wav
51,192,51706,1,0,0:0:0:20:LR_Drum Kick Low.wav
358,192,51863,1,0,0:0:0:45:LR_Drum Rpd Fast .wav
153,192,51863,1,0,0:0:0:0:
256,192,52179,1,0,0:0:0:20:LR_Drum Kick Low.wav
51,192,52337,1,0,0:0:0:40:LR_Drum Rpd Fast .wav
153,192,52495,1,0,0:0:0:40:LR_HiHat SClick 2.wav
358,192,52495,1,0,0:0:0:0:
256,192,52495,128,2,53758:0:0:0:0:
51,192,52653,1,0,0:0:0:20:LR_Drum Kick Low.wav
460,192,52811,1,0,0:0:0:45:LR_Drum Rpd Fast .wav
358,192,52811,1,0,0:0:0:90:LR_Hat Synth.wav
153,192,53127,1,0,0:0:0:20:LR_Drum Kick Low.wav
460,192,53284,1,0,0:0:0:45:LR_Drum Rpd Fast .wav
358,192,53442,1,0,0:0:0:40:LR_HiHat SClick 2.wav
51,192,53600,1,0,0:0:0:20:LR_Drum Kick Low.wav
358,192,53758,1,0,0:0:0:45:LR_Drum Rpd Fast .wav
460,192,53758,1,0,0:0:0:90:LR_Hat Synth.wav
153,192,53758,128,2,55021:0:0:0:0:
256,192,54074,1,0,0:0:0:20:LR_Drum Kick Low.wav
358,192,54232,1,0,0:0:0:45:LR_Drum Rpd Fast .wav
460,192,54390,1,0,0:0:0:40:LR_HiHat SClick 2.wav
51,192,54548,1,0,0:0:0:20:LR_Drum Kick Low.wav
256,192,54706,1,0,0:0:0:45:LR_Drum Rpd Fast .wav
358,192,54706,1,0,0:0:0:0:
358,192,55021,1,0,0:0:0:0:
51,192,55021,1,0,0:0:0:20:LR_Drum Kick Low.wav
460,192,55021,128,2,55653:0:0:0:0:
256,192,55179,1,0,0:0:0:45:LR_Drum Rpd Fast .wav
153,192,55337,1,0,0:0:0:40:LR_HiHat SClick 2.wav
256,192,55495,1,0,0:0:0:20:LR_Drum Kick Low.wav
358,192,55653,1,0,0:0:0:45:LR_Drum Rpd Fast .wav
153,192,55653,1,0,0:0:0:40:LR_Drum Hit Clap Sn.wav
51,192,55653,128,2,56284:0:0:0:0:
256,192,55831,1,0,0:0:0:100:LR_Drum Rpd.wav
358,192,55969,1,0,0:0:0:70:LR_Tom Hit 2.wav
256,192,56127,1,0,0:0:0:70:LR_Tom Hit 3.wav
153,192,56284,1,0,0:0:0:90:LR_Drum Crush Finish.wav
460,192,56284,1,0,0:0:0:25:LR_Drum Kick Low.wav
358,192,56284,128,6,56916:0:0:0:0:
51,192,56442,128,0,56600:0:0:0:45:LR_Drum Rpd Fast .wav
153,192,56600,128,0,56758:0:0:0:40:LR_HiHat SClick 2.wav
256,192,56758,128,0,56916:0:0:0:20:LR_Drum Kick Low.wav
460,192,56916,128,0,57074:0:0:0:45:LR_Drum Rpd Fast .wav
153,192,56916,128,2,58811:0:0:0:0:
51,192,57074,128,0,57232:0:0:0:0:
358,192,57232,128,0,57390:0:0:0:20:LR_Drum Kick Low.wav
256,192,57390,128,0,57548:0:0:0:45:LR_Drum Rpd Fast .wav
51,192,57548,128,0,57706:0:0:0:40:LR_HiHat SClick 2.wav
460,192,57706,128,0,57863:0:0:0:20:LR_Drum Kick Low.wav
256,192,57863,128,0,58021:0:0:0:45:LR_Drum Rpd Fast .wav
51,192,57863,1,0,0:0:0:90:LR_Hat Synth.wav
358,192,58021,128,0,58179:0:0:0:0:
51,192,58179,128,0,58337:0:0:0:20:LR_Drum Kick Low.wav
460,192,58337,128,0,58495:0:0:0:45:LR_Drum Rpd Fast .wav
358,192,58495,128,0,58653:0:0:0:40:LR_Drum Hit Clap Sn.wav
256,192,58653,128,0,58811:0:0:0:100:LR_Drum Rpd.wav
51,192,58811,1,0,0:0:0:90:LR_Drum Crush Finish.wav
460,192,58811,1,0,0:0:0:100:LR_Drum Rpd.wav
358,192,58969,128,0,59127:0:0:0:20:LR_Drum Kick Low.wav
153,192,59127,128,0,59284:0:0:0:20:LR_Drum Kick Low.wav
256,192,59284,128,0,59442:0:0:0:100:LR_Drum Rpd.wav
460,192,59442,128,0,59600:0:0:0:40:LR_HiHat SClick 2.wav
358,192,59442,1,2,0:0:0:0:
153,192,59442,1,0,0:0:0:0:
51,192,59600,128,0,59758:0:0:0:0:
358,192,59758,128,0,59916:0:0:0:20:LR_Drum Kick Low.wav
153,192,59916,128,0,60074:0:0:0:20:LR_Drum Kick Low.wav
460,192,60074,1,0,0:0:0:90:LR_Drum Crush Finish.wav
256,192,60074,1,0,0:0:0:25:LR_Drum Kick Low.wav
51,192,60074,1,4,0:0:0:0:
153,192,60284,1,0,0:0:0:90:LR_Drum Crush Finish.wav
358,192,60284,1,4,0:0:0:0:
256,192,60495,1,0,0:0:0:90:LR_Drum Crush Finish.wav
51,192,60495,1,4,0:0:0:0:
358,192,60706,1,0,0:0:0:90:LR_Drum Crush Finish.wav
460,192,60706,1,0,0:0:0:40:LR_Drum Hit Clap Sn.wav
153,192,60706,1,4,0:0:0:0:
256,192,60811,1,0,0:0:0:40:LR_Drum Rpd Fast .wav
51,192,60811,1,0,0:0:0:60:LR_Drum Rpd.wav
460,192,60916,1,0,0:0:0:40:LR_Drum Hit Clap Sn.wav
153,192,60916,1,0,0:0:0:60:LR_Drum Rpd.wav
358,192,61021,1,0,0:0:0:25:LR_Drum Kick Low.wav
51,192,61021,1,0,0:0:0:70:LR_Tom Hit 2.wav
256,192,61179,1,0,0:0:0:40:LR_Drum Rpd Fast .wav
460,192,61179,1,0,0:0:0:70:LR_Tom Hit 3.wav
358,192,61337,1,4,1:0:0:0:
460,192,61337,1,0,0:0:0:90:LR_Drum Crush Finish.wav
153,192,61337,128,6,61969:0:0:0:0:
51,192,61337,1,0,0:0:0:25:LR_Drum Kick Low.wav
256,192,61495,1,0,0:0:0:45:LR_Drum Rpd Fast .wav
460,192,61653,1,0,0:0:0:40:LR_HiHat SClick 2.wav
358,192,61811,1,0,0:0:0:20:LR_Drum Kick Low.wav
51,192,61969,1,0,0:0:0:45:LR_Drum Rpd Fast .wav
460,192,61969,1,0,0:0:0:0:
256,192,61969,128,2,63863:0:0:0:0:
51,192,62284,1,0,0:0:0:20:LR_Drum Kick Low.wav
153,192,62442,1,0,0:0:0:45:LR_Drum Rpd Fast .wav
460,192,62600,1,0,0:0:0:40:LR_HiHat SClick 2.wav
153,192,62758,1,0,0:0:0:20:LR_Drum Kick Low.wav
358,192,62916,1,0,0:0:0:45:LR_Drum Rpd Fast .wav
51,192,62916,1,0,0:0:0:90:LR_Hat Synth.wav
358,192,63232,1,0,0:0:0:20:LR_Drum Kick Low.wav
153,192,63390,1,0,0:0:0:45:LR_Drum Rpd Fast .wav
460,192,63548,1,0,0:0:0:40:LR_HiHat SClick 2.wav
51,192,63706,1,0,0:0:0:20:LR_Drum Kick Low.wav
153,192,63863,1,0,0:0:0:90:LR_Hat Synth.wav
460,192,63863,1,0,0:0:0:45:LR_Drum Rpd Fast .wav
358,192,63863,128,2,65127:0:0:0:0:
51,192,64179,1,0,0:0:0:20:LR_Drum Kick Low.wav
153,192,64337,1,0,0:0:0:45:LR_Drum Rpd Fast .wav
460,192,64495,1,0,0:0:0:40:LR_HiHat SClick 2.wav
51,192,64653,1,0,0:0:0:20:LR_Drum Kick Low.wav
256,192,64811,1,0,0:0:0:40:LR_Drum Hit Clap Sn.wav
153,192,64811,1,2,3:0:0:0:
51,192,65127,1,0,0:0:0:40:LR_Drum Hit Clap Sn.wav
256,192,65127,1,0,0:0:0:20:LR_Drum Kick Low.wav
460,192,65127,128,2,65758:0:0:0:0:
358,192,65284,1,0,0:0:0:40:LR_Drum Barrel Hit.wav
153,192,65284,1,2,3:0:0:0:
256,192,65442,1,0,0:0:0:20:LR_Drum Kick Low.wav
51,192,65442,1,0,0:0:0:90:LR_Hat Synth.wav
153,192,65600,1,0,0:0:0:100:LR_Drum Rpd.wav
51,192,65758,1,0,0:0:0:50:LR_Drum Rpd Fast .wav
256,192,65758,1,0,0:0:0:20:LR_Drum Kick Low.wav
358,192,65758,128,2,66390:0:0:0:0:
153,192,65837,1,0,0:0:0:100:LR_Drum Rpd.wav
51,192,65916,1,0,0:0:0:40:LR_Drum Hit Clap Sn.wav
460,192,66074,1,0,0:0:0:20:LR_Drum Kick Low.wav
256,192,66232,1,0,0:0:0:80:LR_Tom Hit 3.wav
51,192,66390,1,0,0:0:0:25:LR_Drum Kick Low.wav
460,192,66390,1,0,0:0:0:90:LR_Drum Crush Finish.wav
153,192,66390,128,6,68284:0:0:0:0:
358,192,66548,1,0,0:0:0:45:LR_Drum Rpd Fast .wav
460,192,66706,1,0,0:0:0:40:LR_HiHat SClick 2.wav
51,192,66863,1,0,0:0:0:20:LR_Drum Kick Low.wav
358,192,67021,1,0,0:0:0:45:LR_Drum Rpd Fast .wav
256,192,67021,1,0,0:0:0:0:
460,192,67337,1,0,0:0:0:20:LR_Drum Kick Low.wav
256,192,67495,1,0,0:0:0:45:LR_Drum Rpd Fast .wav
51,192,67653,1,0,0:0:0:40:LR_HiHat SClick 2.wav
358,192,67811,1,0,0:0:0:20:LR_Drum Kick Low.wav
256,192,67969,1,0,0:0:0:45:LR_Drum Rpd Fast .wav
460,192,67969,1,0,0:0:0:90:LR_Hat Synth.wav
460,192,68284,1,0,0:0:0:20:LR_Drum Kick Low.wav
51,192,68284,128,2,68916:0:0:0:0:
256,192,68442,1,0,0:0:0:45:LR_Drum Rpd Fast .wav
358,192,68600,1,0,0:0:0:40:LR_HiHat SClick 2.wav
153,192,68758,1,0,0:0:0:20:LR_Drum Kick Low.wav
256,192,68916,1,0,0:0:0:45:LR_Drum Rpd Fast .wav
358,192,68916,1,0,0:0:0:90:LR_Hat Synth.wav
460,192,68916,128,2,70179:0:0:0:0:
51,192,69232,1,0,0:0:0:20:LR_Drum Kick Low.wav
153,192,69390,1,0,0:0:0:45:LR_Drum Rpd Fast .wav
358,192,69548,1,0,0:0:0:40:LR_HiHat SClick 2.wav
256,192,69706,1,0,0:0:0:20:LR_Drum Kick Low.wav
153,192,69863,1,0,0:0:0:45:LR_Drum Rpd Fast .wav
256,192,70041,1,0,0:0:0:100:LR_Drum Rpd.wav
51,192,70179,1,0,0:0:0:40:LR_Drum Hit Clap Sn.wav
358,192,70179,1,2,0:0:0:0:
153,192,70284,1,0,0:0:0:40:LR_Drum Hit Clap Sn.wav
256,192,70390,1,0,0:0:0:40:LR_Drum Hit Clap Sn.wav
358,192,70495,1,0,0:0:0:50:LR_Drum Rpd Fast .wav
460,192,70600,1,0,0:0:0:50:LR_Drum Rpd Fast .wav
51,192,70600,1,2,0:0:0:0:
358,192,70706,1,0,0:0:0:50:LR_Drum Rpd Fast .wav
256,192,70811,1,0,0:0:0:20:LR_Drum Kick Low.wav
153,192,70916,1,0,0:0:0:70:LR_Tom Hit 2.wav
51,192,71021,1,0,0:0:0:70:LR_Tom Hit 2.wav
460,192,71021,1,2,0:0:0:0:
153,192,71127,1,0,0:0:0:20:LR_Drum Kick Low.wav
256,192,71232,1,0,0:0:0:70:LR_Tom Hit 3.wav
358,192,71337,1,0,0:0:0:70:LR_Tom Hit 3.wav
460,192,71442,1,0,0:0:0:90:LR_Drum Crush Finish.wav
51,192,71442,1,0,0:0:0:25:LR_Drum Kick Low.wav
153,192,71442,128,6,73337:0:0:0:0:
256,192,71600,1,0,0:0:0:45:LR_Drum Rpd Fast .wav
460,192,71758,1,0,0:0:0:40:LR_HiHat SClick 2.wav
51,192,71916,1,0,0:0:0:20:LR_Drum Kick Low.wav
460,192,72074,1,0,0:0:0:45:LR_Drum Rpd Fast .wav
256,192,72074,1,0,0:0:0:0:
358,192,72390,1,0,0:0:0:20:LR_Drum Kick Low.wav
256,192,72548,1,0,0:0:0:45:LR_Drum Rpd Fast .wav
460,192,72706,1,0,0:0:0:40:LR_HiHat SClick 2.wav
51,192,72863,1,0,0:0:0:20:LR_Drum Kick Low.wav
358,192,73021,1,0,0:0:0:45:LR_Drum Rpd Fast .wav
256,192,73021,1,0,0:0:0:90:LR_Hat Synth.wav
358,192,73337,1,0,0:0:0:20:LR_Drum Kick Low.wav
460,192,73337,1,0,0:0:0:0:
256,192,73337,128,2,73969:0:0:0:0:
51,192,73495,1,0,0:0:0:45:LR_Drum Rpd Fast .wav
358,192,73653,1,0,0:0:0:40:LR_HiHat SClick 2.wav
153,192,73811,1,0,0:0:0:20:LR_Drum Kick Low.wav
51,192,73969,1,0,0:0:0:90:LR_Drum Crush Finish.wav
358,192,73969,128,6,75232:0:0:0:0:
460,192,73969,1,0,0:0:0:45:LR_Drum Rpd Fast .wav
51,192,74284,1,0,0:0:0:20:LR_Drum Kick Low.wav
153,192,74442,1,0,0:0:0:20:LR_Drum Kick Low.wav
460,192,74600,1,0,0:0:0:45:LR_Drum Rpd Fast .wav
51,192,74758,1,0,0:0:0:40:LR_HiHat SClick 2.wav
256,192,74916,1,0,0:0:0:40:LR_HiHat SClick 2.wav
153,192,75074,1,0,0:0:0:100:LR_Drum Rpd.wav
51,192,75232,1,0,0:0:0:20:LR_Drum Kick Low.wav
256,192,75232,1,0,0:0:0:100:LR_Drum Rpd.wav
358,192,75390,1,0,0:0:0:45:LR_Drum Rpd Fast .wav
460,192,75548,1,0,0:0:0:45:LR_Drum Hit Clap Sn.wav
256,192,75548,1,0,0:0:0:45:LR_Drum Rpd Fast .wav
153,192,75706,1,0,0:0:0:20:LR_Drum Kick Low.wav
358,192,75863,1,0,0:0:0:40:LR_Drum Hit Clap Sn.wav
51,192,75863,1,0,0:0:0:40:LR_Drum Barrel Hit.wav
153,192,75969,1,0,0:0:0:45:LR_Drum Rpd Fast .wav
256,192,76074,1,0,0:0:0:40:LR_Drum Hit Clap Sn.wav
460,192,76179,1,0,0:0:0:20:LR_Drum Kick Low.wav
153,192,76179,1,0,0:0:0:100:LR_Drum Rpd.wav
358,192,76284,1,0,0:0:0:70:LR_Tom Hit 2.wav
256,192,76390,1,0,0:0:0:70:LR_Tom Hit 3.wav
460,192,76495,128,0,77758:0:0:0:100:LR_Drum Crush Finish.wav
51,192,76495,128,0,77758:0:0:0:25:LR_Drum Kick Low.wav
153,192,76495,1,4,0:0:0:0:
358,192,76495,1,2,0:0:0:0:
358,192,77758,128,2,79021:0:0:0:0:
153,192,77758,128,2,79021:0:0:0:0:
256,192,78074,1,0,0:0:0:18:LR2_KickDBeatBass.wav
460,192,78390,1,0,0:0:0:35:LR_Drum Barrel Hit.wav
51,192,78548,1,0,0:0:0:18:LR2_KickDBeatBass.wav
256,192,78706,1,0,0:0:0:25:LR_HiHat SClick 2.wav
51,192,78863,1,0,0:0:0:18:LR2_KickDBeatBass.wav
51,192,79021,1,0,0:0:0:90:LR_Drum Crush Finish.wav
256,192,79021,1,0,0:0:0:25:LR_Drum Kick Low.wav
460,192,79021,1,4,0:0:0:0:
51,192,79179,1,0,0:0:0:90:LR_Drum Crush Finish.wav
256,192,79179,1,0,0:0:0:25:LR_Drum Kick Low.wav
460,192,79179,1,4,0:0:0:0:
460,192,79495,1,0,0:0:0:90:LR_Drum Crush Finish.wav
256,192,79495,1,0,0:0:0:25:LR_Drum Kick Low.wav
51,192,79495,1,4,0:0:0:0:
460,192,79653,1,0,0:0:0:90:LR_Drum Crush Finish.wav
256,192,79653,1,0,0:0:0:25:LR_Drum Kick Low.wav
51,192,79653,1,4,0:0:0:0:
256,192,79969,1,0,0:0:0:95:LR_Drum Crush Finish.wav
358,192,79969,1,0,0:0:0:25:LR_Drum Kick Low.wav
153,192,79969,1,4,0:0:0:0:
358,192,80127,1,0,0:0:0:95:LR_Drum Crush Finish.wav
153,192,80127,1,0,0:0:0:25:LR_Drum Kick Low.wav
256,192,80127,1,4,0:0:0:0:
153,192,80442,1,0,0:0:0:95:LR_Drum Crush Finish.wav
358,192,80442,1,0,0:0:0:25:LR_Drum Kick Low.wav
256,192,80442,1,4,0:0:0:0:
358,192,80600,1,0,0:0:0:95:LR_Drum Crush Finish.wav
153,192,80600,1,0,0:0:0:25:LR_Drum Kick Low.wav
256,192,80600,1,4,0:0:0:0:
51,192,80916,1,0,0:0:0:25:LR_Drum Kick Low.wav
256,192,80916,1,0,0:0:0:30:LR_RevCyRDW.wav
460,192,80916,1,4,0:0:0:0:
460,192,81232,1,0,0:0:0:25:LR_Drum Kick Low.wav
256,192,81232,1,0,0:0:0:90:LR_Drum Crush Finish.wav
51,192,81232,1,4,0:0:0:0:
51,192,81548,128,0,81863:0:0:0:20:LR_Drum Kick Low.wav
153,192,81548,1,0,0:0:0:50:crash.wav
358,192,81548,1,4,1:0:0:0:
460,192,81548,1,6,0:0:0:0:
256,192,81548,1,0,0:0:0:100:LR_Drum Crush Finish.wav
256,192,81863,128,0,82179:0:0:0:40:LR_HiHat SClick 2.wav
460,192,81863,1,0,0:0:0:20:LR_Drum Kick Low.wav
51,192,82179,128,0,82495:0:0:0:40:LR_HiHat SClick 2.wav
358,192,82179,1,0,0:0:0:20:LR_Drum Kick Low.wav
256,192,82495,128,0,82811:0:0:0:40:LR_HiHat SClick 2.wav
153,192,82495,1,0,0:0:0:20:LR_Drum Kick Low.wav
460,192,82653,1,0,0:0:0:40:LR_Drum Hit Clap Sn.wav
153,192,82811,128,0,83127:0:0:0:40:LR_HiHat SClick 2.wav
51,192,82811,1,0,0:0:0:20:LR_Drum Kick Low.wav
358,192,82811,1,2,0:0:0:0:
256,192,82969,1,0,0:0:0:40:LR_Drum Hit Clap Sn.wav
358,192,83127,128,0,83442:0:0:0:90:LR_Hat Synth.wav
460,192,83127,1,0,0:0:0:20:LR_Drum Kick Low.wav
153,192,83442,128,0,83758:0:0:0:40:LR_HiHat SClick 2.wav
256,192,83442,1,2,3:0:0:0:
51,192,83442,1,0,0:0:0:20:LR_Drum Kick Low.wav
358,192,83758,128,0,84074:0:0:0:40:LR_HiHat SClick 2.wav
460,192,83758,1,0,0:0:0:20:LR_Drum Kick Low.wav
51,192,84074,1,0,0:0:0:20:LR_Drum Kick Low.wav
153,192,84074,1,0,0:0:0:50:LR_Drum Rpd Fast .wav
256,192,84074,128,6,84390:0:0:0:0:
460,192,84390,128,0,84706:0:0:0:40:LR_HiHat SClick 2.wav
358,192,84390,1,0,0:0:0:20:LR_Drum Kick Low.wav
153,192,84706,1,0,0:0:0:50:LR_Drum Rpd Fast .wav
51,192,84706,1,0,0:0:0:20:LR_Drum Kick Low.wav
256,192,84706,128,4,85021:0:0:0:0:
460,192,85021,128,0,85337:0:0:0:40:LR_HiHat SClick 2.wav
358,192,85021,1,0,0:0:0:20:LR_Drum Kick Low.wav
256,192,85179,1,0,0:0:0:40:LR_Drum Hit Clap Sn.wav
153,192,85337,128,0,85653:0:0:0:40:LR_HiHat SClick 2.wav
51,192,85337,1,0,0:0:0:20:LR_Drum Kick Low.wav
358,192,85337,1,2,0:0:0:0:
256,192,85495,1,0,0:0:0:40:LR_Drum Hit Clap Sn.wav
358,192,85653,128,0,85969:0:0:0:40:LR_HiHat SClick 2.wav
460,192,85653,1,0,0:0:0:20:LR_Drum Kick Low.wav
460,192,85969,1,0,0:0:0:40:LR_Drum Hit Clap Sn.wav
153,192,85969,128,0,86284:0:0:0:20:LR_Drum Kick Low.wav
256,192,86074,1,0,0:0:0:50:LR_Drum Rpd Fast .wav
51,192,86179,1,0,0:0:0:40:LR_Drum Hit Clap Sn.wav
460,192,86284,1,0,0:0:0:50:LR_Drum Rpd Fast .wav
358,192,86284,128,0,86600:0:0:0:20:LR_Drum Kick Low.wav
256,192,86390,1,0,0:0:0:70:LR_Tom Hit 2.wav
153,192,86495,1,0,0:0:0:70:LR_Tom Hit 3.wav
51,192,86600,128,0,86916:0:0:0:100:LR_Drum Crush Finish.wav
256,192,86600,1,0,0:0:0:20:LR_Drum Kick Low.wav
460,192,86600,1,6,0:0:0:0:
358,192,86916,128,0,87232:0:0:0:40:LR_HiHat SClick 2.wav
153,192,86916,1,0,0:0:0:20:LR_Drum Kick Low.wav
460,192,87232,1,0,0:0:0:20:LR_Drum Kick Low.wav
51,192,87232,128,0,87548:0:0:0:40:LR_HiHat SClick 2.wav
358,192,87548,128,0,87863:0:0:0:40:LR_HiHat SClick 2.wav
153,192,87548,1,0,0:0:0:20:LR_Drum Kick Low.wav
460,192,87706,1,0,0:0:0:40:LR_Drum Hit Clap Sn.wav
153,192,87863,128,0,88179:0:0:0:40:LR_HiHat SClick 2.wav
256,192,87863,1,0,0:0:0:20:LR_Drum Kick Low.wav
51,192,87863,1,2,0:0:0:0:
358,192,88021,1,0,0:0:0:40:LR_Drum Hit Clap Sn.wav
256,192,88179,1,0,0:0:0:20:LR_Drum Kick Low.wav
460,192,88179,128,0,88495:0:0:0:90:LR_Hat Synth.wav
153,192,88495,128,0,88811:0:0:0:40:LR_HiHat SClick 2.wav
51,192,88495,1,0,0:0:0:20:LR_Drum Kick Low.wav
358,192,88495,1,2,3:0:0:0:
460,192,88811,128,0,89127:0:0:0:40:LR_HiHat SClick 2.wav
256,192,88811,1,0,0:0:0:20:LR_Drum Kick Low.wav
358,192,89127,1,0,0:0:0:20:LR_Drum Kick Low.wav
51,192,89127,128,0,89442:0:0:0:90:LR_Hat Synth.wav
153,192,89127,1,2,0:0:0:0:
256,192,89442,128,0,89758:0:0:0:40:LR_HiHat SClick 2.wav
460,192,89442,1,0,0:0:0:20:LR_Drum Kick Low.wav
51,192,89600,1,0,0:0:0:40:LR_Drum Hit Clap Sn.wav
358,192,89758,1,0,0:0:0:20:LR_Drum Kick Low.wav
460,192,89758,1,2,3:0:0:0:
153,192,89758,128,0,90074:0:0:0:40:LR_HiHat SClick 2.wav
51,192,89942,1,0,0:0:0:40:LR_Drum Hit Clap Sn.wav
358,192,90074,128,0,90390:0:0:0:40:LR_HiHat SClick 2.wav
460,192,90074,1,0,0:0:0:20:LR_Drum Kick Low.wav
153,192,90232,1,0,0:0:0:50:LR_Drum Rpd Fast .wav
460,192,90390,128,0,90706:0:0:0:40:LR_HiHat SClick 2.wav
51,192,90390,1,0,0:0:0:20:LR_Drum Kick Low.wav
256,192,90390,1,2,0:0:0:0:
153,192,90548,1,0,0:0:0:15:LR_Drum Kick Low.wav
256,192,90706,1,0,0:0:0:20:LR_Drum Kick Low.wav
358,192,90706,128,0,91021:0:0:0:90:LR_Hat Synth.wav
51,192,90863,1,0,0:0:0:50:LR_Drum Rpd Fast .wav
153,192,91021,128,0,91337:0:0:0:20:LR_Drum Kick Low.wav
460,192,91021,1,0,0:0:0:40:LR_Drum Hit Clap Sn.wav
358,192,91127,1,0,0:0:0:50:LR_Drum Rpd Fast .wav
256,192,91232,1,0,0:0:0:40:LR_Drum Hit Clap Sn.wav
51,192,91337,128,0,91653:0:0:0:20:LR_Drum Kick Low.wav
460,192,91337,1,0,0:0:0:70:LR_Tom Hit 2.wav
358,192,91521,1,0,0:0:0:70:LR_Tom Hit 3.wav
153,192,91653,128,0,91969:0:0:0:100:LR_Drum Crush Finish.wav
460,192,91653,1,0,0:0:0:20:LR_Drum Kick Low.wav
256,192,91653,1,6,0:0:0:0:
460,192,91969,1,0,0:0:0:20:LR_Drum Kick Low.wav
358,192,91969,128,0,92284:0:0:0:90:LR_Hat Synth.wav
256,192,92284,1,0,0:0:0:20:LR_Drum Kick Low.wav
153,192,92284,128,0,92600:0:0:0:40:LR_HiHat SClick 2.wav
358,192,92600,128,0,92916:0:0:0:40:LR_HiHat SClick 2.wav
51,192,92600,1,0,0:0:0:20:LR_Drum Kick Low.wav
153,192,92758,1,0,0:0:0:40:LR_Drum Hit Clap Sn.wav
51,192,92916,128,0,93232:0:0:0:40:LR_HiHat SClick 2.wav
460,192,92916,1,0,0:0:0:20:LR_Drum Kick Low.wav
256,192,92916,1,2,0:0:0:0:
358,192,93074,1,0,0:0:0:40:LR_Drum Hit Clap Sn.wav
153,192,93232,1,0,0:0:0:20:LR_Drum Kick Low.wav
460,192,93232,128,0,93548:0:0:0:90:LR_Hat Synth.wav
51,192,93548,128,0,93863:0:0:0:40:LR_HiHat SClick 2.wav
256,192,93548,1,2,3:0:0:0:
358,192,93548,1,0,0:0:0:20:LR_Drum Kick Low.wav
460,192,93863,128,0,94179:0:0:0:40:LR_HiHat SClick 2.wav
153,192,93863,1,0,0:0:0:20:LR_Drum Kick Low.wav
51,192,94179,128,0,94495:0:0:0:90:LR_Hat Synth.wav
358,192,94179,1,2,0:0:0:0:
256,192,94179,1,0,0:0:0:20:LR_Drum Kick Low.wav
358,192,94495,128,0,94811:0:0:0:40:LR_HiHat SClick 2.wav
153,192,94495,1,0,0:0:0:20:LR_Drum Kick Low.wav
256,192,94653,1,0,0:0:0:40:LR_Drum Hit Clap Sn.wav
51,192,94811,128,0,95127:0:0:0:20:LR_Drum Kick Low.wav
460,192,94811,1,0,0:0:0:100:LR_Drum Rpd.wav
256,192,94890,1,0,0:0:0:50:LR_Drum Rpd Fast .wav
153,192,94969,1,0,0:0:0:40:LR_Drum Hit Clap Sn.wav
358,192,95127,128,0,95442:0:0:0:40:LR_HiHat SClick 2.wav
460,192,95127,1,0,0:0:0:20:LR_Drum Kick Low.wav
256,192,95284,1,0,0:0:0:50:LR_Drum Rpd Fast .wav
153,192,95442,128,0,95758:0:0:0:40:LR_HiHat SClick 2.wav
51,192,95442,1,0,0:0:0:20:LR_Drum Kick Low.wav
460,192,95442,1,2,0:0:0:0:
256,192,95600,1,2,3:0:0:0:
460,192,95758,128,0,96074:0:0:0:90:LR_Hat Synth.wav
358,192,95758,1,0,0:0:0:20:LR_Drum Kick Low.wav
256,192,95916,1,0,0:0:0:50:LR_Drum Rpd Fast .wav
153,192,96074,128,0,96390:0:0:0:20:LR_Drum Kick Low.wav
51,192,96074,1,0,0:0:0:40:LR_Drum Hit Clap Sn.wav
256,192,96179,1,0,0:0:0:50:LR_Drum Rpd Fast .wav
358,192,96284,1,0,0:0:0:40:LR_Drum Hit Clap Sn.wav
460,192,96390,128,0,96706:0:0:0:20:LR_Drum Kick Low.wav
51,192,96390,1,0,0:0:0:50:LR_Drum Rpd Fast .wav
153,192,96495,1,0,0:0:0:70:LR_Tom Hit 2.wav
256,192,96600,1,0,0:0:0:70:LR_Tom Hit 3.wav
51,192,96706,128,0,97021:0:0:0:100:LR_Drum Crush Finish.wav
153,192,96706,1,0,0:0:0:20:LR_Drum Kick Low.wav
358,192,96706,1,6,0:0:0:0:
256,192,97021,128,0,97337:0:0:0:40:LR_HiHat SClick 2.wav
460,192,97021,1,0,0:0:0:20:LR_Drum Kick Low.wav
153,192,97337,128,0,97653:0:0:0:40:LR_HiHat SClick 2.wav
51,192,97337,1,0,0:0:0:20:LR_Drum Kick Low.wav
358,192,97653,128,0,97969:0:0:0:40:LR_HiHat SClick 2.wav
460,192,97653,1,0,0:0:0:20:LR_Drum Kick Low.wav
51,192,97811,1,0,0:0:0:40:LR_Drum Hit Clap Sn.wav
153,192,97969,1,0,0:0:0:20:LR_Drum Kick Low.wav
460,192,97969,1,2,0:0:0:0:
256,192,97969,128,0,98284:0:0:0:40:LR_HiHat SClick 2.wav
51,192,98127,1,0,0:0:0:40:LR_Drum Hit Clap Sn.wav
358,192,98284,1,0,0:0:0:20:LR_Drum Kick Low.wav
460,192,98284,128,0,98600:0:0:0:90:LR_Hat Synth.wav
153,192,98600,128,2,98916:3:0:0:0:
256,192,98600,1,0,0:0:0:20:LR_Drum Kick Low.wav
51,192,98600,1,0,0:0:0:40:LR_HiHat SClick 2.wav
358,192,98916,128,0,99232:0:0:0:40:LR_HiHat SClick 2.wav
256,192,98916,1,0,0:0:0:20:LR_Drum Kick Low.wav
460,192,99232,1,0,0:0:0:20:LR_Drum Kick Low.wav
153,192,99232,1,2,0:0:0:0:
51,192,99232,128,0,99548:0:0:0:90:LR_Hat Synth.wav
256,192,99548,1,0,0:0:0:20:LR_Drum Kick Low.wav
358,192,99548,128,0,99863:0:0:0:90:LR_Hat Synth.wav
153,192,99863,128,0,100179:0:0:0:40:LR_HiHat SClick 2.wav
51,192,99863,1,0,0:0:0:20:LR_Drum Kick Low.wav
256,192,100179,128,0,100495:0:0:0:40:LR_HiHat SClick 2.wav
460,192,100179,1,0,0:0:0:20:LR_Drum Kick Low.wav
358,192,100337,1,0,0:0:0:50:LR_Drum Rpd Fast .wav
460,192,100495,128,2,100811:0:0:0:0:
51,192,100495,1,0,0:0:0:40:LR_Drum Hit Clap Sn.wav
153,192,100600,1,0,0:0:0:40:LR_Drum Hit Clap Sn.wav
256,192,100706,1,0,0:0:0:40:LR_Drum Hit Clap Sn.wav
358,192,100811,128,0,101127:0:0:0:20:LR_Drum Kick Low.wav
51,192,100811,1,0,0:0:0:50:LR_Drum Rpd Fast .wav
153,192,100916,1,0,0:0:0:50:LR_Drum Rpd Fast .wav
256,192,101021,1,0,0:0:0:50:LR_Drum Rpd Fast .wav
153,192,101127,128,2,101442:0:0:0:0:
460,192,101127,1,0,0:0:0:70:LR_Tom Hit 2.wav
358,192,101232,1,0,0:0:0:70:LR_Tom Hit 2.wav
256,192,101337,1,0,0:0:0:70:LR_Tom Hit 2.wav
51,192,101442,128,0,101758:0:0:0:20:LR_Drum Kick Low.wav
460,192,101442,1,0,0:0:0:70:LR_Tom Hit 3.wav
358,192,101548,1,0,0:0:0:70:LR_Tom Hit 3.wav
256,192,101653,1,0,0:0:0:70:LR_Tom Hit 3.wav
358,192,101758,1,6,0:0:0:0:
153,192,101758,128,0,102074:0:0:0:100:LR_Drum Crush Finish.wav
460,192,101758,1,0,0:0:0:20:LR_Drum Kick Low.wav
256,192,102074,1,0,0:0:0:20:LR_Drum Kick Low.wav
460,192,102074,128,0,102390:0:0:0:90:LR_Hat Synth.wav
51,192,102390,128,0,102706:0:0:0:40:LR_HiHat SClick 2.wav
153,192,102390,1,0,0:0:0:20:LR_Drum Kick Low.wav
358,192,102706,128,0,103021:0:0:0:40:LR_HiHat SClick 2.wav
460,192,102706,1,0,0:0:0:20:LR_Drum Kick Low.wav
256,192,102863,1,0,0:0:0:40:LR_Drum Hit Clap Sn.wav
460,192,103021,1,0,0:0:0:20:LR_Drum Kick Low.wav
153,192,103021,128,0,103337:0:0:0:40:LR_HiHat SClick 2.wav
51,192,103021,1,2,0:0:0:0:
256,192,103179,1,0,0:0:0:40:LR_Drum Hit Clap Sn.wav
358,192,103337,128,0,103653:0:0:0:90:LR_Hat Synth.wav
51,192,103337,1,0,0:0:0:20:LR_Drum Kick Low.wav
153,192,103653,1,0,0:0:0:20:LR_Drum Kick Low.wav
51,192,103653,128,0,103969:0:0:0:40:LR_HiHat SClick 2.wav
460,192,103653,1,2,3:0:0:0:
460,192,103969,128,0,104284:0:0:0:40:LR_HiHat SClick 2.wav
358,192,103969,1,0,0:0:0:20:LR_Drum Kick Low.wav
153,192,104284,128,0,104600:0:0:0:90:LR_Hat Synth.wav
358,192,104284,1,0,0:0:0:40:LR_Drum Hit Clap Sn.wav
51,192,104284,1,0,0:0:0:20:LR_Drum Kick Low.wav
460,192,104600,1,0,0:0:0:20:LR_Drum Kick Low.wav
256,192,104600,128,0,104916:0:0:0:40:LR_HiHat SClick 2.wav
51,192,104916,128,0,105232:0:0:0:90:LR_Hat Synth.wav
153,192,104916,1,0,0:0:0:20:LR_Drum Kick Low.wav
358,192,105232,128,0,105548:0:0:0:40:LR_HiHat SClick 2.wav
460,192,105232,1,0,0:0:0:20:LR_Drum Kick Low.wav
256,192,105390,1,0,0:0:0:40:LR_Drum Hit Clap Sn.wav
153,192,105548,1,0,0:0:0:20:LR_Drum Kick Low.wav
51,192,105548,128,0,105863:0:0:0:40:LR_HiHat SClick 2.wav
460,192,105548,1,2,0:0:0:0:
256,192,105706,1,0,0:0:0:40:LR_Drum Hit Clap Sn.wav
358,192,105863,128,0,106179:0:0:0:90:LR_Hat Synth.wav
460,192,105863,1,0,0:0:0:20:LR_Drum Kick Low.wav
153,192,106021,1,0,0:0:0:50:LR_Drum Rpd Fast .wav
51,192,106179,1,0,0:0:0:20:LR_Drum Kick Low.wav
256,192,106179,1,4,0:0:0:0:
460,192,106179,1,2,0:0:0:0:
460,192,106390,1,0,0:0:0:20:LR_Drum Kick Low.wav
256,192,106390,1,4,0:0:0:0:
51,192,106390,1,2,0:0:0:0:
358,192,106600,1,0,0:0:0:20:LR_Drum Kick Low.wav
153,192,106600,1,2,0:0:0:0:
256,192,106600,1,4,0:0:0:0:
51,192,106811,1,6,0:0:0:0:
460,192,106811,1,0,0:0:0:20:LR_Drum Kick Low.wav
256,192,106811,128,0,107127:0:0:0:40:LR_HiHat SClick 2.wav
460,192,107127,1,0,0:0:0:20:LR_Drum Kick Low.wav
358,192,107127,128,0,107442:0:0:0:40:LR_HiHat SClick 2.wav
153,192,107442,128,0,107758:0:0:0:40:LR_HiHat SClick 2.wav
51,192,107442,1,0,0:0:0:20:LR_Drum Kick Low.wav
358,192,107758,1,0,0:0:0:20:LR_Drum Kick Low.wav
460,192,107758,128,0,108074:0:0:0:40:LR_HiHat SClick 2.wav
256,192,107916,1,0,0:0:0:40:LR_Drum Hit Clap Sn.wav
51,192,108074,128,0,108390:0:0:0:40:LR_HiHat SClick 2.wav
153,192,108074,1,0,0:0:0:20:LR_Drum Kick Low.wav
358,192,108074,1,2,0:0:0:0:
256,192,108232,1,0,0:0:0:40:LR_Drum Hit Clap Sn.wav
460,192,108390,1,0,0:0:0:20:LR_Drum Kick Low.wav
358,192,108390,128,0,108706:0:0:0:90:LR_Hat Synth.wav
51,192,108706,1,0,0:0:0:20:LR_Drum Kick Low.wav
153,192,108706,128,0,109021:0:0:0:40:LR_HiHat SClick 2.wav
256,192,108706,1,2,3:0:0:0:
256,192,109021,128,0,109337:0:0:0:40:LR_HiHat SClick 2.wav
460,192,109021,1,0,0:0:0:20:LR_Drum Kick Low.wav
51,192,109337,128,0,109653:0:0:0:90:LR_Hat Synth.wav
153,192,109337,1,0,0:0:0:20:LR_Drum Kick Low.wav
358,192,109337,1,2,0:0:0:0:
256,192,109653,128,0,109969:0:0:0:40:LR_HiHat SClick 2.wav
460,192,109653,1,0,0:0:0:20:LR_Drum Kick Low.wav
358,192,109811,1,0,0:0:0:40:LR_Drum Hit Clap Sn.wav
153,192,109969,128,0,110284:0:0:0:40:LR_HiHat SClick 2.wav
460,192,109969,1,0,0:0:0:20:LR_Drum Kick Low.wav
256,192,110127,1,0,0:0:0:40:LR_Drum Hit Clap Sn.wav
460,192,110284,1,0,0:0:0:20:LR_Drum Kick Low.wav
358,192,110284,128,0,110600:0:0:0:40:LR_HiHat SClick 2.wav
51,192,110284,1,2,0:0:0:0:
153,192,110442,1,2,0:0:0:0:
460,192,110600,128,0,110916:0:0:0:90:LR_Hat Synth.wav
51,192,110600,1,0,0:0:0:20:LR_Drum Kick Low.wav
153,192,110758,1,0,0:0:0:20:LR_Drum Kick Low.wav
358,192,110916,128,0,111232:0:0:0:40:LR_HiHat SClick 2.wav
256,192,110916,1,0,0:0:0:20:LR_Drum Kick Low.wav
51,192,111074,1,0,0:0:0:50:LR_Drum Rpd Fast .wav
256,192,111232,128,0,111548:0:0:0:20:LR_Drum Kick Low.wav
153,192,111232,1,0,0:0:0:0:
51,192,111337,1,0,0:0:0:50:LR_Drum Rpd Fast .wav
358,192,111442,1,0,0:0:0:40:LR_Drum Hit Clap Sn.wav
153,192,111548,128,0,111863:0:0:0:20:LR_Drum Kick Low.wav
460,192,111548,1,0,0:0:0:0:
358,192,111706,1,0,0:0:0:70:LR_Tom Hit 3.wav
51,192,111863,128,0,112179:0:0:0:100:LR_Drum Crush Finish.wav
256,192,111863,1,0,0:0:0:20:LR_Drum Kick Low.wav
460,192,111863,1,2,0:0:0:0:
358,192,112179,1,0,0:0:0:20:LR_Drum Kick Low.wav
460,192,112179,128,0,112495:0:0:0:90:LR_Hat Synth.wav
51,192,112495,1,0,0:0:0:20:LR_Drum Kick Low.wav
153,192,112495,128,0,112811:0:0:0:40:LR_HiHat SClick 2.wav
256,192,112811,1,0,0:0:0:20:LR_Drum Kick Low.wav
358,192,112811,128,0,113127:0:0:0:40:LR_HiHat SClick 2.wav
153,192,112969,1,0,0:0:0:40:LR_Drum Hit Clap Sn.wav
51,192,113127,1,0,0:0:0:20:LR_Drum Kick Low.wav
256,192,113127,128,0,113442:0:0:0:40:LR_HiHat SClick 2.wav
153,192,113284,1,0,0:0:0:40:LR_Drum Hit Clap Sn.wav
460,192,113442,128,0,113758:0:0:0:90:LR_Hat Synth.wav
358,192,113442,1,0,0:0:0:20:LR_Drum Kick Low.wav
153,192,113758,1,0,0:0:0:20:LR_Drum Kick Low.wav
51,192,113758,128,0,114074:0:0:0:40:LR_HiHat SClick 2.wav
358,192,113758,1,0,0:0:0:40:LR_Drum Hit Clap Sn.wav
256,192,114074,128,0,114390:0:0:0:40:LR_HiHat SClick 2.wav
460,192,114074,1,0,0:0:0:20:LR_Drum Kick Low.wav
358,192,114232,1,0,0:0:0:50:LR_Drum Rpd Fast .wav
153,192,114390,128,0,114706:0:0:0:20:LR_Drum Kick Low.wav
51,192,114390,1,0,0:0:0:90:LR_Hat Synth.wav
460,192,114390,1,4,0:0:0:0:
358,192,114706,128,0,115021:0:0:0:20:LR_Drum Kick Low.wav
460,192,114706,1,0,0:0:0:40:LR_HiHat SClick 2.wav
256,192,114863,1,0,0:0:0:40:LR_Drum Hit Clap Sn.wav
51,192,115021,128,0,115337:0:0:0:20:LR_Drum Kick Low.wav
153,192,115021,1,0,0:0:0:40:LR_HiHat SClick 2.wav
460,192,115179,1,0,0:0:0:40:LR_Drum Hit Clap Sn.wav
256,192,115337,128,0,115653:0:0:0:20:LR_Drum Kick Low.wav
153,192,115337,1,0,0:0:0:40:LR_HiHat SClick 2.wav
358,192,115495,1,0,0:0:0:40:LR_Drum Hit Clap Sn.wav
153,192,115653,128,0,115969:0:0:0:20:LR_Drum Kick Low.wav
51,192,115653,1,0,0:0:0:40:LR_HiHat SClick 2.wav
460,192,115811,1,2,3:0:0:0:
358,192,115969,128,0,116284:0:0:0:40:LR_HiHat SClick 2.wav
256,192,115969,1,0,0:0:0:20:LR_Drum Kick Low.wav
153,192,116127,1,0,0:0:0:50:LR_Drum Rpd Fast .wav
51,192,116284,1,0,0:0:0:20:LR_Drum Kick Low.wav
256,192,116284,128,0,116600:0:0:0:40:LR_HiHat SClick 2.wav
153,192,116390,1,0,0:0:0:40:LR_Drum Hit Clap Sn.wav
358,192,116495,1,0,0:0:0:50:LR_Drum Rpd Fast .wav
460,192,116600,128,0,116916:0:0:0:40:LR_HiHat SClick 2.wav
51,192,116600,1,0,0:0:0:20:LR_Drum Kick Low.wav
153,192,116706,1,0,0:0:0:70:LR_Tom Hit 2.wav
256,192,116811,1,0,0:0:0:70:LR_Tom Hit 3.wav
51,192,116916,128,0,117232:0:0:0:100:LR_Drum Crush Finish.wav
153,192,116916,1,6,0:0:0:0:
358,192,116916,1,0,0:0:0:20:LR_Drum Kick Low.wav
358,192,117232,128,0,117548:0:0:0:40:LR_HiHat SClick 2.wav
460,192,117232,1,0,0:0:0:20:LR_Drum Kick Low.wav
256,192,117390,1,0,0:0:0:0:
153,192,117548,128,0,117863:0:0:0:40:LR_HiHat SClick 2.wav
51,192,117548,1,0,0:0:0:20:LR_Drum Kick Low.wav
460,192,117863,128,0,118179:0:0:0:40:LR_HiHat SClick 2.wav
256,192,117863,1,0,0:0:0:20:LR_Drum Kick Low.wav
358,192,118021,1,0,0:0:0:40:LR_Drum Hit Clap Sn.wav
256,192,118179,128,0,118495:0:0:0:40:LR_HiHat SClick 2.wav
51,192,118179,1,0,0:0:0:20:LR_Drum Kick Low.wav
460,192,118337,1,0,0:0:0:40:LR_Drum Hit Clap Sn.wav
358,192,118495,128,0,118811:0:0:0:90:LR_Hat Synth.wav
51,192,118495,1,0,0:0:0:20:LR_Drum Kick Low.wav
153,192,118495,1,0,0:0:0:0:
153,192,118811,128,0,119127:0:0:0:40:LR_HiHat SClick 2.wav
460,192,118811,1,2,3:0:0:0:
256,192,118811,1,0,0:0:0:20:LR_Drum Kick Low.wav
256,192,119127,128,0,119442:0:0:0:40:LR_HiHat SClick 2.wav
51,192,119127,1,0,0:0:0:20:LR_Drum Kick Low.wav
51,192,119442,1,0,0:0:0:40:LR_Drum Hit Clap Sn.wav
358,192,119442,1,0,0:0:0:20:LR_Drum Kick Low.wav
460,192,119442,128,6,119863:0:0:0:0:
256,192,119548,1,0,0:0:0:50:LR_Drum Rpd Fast .wav
153,192,119653,1,0,0:0:0:40:LR_Drum Hit Clap Sn.wav
51,192,119758,1,0,0:0:0:50:LR_Drum Rpd Fast .wav
256,192,119863,128,2,120284:0:0:0:0:
460,192,120074,1,0,0:0:0:40:LR_Drum Hit Clap Sn.wav
358,192,120179,1,0,0:0:0:50:LR_Drum Rpd Fast .wav
153,192,120284,1,0,0:0:0:40:LR_Drum Hit Clap Sn.wav
51,192,120284,128,2,120706:0:0:0:0:
460,192,120390,1,0,0:0:0:50:LR_Drum Rpd Fast .wav
358,192,120574,1,0,0:0:0:100:LR_Drum Rpd.wav
256,192,120706,128,0,121969:0:0:0:20:LR_Drum Kick Low.wav
460,192,120706,1,0,0:0:0:40:LR_Drum Hit Clap Sn.wav
153,192,120706,1,2,0:0:0:0:
358,192,120811,1,0,0:0:0:40:LR_Drum Hit Clap Sn.wav
153,192,120916,1,0,0:0:0:40:LR_Drum Hit Clap Sn.wav
51,192,121021,1,0,0:0:0:50:LR_Drum Rpd Fast .wav
460,192,121021,1,0,0:0:0:20:LR_Drum Kick Low.wav
153,192,121127,1,0,0:0:0:50:LR_Drum Rpd Fast .wav
358,192,121232,1,0,0:0:0:50:LR_Drum Rpd Fast .wav
460,192,121337,1,0,0:0:0:20:LR_Drum Kick Low.wav
51,192,121337,1,0,0:0:0:30:LR_RevCyRDW.wav
358,192,121442,1,0,0:0:0:70:LR_Tom Hit 2.wav
153,192,121548,1,0,0:0:0:70:LR_Tom Hit 2.wav
460,192,121653,1,0,0:0:0:20:LR_Drum Kick Low.wav
51,192,121653,1,0,0:0:0:70:LR_Tom Hit 3.wav
153,192,121771,1,0,0:0:0:70:LR_Tom Hit 3.wav
358,192,121890,1,0,0:0:0:70:LR_Tom Hit 3.wav
51,192,121969,128,0,122284:0:0:0:100:LR_Drum Crush Finish.wav
460,192,121969,1,4,1:0:0:0:
153,192,121969,1,6,0:0:0:0:
358,192,122127,1,0,0:0:0:55:LR_HiHat Click.wav
256,192,122284,1,0,0:0:0:45:LR_HiHat SClick 2.wav
460,192,122442,1,0,0:0:0:55:LR_HiHat Click.wav
153,192,122600,1,0,0:0:0:45:LR_HiHat SClick 2.wav
51,192,122600,128,0,122916:0:0:0:0:
358,192,122758,1,0,0:0:0:55:LR_HiHat Click.wav
256,192,122916,1,0,0:0:0:45:LR_HiHat SClick 2.wav
460,192,123074,1,0,0:0:0:45:LR_Drum Hit Clap Sn.wav
358,192,123232,1,2,0:0:0:0:
153,192,123232,1,0,0:0:0:45:LR_HiHat SClick 2.wav
51,192,123232,128,0,123548:0:0:0:0:
460,192,123390,1,0,0:0:0:45:LR_Drum Hit Clap Sn.wav
256,192,123548,1,0,0:0:0:90:LR_Hat Synth.wav
358,192,123706,1,0,0:0:0:55:LR_HiHat Click.wav
153,192,123863,1,2,3:0:0:0:
460,192,123863,1,0,0:0:0:45:LR_HiHat SClick 2.wav
51,192,123863,128,0,124179:0:0:0:0:
358,192,124021,1,0,0:0:0:55:LR_HiHat Click.wav
256,192,124179,1,0,0:0:0:45:LR_HiHat SClick 2.wav
460,192,124337,1,0,0:0:0:55:LR_HiHat Click.wav
358,192,124495,1,6,0:0:0:0:
51,192,124495,128,0,124811:0:0:0:0:
153,192,124495,1,0,0:0:0:90:LR_Hat Synth.wav
460,192,124653,1,0,0:0:0:55:LR_HiHat Click.wav
256,192,124811,1,0,0:0:0:45:LR_HiHat SClick 2.wav
358,192,124969,1,0,0:0:0:45:LR_Drum Hit Clap Sn.wav
153,192,125127,1,0,0:0:0:45:LR_HiHat SClick 2.wav
51,192,125127,128,0,125442:0:0:0:0:
460,192,125284,1,0,0:0:0:45:LR_Drum Hit Clap Sn.wav
256,192,125442,1,0,0:0:0:45:LR_HiHat SClick 2.wav
358,192,125600,1,0,0:0:0:45:LR_Drum Hit Clap Sn.wav
460,192,125758,1,0,0:0:0:90:LR_Hat Synth.wav
153,192,125758,1,2,0:0:0:0:
51,192,125758,128,0,126074:0:0:0:0:
358,192,125916,1,0,0:0:0:55:LR_HiHat Click.wav
256,192,126074,1,0,0:0:0:45:LR_HiHat SClick 2.wav
460,192,126232,1,0,0:0:0:55:LR_Drum Rpd Fast .wav
153,192,126390,1,0,0:0:0:45:LR_Drum Hit Clap Sn.wav
51,192,126390,128,0,126706:0:0:0:45:LR_HiHat SClick 2.wav
256,192,126495,1,0,0:0:0:55:LR_Drum Rpd Fast .wav
358,192,126600,1,0,0:0:0:45:LR_Drum Hit Clap Sn.wav
153,192,126706,128,0,127021:0:0:0:45:LR_HiHat SClick 2.wav
256,192,126706,1,0,0:0:0:100:LR_Drum Rpd.wav
358,192,126811,1,0,0:0:0:70:LR_Tom Hit 2.wav
460,192,126916,1,0,0:0:0:70:LR_Tom Hit 3.wav
256,192,127021,128,0,127337:0:0:0:100:LR_Drum Crush Finish.wav
51,192,127021,1,0,0:0:0:20:LR_Drum Kick Low.wav
358,192,127021,1,4,0:0:0:0:
460,192,127179,1,0,0:0:0:55:LR_HiHat Click.wav
153,192,127337,1,0,0:0:0:90:LR_Hat Synth.wav
358,192,127495,1,0,0:0:0:55:LR_HiHat Click.wav
51,192,127653,1,2,3:0:0:0:
460,192,127653,1,0,0:0:0:45:LR_HiHat SClick 2.wav
256,192,127653,128,0,127969:0:0:0:0:
153,192,127811,1,0,0:0:0:55:LR_HiHat Click.wav
358,192,127969,1,0,0:0:0:45:LR_HiHat SClick 2.wav
153,192,128127,1,0,0:0:0:45:LR_Drum Hit Clap Sn.wav
51,192,128284,1,2,0:0:0:0:
460,192,128284,1,0,0:0:0:45:LR_HiHat SClick 2.wav
256,192,128284,128,0,128600:0:0:0:0:
358,192,128442,1,0,0:0:0:45:LR_Drum Hit Clap Sn.wav
153,192,128600,1,0,0:0:0:90:LR_Hat Synth.wav
358,192,128758,1,0,0:0:0:55:LR_HiHat Click.wav
51,192,128916,1,2,3:0:0:0:
460,192,128916,1,0,0:0:0:45:LR_HiHat SClick 2.wav
256,192,128916,128,0,129232:0:0:0:0:
153,192,129074,1,0,0:0:0:55:LR_HiHat Click.wav
358,192,129232,1,0,0:0:0:45:LR_HiHat SClick 2.wav
153,192,129390,1,0,0:0:0:55:LR_HiHat Click.wav
358,192,129548,1,6,0:0:0:0:
256,192,129548,128,0,129863:0:0:0:0:
51,192,129548,1,0,0:0:0:45:LR_HiHat SClick 2.wav
460,192,129706,1,0,0:0:0:55:LR_HiHat Click.wav
153,192,129863,1,0,0:0:0:45:LR_HiHat SClick 2.wav
358,192,130021,1,0,0:0:0:45:LR_Drum Hit Clap Sn.wav
256,192,130179,128,0,130495:0:0:0:0:
51,192,130179,1,0,0:0:0:45:LR_HiHat SClick 2.wav
460,192,130337,1,0,0:0:0:45:LR_Drum Hit Clap Sn.wav
153,192,130495,1,0,0:0:0:45:LR_HiHat SClick 2.wav
358,192,130653,1,0,0:0:0:55:LR_Drum Rpd Fast .wav
153,192,130811,1,2,0:0:0:0:
256,192,130811,128,0,131127:0:0:0:0:
51,192,130811,1,0,0:0:0:90:LR_Hat Synth.wav
460,192,130969,1,0,0:0:0:45:LR_Drum Hit Clap Sn.wav
358,192,131127,1,0,0:0:0:45:LR_HiHat SClick 2.wav
153,192,131284,1,0,0:0:0:55:LR_Drum Rpd Fast .wav
256,192,131442,128,0,131758:0:0:0:45:LR_HiHat SClick 2.wav
460,192,131442,1,0,0:0:0:45:LR_Drum Hit Clap Sn.wav
358,192,131548,1,0,0:0:0:55:LR_Drum Rpd Fast .wav
153,192,131653,1,0,0:0:0:45:LR_Drum Hit Clap Sn.wav
358,192,131758,128,0,132074:0:0:0:45:LR_HiHat SClick 2.wav
51,192,131758,1,0,0:0:0:70:LR_Tom Hit 2.wav
256,192,131916,1,0,0:0:0:70:LR_Tom Hit 3.wav
460,192,132074,128,0,132390:0:0:0:100:LR_Drum Crush Finish.wav
153,192,132074,1,0,0:0:0:20:LR_Drum Kick Low.wav
51,192,132074,1,6,0:0:0:0:
358,192,132232,1,0,0:0:0:55:LR_HiHat Click.wav
51,192,132390,1,0,0:0:0:90:LR_Hat Synth.wav
256,192,132548,1,0,0:0:0:55:LR_HiHat Click.wav
153,192,132706,1,0,0:0:0:45:LR_HiHat SClick 2.wav
460,192,132706,128,0,133021:0:0:0:0:
358,192,132863,1,0,0:0:0:55:LR_HiHat Click.wav
51,192,133021,1,0,0:0:0:45:LR_HiHat SClick 2.wav
256,192,133179,1,0,0:0:0:45:LR_Drum Hit Clap Sn.wav
51,192,133337,1,2,0:0:0:0:
460,192,133337,128,0,133653:0:0:0:0:
153,192,133337,1,0,0:0:0:45:LR_HiHat SClick 2.wav
256,192,133495,1,0,0:0:0:45:LR_Drum Hit Clap Sn.wav
153,192,133653,1,0,0:0:0:90:LR_Hat Synth.wav
358,192,133811,1,0,0:0:0:55:LR_HiHat Click.wav
51,192,133969,1,2,3:0:0:0:
460,192,133969,128,0,134284:0:0:0:0:
256,192,133969,1,0,0:0:0:45:LR_HiHat SClick 2.wav
153,192,134127,1,0,0:0:0:55:LR_HiHat Click.wav
256,192,134284,1,0,0:0:0:45:LR_HiHat SClick 2.wav
358,192,134442,1,0,0:0:0:55:LR_HiHat Click.wav
256,192,134600,1,6,0:0:0:0:
51,192,134600,1,0,0:0:0:90:LR_Hat Synth.wav
460,192,134600,128,0,134916:0:0:0:0:
358,192,134758,1,0,0:0:0:55:LR_HiHat Click.wav
153,192,134916,1,0,0:0:0:45:LR_HiHat SClick 2.wav
256,192,135074,1,0,0:0:0:45:LR_Drum Hit Clap Sn.wav
460,192,135232,128,0,135548:0:0:0:0:
51,192,135232,1,0,0:0:0:90:LR_Hat Synth.wav
358,192,135390,1,0,0:0:0:55:LR_HiHat Click.wav
153,192,135548,1,0,0:0:0:45:LR_HiHat SClick 2.wav
256,192,135706,1,0,0:0:0:45:LR_Drum Hit Clap Sn.wav
51,192,135863,1,2,0:0:0:0:
460,192,135863,128,0,136179:0:0:0:0:
153,192,135863,1,0,0:0:0:90:LR_Hat Synth.wav
358,192,136021,1,0,0:0:0:45:LR_HiHat Click.wav
256,192,136179,1,0,0:0:0:45:LR_Drum Hit Clap Sn.wav
51,192,136337,1,0,0:0:0:55:LR_Drum Rpd Fast .wav
460,192,136495,128,0,136811:0:0:0:45:LR_HiHat SClick 2.wav
358,192,136495,1,0,0:0:0:45:LR_Drum Hit Clap Sn.wav
256,192,136600,1,0,0:0:0:55:LR_Drum Rpd Fast .wav
153,192,136706,1,0,0:0:0:45:LR_Drum Hit Clap Sn.wav
51,192,136811,128,0,137127:0:0:0:45:LR_HiHat SClick 2.wav
358,192,136811,1,0,0:0:0:100:LR_Drum Rpd.wav
256,192,136929,1,0,0:0:0:70:LR_Tom Hit 2.wav
153,192,137048,1,0,0:0:0:70:LR_Tom Hit 3.wav
256,192,137127,128,0,137442:0:0:0:100:LR_Drum Crush Finish.wav
358,192,137127,1,0,0:0:0:20:LR_Drum Kick Low.wav
460,192,137127,1,2,0:0:0:0:
153,192,137284,1,0,0:0:0:20:LR_Drum Kick Low.wav
51,192,137442,1,0,0:0:0:20:LR_Drum Kick Low.wav
460,192,137600,1,0,0:0:0:20:LR_Drum Kick Low.wav
153,192,137758,1,0,0:0:0:20:LR_Drum Kick Low.wav
256,192,137758,128,0,138074:0:0:0:0:
358,192,137916,1,0,0:0:0:20:LR_Drum Kick Low.wav
51,192,138074,1,0,0:0:0:20:LR_Drum Kick Low.wav
460,192,138232,1,0,0:0:0:20:LR_Drum Kick Low.wav
358,192,138390,1,2,0:0:0:0:
153,192,138390,1,0,0:0:0:20:LR_Drum Kick Low.wav
256,192,138390,128,0,138706:0:0:0:0:
460,192,138548,1,0,0:0:0:20:LR_Drum Kick Low.wav
51,192,138706,1,0,0:0:0:20:LR_Drum Kick Low.wav
460,192,138863,1,0,0:0:0:20:LR_Drum Kick Low.wav
256,192,139021,128,0,139337:0:0:0:0:
153,192,139021,1,0,0:0:0:20:LR_Drum Kick Low.wav
358,192,139179,1,0,0:0:0:20:LR_Drum Kick Low.wav
51,192,139337,1,0,0:0:0:20:LR_Drum Kick Low.wav
256,192,139495,1,0,0:0:0:20:LR_Drum Kick Low.wav
51,192,139653,1,0,0:0:0:45:LR_Drum Hit Clap Sn.wav
358,192,139653,1,0,0:0:0:66:LR_Drum Rpd.wav
460,192,139653,1,2,0:0:0:0:
153,192,139758,1,0,0:0:0:45:LR_Drum Hit Clap Sn.wav
256,192,139863,1,0,0:0:0:45:LR_Drum Hit Clap Sn.wav
358,192,139969,1,0,0:0:0:45:LR_Drum Hit Clap Sn.wav
51,192,139969,1,0,0:0:0:66:LR_Drum Rpd.wav
256,192,140074,1,0,0:0:0:45:LR_Drum Hit Clap Sn.wav
153,192,140179,1,0,0:0:0:45:LR_Drum Hit Clap Sn.wav
256,192,140284,1,0,0:0:0:45:LR_Drum Hit Clap Sn.wav
358,192,140284,1,0,0:0:0:66:LR_Drum Rpd.wav
153,192,140390,1,0,0:0:0:45:LR_Drum Hit Clap Sn.wav
51,192,140495,1,0,0:0:0:45:LR_Drum Hit Clap Sn.wav
460,192,140600,1,0,0:0:0:66:LR_Drum Rpd.wav
358,192,140600,1,0,0:0:0:70:LR_Tom Hit 2.wav
256,192,140706,1,0,0:0:0:70:LR_Tom Hit 2.wav
153,192,140811,1,0,0:0:0:70:LR_Tom Hit 2.wav
51,192,140916,1,0,0:0:0:45:LR_Drum Hit Clap Sn.wav
460,192,140916,1,0,0:0:0:66:LR_Drum Rpd.wav
358,192,140916,1,2,0:0:0:0:
153,192,141021,1,0,0:0:0:45:LR_Drum Hit Clap Sn.wav
256,192,141127,1,0,0:0:0:45:LR_Drum Hit Clap Sn.wav
358,192,141232,1,0,0:0:0:45:LR_Drum Hit Clap Sn.wav
51,192,141232,1,0,0:0:0:66:LR_Drum Rpd.wav
256,192,141337,1,0,0:0:0:45:LR_Drum Hit Clap Sn.wav
358,192,141442,1,0,0:0:0:45:LR_Drum Hit Clap Sn.wav
460,192,141548,1,0,0:0:0:45:LR_Drum Hit Clap Sn.wav
51,192,141548,1,0,0:0:0:30:LR_RevCyRDW.wav
358,192,141627,1,0,0:0:0:45:LR_Drum Hit Clap Sn.wav
153,192,141627,1,0,0:0:0:66:LR_Drum Rpd.wav
256,192,141706,1,0,0:0:0:45:LR_Drum Hit Clap Sn.wav
153,192,141784,1,0,0:0:0:45:LR_Drum Hit Clap Sn.wav
358,192,141784,1,0,0:0:0:66:LR_Drum Rpd.wav
51,192,141863,1,0,0:0:0:45:LR_Drum Hit Clap Sn.wav
460,192,141863,1,0,0:0:0:66:LR_Drum Rpd.wav
153,192,141969,1,0,0:0:0:66:LR_Drum Rpd.wav
358,192,141969,1,0,0:0:0:45:LR_Drum Hit Clap Sn.wav
256,192,142074,1,0,0:0:0:45:LR_Drum Hit Clap Sn.wav
153,192,142179,128,0,144706:0:0:0:30:LR_Drum Kick Low.wav
358,192,142179,128,0,144706:0:0:0:60:crash.wav
51,192,142179,1,6,0:0:0:0:
460,192,142179,1,4,1:0:0:0:
51,192,142811,1,2,0:0:0:0:
460,192,143442,1,2,0:0:0:0:
51,192,144706,1,2,0:0:0:0:
256,192,144706,1,0,0:0:0:0:
460,192,145337,1,2,0:0:0:0:
256,192,145337,1,0,0:0:0:0:
256,192,146284,1,2,0:0:0:0:
153,192,146600,1,2,0:0:0:0:
460,192,146916,1,2,0:0:0:0:
51,192,147232,1,0,0:0:0:0:
358,192,147232,1,0,0:0:0:0:
256,192,147232,1,0,0:0:0:0:
153,192,147548,1,0,0:0:0:0:
256,192,147863,1,0,0:0:0:0:
358,192,148179,1,0,0:0:0:0:
460,192,148495,1,0,0:0:0:0:
358,192,148811,1,2,0:0:0:0:
256,192,148969,1,2,0:0:0:0:
460,192,149758,1,0,0:0:0:0:
256,192,149758,1,0,0:0:0:0:
51,192,149758,1,0,0:0:0:0:
153,192,150074,1,0,0:0:0:0:
256,192,150390,1,0,0:0:0:0:
358,192,150706,1,2,0:0:0:0:
153,192,150706,1,0,0:0:0:0:
51,192,151021,1,2,0:0:0:0:
460,192,151021,1,0,0:0:0:0:
256,192,151337,1,0,0:0:0:0:
153,192,151653,1,2,0:0:0:0:
358,192,151653,1,0,0:0:0:0:
256,192,151969,1,0,0:0:0:0:
358,192,152245,1,0,0:0:0:0:
51,192,152284,1,2,0:0:0:0:
460,192,152284,1,0,0:0:0:0:
256,192,152600,1,0,0:0:0:0:
358,192,152916,1,2,0:0:0:0:
51,192,152916,1,0,0:0:0:0:
256,192,153232,1,0,0:0:0:0:
460,192,153548,1,2,0:0:0:0:
153,192,153548,1,0,0:0:0:0:
51,192,153863,1,2,0:0:0:0:
256,192,153863,1,0,0:0:0:0:
153,192,154179,1,2,0:0:0:0:
358,192,154179,1,0,0:0:0:0:
256,192,154495,1,2,0:0:0:0:
460,192,154495,1,0,0:0:0:0:
153,192,154784,1,0,0:0:0:0:
358,192,154811,1,2,0:0:0:0:
51,192,154811,1,0,0:0:0:0:
358,192,155462,1,0,0:0:0:0:
153,192,155495,1,0,0:0:0:0:
460,192,155495,1,2,0:0:0:0:
460,192,156479,1,2,0:0:0:0:
256,192,156479,1,0,0:0:0:0:
358,192,156812,1,0,0:0:0:0:
153,192,156812,1,2,0:0:0:0:
51,192,157145,1,2,0:0:0:0:
256,192,157145,1,0,0:0:0:0:
153,192,157458,1,0,0:0:0:0:
256,192,157506,1,2,0:0:0:0:
358,192,157534,1,0,0:0:0:0:
460,192,157562,1,0,0:0:0:0:
51,192,157812,1,0,0:0:0:0:
153,192,158167,1,0,0:0:0:0:
460,192,158515,1,2,0:0:0:0:
256,192,158515,1,0,0:0:0:0:
358,192,158864,1,0,0:0:0:0:
460,192,159191,1,2,0:0:0:0:
153,192,159191,1,0,0:0:0:0:
358,192,159366,1,2,0:0:0:0:
51,192,159366,1,0,0:0:0:0:
256,192,160194,1,0,0:0:0:0:
460,192,160238,1,0,0:0:0:0:
51,192,160238,1,2,0:0:0:0:
153,192,160587,1,2,0:0:0:0:
358,192,160587,1,0,0:0:0:0:
51,192,160936,1,2,0:0:0:0:
256,192,160936,1,0,0:0:0:0:
153,192,161288,1,0,0:0:0:0:
358,192,161288,1,2,0:0:0:0:
460,192,161641,1,0,0:0:0:25:LR_Chm Echo long.wav
256,192,161641,1,2,0:0:0:0:
51,192,161641,1,0,0:0:0:0:
358,192,162002,1,2,0:0:0:0:
256,192,162363,1,2,0:0:0:0:
153,192,162763,1,2,0:0:0:0:
51,192,163163,1,0,0:0:0:30:LR_Drum Kick Low.wav
460,192,163163,1,0,0:0:0:40:crash.wav
256,192,163163,1,4,1:0:0:0:
153,192,163163,1,6,0:0:0:0:
358,192,163320,1,0,0:0:0:0:
153,192,163478,1,0,0:0:0:50:LR_HiHat SClick 2.wav
358,192,163636,1,0,0:0:0:0:
153,192,163794,1,0,0:0:0:0:
358,192,163952,1,0,0:0:0:0:
153,192,164110,1,0,0:0:0:50:LR_HiHat SClick 2.wav
358,192,164268,1,0,0:0:0:0:
51,192,164426,1,0,0:0:0:0:
256,192,164584,1,0,0:0:0:0:
51,192,164741,1,0,0:0:0:50:LR_HiHat SClick 2.wav
256,192,164899,1,0,0:0:0:0:
51,192,165057,1,0,0:0:0:0:
256,192,165215,1,0,0:0:0:0:
51,192,165373,1,0,0:0:0:50:LR_HiHat SClick 2.wav
358,192,165531,1,0,0:0:0:0:
256,192,165689,1,2,0:0:0:0:
153,192,165689,1,0,0:0:0:0:
460,192,165847,1,0,0:0:0:0:
256,192,166005,1,0,0:0:0:50:LR_HiHat SClick 2.wav
460,192,166163,1,0,0:0:0:0:
256,192,166320,1,0,0:0:0:0:
460,192,166478,1,0,0:0:0:0:
256,192,166636,1,0,0:0:0:50:LR_HiHat SClick 2.wav
460,192,166794,1,0,0:0:0:0:
153,192,166952,1,2,0:0:0:0:
256,192,166952,1,0,0:0:0:0:
358,192,167110,1,0,0:0:0:0:
153,192,167268,1,0,0:0:0:50:LR_HiHat SClick 2.wav
358,192,167426,1,0,0:0:0:0:
51,192,167584,1,2,0:0:0:0:
153,192,167584,1,0,0:0:0:0:
358,192,167741,1,0,0:0:0:0:
153,192,167899,1,0,0:0:0:50:LR_HiHat SClick 2.wav
358,192,168057,1,0,0:0:0:0:
460,192,168215,1,0,0:0:0:80:LR_Drum Crush Finish.wav
51,192,168215,1,0,0:0:0:25:LR_Chm loong.wav
256,192,168215,1,4,1:0:0:0:
358,192,168373,1,0,0:0:0:0:
153,192,168531,1,0,0:0:0:50:LR_HiHat SClick 2.wav
460,192,168689,1,0,0:0:0:0:
51,192,168847,1,0,0:0:0:0:
358,192,169005,1,0,0:0:0:0:
153,192,169163,1,0,0:0:0:50:LR_HiHat SClick 2.wav
460,192,169320,1,0,0:0:0:0:
153,192,169478,1,0,0:0:0:0:
358,192,169636,1,0,0:0:0:0:
51,192,169794,1,0,0:0:0:50:LR_HiHat SClick 2.wav
460,192,169952,1,0,0:0:0:0:
153,192,170110,1,0,0:0:0:0:
358,192,170268,1,0,0:0:0:0:
51,192,170426,1,0,0:0:0:50:LR_HiHat SClick 2.wav
460,192,170584,1,0,0:0:0:0:
153,192,170741,1,0,0:0:0:25:LR_Chm loong.wav
358,192,170741,1,2,0:0:0:0:
256,192,170899,5,0,0:0:0:0:
51,192,171057,1,0,0:0:0:50:LR_HiHat SClick 2.wav
358,192,171215,1,0,0:0:0:0:
153,192,171373,1,0,0:0:0:0:
460,192,171531,1,0,0:0:0:0:
256,192,171689,1,0,0:0:0:50:LR_HiHat SClick 2.wav
358,192,171847,1,0,0:0:0:0:
51,192,172005,128,0,173268:0:0:0:25:LR_Chm loong.wav
153,192,172005,1,0,0:0:0:0:
460,192,172005,1,0,0:0:0:0:
358,192,172163,1,0,0:0:0:0:
256,192,172320,1,0,0:0:0:50:LR_HiHat SClick 2.wav
460,192,172478,1,0,0:0:0:0:
153,192,172636,1,0,0:0:0:25:LR_Chm loong.wav
358,192,172636,1,0,0:0:0:30:LR_RevCyRDW.wav
256,192,172794,1,0,0:0:0:0:
460,192,172952,128,0,173268:0:0:0:50:LR_HiHat SClick 2.wav
153,192,172952,1,0,0:0:0:0:
358,192,173110,1,0,0:0:0:0:
256,192,173268,1,0,0:0:0:20:LR_Drum Kick Low.wav
153,192,173268,1,0,0:0:0:25:LR_Chm loong.wav
358,192,173268,1,6,0:0:0:0:
460,192,173426,1,0,0:0:0:0:
153,192,173584,1,0,0:0:0:20:LR_Drum Kick Low.wav
256,192,173584,1,0,0:0:0:0:
358,192,173741,1,0,0:0:0:0:
153,192,173899,1,0,0:0:0:20:LR_Drum Kick Low.wav
51,192,173899,1,0,0:0:0:0:
358,192,174057,1,0,0:0:0:40:LR_Drum Hit Clap Sn.wav
153,192,174215,1,0,0:0:0:20:LR_Drum Kick Low.wav
460,192,174215,1,0,0:0:0:0:
358,192,174373,1,0,0:0:0:0:
51,192,174531,1,0,0:0:0:20:LR_Drum Kick Low.wav
153,192,174531,1,0,0:0:0:90:LR_Hat Synth.wav
460,192,174689,1,0,0:0:0:40:LR_Drum Hit Clap Sn.wav
51,192,174847,1,0,0:0:0:20:LR_Drum Kick Low.wav
358,192,174847,1,0,0:0:0:0:
460,192,175005,1,0,0:0:0:0:
51,192,175163,1,0,0:0:0:50:LR_Drum Rpd Fast .wav
153,192,175163,1,0,0:0:0:20:LR_Drum Kick Low.wav
460,192,175320,1,0,0:0:0:0:
51,192,175478,1,0,0:0:0:20:LR_Drum Kick Low.wav
358,192,175478,1,0,0:0:0:90:LR_Hat Synth.wav
460,192,175636,1,0,0:0:0:40:LR_Drum Hit Clap Sn.wav
51,192,175794,1,0,0:0:0:20:LR_Drum Kick Low.wav
153,192,175794,1,0,0:0:0:25:LR_Chm loong.wav
358,192,175794,1,6,0:0:0:0:
256,192,175952,1,0,0:0:0:40:LR_Drum Hit Clap Sn.wav
51,192,176110,1,0,0:0:0:20:LR_Drum Kick Low.wav
460,192,176110,1,0,0:0:0:90:LR_Hat Synth.wav
256,192,176268,1,0,0:0:0:40:LR_Drum Hit Clap Sn.wav
51,192,176426,1,0,0:0:0:20:LR_Drum Kick Low.wav
153,192,176426,1,0,0:0:0:0:
256,192,176584,1,0,0:0:0:0:
51,192,176741,1,0,0:0:0:20:LR_Drum Kick Low.wav
460,192,176741,1,0,0:0:0:0:
358,192,176899,1,0,0:0:0:50:LR_Drum Rpd Fast .wav
256,192,177057,1,0,0:0:0:20:LR_Drum Kick Low.wav
153,192,177057,1,0,0:0:0:25:LR_Chm loong.wav
51,192,177057,1,2,0:0:0:0:
460,192,177215,1,0,0:0:0:0:
256,192,177373,1,0,0:0:0:50:LR_Drum Rpd Fast .wav
358,192,177373,1,0,0:0:0:20:LR_Drum Kick Low.wav
460,192,177531,1,0,0:0:0:0:
256,192,177689,1,0,0:0:0:20:LR_Drum Kick Low.wav
51,192,177689,1,0,0:0:0:25:LR_Chm loong.wav
153,192,177689,1,2,0:0:0:0:
460,192,177847,1,0,0:0:0:0:
256,192,178005,1,0,0:0:0:40:LR_Drum Hit Clap Sn.wav
51,192,178005,1,0,0:0:0:20:LR_Drum Kick Low.wav
358,192,178110,1,0,0:0:0:40:LR_Drum Hit Clap Sn.wav
460,192,178215,1,0,0:0:0:40:LR_Drum Hit Clap Sn.wav
153,192,178320,1,0,0:0:0:20:LR_Drum Kick Low.wav
256,192,178320,1,0,0:0:0:25:LR_Chm loong.wav
51,192,178320,1,6,0:0:0:0:
358,192,178478,1,0,0:0:0:55:LR_Drum Rpd Fast .wav
460,192,178478,1,0,0:0:0:20:LR_Drum Kick Low.wav
153,192,178636,1,0,0:0:0:20:LR_Drum Kick Low.wav
51,192,178636,1,0,0:0:0:100:LR_Drum Rpd.wav
358,192,178794,1,0,0:0:0:45:LR_Drum Hit Clap Sn.wav
256,192,178794,1,0,0:0:0:20:LR_Drum Kick Low.wav
153,192,178952,1,0,0:0:0:55:LR_Drum Rpd Fast .wav
51,192,178952,1,0,0:0:0:20:LR_Drum Kick Low.wav
358,192,179110,1,0,0:0:0:20:LR_Drum Kick Low.wav
460,192,179110,1,0,0:0:0:100:LR_Drum Rpd.wav
153,192,179268,1,0,0:0:0:45:LR_Drum Hit Clap Sn.wav
256,192,179268,1,0,0:0:0:20:LR_Drum Kick Low.wav
358,192,179426,1,0,0:0:0:55:LR_Drum Rpd Fast .wav
460,192,179426,1,0,0:0:0:20:LR_Drum Kick Low.wav
51,192,179584,1,0,0:0:0:20:LR_Drum Kick Low.wav
153,192,179584,1,0,0:0:0:100:LR_Drum Rpd.wav
460,192,179741,1,0,0:0:0:45:LR_Drum Hit Clap Sn.wav
358,192,179741,1,0,0:0:0:20:LR_Drum Kick Low.wav
51,192,179899,1,0,0:0:0:55:LR_Drum Rpd Fast .wav
256,192,179899,1,0,0:0:0:20:LR_Drum Kick Low.wav
460,192,180057,1,0,0:0:0:20:LR_Drum Kick Low.wav
153,192,180057,1,0,0:0:0:100:LR_Drum Rpd.wav
51,192,180215,1,0,0:0:0:45:LR_Drum Hit Clap Sn.wav
358,192,180215,1,0,0:0:0:20:LR_Drum Kick Low.wav
460,192,180373,1,0,0:0:0:55:LR_Drum Rpd Fast .wav
153,192,180373,1,0,0:0:0:20:LR_Drum Kick Low.wav
51,192,180531,1,0,0:0:0:45:LR_Drum Hit Clap Sn.wav
358,192,180531,1,0,0:0:0:20:LR_Drum Kick Low.wav
153,192,180689,1,0,0:0:0:55:LR_Drum Rpd Fast .wav
256,192,180689,1,0,0:0:0:20:LR_Drum Kick Low.wav
51,192,180847,1,0,0:0:0:20:LR_Drum Kick Low.wav
358,192,180847,1,0,0:0:0:25:LR_Chm loong.wav
460,192,180847,1,6,0:0:0:0:
256,192,180926,1,0,0:0:0:55:LR_Drum Rpd Fast .wav
460,192,181005,1,0,0:0:0:20:LR_Drum Kick Low.wav
153,192,181005,1,6,0:0:0:0:
358,192,181084,1,0,0:0:0:55:LR_Drum Rpd Fast .wav
51,192,181163,1,0,0:0:0:20:LR_Drum Kick Low.wav
256,192,181163,1,6,0:0:0:0:
460,192,181241,1,0,0:0:0:55:LR_Drum Rpd Fast .wav
358,192,181320,1,0,0:0:0:20:LR_Drum Kick Low.wav
153,192,181320,1,6,0:0:0:0:
51,192,181399,1,0,0:0:0:55:LR_Drum Rpd Fast .wav
256,192,181478,1,0,0:0:0:20:LR_Drum Kick Low.wav
460,192,181478,1,6,0:0:0:0:
153,192,181557,1,0,0:0:0:55:LR_Drum Rpd Fast .wav
358,192,181636,1,0,0:0:0:20:LR_Drum Kick Low.wav
51,192,181636,1,6,0:0:0:0:
256,192,181715,1,0,0:0:0:55:LR_Drum Rpd Fast .wav
153,192,181794,1,0,0:0:0:20:LR_Drum Kick Low.wav
460,192,181794,1,6,0:0:0:0:
358,192,181873,1,0,0:0:0:55:LR_Drum Rpd Fast .wav
256,192,181952,1,0,0:0:0:20:LR_Drum Kick Low.wav
51,192,181952,1,6,0:0:0:0:
460,192,182031,1,0,0:0:0:55:LR_Drum Rpd Fast .wav
358,192,182110,1,0,0:0:0:45:LR_Drum Hit Clap Sn.wav
153,192,182110,1,0,0:0:0:55:LR_Drum Rpd Fast .wav
256,192,182110,1,6,0:0:0:0:
460,192,182268,5,0,0:0:0:45:LR_Drum Hit Clap Sn.wav
358,192,182268,1,0,0:0:0:55:LR_Drum Rpd Fast .wav
51,192,182268,1,0,0:0:0:50:LR_Clap Loud L.wav
153,192,182268,1,14,0:0:0:0:
51,192,182741,128,0,183057:0:0:0:30:LR_RevCyRDW.wav
460,192,182741,128,2,183057:0:0:0:0:
153,192,183057,128,2,183373:0:0:0:0:
358,192,183057,128,2,183373:0:0:0:0:
256,192,183373,1,0,0:0:0:60:crash.wav
460,192,183373,1,6,0:0:0:0:
51,192,183373,1,4,1:0:0:0:
153,192,183531,1,0,0:0:0:100:LR_Drum Rpd.wav
358,192,183689,1,0,0:0:0:45:LR_Drum Hit Clap Sn.wav
51,192,183689,1,0,0:0:0:55:LR_Drum Rpd Fast .wav
256,192,183847,1,0,0:0:0:100:LR_Drum Rpd.wav
153,192,184005,1,0,0:0:0:25:LR_Drum Kick Low.wav
460,192,184005,1,2,0:0:0:0:
358,192,184163,1,0,0:0:0:25:LR_Drum Kick Low.wav
51,192,184241,1,0,0:0:0:0:
153,192,184320,1,0,0:0:0:45:LR_Drum Hit Clap Sn.wav
256,192,184320,1,0,0:0:0:55:LR_Drum Rpd Fast .wav
460,192,184399,1,0,0:0:0:0:
358,192,184478,1,0,0:0:0:45:LR_Drum Hit Clap Sn.wav
256,192,184478,1,0,0:0:0:0:
51,192,184478,1,0,0:0:0:0:
153,192,184636,1,0,0:0:0:25:LR_Drum Kick Low.wav
460,192,184636,1,2,0:0:0:0:
256,192,184794,1,0,0:0:0:25:LR_Drum Kick Low.wav
358,192,184952,1,0,0:0:0:45:LR_Drum Hit Clap Sn.wav
51,192,184952,1,0,0:0:0:55:LR_Drum Rpd Fast .wav
256,192,185110,1,0,0:0:0:25:LR_Drum Kick Low.wav
153,192,185268,1,0,0:0:0:100:LR_Drum Rpd.wav
358,192,185268,1,2,0:0:0:0:
460,192,185268,1,0,0:0:0:0:
256,192,185426,1,0,0:0:0:25:LR_Drum Kick Low.wav
460,192,185584,1,0,0:0:0:45:LR_Drum Hit Clap Sn.wav
51,192,185584,1,0,0:0:0:55:LR_Drum Rpd Fast .wav
358,192,185584,1,0,0:0:0:0:
153,192,185663,1,0,0:0:0:0:
256,192,185741,1,0,0:0:0:100:LR_Drum Rpd.wav
358,192,185820,1,0,0:0:0:0:
460,192,185899,1,0,0:0:0:25:LR_Drum Kick Low.wav
51,192,185899,1,2,0:0:0:0:
153,192,185899,1,4,0:0:0:0:
256,192,185978,1,0,0:0:0:0:
358,192,186057,1,0,0:0:0:100:LR_Drum Rpd.wav
460,192,186136,1,0,0:0:0:0:
153,192,186215,1,0,0:0:0:45:LR_Drum Hit Clap Sn.wav
51,192,186215,1,0,0:0:0:55:LR_Drum Rpd Fast .wav
256,192,186294,1,0,0:0:0:0:
51,192,186373,1,0,0:0:0:25:LR_Drum Kick Low.wav
358,192,186373,1,4,0:0:0:0:
460,192,186373,1,0,0:0:0:0:
256,192,186531,1,0,0:0:0:100:LR_Drum Rpd.wav
153,192,186531,1,2,0:0:0:0:
358,192,186610,1,0,0:0:0:0:
51,192,186689,1,0,0:0:0:45:LR_Drum Hit Clap Sn.wav
460,192,186689,1,0,0:0:0:55:LR_Drum Rpd Fast .wav
153,192,186768,1,0,0:0:0:0:
256,192,186847,1,0,0:0:0:100:LR_Drum Rpd.wav
358,192,186926,1,0,0:0:0:0:
153,192,187005,1,0,0:0:0:25:LR_Drum Kick Low.wav
460,192,187005,1,0,0:0:0:100:LR_Drum Rpd.wav
51,192,187005,1,4,0:0:0:0:
256,192,187163,1,0,0:0:0:100:LR_Drum Rpd.wav
358,192,187163,1,2,0:0:0:0:
460,192,187320,1,0,0:0:0:25:LR_Drum Kick Low.wav
358,192,187399,1,0,0:0:0:0:
256,192,187478,1,0,0:0:0:45:LR_Drum Hit Clap Sn.wav
153,192,187478,1,0,0:0:0:55:LR_Drum Rpd Fast .wav
51,192,187478,1,4,0:0:0:0:
358,192,187636,1,0,0:0:0:100:LR_Drum Rpd.wav
460,192,187794,1,0,0:0:0:25:LR_Drum Kick Low.wav
256,192,187794,1,2,0:0:0:0:
51,192,187794,1,0,0:0:0:0:
153,192,187952,1,0,0:0:0:25:LR_Drum Kick Low.wav
358,192,187952,1,0,0:0:0:0:
256,192,188110,1,0,0:0:0:55:LR_Drum Rpd Fast .wav
460,192,188110,1,0,0:0:0:0:
153,192,188268,1,0,0:0:0:55:LR_Drum Rpd Fast .wav
358,192,188268,1,0,0:0:0:0:
460,192,188426,1,0,0:0:0:25:LR_Drum Kick Low.wav
256,192,188426,1,4,0:0:0:0:
51,192,188426,1,2,0:0:0:0:
153,192,188584,1,0,0:0:0:100:LR_Drum Rpd.wav
358,192,188741,1,0,0:0:0:45:LR_Drum Hit Clap Sn.wav
256,192,188741,1,0,0:0:0:55:LR_Drum Rpd Fast .wav
51,192,188899,1,0,0:0:0:100:LR_Drum Rpd.wav
460,192,189057,1,0,0:0:0:25:LR_Drum Kick Low.wav
153,192,189057,1,2,0:0:0:0:
358,192,189136,1,0,0:0:0:0:
256,192,189215,1,0,0:0:0:25:LR_Drum Kick Low.wav
51,192,189215,1,0,0:0:0:0:
358,192,189294,1,0,0:0:0:0:
153,192,189373,1,0,0:0:0:45:LR_Drum Hit Clap Sn.wav
460,192,189373,1,0,0:0:0:55:LR_Drum Rpd Fast .wav
256,192,189452,1,0,0:0:0:0:
51,192,189531,1,0,0:0:0:25:LR_Drum Kick Low.wav
358,192,189531,1,0,0:0:0:0:
460,192,189531,1,0,0:0:0:0:
153,192,189689,1,0,0:0:0:100:LR_Drum Rpd.wav
256,192,189689,1,2,0:0:0:0:
358,192,189847,1,0,0:0:0:25:LR_Drum Kick Low.wav
153,192,190005,1,0,0:0:0:45:LR_Drum Hit Clap Sn.wav
51,192,190005,1,0,0:0:0:55:LR_Drum Rpd Fast .wav
256,192,190084,1,0,0:0:0:0:
358,192,190163,1,0,0:0:0:45:LR_Drum Hit Clap Sn.wav
51,192,190163,1,0,0:0:0:0:
460,192,190241,1,0,0:0:0:0:
153,192,190241,1,0,0:0:0:0:
256,192,190320,1,0,0:0:0:25:LR_Drum Kick Low.wav
51,192,190320,1,2,0:0:0:0:
358,192,190320,1,0,0:0:0:0:
153,192,190478,1,0,0:0:0:25:LR_Drum Kick Low.wav
358,192,190636,1,0,0:0:0:45:LR_Drum Hit Clap Sn.wav
51,192,190636,1,0,0:0:0:55:LR_Drum Rpd Fast .wav
256,192,190794,1,0,0:0:0:100:LR_Drum Rpd.wav
460,192,190952,1,0,0:0:0:25:LR_Drum Kick Low.wav
153,192,190952,1,2,0:0:0:0:
358,192,190952,1,4,0:0:0:0:
51,192,191110,1,0,0:0:0:100:LR_Drum Rpd.wav
256,192,191110,1,0,0:0:0:0:
153,192,191268,1,0,0:0:0:45:LR_Drum Hit Clap Sn.wav
358,192,191268,1,0,0:0:0:55:LR_Drum Rpd Fast .wav
460,192,191426,1,0,0:0:0:25:LR_Drum Kick Low.wav
256,192,191426,1,0,0:0:0:0:
358,192,191584,1,0,0:0:0:100:LR_Drum Rpd.wav
51,192,191584,1,2,0:0:0:0:
153,192,191663,1,0,0:0:0:0:
256,192,191741,1,0,0:0:0:45:LR_Drum Hit Clap Sn.wav
460,192,191741,1,0,0:0:0:55:LR_Drum Rpd Fast .wav
51,192,191820,1,0,0:0:0:0:
153,192,191899,1,0,0:0:0:100:LR_Drum Rpd.wav
358,192,191899,1,0,0:0:0:0:
256,192,191978,1,0,0:0:0:0:
358,192,192057,1,0,0:0:0:25:LR_Drum Kick Low.wav
460,192,192057,1,0,0:0:0:100:LR_Drum Rpd.wav
51,192,192057,1,0,0:0:0:0:
153,192,192215,1,2,0:0:0:0:
51,192,192373,1,0,0:0:0:25:LR_Drum Kick Low.wav
460,192,192373,1,0,0:0:0:0:
256,192,192373,1,0,0:0:0:0:
358,192,192531,1,0,0:0:0:45:LR_Drum Hit Clap Sn.wav
153,192,192531,1,0,0:0:0:55:LR_Drum Rpd Fast .wav
256,192,192689,1,0,0:0:0:100:LR_Drum Rpd.wav
51,192,192689,1,0,0:0:0:0:
460,192,192847,1,0,0:0:0:25:LR_Drum Kick Low.wav
358,192,192847,1,2,0:0:0:0:
153,192,192847,1,0,0:0:0:0:
51,192,193005,1,0,0:0:0:25:LR_Drum Kick Low.wav
256,192,193005,1,0,0:0:0:0:
153,192,193163,1,0,0:0:0:100:LR_Drum Rpd.wav
460,192,193163,1,2,0:0:0:0:
358,192,193163,1,0,0:0:0:0:
51,192,193320,1,0,0:0:0:45:LR_Drum Hit Clap Sn.wav
256,192,193320,1,0,0:0:0:0:
460,192,193478,1,0,0:0:0:25:LR_Drum Kick Low.wav
358,192,193478,1,2,0:0:0:0:
153,192,193478,1,4,0:0:0:0:
256,192,193636,1,0,0:0:0:100:LR_Drum Rpd.wav
358,192,193794,1,0,0:0:0:45:LR_Drum Hit Clap Sn.wav
153,192,193794,1,0,0:0:0:55:LR_Drum Rpd Fast .wav
51,192,193794,1,0,0:0:0:0:
256,192,193952,1,0,0:0:0:100:LR_Drum Rpd.wav
358,192,194031,1,0,0:0:0:0:
51,192,194110,1,0,0:0:0:25:LR_Drum Kick Low.wav
460,192,194110,1,2,0:0:0:0:
153,192,194189,1,0,0:0:0:0:
256,192,194268,1,0,0:0:0:25:LR_Drum Kick Low.wav
358,192,194347,1,0,0:0:0:0:
256,192,194426,1,0,0:0:0:45:LR_Drum Hit Clap Sn.wav
153,192,194426,1,0,0:0:0:55:LR_Drum Rpd Fast .wav
358,192,194505,1,0,0:0:0:0:
460,192,194584,1,0,0:0:0:100:LR_Drum Rpd.wav
51,192,194584,1,0,0:0:0:0:
153,192,194584,1,0,0:0:0:0:
256,192,194741,1,2,0:0:0:0:
358,192,194741,1,0,0:0:0:25:LR_Drum Kick Low.wav
460,192,194899,1,0,0:0:0:25:LR_Drum Kick Low.wav
153,192,194899,1,0,0:0:0:0:
153,192,195057,1,0,0:0:0:0:
358,192,195057,1,0,0:0:0:45:LR_Drum Hit Clap Sn.wav
51,192,195057,1,0,0:0:0:55:LR_Drum Rpd Fast .wav
460,192,195215,1,0,0:0:0:25:LR_Drum Kick Low.wav
256,192,195215,1,0,0:0:0:0:
153,192,195373,1,0,0:0:0:100:LR_Drum Rpd.wav
358,192,195373,1,2,0:0:0:0:
51,192,195373,1,0,0:0:0:0:
256,192,195610,1,0,0:0:0:100:LR_Drum Rpd.wav
460,192,195610,1,2,0:0:0:0:
153,192,195610,1,0,0:0:0:0:
51,192,195847,1,0,0:0:0:100:LR_Drum Rpd.wav
256,192,195847,1,2,0:0:0:0:
358,192,195847,1,0,0:0:0:0:
460,192,196005,1,0,0:0:0:25:LR_Drum Kick Low.wav
358,192,196005,1,2,0:0:0:0:
153,192,196005,1,4,0:0:0:0:
256,192,196163,1,0,0:0:0:100:LR_Drum Rpd.wav
460,192,196320,1,0,0:0:0:45:LR_Drum Hit Clap Sn.wav
153,192,196320,1,0,0:0:0:55:LR_Drum Rpd Fast .wav
358,192,196478,1,0,0:0:0:25:LR_Drum Kick Low.wav
51,192,196636,1,0,0:0:0:100:LR_Drum Rpd.wav
256,192,196636,1,2,0:0:0:0:
358,192,196715,1,0,0:0:0:0:
153,192,196794,1,0,0:0:0:45:LR_Drum Hit Clap Sn.wav
460,192,196794,1,0,0:0:0:55:LR_Drum Rpd Fast .wav
51,192,196952,1,0,0:0:0:100:LR_Drum Rpd.wav
358,192,196952,1,0,0:0:0:0:
153,192,197031,1,0,0:0:0:0:
256,192,197110,1,0,0:0:0:25:LR_Drum Kick Low.wav
460,192,197110,1,4,0:0:0:0:
358,192,197110,1,0,0:0:0:0:
153,192,197268,1,2,0:0:0:0:
51,192,197426,1,0,0:0:0:25:LR_Drum Kick Low.wav
358,192,197426,1,4,0:0:0:0:
256,192,197426,1,0,0:0:0:0:
460,192,197584,1,0,0:0:0:45:LR_Drum Hit Clap Sn.wav
153,192,197584,1,0,0:0:0:55:LR_Drum Rpd Fast .wav
358,192,197663,1,0,0:0:0:0:
256,192,197741,1,0,0:0:0:100:LR_Drum Rpd.wav
51,192,197820,1,0,0:0:0:0:
153,192,197899,1,0,0:0:0:25:LR_Drum Kick Low.wav
358,192,197899,1,2,0:0:0:0:
460,192,197978,1,0,0:0:0:0:
51,192,198057,1,0,0:0:0:25:LR_Drum Kick Low.wav
153,192,198136,1,0,0:0:0:0:
358,192,198215,1,0,0:0:0:45:LR_Drum Hit Clap Sn.wav
460,192,198215,1,0,0:0:0:55:LR_Drum Rpd Fast .wav
256,192,198294,1,0,0:0:0:0:
153,192,198373,1,0,0:0:0:45:LR_Drum Hit Clap Sn.wav
51,192,198373,1,0,0:0:0:55:LR_Drum Rpd Fast .wav
358,192,198452,1,0,0:0:0:0:
256,192,198531,1,0,0:0:0:25:LR_Drum Kick Low.wav
153,192,198531,1,2,0:0:0:0:
51,192,198531,1,4,0:0:0:0:
358,192,198610,1,0,0:0:0:0:
460,192,198689,1,0,0:0:0:100:LR_Drum Rpd.wav
51,192,198847,1,0,0:0:0:45:LR_Drum Hit Clap Sn.wav
256,192,198847,1,0,0:0:0:55:LR_Drum Rpd Fast .wav
358,192,199005,1,0,0:0:0:100:LR_Drum Rpd.wav
460,192,199005,1,2,0:0:0:0:
153,192,199163,1,0,0:0:0:25:LR_Drum Kick Low.wav
51,192,199163,1,0,0:0:0:0:
256,192,199241,1,0,0:0:0:0:
358,192,199320,1,0,0:0:0:25:LR_Drum Kick Low.wav
51,192,199399,1,0,0:0:0:0:
153,192,199478,1,2,0:0:0:0:
460,192,199478,1,0,0:0:0:45:LR_Drum Hit Clap Sn.wav
256,192,199557,1,0,0:0:0:0:
358,192,199636,1,0,0:0:0:25:LR_Drum Kick Low.wav
460,192,199636,1,0,0:0:0:0:
51,192,199636,1,0,0:0:0:0:
153,192,199794,1,2,0:0:0:0:
256,192,199794,1,0,0:0:0:100:LR_Drum Rpd.wav
51,192,199952,1,0,0:0:0:25:LR_Drum Kick Low.wav
256,192,200070,1,0,0:0:0:0:
358,192,200110,1,0,0:0:0:45:LR_Drum Hit Clap Sn.wav
460,192,200110,1,0,0:0:0:55:LR_Drum Rpd Fast .wav
153,192,200268,1,0,0:0:0:100:LR_Drum Rpd.wav
460,192,200426,1,0,0:0:0:25:LR_Drum Kick Low.wav
358,192,200426,1,2,0:0:0:0:
51,192,200426,1,0,0:0:0:0:
153,192,200584,1,0,0:0:0:25:LR_Drum Kick Low.wav
256,192,200584,1,0,0:0:0:0:
460,192,200741,1,0,0:0:0:45:LR_Drum Hit Clap Sn.wav
51,192,200741,1,0,0:0:0:55:LR_Drum Rpd Fast .wav
358,192,200741,1,2,0:0:0:0:
153,192,200899,1,0,0:0:0:100:LR_Drum Rpd.wav
256,192,200899,1,0,0:0:0:0:
460,192,201057,1,0,0:0:0:25:LR_Drum Kick Low.wav
51,192,201057,1,2,0:0:0:0:
358,192,201057,1,4,0:0:0:0:
153,192,201215,1,0,0:0:0:100:LR_Drum Rpd.wav
51,192,201373,1,0,0:0:0:45:LR_Drum Hit Clap Sn.wav
460,192,201373,1,0,0:0:0:55:LR_Drum Rpd Fast .wav
256,192,201531,1,0,0:0:0:25:LR_Drum Kick Low.wav
358,192,201610,1,0,0:0:0:0:
460,192,201689,1,0,0:0:0:100:LR_Drum Rpd.wav
153,192,201689,1,4,0:0:0:0:
51,192,201689,1,2,0:0:0:0:
256,192,201768,1,0,0:0:0:0:
358,192,201847,1,0,0:0:0:45:LR_Drum Hit Clap Sn.wav
460,192,201847,1,0,0:0:0:55:LR_Drum Rpd Fast .wav
51,192,201926,1,0,0:0:0:0:
153,192,202005,1,0,0:0:0:100:LR_Drum Rpd.wav
256,192,202084,1,0,0:0:0:0:
358,192,202163,1,0,0:0:0:25:LR_Drum Kick Low.wav
51,192,202163,1,0,0:0:0:0:
256,192,202241,1,0,0:0:0:0:
460,192,202320,1,0,0:0:0:100:LR_Drum Rpd.wav
51,192,202320,1,4,0:0:0:0:
153,192,202320,1,2,0:0:0:0:
358,192,202399,5,0,0:0:0:0:
256,192,202478,1,0,0:0:0:25:LR_Drum Kick Low.wav
153,192,202557,1,0,0:0:0:0:
358,192,202636,1,0,0:0:0:55:LR_Drum Rpd Fast .wav
460,192,202636,1,2,0:0:0:0:
51,192,202636,1,4,0:0:0:0:
153,192,202715,1,0,0:0:0:0:
256,192,202794,1,0,0:0:0:100:LR_Drum Rpd.wav
153,192,202873,1,0,0:0:0:45:LR_Drum Hit Clap Sn.wav
358,192,202873,1,0,0:0:0:0:
51,192,202952,1,0,0:0:0:45:LR_Drum Hit Clap Sn.wav
460,192,202952,1,0,0:0:0:25:LR_Drum Kick Low.wav
358,192,203031,1,0,0:0:0:45:LR_Drum Hit Clap Sn.wav
153,192,203031,1,0,0:0:0:100:LR_Drum Rpd.wav
256,192,203110,1,0,0:0:0:45:LR_Drum Hit Clap Sn.wav
358,192,203189,1,0,0:0:0:45:LR_Drum Hit Clap Sn.wav
153,192,203189,1,0,0:0:0:100:LR_Drum Rpd.wav
51,192,203268,1,0,0:0:0:45:LR_Drum Hit Clap Sn.wav
460,192,203268,1,0,0:0:0:100:LR_Drum Rpd.wav
358,192,203373,1,0,0:0:0:45:LR_Drum Hit Clap Sn.wav
153,192,203373,1,0,0:0:0:100:LR_Drum Rpd.wav
256,192,203478,1,0,0:0:0:45:LR_Drum Hit Clap Sn.wav
153,192,203584,128,0,208636:0:0:0:100:LR_Drum Crush Finish.wav
358,192,203584,128,0,206110:0:0:0:100:LR_Drum Crush Finish.wav
460,192,203584,1,2,0:0:0:0:
51,192,203584,1,4,0:0:0:0:
51,192,204215,1,2,0:0:0:0:
460,192,204847,1,2,0:0:0:0:
51,192,206110,1,2,0:0:0:0:
460,192,206741,1,2,0:0:0:0:
256,192,207689,1,2,0:0:0:0:
51,192,208005,1,2,0:0:0:0:
460,192,208320,1,2,0:0:0:0:
51,192,208636,1,0,0:0:0:0:
460,192,208636,1,0,0:0:0:0:
358,192,208952,1,0,0:0:0:0:
256,192,209268,1,0,0:0:0:0:
153,192,209584,1,0,0:0:0:0:
51,192,209899,1,0,0:0:0:0:
460,192,210215,1,2,0:0:0:0:
256,192,210215,1,0,0:0:0:0:
358,192,210373,1,2,0:0:0:0:
153,192,210531,1,0,0:0:0:0:
51,192,210847,1,0,0:0:0:0:
256,192,210847,1,0,0:0:0:0:
358,192,211163,1,0,0:0:0:0:
153,192,211163,1,0,0:0:0:0:
256,192,211478,1,0,0:0:0:0:
153,192,211794,1,0,0:0:0:0:
51,192,212110,1,0,0:0:0:0:
460,192,212426,1,0,0:0:0:0:
256,192,212426,1,0,0:0:0:0:
358,192,212741,1,0,0:0:0:0:
153,192,212899,1,0,0:0:0:30:LR_Drum Rpd Fast .wav
51,192,213057,1,0,0:0:0:30:LR_Drum Hit Clap Sn.wav
460,192,213057,1,0,0:0:0:40:LR_Drum Rpd.wav
153,192,213163,1,0,0:0:0:30:LR_Drum Rpd Fast .wav
358,192,213163,1,0,0:0:0:0:
256,192,213268,1,0,0:0:0:30:LR_Drum Hit Clap Sn.wav
51,192,213373,1,0,0:0:0:15:LR_Drum Kick Low.wav
460,192,213373,1,0,0:0:0:40:LR_Drum Rpd.wav
153,192,213557,1,0,0:0:0:15:LR_Drum Kick Low.wav
358,192,213557,1,0,0:0:0:0:
51,192,213689,1,0,0:0:0:80:LR_Drum Crush Finish.wav
460,192,213689,1,0,0:0:0:20:LR_Drum Kick Low.wav
256,192,213689,1,6,0:0:0:0:
153,192,214005,1,0,0:0:0:50:LR_HiHat Click.wav
358,192,214005,1,0,0:0:0:0:
51,192,214163,1,0,0:0:0:50:LR_HiHat Click.wav
256,192,214320,1,0,0:0:0:35:LR_HiHat SClick 2.wav
460,192,214320,1,2,0:0:0:0:
51,192,214636,1,0,0:0:0:50:LR_HiHat Click.wav
358,192,214636,1,0,0:0:0:0:
153,192,214952,1,0,0:0:0:35:LR_HiHat SClick 2.wav
460,192,214952,1,2,0:0:0:0:
51,192,215268,128,0,215584:0:0:0:60:LR_Hat Synth.wav
256,192,215268,1,0,0:0:0:0:
460,192,215584,1,0,0:0:0:35:LR_HiHat SClick 2.wav
358,192,215584,1,0,0:0:0:0:
256,192,215741,1,0,0:0:0:30:LR_Drum Rpd Fast .wav
153,192,215899,1,0,0:0:0:50:LR_HiHat Click.wav
51,192,215899,1,0,0:0:0:0:
358,192,216057,1,0,0:0:0:50:LR_HiHat Click.wav
51,192,216215,1,0,0:0:0:30:LR_Drum Rpd Fast .wav
460,192,216215,1,0,0:0:0:60:LR_Hat Synth.wav
256,192,216215,1,2,0:0:0:0:
153,192,216531,1,0,0:0:0:50:LR_HiHat Click.wav
358,192,216531,1,0,0:0:0:0:
460,192,216847,1,0,0:0:0:35:LR_HiHat SClick 2.wav
256,192,216847,1,0,0:0:0:30:LR_Drum Rpd Fast .wav
51,192,216847,1,6,0:0:0:0:
358,192,217163,1,0,0:0:0:50:LR_HiHat Click.wav
153,192,217163,1,0,0:0:0:0:
460,192,217320,1,0,0:0:0:50:LR_HiHat Click.wav
256,192,217478,1,0,0:0:0:35:LR_HiHat SClick 2.wav
51,192,217478,1,0,0:0:0:0:
460,192,217794,5,0,0:0:0:30:LR_Drum Rpd Fast .wav
358,192,217794,1,0,0:0:0:50:LR_HiHat Click.wav
153,192,217794,1,2,0:0:0:0:
460,192,218110,1,0,0:0:0:30:LR_Drum Hit Clap Sn.wav
51,192,218110,1,0,0:0:0:25:LR_Drum Barrel Hit.wav
153,192,218110,1,2,0:0:0:0:
358,192,218215,1,0,0:0:0:30:LR_Drum Rpd Fast .wav
256,192,218320,1,0,0:0:0:30:LR_Drum Hit Clap Sn.wav
51,192,218426,1,0,0:0:0:40:LR_Drum Rpd.wav
460,192,218426,1,0,0:0:0:50:LR_Drum Rpd.wav
358,192,218426,1,2,0:0:0:0:
153,192,218531,1,0,0:0:0:50:LR_Tom Hit 2.wav
256,192,218636,1,0,0:0:0:50:LR_Tom Hit 3.wav
153,192,218741,128,0,219373:0:0:0:80:LR_Drum Crush Finish.wav
358,192,218741,128,4,219373:0:0:0:0:
460,192,218741,1,0,0:0:0:20:LR_Drum Kick Low.wav
51,192,218741,1,2,0:0:0:0:
51,192,219373,128,2,221268:0:0:0:0:
460,192,219373,128,2,221268:0:0:0:0:
256,192,220320,1,0,0:0:0:15:LR2_KickDBeatBass.wav
358,192,220636,1,0,0:0:0:35:LR_Drum Hit Clap Sn.wav
153,192,220636,1,0,0:0:0:25:LR_Drum Barrel Hit.wav
256,192,220794,1,0,0:0:0:15:LR2_KickDBeatBass.wav
358,192,220952,1,0,0:0:0:25:LR_HiHat SClick 2.wav
153,192,221110,1,0,0:0:0:15:LR2_KickDBeatBass.wav
153,192,221268,1,0,0:0:0:25:LR_Drum Kick Low.wav
358,192,221268,1,0,0:0:0:90:LR_Drum Crush Finish.wav
256,192,221268,1,4,0:0:0:0:
358,192,221426,1,0,0:0:0:90:LR_Drum Crush Finish.wav
256,192,221426,1,4,0:0:0:0:
153,192,221426,1,0,0:0:0:25:LR_Drum Kick Low.wav
153,192,221741,1,4,0:0:0:0:
256,192,221741,1,0,0:0:0:25:LR_Drum Kick Low.wav
358,192,221741,1,0,0:0:0:90:LR_Drum Crush Finish.wav
256,192,221899,1,4,0:0:0:0:
153,192,221899,1,0,0:0:0:90:LR_Drum Crush Finish.wav
358,192,221899,1,0,0:0:0:25:LR_Drum Kick Low.wav
153,192,222215,1,4,0:0:0:0:
256,192,222215,1,0,0:0:0:25:LR_Drum Kick Low.wav
460,192,222215,1,0,0:0:0:90:LR_Drum Crush Finish.wav
153,192,222373,1,4,0:0:0:0:
256,192,222373,1,0,0:0:0:25:LR_Drum Kick Low.wav
460,192,222373,1,0,0:0:0:90:LR_Drum Crush Finish.wav
460,192,222689,1,4,0:0:0:0:
256,192,222689,1,0,0:0:0:25:LR_Drum Kick Low.wav
153,192,222689,1,0,0:0:0:90:LR_Drum Crush Finish.wav
460,192,222847,1,0,0:0:0:25:LR_Drum Kick Low.wav
256,192,222847,1,0,0:0:0:90:LR_Drum Crush Finish.wav
153,192,222847,1,4,0:0:0:0:
51,192,223163,1,4,0:0:0:0:
256,192,223163,1,0,0:0:0:25:LR_Drum Kick Low.wav
358,192,223163,1,0,0:0:0:90:LR_Drum Crush Finish.wav
358,192,223478,1,4,0:0:0:0:
51,192,223478,1,0,0:0:0:25:LR_Drum Kick Low.wav
256,192,223478,1,0,0:0:0:90:LR_Drum Crush Finish.wav
51,192,223794,1,4,1:0:0:0:
358,192,223794,1,4,0:0:0:0:
153,192,223794,1,0,0:0:0:25:LR_Drum Kick Low.wav
51,192,223952,1,4,0:0:0:0:
358,192,223952,1,0,0:0:0:90:LR_Drum Crush Finish.wav
153,192,223952,1,0,0:0:0:25:LR_Drum Kick Low.wav
358,192,224268,1,0,0:0:0:90:LR_Drum Crush Finish.wav
51,192,224268,1,4,0:0:0:0:
153,192,224268,1,0,0:0:0:25:LR_Drum Kick Low.wav
358,192,224426,1,4,0:0:0:0:
153,192,224426,1,0,0:0:0:90:LR_Drum Crush Finish.wav
51,192,224426,1,0,0:0:0:25:LR_Drum Kick Low.wav
460,192,224741,1,4,0:0:0:0:
153,192,224741,1,0,0:0:0:25:LR_Drum Kick Low.wav
256,192,224741,1,0,0:0:0:90:LR_Drum Crush Finish.wav
153,192,224899,1,0,0:0:0:25:LR_Drum Kick Low.wav
460,192,224899,1,4,0:0:0:0:
256,192,224899,1,0,0:0:0:90:LR_Drum Crush Finish.wav
51,192,225057,1,2,0:0:0:0:
256,192,225215,1,0,0:0:0:20:LR_Drum Kick Low.wav
460,192,225373,1,0,0:0:0:50:LR_Drum Rpd Fast .wav
51,192,225373,1,2,0:0:0:0:
358,192,225689,1,0,0:0:0:20:LR_Drum Kick Low.wav
153,192,225768,1,0,0:0:0:30:LR_Drum Hit Clap Sn.wav
358,192,225847,1,0,0:0:0:30:LR_Drum Hit Clap Sn.wav
153,192,225926,1,0,0:0:0:30:LR_Drum Hit Clap Sn.wav
460,192,226005,1,0,0:0:0:50:LR_Drum Rpd Fast .wav
256,192,226005,1,0,0:0:0:0:
51,192,226163,1,0,0:0:0:20:LR_Drum Kick Low.wav
256,192,226320,1,0,0:0:0:25:LR_Drum Kick Low.wav
358,192,226320,1,4,0:0:0:0:
153,192,226320,1,0,0:0:0:90:LR_Drum Crush Finish.wav
358,192,226478,1,0,0:0:0:25:LR_Drum Kick Low.wav
153,192,226478,1,0,0:0:0:90:LR_Drum Crush Finish.wav
256,192,226478,1,4,0:0:0:0:
153,192,226794,1,0,0:0:0:25:LR_Drum Kick Low.wav
256,192,226794,1,4,0:0:0:0:
358,192,226794,1,0,0:0:0:90:LR_Drum Crush Finish.wav
153,192,226952,1,0,0:0:0:25:LR_Drum Kick Low.wav
256,192,226952,1,0,0:0:0:90:LR_Drum Crush Finish.wav
358,192,226952,1,4,0:0:0:0:
256,192,227268,1,0,0:0:0:90:LR_Drum Crush Finish.wav
153,192,227268,1,0,0:0:0:25:LR_Drum Kick Low.wav
358,192,227268,1,4,0:0:0:0:
460,192,227426,1,0,0:0:0:90:LR_Drum Crush Finish.wav
256,192,227426,1,4,0:0:0:0:
51,192,227426,1,0,0:0:0:25:LR_Drum Kick Low.wav
153,192,227584,1,0,0:0:0:25:LR_Drum Kick Low.wav
256,192,227741,1,0,0:0:0:40:LR_Drum Hit Clap Sn.wav
358,192,227899,1,0,0:0:0:25:LR_Drum Kick Low.wav
153,192,228057,1,0,0:0:0:50:LR_Drum Rpd Fast .wav
460,192,228215,1,0,0:0:0:25:LR_Drum Kick Low.wav
256,192,228215,1,4,0:0:0:0:
51,192,228215,1,0,0:0:0:90:LR_Drum Crush Finish.wav
256,192,228531,1,0,0:0:0:90:LR_Drum Crush Finish.wav
358,192,228531,1,4,0:0:0:0:
153,192,228531,1,0,0:0:0:25:LR_Drum Kick Low.wav
358,192,228847,1,4,1:0:0:0:
51,192,228847,1,0,0:0:0:100:LR_Drum Crush Finish.wav
256,192,228847,1,0,0:0:0:25:LR_Drum Kick Low.wav
460,192,228847,1,6,0:0:0:0:
153,192,229005,1,0,0:0:0:100:LR_Drum Rpd.wav
460,192,229163,1,0,0:0:0:45:LR_Drum Hit Clap Sn.wav
51,192,229163,1,0,0:0:0:55:LR_Drum Rpd Fast .wav
256,192,229320,1,0,0:0:0:100:LR_Drum Rpd.wav
51,192,229478,1,0,0:0:0:25:LR_Drum Kick Low.wav
460,192,229478,1,2,0:0:0:0:
153,192,229557,1,0,0:0:0:0:
256,192,229636,1,0,0:0:0:25:LR_Drum Kick Low.wav
358,192,229636,1,0,0:0:0:0:
153,192,229715,1,0,0:0:0:0:
460,192,229794,1,0,0:0:0:45:LR_Drum Hit Clap Sn.wav
51,192,229794,1,0,0:0:0:55:LR_Drum Rpd Fast .wav
153,192,229873,1,0,0:0:0:0:
256,192,229952,1,0,0:0:0:0:
358,192,230031,1,0,0:0:0:0:
51,192,230110,1,0,0:0:0:25:LR_Drum Kick Low.wav
460,192,230110,1,2,0:0:0:0:
153,192,230189,1,0,0:0:0:0:
256,192,230268,1,0,0:0:0:25:LR_Drum Kick Low.wav
358,192,230268,1,0,0:0:0:0:
153,192,230347,1,0,0:0:0:0:
460,192,230426,1,0,0:0:0:45:LR_Drum Hit Clap Sn.wav
51,192,230426,1,0,0:0:0:55:LR_Drum Rpd Fast .wav
358,192,230505,1,0,0:0:0:0:
153,192,230584,1,0,0:0:0:25:LR_Drum Kick Low.wav
256,192,230584,1,0,0:0:0:0:
358,192,230663,1,0,0:0:0:0:
460,192,230741,1,0,0:0:0:100:LR_Drum Rpd.wav
51,192,230741,1,2,0:0:0:0:
153,192,230741,1,0,0:0:0:0:
256,192,230899,1,0,0:0:0:25:LR_Drum Kick Low.wav
358,192,230899,1,0,0:0:0:0:
153,192,230978,1,0,0:0:0:0:
256,192,231057,1,0,0:0:0:45:LR_Drum Hit Clap Sn.wav
51,192,231057,1,0,0:0:0:55:LR_Drum Rpd Fast .wav
358,192,231136,1,0,0:0:0:0:
460,192,231215,1,0,0:0:0:100:LR_Drum Rpd.wav
153,192,231215,1,2,0:0:0:0:
51,192,231215,1,0,0:0:0:0:
256,192,231373,1,0,0:0:0:25:LR_Drum Kick Low.wav
51,192,231531,1,0,0:0:0:100:LR_Drum Rpd.wav
358,192,231531,1,2,0:0:0:0:
153,192,231531,1,0,0:0:0:0:
460,192,231689,1,0,0:0:0:45:LR_Drum Hit Clap Sn.wav
256,192,231689,1,0,0:0:0:55:LR_Drum Rpd Fast .wav
153,192,231768,1,0,0:0:0:0:
358,192,231847,1,0,0:0:0:25:LR_Drum Kick Low.wav
51,192,231847,1,0,0:0:0:0:
256,192,231926,1,0,0:0:0:0:
460,192,232005,1,0,0:0:0:100:LR_Drum Rpd.wav
153,192,232005,1,2,0:0:0:0:
358,192,232084,1,0,0:0:0:0:
256,192,232163,1,0,0:0:0:45:LR_Drum Hit Clap Sn.wav
51,192,232163,1,0,0:0:0:55:LR_Drum Rpd Fast .wav
153,192,232241,1,0,0:0:0:0:
358,192,232320,1,0,0:0:0:100:LR_Drum Rpd.wav
460,192,232399,1,0,0:0:0:0:
51,192,232478,1,0,0:0:0:25:LR_Drum Kick Low.wav
358,192,232478,1,2,0:0:0:0:
256,192,232557,1,0,0:0:0:0:
460,192,232636,1,0,0:0:0:45:LR_Drum Hit Clap Sn.wav
153,192,232636,1,0,0:0:0:25:LR_Drum Kick Low.wav
358,192,232715,1,0,0:0:0:0:
256,192,232794,1,0,0:0:0:0:
153,192,232873,1,0,0:0:0:0:
51,192,232952,1,0,0:0:0:55:LR_Drum Rpd Fast .wav
358,192,232952,1,0,0:0:0:25:LR_Drum Kick Low.wav
256,192,233031,1,0,0:0:0:0:
153,192,233110,1,0,0:0:0:0:
256,192,233189,1,0,0:0:0:0:
358,192,233268,1,0,0:0:0:25:LR_Drum Kick Low.wav
460,192,233268,1,0,0:0:0:70:LR_Tom Hit 2.wav
256,192,233347,1,0,0:0:0:0:
153,192,233426,1,0,0:0:0:0:
51,192,233505,1,0,0:0:0:0:
153,192,233584,1,0,0:0:0:25:LR_Drum Kick Low.wav
460,192,233584,1,0,0:0:0:70:LR_Tom Hit 3.wav
256,192,233663,1,0,0:0:0:0:
358,192,233741,1,0,0:0:0:25:LR_Drum Kick Low.wav
51,192,233741,1,4,1:0:0:0:
460,192,233741,1,6,0:0:0:0:
51,192,234057,1,0,0:0:0:25:LR_Drum Kick Low.wav
358,192,234057,1,0,0:0:0:0:
153,192,234215,1,0,0:0:0:45:LR_Drum Hit Clap Sn.wav
460,192,234215,1,0,0:0:0:55:LR_Drum Rpd Fast .wav
51,192,234373,1,0,0:0:0:100:LR_Drum Rpd.wav
256,192,234373,1,0,0:0:0:0:
460,192,234531,1,0,0:0:0:25:LR_Drum Kick Low.wav
358,192,234531,1,2,0:0:0:0:
256,192,234689,1,0,0:0:0:25:LR_Drum Kick Low.wav
153,192,234689,1,0,0:0:0:0:
358,192,234768,1,0,0:0:0:0:
51,192,234847,1,0,0:0:0:45:LR_Drum Hit Clap Sn.wav
460,192,234847,1,0,0:0:0:55:LR_Drum Rpd Fast .wav
153,192,234926,1,0,0:0:0:0:
256,192,235005,1,0,0:0:0:100:LR_Drum Rpd.wav
358,192,235084,1,0,0:0:0:0:
460,192,235163,1,0,0:0:0:25:LR_Drum Kick Low.wav
153,192,235163,1,2,0:0:0:0:
51,192,235163,1,0,0:0:0:0:
256,192,235320,1,0,0:0:0:25:LR_Drum Kick Low.wav
358,192,235320,1,0,0:0:0:0:
460,192,235478,1,0,0:0:0:45:LR_Drum Hit Clap Sn.wav
153,192,235478,1,0,0:0:0:55:LR_Drum Rpd Fast .wav
358,192,235557,1,0,0:0:0:0:
256,192,235636,1,0,0:0:0:25:LR_Drum Kick Low.wav
51,192,235636,1,0,0:0:0:0:
153,192,235715,1,0,0:0:0:0:
358,192,235794,1,0,0:0:0:100:LR_Drum Rpd.wav
460,192,235794,1,2,0:0:0:0:
256,192,235873,1,0,0:0:0:0:
153,192,235952,1,0,0:0:0:25:LR_Drum Kick Low.wav
358,192,235952,1,0,0:0:0:0:
51,192,236031,1,0,0:0:0:0:
460,192,236110,1,0,0:0:0:45:LR_Drum Hit Clap Sn.wav
153,192,236110,1,0,0:0:0:55:LR_Drum Rpd Fast .wav
358,192,236189,1,0,0:0:0:0:
256,192,236268,1,0,0:0:0:0:
153,192,236347,1,0,0:0:0:0:
51,192,236426,1,0,0:0:0:25:LR_Drum Kick Low.wav
358,192,236426,1,2,0:0:0:0:
460,192,236426,1,0,0:0:0:0:
153,192,236505,1,0,0:0:0:0:
256,192,236584,1,0,0:0:0:100:LR_Drum Rpd.wav
358,192,236584,1,0,0:0:0:0:
51,192,236741,1,0,0:0:0:45:LR_Drum Hit Clap Sn.wav
460,192,236741,1,0,0:0:0:55:LR_Drum Rpd Fast .wav
153,192,236820,1,0,0:0:0:0:
256,192,236899,1,0,0:0:0:25:LR_Drum Kick Low.wav
358,192,236899,1,0,0:0:0:0:
460,192,236978,1,0,0:0:0:0:
153,192,237057,1,0,0:0:0:100:LR_Drum Rpd.wav
51,192,237057,1,2,0:0:0:0:
256,192,237136,1,0,0:0:0:0:
358,192,237215,1,0,0:0:0:45:LR_Drum Hit Clap Sn.wav
51,192,237215,1,0,0:0:0:55:LR_Drum Rpd Fast .wav
153,192,237294,1,0,0:0:0:0:
256,192,237373,1,0,0:0:0:100:LR_Drum Rpd.wav
358,192,237452,1,0,0:0:0:0:
460,192,237531,1,0,0:0:0:40:LR_Drum Hit Clap Sn.wav
153,192,237531,1,0,0:0:0:25:LR_Drum Kick Low.wav
51,192,237531,1,2,0:0:0:0:
358,192,237610,1,0,0:0:0:40:LR_Drum Hit Clap Sn.wav
153,192,237689,1,0,0:0:0:40:LR_Drum Hit Clap Sn.wav
358,192,237768,1,0,0:0:0:40:LR_Drum Hit Clap Sn.wav
153,192,237847,1,0,0:0:0:40:LR_Drum Hit Clap Sn.wav
358,192,237926,1,0,0:0:0:40:LR_Drum Hit Clap Sn.wav
153,192,238005,1,0,0:0:0:40:LR_Drum Hit Clap Sn.wav
358,192,238084,1,0,0:0:0:40:LR_Drum Hit Clap Sn.wav
153,192,238163,1,0,0:0:0:40:LR_Drum Hit Clap Sn.wav
358,192,238241,1,0,0:0:0:40:LR_Drum Hit Clap Sn.wav
51,192,238320,1,0,0:0:0:40:LR_Drum Hit Clap Sn.wav
460,192,238320,1,0,0:0:0:25:LR_Drum Kick Low.wav
256,192,238320,1,2,0:0:0:0:
153,192,238478,1,0,0:0:0:55:LR_Drum Rpd Fast .wav
358,192,238478,1,0,0:0:0:25:LR_Drum Kick Low.wav
51,192,238636,1,0,0:0:0:45:LR_Drum Hit Clap Sn.wav
256,192,238636,1,0,0:0:0:100:LR_Drum Rpd.wav
358,192,238794,1,0,0:0:0:25:LR_Drum Kick Low.wav
153,192,238794,1,6,0:0:0:0:
460,192,238794,1,4,1:0:0:0:
51,192,239110,1,0,0:0:0:25:LR_Drum Kick Low.wav
153,192,239268,1,0,0:0:0:45:LR_Drum Hit Clap Sn.wav
460,192,239268,1,0,0:0:0:55:LR_Drum Rpd Fast .wav
256,192,239347,1,0,0:0:0:0:
358,192,239426,1,0,0:0:0:100:LR_Drum Rpd.wav
460,192,239505,1,0,0:0:0:0:
256,192,239584,1,0,0:0:0:25:LR_Drum Kick Low.wav
51,192,239584,1,2,0:0:0:0:
358,192,239741,1,0,0:0:0:25:LR_Drum Kick Low.wav
153,192,239741,1,0,0:0:0:0:
460,192,239820,1,0,0:0:0:0:
256,192,239899,1,0,0:0:0:45:LR_Drum Hit Clap Sn.wav
51,192,239899,1,0,0:0:0:55:LR_Drum Rpd Fast .wav
358,192,239978,1,0,0:0:0:0:
153,192,240057,1,0,0:0:0:25:LR_Drum Kick Low.wav
460,192,240057,1,0,0:0:0:0:
256,192,240136,1,0,0:0:0:0:
51,192,240215,1,0,0:0:0:100:LR_Drum Rpd.wav
358,192,240215,1,2,0:0:0:0:
153,192,240294,1,0,0:0:0:0:
460,192,240373,1,0,0:0:0:25:LR_Drum Kick Low.wav
256,192,240373,1,0,0:0:0:0:
51,192,240452,1,0,0:0:0:0:
153,192,240531,1,0,0:0:0:45:LR_Drum Hit Clap Sn.wav
358,192,240531,1,0,0:0:0:55:LR_Drum Rpd Fast .wav
460,192,240610,1,0,0:0:0:0:
51,192,240689,1,0,0:0:0:100:LR_Drum Rpd.wav
256,192,240689,1,0,0:0:0:0:
358,192,240768,1,0,0:0:0:0:
153,192,240847,1,0,0:0:0:25:LR_Drum Kick Low.wav
460,192,240847,1,2,0:0:0:0:
256,192,240926,1,0,0:0:0:0:
51,192,241005,1,0,0:0:0:25:LR_Drum Kick Low.wav
358,192,241005,1,0,0:0:0:0:
153,192,241084,1,0,0:0:0:0:
460,192,241163,1,0,0:0:0:45:LR_Drum Hit Clap Sn.wav
256,192,241163,1,0,0:0:0:55:LR_Drum Rpd Fast .wav
51,192,241241,1,0,0:0:0:0:
153,192,241320,1,0,0:0:0:100:LR_Drum Rpd.wav
358,192,241320,1,0,0:0:0:0:
256,192,241399,1,0,0:0:0:0:
460,192,241478,1,0,0:0:0:100:LR_Drum Crush Finish.wav
51,192,241478,1,0,0:0:0:25:LR_Drum Kick Low.wav
153,192,241478,1,6,0:0:0:0:
358,192,241557,1,0,0:0:0:0:
256,192,241636,1,0,0:0:0:100:LR_Drum Rpd.wav
153,192,241715,1,0,0:0:0:0:
51,192,241794,1,0,0:0:0:45:LR_Drum Hit Clap Sn.wav
460,192,241794,1,0,0:0:0:55:LR_Drum Rpd Fast .wav
153,192,241873,1,0,0:0:0:0:
256,192,241952,1,0,0:0:0:25:LR_Drum Kick Low.wav
358,192,242031,1,0,0:0:0:0:
460,192,242110,1,0,0:0:0:100:LR_Drum Rpd.wav
51,192,242110,1,2,0:0:0:0:
153,192,242110,1,0,0:0:0:0:
256,192,242268,1,0,0:0:0:45:LR_Drum Hit Clap Sn.wav
358,192,242268,1,0,0:0:0:55:LR_Drum Rpd Fast .wav
153,192,242426,1,0,0:0:0:25:LR_Drum Kick Low.wav
256,192,242505,1,0,0:0:0:0:
358,192,242584,1,0,0:0:0:100:LR_Drum Rpd.wav
460,192,242663,1,0,0:0:0:0:
358,192,242741,1,0,0:0:0:100:LR_Drum Crush Finish.wav
256,192,242741,1,0,0:0:0:25:LR_Drum Kick Low.wav
153,192,242741,1,6,0:0:0:0:
358,192,242952,1,6,0:0:0:0:
256,192,242952,1,0,0:0:0:100:LR_Drum Crush Finish.wav
153,192,242952,1,0,0:0:0:70:LR_Drum Rpd.wav
153,192,243163,1,0,0:0:0:100:LR_Drum Crush Finish.wav
358,192,243163,1,0,0:0:0:70:LR_Drum Rpd.wav
256,192,243163,1,6,0:0:0:0:
460,192,243373,1,0,0:0:0:100:LR_Drum Crush Finish.wav
51,192,243373,1,0,0:0:0:25:LR_Drum Kick Low.wav
256,192,243373,1,6,0:0:0:0:
358,192,243478,1,0,0:0:0:55:LR_Drum Rpd Fast .wav
153,192,243584,1,0,0:0:0:45:LR_Drum Hit Clap Sn.wav
51,192,243689,1,0,0:0:0:25:LR_Drum Kick Low.wav
153,192,243768,1,0,0:0:0:0:
256,192,243847,1,0,0:0:0:70:LR_Tom Hit 3.wav
358,192,243926,1,0,0:0:0:0:
460,192,244005,1,0,0:0:0:25:LR_Drum Kick Low.wav
256,192,244005,1,4,0:0:0:0:
153,192,244005,1,4,1:0:0:0:
460,192,244163,1,0,0:0:0:25:LR_Drum Kick Low.wav
256,192,244163,1,0,0:0:0:100:LR_Drum Crush Finish.wav
153,192,244163,1,4,0:0:0:0:
51,192,244478,1,4,0:0:0:0:
256,192,244478,1,0,0:0:0:100:LR_Drum Crush Finish.wav
358,192,244478,1,0,0:0:0:25:LR_Drum Kick Low.wav
51,192,244636,1,0,0:0:0:25:LR_Drum Kick Low.wav
256,192,244636,1,0,0:0:0:100:LR_Drum Crush Finish.wav
358,192,244636,1,4,0:0:0:0:
51,192,244952,1,4,0:0:0:0:
256,192,244952,1,0,0:0:0:100:LR_Drum Crush Finish.wav
460,192,244952,1,0,0:0:0:25:LR_Drum Kick Low.wav
51,192,245110,1,0,0:0:0:100:LR_Drum Crush Finish.wav
256,192,245110,1,0,0:0:0:25:LR_Drum Kick Low.wav
460,192,245110,1,4,0:0:0:0:
460,192,245426,1,4,0:0:0:0:
256,192,245426,1,0,0:0:0:25:LR_Drum Kick Low.wav
51,192,245426,1,0,0:0:0:100:LR_Drum Crush Finish.wav
460,192,245584,1,0,0:0:0:100:LR_Drum Crush Finish.wav
256,192,245584,1,0,0:0:0:25:LR_Drum Kick Low.wav
51,192,245584,1,4,0:0:0:0:
460,192,245899,1,4,0:0:0:0:
51,192,245899,1,0,0:0:0:25:LR_Drum Kick Low.wav
358,192,245899,1,0,0:0:0:100:LR_Drum Crush Finish.wav
153,192,245978,1,0,0:0:0:30:LR_Drum Rpd Fast .wav
256,192,246057,1,0,0:0:0:30:LR_Drum Rpd Fast .wav
358,192,246136,1,0,0:0:0:30:LR_Drum Rpd Fast .wav
51,192,246215,1,0,0:0:0:40:LR_Drum Hit Clap Sn.wav
460,192,246215,1,0,0:0:0:0:
153,192,246294,1,0,0:0:0:0:
358,192,246373,1,0,0:0:0:25:LR_Drum Kick Low.wav
460,192,246452,1,0,0:0:0:0:
153,192,246531,1,0,0:0:0:100:LR_Drum Crush Finish.wav
256,192,246531,1,0,0:0:0:25:LR_Drum Kick Low.wav
358,192,246531,1,4,0:0:0:0:
358,192,246689,1,0,0:0:0:100:LR_Drum Crush Finish.wav
256,192,246689,1,0,0:0:0:25:LR_Drum Kick Low.wav
153,192,246689,1,4,0:0:0:0:
256,192,247005,1,4,0:0:0:0:
153,192,247005,1,0,0:0:0:25:LR_Drum Kick Low.wav
358,192,247005,1,0,0:0:0:100:LR_Drum Crush Finish.wav
153,192,247163,1,0,0:0:0:100:LR_Drum Crush Finish.wav
358,192,247163,1,0,0:0:0:25:LR_Drum Kick Low.wav
256,192,247163,1,4,0:0:0:0:
358,192,247478,1,4,0:0:0:0:
256,192,247478,1,0,0:0:0:25:LR_Drum Kick Low.wav
153,192,247478,1,0,0:0:0:100:LR_Drum Crush Finish.wav
51,192,247636,1,0,0:0:0:100:LR_Drum Crush Finish.wav
460,192,247636,1,0,0:0:0:25:LR_Drum Kick Low.wav
256,192,247636,1,4,0:0:0:0:
153,192,247794,1,0,0:0:0:25:LR_Drum Kick Low.wav
358,192,247952,1,0,0:0:0:40:LR_Drum Hit Clap Sn.wav
153,192,248110,1,0,0:0:0:25:LR_Drum Kick Low.wav
358,192,248268,1,0,0:0:0:50:LR_Drum Rpd Fast .wav
460,192,248426,1,4,0:0:0:0:
51,192,248426,1,0,0:0:0:25:LR_Drum Kick Low.wav
256,192,248426,1,0,0:0:0:100:LR_Drum Crush Finish.wav
51,192,248636,1,0,0:0:0:25:LR_Drum Kick Low.wav
256,192,248636,1,0,0:0:0:100:LR_Drum Crush Finish.wav
460,192,248636,1,4,0:0:0:0:
153,192,248847,1,4,0:0:0:0:
256,192,248847,1,0,0:0:0:100:LR_Drum Crush Finish.wav
358,192,248847,1,0,0:0:0:25:LR_Drum Kick Low.wav
51,192,249057,1,0,0:0:0:100:LR_Drum Crush Finish.wav
460,192,249057,1,0,0:0:0:25:LR_Drum Kick Low.wav
256,192,249057,1,4,1:0:0:0:
358,192,249057,1,6,0:0:0:0:
153,192,249215,1,0,0:0:0:100:LR_Drum Rpd.wav
358,192,249373,1,0,0:0:0:45:LR_Drum Hit Clap Sn.wav
256,192,249373,1,0,0:0:0:55:LR_Drum Rpd Fast .wav
153,192,249531,1,0,0:0:0:100:LR_Drum Rpd.wav
51,192,249689,1,0,0:0:0:25:LR_Drum Kick Low.wav
358,192,249689,1,2,0:0:0:0:
153,192,249768,1,0,0:0:0:0:
256,192,249847,1,0,0:0:0:25:LR_Drum Kick Low.wav
460,192,249847,1,0,0:0:0:0:
358,192,249926,1,0,0:0:0:0:
460,192,250005,1,0,0:0:0:45:LR_Drum Hit Clap Sn.wav
153,192,250005,1,0,0:0:0:55:LR_Drum Rpd Fast .wav
51,192,250084,1,0,0:0:0:0:
256,192,250163,1,0,0:0:0:0:
358,192,250241,1,0,0:0:0:0:
460,192,250320,1,0,0:0:0:25:LR_Drum Kick Low.wav
51,192,250320,1,2,0:0:0:0:
153,192,250399,1,0,0:0:0:0:
358,192,250478,1,0,0:0:0:25:LR_Drum Kick Low.wav
256,192,250478,1,0,0:0:0:0:
153,192,250557,1,0,0:0:0:0:
460,192,250636,1,0,0:0:0:45:LR_Drum Hit Clap Sn.wav
358,192,250636,1,0,0:0:0:55:LR_Drum Rpd Fast .wav
256,192,250715,1,0,0:0:0:0:
51,192,250794,1,0,0:0:0:25:LR_Drum Kick Low.wav
153,192,250794,1,0,0:0:0:0:
256,192,250873,1,0,0:0:0:0:
460,192,250952,1,0,0:0:0:100:LR_Drum Rpd.wav
51,192,250952,1,2,0:0:0:0:
358,192,250952,1,0,0:0:0:0:
256,192,251110,1,0,0:0:0:25:LR_Drum Kick Low.wav
153,192,251110,1,0,0:0:0:0:
358,192,251189,1,0,0:0:0:0:
51,192,251268,1,0,0:0:0:45:LR_Drum Hit Clap Sn.wav
153,192,251268,1,0,0:0:0:55:LR_Drum Rpd Fast .wav
256,192,251347,1,0,0:0:0:0:
51,192,251426,1,0,0:0:0:100:LR_Drum Rpd.wav
460,192,251426,1,2,0:0:0:0:
358,192,251426,1,0,0:0:0:0:
153,192,251584,1,0,0:0:0:25:LR_Drum Kick Low.wav
358,192,251741,1,0,0:0:0:100:LR_Drum Rpd.wav
256,192,251741,1,2,0:0:0:0:
51,192,251741,1,0,0:0:0:0:
460,192,251899,1,0,0:0:0:45:LR_Drum Hit Clap Sn.wav
153,192,251899,1,0,0:0:0:55:LR_Drum Rpd Fast .wav
256,192,251978,1,0,0:0:0:0:
358,192,252057,1,0,0:0:0:25:LR_Drum Kick Low.wav
51,192,252057,1,0,0:0:0:0:
153,192,252136,1,0,0:0:0:0:
256,192,252215,1,2,0:0:0:0:
460,192,252215,1,0,0:0:0:100:LR_Drum Rpd.wav
358,192,252294,1,0,0:0:0:0:
153,192,252373,1,0,0:0:0:45:LR_Drum Hit Clap Sn.wav
51,192,252373,1,0,0:0:0:55:LR_Drum Rpd Fast .wav
256,192,252452,1,0,0:0:0:0:
358,192,252531,1,0,0:0:0:100:LR_Drum Rpd.wav
460,192,252610,1,0,0:0:0:0:
51,192,252689,1,0,0:0:0:25:LR_Drum Kick Low.wav
358,192,252689,1,2,0:0:0:0:
256,192,252768,1,0,0:0:0:0:
460,192,252847,1,0,0:0:0:45:LR_Drum Hit Clap Sn.wav
153,192,252847,1,0,0:0:0:25:LR_Drum Kick Low.wav
358,192,252926,1,0,0:0:0:0:
256,192,253005,1,0,0:0:0:0:
153,192,253084,1,0,0:0:0:0:
51,192,253163,1,0,0:0:0:55:LR_Drum Rpd Fast .wav
460,192,253163,1,0,0:0:0:25:LR_Drum Kick Low.wav
153,192,253241,1,0,0:0:0:0:
256,192,253320,1,0,0:0:0:0:
358,192,253399,1,0,0:0:0:0:
51,192,253478,1,0,0:0:0:100:LR_Drum Crush Finish.wav
153,192,253478,1,0,0:0:0:25:LR_Drum Kick Low.wav
256,192,253478,1,6,0:0:0:0:
153,192,253689,1,6,0:0:0:0:
256,192,253689,1,0,0:0:0:100:LR_Drum Crush Finish.wav
358,192,253689,1,0,0:0:0:25:LR_Drum Kick Low.wav
460,192,253899,1,0,0:0:0:100:LR_Drum Crush Finish.wav
358,192,253899,1,0,0:0:0:25:LR_Drum Kick Low.wav
256,192,253899,1,6,0:0:0:0:
256,192,254110,1,0,0:0:0:25:LR_Drum Kick Low.wav
460,192,254110,1,6,0:0:0:0:
51,192,254110,1,4,1:0:0:0:
153,192,254268,1,0,0:0:0:100:LR_Drum Rpd.wav
256,192,254426,1,0,0:0:0:25:LR_Drum Kick Low.wav
460,192,254584,1,0,0:0:0:45:LR_Drum Hit Clap Sn.wav
358,192,254663,1,0,0:0:0:0:
256,192,254741,1,0,0:0:0:25:LR_Drum Kick Low.wav
51,192,254741,1,2,0:0:0:0:
460,192,254820,1,0,0:0:0:0:
153,192,254899,1,0,0:0:0:100:LR_Drum Rpd.wav
256,192,254978,1,0,0:0:0:0:
460,192,255057,1,0,0:0:0:45:LR_Drum Hit Clap Sn.wav
358,192,255057,1,0,0:0:0:25:LR_Drum Kick Low.wav
153,192,255136,1,0,0:0:0:0:
51,192,255215,1,0,0:0:0:45:LR_Drum Hit Clap Sn.wav
358,192,255215,1,0,0:0:0:55:LR_Drum Rpd Fast .wav
153,192,255294,1,0,0:0:0:0:
256,192,255373,1,0,0:0:0:25:LR_Drum Kick Low.wav
460,192,255373,1,2,0:0:0:0:
153,192,255452,1,0,0:0:0:0:
256,192,255531,1,0,0:0:0:100:LR_Drum Rpd.wav
358,192,255610,1,0,0:0:0:0:
460,192,255689,1,0,0:0:0:25:LR_Drum Kick Low.wav
51,192,255689,1,0,0:0:0:0:
358,192,255768,1,0,0:0:0:0:
153,192,255847,1,0,0:0:0:45:LR_Drum Hit Clap Sn.wav
256,192,255847,1,0,0:0:0:55:LR_Drum Rpd Fast .wav
51,192,255926,1,0,0:0:0:0:
256,192,256005,1,0,0:0:0:25:LR_Drum Kick Low.wav
358,192,256005,1,2,0:0:0:0:
460,192,256084,1,0,0:0:0:0:
153,192,256163,1,0,0:0:0:100:LR_Drum Rpd.wav
358,192,256241,1,0,0:0:0:0:
256,192,256320,1,0,0:0:0:0:
460,192,256320,1,0,0:0:0:25:LR_Drum Kick Low.wav
153,192,256399,1,0,0:0:0:0:
358,192,256478,1,0,0:0:0:100:LR_Drum Rpd.wav
51,192,256478,1,0,0:0:0:0:
153,192,256557,1,0,0:0:0:0:
460,192,256636,1,0,0:0:0:100:LR_Drum Crush Finish.wav
256,192,256636,1,0,0:0:0:25:LR_Drum Kick Low.wav
358,192,256636,1,6,0:0:0:0:
153,192,256794,1,0,0:0:0:0:
51,192,256952,1,0,0:0:0:45:LR_Drum Hit Clap Sn.wav
460,192,256952,1,0,0:0:0:25:LR_Drum Kick Low.wav
358,192,257031,1,0,0:0:0:25:LR_Drum Kick Low.wav
153,192,257110,1,0,0:0:0:100:LR_Drum Rpd.wav
256,192,257110,1,2,0:0:0:0:
51,192,257268,1,0,0:0:0:25:LR_Drum Kick Low.wav
358,192,257268,1,0,0:0:0:100:LR_Drum Rpd.wav
153,192,257426,1,0,0:0:0:25:LR_Drum Kick Low.wav
460,192,257426,1,2,0:0:0:0:
256,192,257505,1,0,0:0:0:0:
51,192,257584,1,0,0:0:0:100:LR_Drum Rpd.wav
358,192,257584,1,0,0:0:0:0:
460,192,257663,1,0,0:0:0:0:
256,192,257741,1,0,0:0:0:45:LR_Drum Hit Clap Sn.wav
153,192,257741,1,2,0:0:0:0:
358,192,257820,1,0,0:0:0:0:
460,192,257899,1,0,0:0:0:25:LR_Drum Kick Low.wav
153,192,257899,1,0,0:0:0:100:LR_Drum Rpd.wav
51,192,257899,1,2,0:0:0:0:
51,192,258110,1,0,0:0:0:0:
153,192,258163,1,0,0:0:0:0:
256,192,258215,1,0,0:0:0:0:
358,192,258268,1,0,0:0:0:0:
460,192,258320,1,2,0:0:0:0:
51,192,258320,1,0,0:0:0:0:
460,192,258531,1,0,0:0:0:0:
358,192,258584,1,0,0:0:0:0:
256,192,258636,1,0,0:0:0:0:
153,192,258689,1,0,0:0:0:0:
51,192,258741,1,2,0:0:0:0:
460,192,258741,1,0,0:0:0:0:
51,192,258952,1,0,0:0:0:0:
153,192,259005,1,0,0:0:0:0:
256,192,259057,1,0,0:0:0:0:
358,192,259110,1,0,0:0:0:0:
460,192,259163,128,0,260426:0:0:0:100:LR_Drum Crush Finish.wav
153,192,259163,1,0,0:0:0:25:LR_Drum Kick Low.wav
51,192,259163,128,6,260426:0:0:0:0:
358,192,260426,128,2,261689:0:0:0:0:
153,192,260426,128,2,261689:0:0:0:0:
460,192,260741,1,0,0:0:0:20:LR_Drum Kick Low.wav
256,192,260847,1,0,0:0:0:0:
51,192,260952,1,0,0:0:0:0:
460,192,261057,1,0,0:0:0:35:LR_Drum Hit Clap Sn.wav
256,192,261163,1,0,0:0:0:0:
51,192,261268,1,0,0:0:0:0:
460,192,261373,1,0,0:0:0:25:LR_HiHat SClick 2.wav
256,192,261478,1,0,0:0:0:0:
51,192,261584,1,0,0:0:0:0:
256,192,261689,1,0,0:0:0:25:LR_Drum Kick Low.wav
460,192,261689,1,4,0:0:0:0:
256,192,261847,1,0,0:0:0:25:LR_Drum Kick Low.wav
460,192,261847,1,4,0:0:0:0:
256,192,262163,1,0,0:0:0:90:LR_Drum Crush Finish.wav
51,192,262163,1,4,0:0:0:0:
460,192,262163,1,0,0:0:0:25:LR_Drum Kick Low.wav
256,192,262320,1,0,0:0:0:25:LR_Drum Kick Low.wav
51,192,262320,1,4,0:0:0:0:
460,192,262320,1,0,0:0:0:90:LR_Drum Crush Finish.wav
153,192,262636,1,0,0:0:0:25:LR_Drum Kick Low.wav
256,192,262636,1,4,0:0:0:0:
358,192,262636,1,0,0:0:0:90:LR_Drum Crush Finish.wav
153,192,262794,1,0,0:0:0:90:LR_Drum Crush Finish.wav
256,192,262794,1,4,0:0:0:0:
358,192,262794,1,0,0:0:0:25:LR_Drum Kick Low.wav
153,192,263110,1,0,0:0:0:90:LR_Drum Crush Finish.wav
256,192,263110,1,4,0:0:0:0:
358,192,263110,1,0,0:0:0:25:LR_Drum Kick Low.wav
256,192,263268,1,0,0:0:0:25:LR_Drum Kick Low.wav
358,192,263268,1,4,0:0:0:0:
153,192,263268,1,0,0:0:0:90:LR_Drum Crush Finish.wav
51,192,263584,1,0,0:0:0:30:LR_RevCyRDW.wav
256,192,263584,1,0,0:0:0:25:LR_Drum Kick Low.wav
460,192,263584,1,4,0:0:0:0:
460,192,263899,1,0,0:0:0:90:LR_Drum Crush Finish.wav
256,192,263899,1,4,0:0:0:0:
51,192,263899,1,0,0:0:0:25:LR_Drum Kick Low.wav
153,192,264215,1,0,0:0:0:25:LR_Drum Kick Low.wav
256,192,264215,1,0,0:0:0:60:crash.wav
358,192,264215,1,6,0:0:0:0:
51,192,264215,1,4,1:0:0:0:
460,192,264215,1,0,0:0:0:100:LR_Drum Crush Finish.wav
153,192,264373,1,0,0:0:0:100:LR_Drum Rpd.wav
51,192,264531,1,0,0:0:0:45:LR_Drum Hit Clap Sn.wav
358,192,264531,1,0,0:0:0:55:LR_Drum Rpd Fast .wav
256,192,264689,1,0,0:0:0:100:LR_Drum Rpd.wav
153,192,264847,1,0,0:0:0:25:LR_Drum Kick Low.wav
460,192,264847,1,2,0:0:0:0:
256,192,265005,1,0,0:0:0:25:LR_Drum Kick Low.wav
358,192,265084,1,0,0:0:0:0:
460,192,265163,1,0,0:0:0:45:LR_Drum Hit Clap Sn.wav
153,192,265163,1,0,0:0:0:55:LR_Drum Rpd Fast .wav
256,192,265241,1,0,0:0:0:0:
51,192,265320,1,0,0:0:0:45:LR_Drum Hit Clap Sn.wav
153,192,265320,1,0,0:0:0:0:
358,192,265320,1,0,0:0:0:0:
460,192,265478,1,2,0:0:0:0:
256,192,265478,1,0,0:0:0:25:LR_Drum Kick Low.wav
153,192,265636,1,0,0:0:0:25:LR_Drum Kick Low.wav
358,192,265794,1,0,0:0:0:55:LR_Drum Rpd Fast .wav
51,192,265794,1,0,0:0:0:45:LR_Drum Hit Clap Sn.wav
153,192,265952,1,0,0:0:0:25:LR_Drum Kick Low.wav
256,192,266110,1,2,0:0:0:0:
51,192,266110,1,0,0:0:0:100:LR_Drum Rpd.wav
460,192,266110,1,0,0:0:0:0:
358,192,266268,1,0,0:0:0:25:LR_Drum Kick Low.wav
256,192,266426,1,0,0:0:0:45:LR_Drum Hit Clap Sn.wav
460,192,266426,1,0,0:0:0:55:LR_Drum Rpd Fast .wav
51,192,266505,1,0,0:0:0:0:
153,192,266584,1,0,0:0:0:100:LR_Drum Rpd.wav
256,192,266663,1,0,0:0:0:0:
358,192,266741,1,2,0:0:0:0:
460,192,266741,1,0,0:0:0:25:LR_Drum Kick Low.wav
51,192,266741,1,4,0:0:0:0:
153,192,266820,1,0,0:0:0:0:
256,192,266899,1,0,0:0:0:100:LR_Drum Rpd.wav
358,192,266899,1,0,0:0:0:0:
153,192,266978,1,0,0:0:0:0:
51,192,267057,1,0,0:0:0:45:LR_Drum Hit Clap Sn.wav
460,192,267057,1,0,0:0:0:55:LR_Drum Rpd Fast .wav
358,192,267136,1,0,0:0:0:0:
256,192,267215,1,4,0:0:0:0:
153,192,267215,1,0,0:0:0:25:LR_Drum Kick Low.wav
460,192,267215,1,0,0:0:0:0:
51,192,267373,1,0,0:0:0:100:LR_Drum Rpd.wav
358,192,267373,1,2,0:0:0:0:
153,192,267452,1,0,0:0:0:0:
256,192,267531,1,0,0:0:0:45:LR_Drum Hit Clap Sn.wav
460,192,267531,1,0,0:0:0:55:LR_Drum Rpd Fast .wav
358,192,267610,1,0,0:0:0:0:
153,192,267689,1,0,0:0:0:100:LR_Drum Rpd.wav
51,192,267689,1,0,0:0:0:0:
256,192,267768,1,0,0:0:0:0:
358,192,267847,1,0,0:0:0:25:LR_Drum Kick Low.wav
460,192,267847,1,4,0:0:0:0:
153,192,267847,1,0,0:0:0:100:LR_Drum Rpd.wav
51,192,268005,1,2,0:0:0:0:
256,192,268005,1,0,0:0:0:100:LR_Drum Rpd.wav
358,192,268163,1,0,0:0:0:25:LR_Drum Kick Low.wav
256,192,268241,1,0,0:0:0:0:
153,192,268320,1,0,0:0:0:45:LR_Drum Hit Clap Sn.wav
51,192,268320,1,0,0:0:0:55:LR_Drum Rpd Fast .wav
460,192,268320,1,4,0:0:0:0:
358,192,268478,1,0,0:0:0:100:LR_Drum Rpd.wav
460,192,268636,1,0,0:0:0:25:LR_Drum Kick Low.wav
51,192,268636,1,2,0:0:0:0:
256,192,268636,1,0,0:0:0:0:
153,192,268794,1,0,0:0:0:25:LR_Drum Kick Low.wav
358,192,268794,1,0,0:0:0:0:
51,192,268952,1,0,0:0:0:55:LR_Drum Rpd Fast .wav
256,192,268952,1,0,0:0:0:0:
153,192,269110,1,0,0:0:0:55:LR_Drum Rpd Fast .wav
358,192,269110,1,0,0:0:0:0:
51,192,269268,1,2,0:0:0:0:
460,192,269268,1,4,0:0:0:0:
256,192,269268,1,0,0:0:0:25:LR_Drum Kick Low.wav
153,192,269426,1,0,0:0:0:100:LR_Drum Rpd.wav
51,192,269584,1,0,0:0:0:55:LR_Drum Rpd Fast .wav
256,192,269584,1,0,0:0:0:45:LR_Drum Hit Clap Sn.wav
358,192,269741,1,0,0:0:0:100:LR_Drum Rpd.wav
460,192,269899,1,2,0:0:0:0:
153,192,269899,1,0,0:0:0:25:LR_Drum Kick Low.wav
256,192,269978,1,0,0:0:0:0:
358,192,270057,1,0,0:0:0:25:LR_Drum Kick Low.wav
51,192,270057,1,0,0:0:0:0:
153,192,270136,1,0,0:0:0:0:
256,192,270215,1,0,0:0:0:45:LR_Drum Hit Clap Sn.wav
460,192,270215,1,0,0:0:0:55:LR_Drum Rpd Fast .wav
358,192,270294,1,0,0:0:0:0:
460,192,270373,1,0,0:0:0:25:LR_Drum Kick Low.wav
153,192,270373,1,0,0:0:0:0:
51,192,270373,1,0,0:0:0:0:
256,192,270531,1,0,0:0:0:100:LR_Drum Rpd.wav
358,192,270531,1,2,0:0:0:0:
153,192,270689,1,0,0:0:0:25:LR_Drum Kick Low.wav
358,192,270847,1,0,0:0:0:45:LR_Drum Hit Clap Sn.wav
460,192,270847,1,0,0:0:0:55:LR_Drum Rpd Fast .wav
153,192,270926,1,0,0:0:0:0:
256,192,271005,1,0,0:0:0:45:LR_Drum Hit Clap Sn.wav
51,192,271005,1,0,0:0:0:0:
153,192,271084,1,0,0:0:0:0:
358,192,271084,1,0,0:0:0:0:
256,192,271163,1,2,0:0:0:0:
51,192,271163,1,0,0:0:0:25:LR_Drum Kick Low.wav
460,192,271163,1,0,0:0:0:0:
153,192,271320,1,0,0:0:0:25:LR_Drum Kick Low.wav
256,192,271478,1,0,0:0:0:55:LR_Drum Rpd Fast .wav
358,192,271478,1,0,0:0:0:45:LR_Drum Hit Clap Sn.wav
153,192,271636,1,0,0:0:0:100:LR_Drum Rpd.wav
51,192,271794,1,0,0:0:0:25:LR_Drum Kick Low.wav
256,192,271794,1,2,0:0:0:0:
460,192,271794,1,4,0:0:0:0:
153,192,271952,1,0,0:0:0:100:LR_Drum Rpd.wav
358,192,271952,1,0,0:0:0:0:
256,192,272110,1,0,0:0:0:55:LR_Drum Rpd Fast .wav
460,192,272110,1,0,0:0:0:45:LR_Drum Hit Clap Sn.wav
153,192,272268,1,0,0:0:0:25:LR_Drum Kick Low.wav
358,192,272268,1,0,0:0:0:0:
51,192,272426,1,0,0:0:0:100:LR_Drum Rpd.wav
256,192,272426,1,2,0:0:0:0:
358,192,272505,1,0,0:0:0:0:
460,192,272584,1,0,0:0:0:45:LR_Drum Hit Clap Sn.wav
153,192,272584,1,0,0:0:0:55:LR_Drum Rpd Fast .wav
256,192,272663,1,0,0:0:0:0:
51,192,272741,1,0,0:0:0:100:LR_Drum Rpd.wav
358,192,272741,1,0,0:0:0:0:
153,192,272820,1,0,0:0:0:0:
256,192,272899,1,0,0:0:0:25:LR_Drum Kick Low.wav
460,192,272899,1,0,0:0:0:100:LR_Drum Rpd.wav
358,192,272899,1,0,0:0:0:0:
153,192,273057,1,2,0:0:0:0:
51,192,273215,1,0,0:0:0:25:LR_Drum Kick Low.wav
358,192,273215,1,0,0:0:0:0:
256,192,273215,1,0,0:0:0:0:
153,192,273373,1,0,0:0:0:45:LR_Drum Hit Clap Sn.wav
460,192,273373,1,0,0:0:0:55:LR_Drum Rpd Fast .wav
256,192,273531,1,0,0:0:0:100:LR_Drum Rpd.wav
358,192,273689,1,0,0:0:0:25:LR_Drum Kick Low.wav
460,192,273689,1,2,0:0:0:0:
51,192,273689,1,0,0:0:0:0:
153,192,273847,1,0,0:0:0:25:LR_Drum Kick Low.wav
256,192,273847,1,0,0:0:0:0:
51,192,274005,1,0,0:0:0:100:LR_Drum Rpd.wav
358,192,274005,1,2,0:0:0:0:
460,192,274005,1,0,0:0:0:0:
256,192,274163,1,0,0:0:0:45:LR_Drum Hit Clap Sn.wav
153,192,274163,1,0,0:0:0:0:
51,192,274320,1,2,0:0:0:0:
460,192,274320,1,4,0:0:0:0:
358,192,274320,1,0,0:0:0:25:LR_Drum Kick Low.wav
256,192,274478,1,0,0:0:0:100:LR_Drum Rpd.wav
153,192,274636,1,0,0:0:0:55:LR_Drum Rpd Fast .wav
51,192,274636,1,0,0:0:0:45:LR_Drum Hit Clap Sn.wav
358,192,274636,1,0,0:0:0:0:
256,192,274794,1,0,0:0:0:100:LR_Drum Rpd.wav
153,192,274873,1,0,0:0:0:0:
358,192,274952,1,0,0:0:0:25:LR_Drum Kick Low.wav
51,192,274952,1,2,0:0:0:0:
460,192,274952,1,0,0:0:0:0:
153,192,275031,1,0,0:0:0:0:
51,192,275110,1,0,0:0:0:25:LR_Drum Kick Low.wav
256,192,275110,1,0,0:0:0:0:
358,192,275189,1,0,0:0:0:0:
153,192,275268,1,0,0:0:0:55:LR_Drum Rpd Fast .wav
460,192,275268,1,0,0:0:0:45:LR_Drum Hit Clap Sn.wav
256,192,275347,1,0,0:0:0:0:
51,192,275426,1,0,0:0:0:100:LR_Drum Rpd.wav
460,192,275426,1,0,0:0:0:0:
358,192,275426,1,0,0:0:0:0:
256,192,275584,1,0,0:0:0:25:LR_Drum Kick Low.wav
153,192,275584,1,2,0:0:0:0:
153,192,275741,1,0,0:0:0:25:LR_Drum Kick Low.wav
358,192,275741,1,0,0:0:0:0:
256,192,275899,1,0,0:0:0:45:LR_Drum Hit Clap Sn.wav
460,192,275899,1,0,0:0:0:0:
51,192,275899,1,0,0:0:0:55:LR_Drum Rpd Fast .wav
153,192,276057,1,0,0:0:0:25:LR_Drum Kick Low.wav
460,192,276057,1,0,0:0:0:0:
358,192,276215,1,2,0:0:0:0:
256,192,276215,1,0,0:0:0:100:LR_Drum Rpd.wav
51,192,276215,1,0,0:0:0:0:
153,192,276452,1,0,0:0:0:100:LR_Drum Rpd.wav
256,192,276452,1,2,0:0:0:0:
460,192,276452,1,0,0:0:0:0:
256,192,276689,1,0,0:0:0:100:LR_Drum Rpd.wav
460,192,276689,1,2,0:0:0:0:
51,192,276689,1,0,0:0:0:0:
153,192,276847,1,0,0:0:0:25:LR_Drum Kick Low.wav
358,192,276847,1,2,0:0:0:0:
51,192,276847,1,4,0:0:0:0:
256,192,277005,1,0,0:0:0:100:LR_Drum Rpd.wav
460,192,277163,1,0,0:0:0:55:LR_Drum Rpd Fast .wav
358,192,277163,1,0,0:0:0:45:LR_Drum Hit Clap Sn.wav
153,192,277320,1,0,0:0:0:25:LR_Drum Kick Low.wav
51,192,277478,1,0,0:0:0:100:LR_Drum Rpd.wav
256,192,277478,1,2,0:0:0:0:
358,192,277557,1,0,0:0:0:0:
460,192,277636,1,0,0:0:0:55:LR_Drum Rpd Fast .wav
153,192,277636,1,0,0:0:0:45:LR_Drum Hit Clap Sn.wav
51,192,277794,1,0,0:0:0:100:LR_Drum Rpd.wav
358,192,277794,1,0,0:0:0:0:
153,192,277873,1,0,0:0:0:0:
460,192,277952,1,0,0:0:0:25:LR_Drum Kick Low.wav
256,192,277952,1,4,0:0:0:0:
51,192,277952,1,0,0:0:0:0:
153,192,278110,1,2,0:0:0:0:
256,192,278268,1,0,0:0:0:25:LR_Drum Kick Low.wav
51,192,278268,1,4,0:0:0:0:
358,192,278268,1,0,0:0:0:0:
460,192,278426,1,0,0:0:0:45:LR_Drum Hit Clap Sn.wav
153,192,278426,1,0,0:0:0:0:
358,192,278505,1,0,0:0:0:0:
256,192,278584,1,0,0:0:0:100:LR_Drum Rpd.wav
51,192,278584,1,0,0:0:0:0:
153,192,278663,1,0,0:0:0:0:
256,192,278741,1,0,0:0:0:25:LR_Drum Kick Low.wav
358,192,278741,1,2,0:0:0:0:
460,192,278820,1,0,0:0:0:0:
358,192,278899,1,0,0:0:0:25:LR_Drum Kick Low.wav
51,192,278899,1,0,0:0:0:0:
256,192,278978,1,0,0:0:0:0:
153,192,279057,1,0,0:0:0:55:LR_Drum Rpd Fast .wav
460,192,279057,1,0,0:0:0:45:LR_Drum Hit Clap Sn.wav
358,192,279136,1,0,0:0:0:0:
256,192,279215,1,0,0:0:0:45:LR_Drum Hit Clap Sn.wav
51,192,279215,1,0,0:0:0:55:LR_Drum Rpd Fast .wav
153,192,279294,1,0,0:0:0:0:
460,192,279373,1,4,0:0:0:0:
256,192,279373,1,2,0:0:0:0:
51,192,279373,1,0,0:0:0:25:LR_Drum Kick Low.wav
358,192,279452,1,0,0:0:0:0:
460,192,279531,1,0,0:0:0:100:LR_Drum Rpd.wav
358,192,279689,1,0,0:0:0:55:LR_Drum Rpd Fast .wav
153,192,279689,1,0,0:0:0:45:LR_Drum Hit Clap Sn.wav
256,192,279847,1,2,0:0:0:0:
51,192,279847,1,0,0:0:0:100:LR_Drum Rpd.wav
153,192,280005,1,0,0:0:0:25:LR_Drum Kick Low.wav
460,192,280005,1,0,0:0:0:0:
256,192,280084,1,0,0:0:0:0:
358,192,280163,1,0,0:0:0:25:LR_Drum Kick Low.wav
51,192,280163,1,0,0:0:0:0:
153,192,280241,1,0,0:0:0:0:
256,192,280320,1,2,0:0:0:0:
460,192,280320,1,0,0:0:0:55:LR_Drum Rpd Fast .wav
358,192,280399,1,0,0:0:0:0:
460,192,280478,1,0,0:0:0:25:LR_Drum Kick Low.wav
153,192,280478,1,0,0:0:0:0:
51,192,280478,1,0,0:0:0:0:
256,192,280636,1,2,0:0:0:0:
358,192,280636,1,0,0:0:0:100:LR_Drum Rpd.wav
51,192,280794,1,0,0:0:0:25:LR_Drum Kick Low.wav
153,192,280913,1,0,0:0:0:0:
256,192,280952,1,0,0:0:0:55:LR_Drum Rpd Fast .wav
358,192,280952,1,0,0:0:0:45:LR_Drum Hit Clap Sn.wav
51,192,281110,1,0,0:0:0:100:LR_Drum Rpd.wav
460,192,281268,1,0,0:0:0:25:LR_Drum Kick Low.wav
153,192,281268,1,2,0:0:0:0:
256,192,281268,1,0,0:0:0:0:
358,192,281426,1,0,0:0:0:25:LR_Drum Kick Low.wav
51,192,281426,1,0,0:0:0:0:
153,192,281584,1,0,0:0:0:45:LR_Drum Hit Clap Sn.wav
256,192,281584,1,0,0:0:0:55:LR_Drum Rpd Fast .wav
460,192,281584,1,2,0:0:0:0:
358,192,281741,1,0,0:0:0:100:LR_Drum Rpd.wav
51,192,281741,1,0,0:0:0:0:
153,192,281899,1,2,0:0:0:0:
256,192,281899,1,4,0:0:0:0:
460,192,281899,1,0,0:0:0:25:LR_Drum Kick Low.wav
358,192,282057,1,0,0:0:0:100:LR_Drum Rpd.wav
51,192,282215,1,0,0:0:0:55:LR_Drum Rpd Fast .wav
153,192,282215,1,0,0:0:0:45:LR_Drum Hit Clap Sn.wav
256,192,282373,1,0,0:0:0:25:LR_Drum Kick Low.wav
358,192,282452,1,0,0:0:0:0:
460,192,282531,1,2,0:0:0:0:
51,192,282531,1,4,0:0:0:0:
153,192,282531,1,0,0:0:0:100:LR_Drum Rpd.wav
358,192,282610,1,0,0:0:0:0:
256,192,282689,1,0,0:0:0:45:LR_Drum Hit Clap Sn.wav
153,192,282689,1,0,0:0:0:55:LR_Drum Rpd Fast .wav
358,192,282768,1,0,0:0:0:0:
51,192,282847,1,0,0:0:0:100:LR_Drum Rpd.wav
460,192,282847,1,0,0:0:0:0:
153,192,282926,1,0,0:0:0:0:
256,192,283005,1,0,0:0:0:25:LR_Drum Kick Low.wav
358,192,283005,1,0,0:0:0:0:
153,192,283084,1,0,0:0:0:0:
51,192,283163,1,0,0:0:0:100:LR_Drum Rpd.wav
358,192,283163,1,4,0:0:0:0:
460,192,283163,1,2,0:0:0:0:
256,192,283241,1,0,0:0:0:0:
153,192,283320,1,0,0:0:0:25:LR_Drum Kick Low.wav
51,192,283320,1,0,0:0:0:0:
358,192,283399,1,0,0:0:0:0:
153,192,283478,1,2,0:0:0:0:
460,192,283478,1,0,0:0:0:55:LR_Drum Rpd Fast .wav
256,192,283478,1,4,0:0:0:0:
51,192,283557,1,0,0:0:0:0:
256,192,283636,1,0,0:0:0:100:LR_Drum Rpd.wav
358,192,283636,1,0,0:0:0:0:
153,192,283715,1,0,0:0:0:45:LR_Drum Hit Clap Sn.wav
51,192,283794,1,0,0:0:0:25:LR_Drum Kick Low.wav
460,192,283794,1,0,0:0:0:45:LR_Drum Hit Clap Sn.wav
153,192,283873,5,0,0:0:0:100:LR_Drum Rpd.wav
358,192,283873,1,0,0:0:0:45:LR_Drum Hit Clap Sn.wav
256,192,283952,5,0,0:0:0:45:LR_Drum Hit Clap Sn.wav
153,192,284031,5,0,0:0:0:45:LR_Drum Hit Clap Sn.wav
358,192,284031,1,0,0:0:0:100:LR_Drum Rpd.wav
51,192,284110,5,0,0:0:0:100:LR_Drum Rpd.wav
460,192,284110,1,0,0:0:0:45:LR_Drum Hit Clap Sn.wav
153,192,284215,5,0,0:0:0:100:LR_Drum Rpd.wav
358,192,284215,1,0,0:0:0:45:LR_Drum Hit Clap Sn.wav
256,192,284320,5,0,0:0:0:45:LR_Drum Hit Clap Sn.wav
460,192,284426,5,0,0:0:0:25:LR_Drum Kick Low.wav
153,192,284426,1,0,0:0:0:100:LR_Drum Rpd.wav
51,192,284426,1,0,0:0:0:60:crash.wav
358,192,284426,1,6,0:0:0:0:
256,192,284584,1,0,0:0:0:100:LR_Drum Rpd.wav
358,192,284741,1,0,0:0:0:45:LR_Drum Hit Clap Sn.wav
51,192,284741,1,0,0:0:0:55:LR_Drum Rpd Fast .wav
460,192,284899,1,0,0:0:0:100:LR_Drum Rpd.wav
358,192,284978,1,0,0:0:0:45:LR_Drum Hit Clap Sn.wav
256,192,285057,1,0,0:0:0:25:LR_Drum Kick Low.wav
153,192,285057,1,2,0:0:0:0:
358,192,285136,1,0,0:0:0:45:LR_Drum Hit Clap Sn.wav
460,192,285215,1,0,0:0:0:25:LR_Drum Kick Low.wav
358,192,285373,1,0,0:0:0:45:LR_Drum Hit Clap Sn.wav
153,192,285373,1,0,0:0:0:55:LR_Drum Rpd Fast .wav
460,192,285452,1,0,0:0:0:0:
153,192,285531,1,0,0:0:0:45:LR_Drum Hit Clap Sn.wav
256,192,285531,1,0,0:0:0:0:
51,192,285531,1,0,0:0:0:0:
358,192,285689,1,0,0:0:0:25:LR_Drum Kick Low.wav
460,192,285689,1,2,0:0:0:0:
51,192,285847,1,0,0:0:0:25:LR_Drum Kick Low.wav
256,192,286005,1,0,0:0:0:45:LR_Drum Hit Clap Sn.wav
153,192,286005,1,0,0:0:0:55:LR_Drum Rpd Fast .wav
460,192,286005,1,0,0:0:0:0:
51,192,286163,1,0,0:0:0:25:LR_Drum Kick Low.wav
153,192,286241,1,0,0:0:0:45:LR_Drum Hit Clap Sn.wav
256,192,286320,1,0,0:0:0:100:LR_Drum Rpd.wav
460,192,286320,1,2,0:0:0:0:
358,192,286320,1,0,0:0:0:0:
153,192,286399,1,0,0:0:0:45:LR_Drum Hit Clap Sn.wav
51,192,286478,1,0,0:0:0:25:LR_Drum Kick Low.wav
358,192,286636,1,0,0:0:0:45:LR_Drum Hit Clap Sn.wav
256,192,286636,1,0,0:0:0:55:LR_Drum Rpd Fast .wav
460,192,286636,1,0,0:0:0:0:
153,192,286794,1,0,0:0:0:100:LR_Drum Rpd.wav
256,192,286873,1,0,0:0:0:45:LR_Drum Hit Clap Sn.wav
460,192,286952,1,0,0:0:0:25:LR_Drum Kick Low.wav
51,192,286952,1,4,0:0:0:0:
358,192,286952,1,2,0:0:0:0:
153,192,287031,1,0,0:0:0:45:LR_Drum Hit Clap Sn.wav
256,192,287110,1,0,0:0:0:100:LR_Drum Rpd.wav
358,192,287110,1,0,0:0:0:0:
153,192,287189,1,0,0:0:0:0:
51,192,287268,1,0,0:0:0:45:LR_Drum Hit Clap Sn.wav
460,192,287268,1,0,0:0:0:55:LR_Drum Rpd Fast .wav
358,192,287347,1,0,0:0:0:0:
51,192,287426,1,0,0:0:0:25:LR_Drum Kick Low.wav
153,192,287426,1,4,0:0:0:0:
460,192,287426,1,0,0:0:0:0:
256,192,287505,1,0,0:0:0:45:LR_Drum Hit Clap Sn.wav
358,192,287584,1,0,0:0:0:100:LR_Drum Rpd.wav
51,192,287584,1,2,0:0:0:0:
256,192,287663,1,0,0:0:0:45:LR_Drum Hit Clap Sn.wav
153,192,287741,1,0,0:0:0:45:LR_Drum Hit Clap Sn.wav
460,192,287741,1,0,0:0:0:55:LR_Drum Rpd Fast .wav
51,192,287820,1,0,0:0:0:0:
153,192,287899,1,0,0:0:0:100:LR_Drum Rpd.wav
256,192,287899,1,0,0:0:0:0:
358,192,287978,1,0,0:0:0:45:LR_Drum Hit Clap Sn.wav
460,192,288057,1,0,0:0:0:25:LR_Drum Kick Low.wav
51,192,288057,1,0,0:0:0:100:LR_Drum Rpd.wav
153,192,288057,1,4,0:0:0:0:
256,192,288215,1,0,0:0:0:100:LR_Drum Rpd.wav
460,192,288373,1,0,0:0:0:25:LR_Drum Kick Low.wav
51,192,288373,1,0,0:0:0:0:
358,192,288452,1,0,0:0:0:0:
256,192,288531,1,0,0:0:0:45:LR_Drum Hit Clap Sn.wav
153,192,288531,1,0,0:0:0:55:LR_Drum Rpd Fast .wav
51,192,288531,1,4,0:0:0:0:
358,192,288689,1,0,0:0:0:100:LR_Drum Rpd.wav
460,192,288847,1,0,0:0:0:25:LR_Drum Kick Low.wav
256,192,288847,1,2,0:0:0:0:
51,192,288847,1,0,0:0:0:0:
153,192,289005,1,0,0:0:0:25:LR_Drum Kick Low.wav
460,192,289005,1,0,0:0:0:0:
358,192,289005,1,0,0:0:0:0:
51,192,289163,1,0,0:0:0:55:LR_Drum Rpd Fast .wav
358,192,289163,1,0,0:0:0:0:
256,192,289163,1,0,0:0:0:0:
51,192,289320,1,0,0:0:0:55:LR_Drum Rpd Fast .wav
358,192,289320,1,0,0:0:0:0:
153,192,289320,1,0,0:0:0:0:
460,192,289478,1,0,0:0:0:25:LR_Drum Kick Low.wav
51,192,289478,1,2,0:0:0:0:
256,192,289478,1,4,0:0:0:0:
153,192,289478,1,0,0:0:0:0:
358,192,289636,1,0,0:0:0:100:LR_Drum Rpd.wav
153,192,289794,1,0,0:0:0:45:LR_Drum Hit Clap Sn.wav
51,192,289794,1,0,0:0:0:55:LR_Drum Rpd Fast .wav
256,192,289952,1,0,0:0:0:100:LR_Drum Rpd.wav
358,192,290031,1,0,0:0:0:45:LR_Drum Hit Clap Sn.wav
51,192,290110,1,0,0:0:0:25:LR_Drum Kick Low.wav
460,192,290110,1,2,0:0:0:0:
358,192,290189,1,0,0:0:0:45:LR_Drum Hit Clap Sn.wav
153,192,290268,1,0,0:0:0:25:LR_Drum Kick Low.wav
256,192,290268,1,0,0:0:0:0:
51,192,290347,1,0,0:0:0:0:
256,192,290426,1,0,0:0:0:45:LR_Drum Hit Clap Sn.wav
358,192,290426,1,0,0:0:0:55:LR_Drum Rpd Fast .wav
153,192,290505,1,0,0:0:0:45:LR_Drum Hit Clap Sn.wav
460,192,290584,1,0,0:0:0:25:LR_Drum Kick Low.wav
51,192,290584,1,0,0:0:0:0:
358,192,290584,1,0,0:0:0:0:
256,192,290741,1,0,0:0:0:100:LR_Drum Rpd.wav
153,192,290741,1,2,0:0:0:0:
358,192,290899,1,0,0:0:0:25:LR_Drum Kick Low.wav
51,192,291057,1,0,0:0:0:45:LR_Drum Hit Clap Sn.wav
460,192,291057,1,0,0:0:0:55:LR_Drum Rpd Fast .wav
153,192,291136,1,0,0:0:0:45:LR_Drum Hit Clap Sn.wav
358,192,291136,1,0,0:0:0:0:
256,192,291215,1,0,0:0:0:45:LR_Drum Hit Clap Sn.wav
358,192,291294,1,0,0:0:0:45:LR_Drum Hit Clap Sn.wav
153,192,291294,1,0,0:0:0:0:
460,192,291373,1,0,0:0:0:25:LR_Drum Kick Low.wav
256,192,291373,1,2,0:0:0:0:
51,192,291373,1,0,0:0:0:0:
153,192,291531,1,0,0:0:0:25:LR_Drum Kick Low.wav
256,192,291689,1,0,0:0:0:45:LR_Drum Hit Clap Sn.wav
460,192,291689,1,0,0:0:0:55:LR_Drum Rpd Fast .wav
358,192,291847,1,0,0:0:0:100:LR_Drum Rpd.wav
256,192,292005,1,0,0:0:0:25:LR_Drum Kick Low.wav
51,192,292005,1,4,0:0:0:0:
460,192,292005,1,2,0:0:0:0:
153,192,292163,1,0,0:0:0:100:LR_Drum Rpd.wav
358,192,292163,1,0,0:0:0:0:
51,192,292320,1,0,0:0:0:45:LR_Drum Hit Clap Sn.wav
460,192,292320,1,0,0:0:0:55:LR_Drum Rpd Fast .wav
256,192,292320,1,0,0:0:0:0:
460,192,292478,1,0,0:0:0:25:LR_Drum Kick Low.wav
153,192,292478,1,0,0:0:0:0:
358,192,292636,1,0,0:0:0:100:LR_Drum Rpd.wav
51,192,292636,1,2,0:0:0:0:
153,192,292715,1,0,0:0:0:45:LR_Drum Hit Clap Sn.wav
256,192,292794,1,0,0:0:0:45:LR_Drum Hit Clap Sn.wav
460,192,292794,1,0,0:0:0:55:LR_Drum Rpd Fast .wav
358,192,292873,1,0,0:0:0:0:
256,192,292952,1,0,0:0:0:100:LR_Drum Rpd.wav
153,192,292952,1,0,0:0:0:0:
358,192,293031,1,0,0:0:0:45:LR_Drum Hit Clap Sn.wav
460,192,293110,1,0,0:0:0:25:LR_Drum Kick Low.wav
51,192,293110,1,0,0:0:0:100:LR_Drum Rpd.wav
153,192,293110,1,0,0:0:0:0:
256,192,293268,1,2,0:0:0:0:
153,192,293426,1,0,0:0:0:25:LR_Drum Kick Low.wav
358,192,293426,1,0,0:0:0:0:
51,192,293426,1,0,0:0:0:0:
460,192,293584,1,0,0:0:0:45:LR_Drum Hit Clap Sn.wav
256,192,293584,1,0,0:0:0:55:LR_Drum Rpd Fast .wav
358,192,293741,1,0,0:0:0:100:LR_Drum Rpd.wav
153,192,293741,1,0,0:0:0:0:
460,192,293899,1,0,0:0:0:25:LR_Drum Kick Low.wav
256,192,293899,1,2,0:0:0:0:
51,192,293899,1,0,0:0:0:0:
153,192,294057,1,0,0:0:0:25:LR_Drum Kick Low.wav
358,192,294057,1,0,0:0:0:0:
51,192,294057,1,0,0:0:0:0:
460,192,294215,1,0,0:0:0:100:LR_Drum Rpd.wav
256,192,294215,1,2,0:0:0:0:
153,192,294215,1,0,0:0:0:0:
358,192,294373,1,0,0:0:0:45:LR_Drum Hit Clap Sn.wav
51,192,294373,1,0,0:0:0:0:
256,192,294373,1,0,0:0:0:0:
460,192,294531,1,0,0:0:0:25:LR_Drum Kick Low.wav
153,192,294531,1,2,0:0:0:0:
358,192,294531,1,4,0:0:0:0:
51,192,294531,1,0,0:0:0:0:
256,192,294689,1,0,0:0:0:100:LR_Drum Rpd.wav
153,192,294847,1,0,0:0:0:45:LR_Drum Hit Clap Sn.wav
460,192,294847,1,0,0:0:0:55:LR_Drum Rpd Fast .wav
51,192,294847,1,0,0:0:0:0:
358,192,294926,1,0,0:0:0:0:
256,192,295005,1,0,0:0:0:100:LR_Drum Rpd.wav
153,192,295005,1,0,0:0:0:0:
358,192,295084,1,0,0:0:0:45:LR_Drum Hit Clap Sn.wav
153,192,295163,1,0,0:0:0:25:LR_Drum Kick Low.wav
460,192,295163,1,2,0:0:0:0:
51,192,295163,1,0,0:0:0:0:
256,192,295241,1,0,0:0:0:45:LR_Drum Hit Clap Sn.wav
358,192,295320,1,0,0:0:0:25:LR_Drum Kick Low.wav
153,192,295320,1,0,0:0:0:0:
460,192,295399,1,0,0:0:0:0:
256,192,295478,1,0,0:0:0:45:LR_Drum Hit Clap Sn.wav
51,192,295478,1,0,0:0:0:55:LR_Drum Rpd Fast .wav
358,192,295557,1,0,0:0:0:0:
153,192,295636,1,0,0:0:0:100:LR_Drum Rpd.wav
460,192,295636,1,0,0:0:0:0:
51,192,295636,1,0,0:0:0:0:
256,192,295794,1,0,0:0:0:25:LR_Drum Kick Low.wav
358,192,295794,1,2,0:0:0:0:
153,192,295952,1,0,0:0:0:25:LR_Drum Kick Low.wav
358,192,295952,1,0,0:0:0:0:
51,192,296110,1,0,0:0:0:0:
256,192,296110,1,0,0:0:0:45:LR_Drum Hit Clap Sn.wav
460,192,296110,1,0,0:0:0:55:LR_Drum Rpd Fast .wav
153,192,296268,1,0,0:0:0:25:LR_Drum Kick Low.wav
460,192,296268,1,0,0:0:0:0:
51,192,296426,1,0,0:0:0:100:LR_Drum Rpd.wav
256,192,296426,1,2,0:0:0:0:
358,192,296426,1,0,0:0:0:0:
153,192,296663,1,0,0:0:0:100:LR_Drum Rpd.wav
256,192,296663,1,2,0:0:0:0:
460,192,296663,1,0,0:0:0:0:
460,192,296899,1,0,0:0:0:100:LR_Drum Rpd.wav
256,192,296899,1,2,0:0:0:0:
51,192,296899,1,0,0:0:0:0:
153,192,297057,1,0,0:0:0:25:LR_Drum Kick Low.wav
358,192,297057,1,4,0:0:0:0:
256,192,297057,1,2,0:0:0:0:
51,192,297215,1,0,0:0:0:100:LR_Drum Rpd.wav
460,192,297373,1,0,0:0:0:45:LR_Drum Hit Clap Sn.wav
153,192,297373,1,0,0:0:0:55:LR_Drum Rpd Fast .wav
256,192,297531,1,0,0:0:0:25:LR_Drum Kick Low.wav
358,192,297610,1,0,0:0:0:45:LR_Drum Hit Clap Sn.wav
51,192,297689,1,0,0:0:0:100:LR_Drum Rpd.wav
460,192,297689,1,2,0:0:0:0:
153,192,297768,1,0,0:0:0:45:LR_Drum Hit Clap Sn.wav
358,192,297847,1,0,0:0:0:45:LR_Drum Hit Clap Sn.wav
256,192,297847,1,0,0:0:0:55:LR_Drum Rpd Fast .wav
51,192,298005,1,0,0:0:0:100:LR_Drum Rpd.wav
153,192,298005,1,0,0:0:0:0:
256,192,298084,1,0,0:0:0:45:LR_Drum Hit Clap Sn.wav
358,192,298163,1,0,0:0:0:25:LR_Drum Kick Low.wav
460,192,298163,1,4,0:0:0:0:
51,192,298163,1,0,0:0:0:0:
256,192,298320,1,2,0:0:0:0:
153,192,298478,1,0,0:0:0:25:LR_Drum Kick Low.wav
358,192,298478,1,4,0:0:0:0:
51,192,298478,1,0,0:0:0:0:
460,192,298636,1,0,0:0:0:45:LR_Drum Hit Clap Sn.wav
256,192,298636,1,0,0:0:0:55:LR_Drum Rpd Fast .wav
153,192,298715,1,0,0:0:0:0:
51,192,298794,1,0,0:0:0:100:LR_Drum Rpd.wav
358,192,298794,1,0,0:0:0:0:
153,192,298873,1,0,0:0:0:45:LR_Drum Hit Clap Sn.wav
256,192,298952,1,0,0:0:0:25:LR_Drum Kick Low.wav
358,192,298952,1,2,0:0:0:0:
460,192,299031,1,0,0:0:0:45:LR_Drum Hit Clap Sn.wav
153,192,299110,1,0,0:0:0:25:LR_Drum Kick Low.wav
51,192,299110,1,0,0:0:0:0:
256,192,299189,1,0,0:0:0:45:LR_Drum Hit Clap Sn.wav
460,192,299268,1,0,0:0:0:45:LR_Drum Hit Clap Sn.wav
358,192,299268,1,0,0:0:0:0:
153,192,299373,1,0,0:0:0:55:LR_Drum Rpd Fast .wav
51,192,299373,1,0,0:0:0:0:
256,192,299478,1,0,0:0:0:45:LR_Drum Hit Clap Sn.wav
358,192,299478,1,0,0:0:0:0:
153,192,299584,1,0,0:0:0:25:LR_Drum Kick Low.wav
51,192,299584,1,2,0:0:0:0:
460,192,299584,1,4,0:0:0:0:
358,192,299663,1,0,0:0:0:45:LR_Drum Hit Clap Sn.wav
256,192,299741,1,0,0:0:0:100:LR_Drum Rpd.wav
358,192,299899,1,0,0:0:0:45:LR_Drum Hit Clap Sn.wav
51,192,299899,1,0,0:0:0:55:LR_Drum Rpd Fast .wav
153,192,300057,1,0,0:0:0:100:LR_Drum Rpd.wav
460,192,300057,1,2,0:0:0:0:
256,192,300136,1,0,0:0:0:45:LR_Drum Hit Clap Sn.wav
51,192,300215,1,0,0:0:0:25:LR_Drum Kick Low.wav
358,192,300215,1,0,0:0:0:0:
153,192,300294,1,0,0:0:0:45:LR_Drum Hit Clap Sn.wav
256,192,300373,1,0,0:0:0:25:LR_Drum Kick Low.wav
460,192,300373,1,0,0:0:0:0:
358,192,300452,1,0,0:0:0:0:
153,192,300531,1,0,0:0:0:55:LR_Drum Rpd Fast .wav
51,192,300531,1,2,0:0:0:0:
256,192,300610,1,0,0:0:0:0:
460,192,300689,1,0,0:0:0:25:LR_Drum Kick Low.wav
358,192,300689,1,0,0:0:0:0:
153,192,300689,1,0,0:0:0:0:
51,192,300847,1,0,0:0:0:100:LR_Drum Rpd.wav
256,192,300847,1,2,0:0:0:0:
153,192,301005,1,0,0:0:0:25:LR_Drum Kick Low.wav
358,192,301123,1,0,0:0:0:0:
460,192,301163,1,0,0:0:0:45:LR_Drum Hit Clap Sn.wav
256,192,301163,1,0,0:0:0:55:LR_Drum Rpd Fast .wav
153,192,301241,1,0,0:0:0:0:
51,192,301320,1,0,0:0:0:100:LR_Drum Rpd.wav
256,192,301399,1,0,0:0:0:45:LR_Drum Hit Clap Sn.wav
460,192,301478,1,0,0:0:0:25:LR_Drum Kick Low.wav
153,192,301478,1,2,0:0:0:0:
358,192,301478,1,0,0:0:0:0:
51,192,301636,1,0,0:0:0:25:LR_Drum Kick Low.wav
256,192,301636,1,0,0:0:0:0:
358,192,301636,1,0,0:0:0:0:
460,192,301794,1,0,0:0:0:45:LR_Drum Hit Clap Sn.wav
153,192,301794,1,0,0:0:0:55:LR_Drum Rpd Fast .wav
256,192,301794,1,2,0:0:0:0:
153,192,301952,1,0,0:0:0:100:LR_Drum Rpd.wav
358,192,301952,1,0,0:0:0:0:
51,192,301952,1,0,0:0:0:0:
256,192,302110,1,0,0:0:0:25:LR_Drum Kick Low.wav
460,192,302110,1,4,0:0:0:0:
51,192,302110,1,2,0:0:0:0:
358,192,302110,1,0,0:0:0:0:
153,192,302268,1,0,0:0:0:100:LR_Drum Rpd.wav
460,192,302426,1,0,0:0:0:45:LR_Drum Hit Clap Sn.wav
256,192,302426,1,0,0:0:0:55:LR_Drum Rpd Fast .wav
153,192,302584,1,0,0:0:0:25:LR_Drum Kick Low.wav
256,192,302663,1,0,0:0:0:45:LR_Drum Hit Clap Sn.wav
51,192,302741,1,0,0:0:0:100:LR_Drum Rpd.wav
460,192,302741,1,2,0:0:0:0:
358,192,302741,1,4,0:0:0:0:
153,192,302820,1,0,0:0:0:45:LR_Drum Hit Clap Sn.wav
256,192,302899,1,0,0:0:0:45:LR_Drum Hit Clap Sn.wav
358,192,302899,1,0,0:0:0:55:LR_Drum Rpd Fast .wav
153,192,302978,1,0,0:0:0:0:
51,192,303057,1,0,0:0:0:100:LR_Drum Rpd.wav
460,192,303057,1,0,0:0:0:0:
153,192,303136,1,0,0:0:0:45:LR_Drum Hit Clap Sn.wav
358,192,303136,1,0,0:0:0:0:
256,192,303215,1,0,0:0:0:25:LR_Drum Kick Low.wav
358,192,303294,1,0,0:0:0:45:LR_Drum Hit Clap Sn.wav
153,192,303294,1,0,0:0:0:0:
256,192,303373,128,0,304636:0:0:0:45:LR_Drum Hit Clap Sn.wav
460,192,303373,1,0,0:0:0:25:LR_Drum Kick Low.wav
51,192,303373,1,0,0:0:0:0:
358,192,303452,1,0,0:0:0:45:LR_Drum Hit Clap Sn.wav
153,192,303531,1,0,0:0:0:45:LR_Drum Hit Clap Sn.wav
51,192,303610,1,0,0:0:0:45:LR_Drum Hit Clap Sn.wav
358,192,303689,1,0,0:0:0:45:LR_Drum Hit Clap Sn.wav
460,192,303689,1,0,0:0:0:25:LR_Drum Kick Low.wav
153,192,303768,1,0,0:0:0:45:LR_Drum Hit Clap Sn.wav
51,192,303847,1,0,0:0:0:45:LR_Drum Hit Clap Sn.wav
153,192,303926,1,0,0:0:0:45:LR_Drum Hit Clap Sn.wav
460,192,304005,1,0,0:0:0:25:LR_Drum Kick Low.wav
358,192,304005,1,0,0:0:0:30:LR_RevCyRDW.wav
51,192,304084,1,0,0:0:0:70:LR_Tom Hit 2.wav
153,192,304163,1,0,0:0:0:70:LR_Tom Hit 2.wav
358,192,304241,1,0,0:0:0:70:LR_Tom Hit 2.wav
51,192,304320,1,0,0:0:0:25:LR_Drum Kick Low.wav
460,192,304320,1,0,0:0:0:70:LR_Tom Hit 3.wav
358,192,304426,1,0,0:0:0:70:LR_Tom Hit 3.wav
153,192,304531,1,0,0:0:0:70:LR_Tom Hit 3.wav
51,192,304636,1,0,0:0:0:30:LR_Drum Kick Low.wav
358,192,304636,1,0,0:0:0:60:crash.wav
460,192,304636,1,4,1:0:0:0:
153,192,304794,1,0,0:0:0:100:LR_Drum Rpd.wav
358,192,304794,1,0,0:0:0:0:
256,192,304952,1,0,0:0:0:60:LR_Drum Hit Clap Sn.wav
51,192,304952,1,0,0:0:0:55:LR_Drum Rpd Fast .wav
460,192,305110,1,0,0:0:0:100:LR_Drum Rpd.wav
51,192,305110,1,2,0:0:0:0:
153,192,305110,1,0,0:0:0:0:
358,192,305189,1,0,0:0:0:45:LR_Drum Hit Clap Sn.wav
256,192,305268,1,0,0:0:0:25:LR_Drum Kick Low.wav
153,192,305347,1,0,0:0:0:45:LR_Drum Hit Clap Sn.wav
51,192,305426,1,0,0:0:0:25:LR_Drum Kick Low.wav
460,192,305426,1,0,0:0:0:0:
153,192,305584,1,0,0:0:0:60:LR_Drum Hit Clap Sn.wav
358,192,305584,1,0,0:0:0:55:LR_Drum Rpd Fast .wav
256,192,305741,1,0,0:0:0:25:LR_Drum Kick Low.wav
51,192,305741,1,0,0:0:0:0:
460,192,305899,1,0,0:0:0:100:LR_Drum Rpd.wav
153,192,305899,1,2,0:0:0:0:
358,192,305899,1,0,0:0:0:0:
51,192,306057,1,0,0:0:0:25:LR_Drum Kick Low.wav
256,192,306057,1,0,0:0:0:0:
153,192,306215,1,0,0:0:0:60:LR_Drum Hit Clap Sn.wav
358,192,306215,1,0,0:0:0:55:LR_Drum Rpd Fast .wav
51,192,306373,1,0,0:0:0:100:LR_Drum Rpd.wav
358,192,306373,1,2,0:0:0:0:
460,192,306373,1,0,0:0:0:0:
153,192,306452,1,0,0:0:0:45:LR_Drum Hit Clap Sn.wav
256,192,306531,1,0,0:0:0:25:LR_Drum Kick Low.wav
358,192,306610,1,0,0:0:0:45:LR_Drum Hit Clap Sn.wav
460,192,306689,1,0,0:0:0:25:LR_Drum Kick Low.wav
153,192,306689,1,0,0:0:0:0:
51,192,306847,1,0,0:0:0:60:LR_Drum Hit Clap Sn.wav
256,192,306847,1,0,0:0:0:55:LR_Drum Rpd Fast .wav
358,192,307005,1,0,0:0:0:100:LR_Drum Rpd.wav
153,192,307005,1,0,0:0:0:0:
256,192,307163,1,0,0:0:0:25:LR_Drum Kick Low.wav
460,192,307163,1,2,0:0:0:0:
51,192,307163,1,4,0:0:0:0:
153,192,307320,1,0,0:0:0:100:LR_Drum Rpd.wav
460,192,307478,1,0,0:0:0:60:LR_Drum Hit Clap Sn.wav
358,192,307478,1,0,0:0:0:55:LR_Drum Rpd Fast .wav
256,192,307636,1,0,0:0:0:25:LR_Drum Kick Low.wav
153,192,307715,1,0,0:0:0:45:LR_Drum Hit Clap Sn.wav
51,192,307794,1,0,0:0:0:100:LR_Drum Rpd.wav
358,192,307794,1,0,0:0:0:0:
153,192,307873,1,0,0:0:0:45:LR_Drum Hit Clap Sn.wav
256,192,307952,1,0,0:0:0:60:LR_Drum Hit Clap Sn.wav
460,192,307952,1,0,0:0:0:55:LR_Drum Rpd Fast .wav
358,192,308031,1,0,0:0:0:0:
153,192,308110,1,0,0:0:0:25:LR_Drum Kick Low.wav
51,192,308110,1,0,0:0:0:0:
256,192,308189,1,0,0:0:0:45:LR_Drum Hit Clap Sn.wav
358,192,308268,1,0,0:0:0:100:LR_Drum Rpd.wav
153,192,308268,1,0,0:0:0:0:
460,192,308347,1,0,0:0:0:45:LR_Drum Hit Clap Sn.wav
51,192,308426,1,0,0:0:0:100:LR_Drum Rpd.wav
256,192,308426,1,2,0:0:0:0:
358,192,308426,1,0,0:0:0:0:
460,192,308584,1,0,0:0:0:25:LR_Drum Kick Low.wav
153,192,308584,1,0,0:0:0:0:
358,192,308663,1,0,0:0:0:0:
256,192,308741,1,0,0:0:0:60:LR_Drum Hit Clap Sn.wav
51,192,308741,1,0,0:0:0:55:LR_Drum Rpd Fast .wav
358,192,308820,1,0,0:0:0:0:
153,192,308899,1,0,0:0:0:100:LR_Drum Rpd.wav
460,192,308899,1,0,0:0:0:0:
256,192,308978,1,0,0:0:0:45:LR_Drum Hit Clap Sn.wav
51,192,309057,1,0,0:0:0:25:LR_Drum Kick Low.wav
358,192,309057,1,2,0:0:0:0:
460,192,309057,1,0,0:0:0:0:
256,192,309136,1,0,0:0:0:60:LR_Drum Hit Clap Sn.wav
460,192,309215,1,0,0:0:0:60:LR_Drum Hit Clap Sn.wav
153,192,309215,1,0,0:0:0:25:LR_Drum Kick Low.wav
358,192,309294,1,0,0:0:0:0:
256,192,309373,1,0,0:0:0:100:LR_Drum Rpd.wav
51,192,309373,1,0,0:0:0:0:
153,192,309452,1,0,0:0:0:45:LR_Drum Hit Clap Sn.wav
256,192,309531,1,0,0:0:0:100:LR_Drum Rpd.wav
358,192,309531,1,0,0:0:0:0:
153,192,309610,1,0,0:0:0:45:LR_Drum Hit Clap Sn.wav
51,192,309689,1,0,0:0:0:25:LR_Drum Kick Low.wav
460,192,309689,1,4,0:0:0:0:
358,192,309689,1,2,0:0:0:0:
51,192,309847,1,0,0:0:0:100:LR_Drum Rpd.wav
256,192,309847,1,0,0:0:0:0:
460,192,310005,1,0,0:0:0:60:LR_Drum Hit Clap Sn.wav
153,192,310005,1,0,0:0:0:55:LR_Drum Rpd Fast .wav
358,192,310163,1,0,0:0:0:100:LR_Drum Rpd.wav
51,192,310163,1,2,0:0:0:0:
256,192,310163,1,0,0:0:0:0:
153,192,310241,1,0,0:0:0:45:LR_Drum Hit Clap Sn.wav
256,192,310320,1,0,0:0:0:25:LR_Drum Kick Low.wav
358,192,310399,1,0,0:0:0:45:LR_Drum Hit Clap Sn.wav
460,192,310478,1,0,0:0:0:25:LR_Drum Kick Low.wav
153,192,310478,1,0,0:0:0:0:
51,192,310636,1,0,0:0:0:60:LR_Drum Hit Clap Sn.wav
358,192,310636,1,0,0:0:0:55:LR_Drum Rpd Fast .wav
256,192,310794,1,0,0:0:0:100:LR_Drum Rpd.wav
460,192,310794,1,0,0:0:0:0:
153,192,310952,1,0,0:0:0:25:LR_Drum Kick Low.wav
51,192,310952,1,2,0:0:0:0:
358,192,310952,1,0,0:0:0:0:
256,192,311110,1,0,0:0:0:25:LR_Drum Kick Low.wav
460,192,311110,1,0,0:0:0:0:
153,192,311189,1,0,0:0:0:0:
51,192,311268,1,0,0:0:0:60:LR_Drum Hit Clap Sn.wav
358,192,311268,1,0,0:0:0:55:LR_Drum Rpd Fast .wav
460,192,311347,1,0,0:0:0:0:
256,192,311426,1,0,0:0:0:25:LR_Drum Kick Low.wav
153,192,311426,1,0,0:0:0:0:
358,192,311505,1,0,0:0:0:45:LR_Drum Hit Clap Sn.wav
153,192,311584,1,0,0:0:0:100:LR_Drum Rpd.wav
51,192,311584,1,2,0:0:0:0:
460,192,311584,1,0,0:0:0:0:
256,192,311663,1,0,0:0:0:45:LR_Drum Hit Clap Sn.wav
358,192,311741,1,0,0:0:0:25:LR_Drum Kick Low.wav
460,192,311741,1,0,0:0:0:0:
256,192,311794,1,0,0:0:0:0:
153,192,311847,1,0,0:0:0:0:
460,192,311899,1,0,0:0:0:60:LR_Drum Hit Clap Sn.wav
358,192,311899,1,0,0:0:0:55:LR_Drum Rpd Fast .wav
51,192,311899,1,0,0:0:0:0:
153,192,312057,1,0,0:0:0:100:LR_Drum Rpd.wav
51,192,312215,1,0,0:0:0:25:LR_Drum Kick Low.wav
256,192,312215,1,2,0:0:0:0:
460,192,312215,1,4,0:0:0:0:
153,192,312373,1,0,0:0:0:100:LR_Drum Rpd.wav
358,192,312373,1,0,0:0:0:0:
460,192,312531,1,0,0:0:0:60:LR_Drum Hit Clap Sn.wav
51,192,312531,1,0,0:0:0:55:LR_Drum Rpd Fast .wav
153,192,312689,1,0,0:0:0:25:LR_Drum Kick Low.wav
358,192,312689,1,0,0:0:0:0:
460,192,312768,1,0,0:0:0:45:LR_Drum Hit Clap Sn.wav
51,192,312847,1,0,0:0:0:60:LR_Drum Hit Clap Sn.wav
256,192,312847,1,0,0:0:0:0:
358,192,312926,1,0,0:0:0:45:LR_Drum Hit Clap Sn.wav
153,192,313005,1,0,0:0:0:55:LR_Drum Rpd Fast .wav
460,192,313005,1,0,0:0:0:100:LR_Drum Rpd.wav
256,192,313084,1,0,0:0:0:0:
358,192,313163,1,0,0:0:0:100:LR_Drum Rpd.wav
51,192,313163,1,0,0:0:0:0:
153,192,313241,1,0,0:0:0:45:LR_Drum Hit Clap Sn.wav
256,192,313320,1,0,0:0:0:25:LR_Drum Kick Low.wav
460,192,313320,1,0,0:0:0:0:
153,192,313399,1,0,0:0:0:45:LR_Drum Hit Clap Sn.wav
51,192,313478,1,0,0:0:0:100:LR_Drum Rpd.wav
358,192,313478,1,4,0:0:0:0:
460,192,313478,1,2,0:0:0:0:
153,192,313636,1,0,0:0:0:25:LR_Drum Kick Low.wav
256,192,313636,1,0,0:0:0:0:
358,192,313715,1,0,0:0:0:0:
460,192,313794,1,0,0:0:0:60:LR_Drum Hit Clap Sn.wav
51,192,313794,1,0,0:0:0:55:LR_Drum Rpd Fast .wav
153,192,313873,1,0,0:0:0:0:
256,192,313952,1,0,0:0:0:100:LR_Drum Rpd.wav
358,192,313952,1,0,0:0:0:0:
153,192,314031,1,0,0:0:0:45:LR_Drum Hit Clap Sn.wav
51,192,314110,1,0,0:0:0:100:LR_Drum Rpd.wav
256,192,314110,1,2,0:0:0:0:
460,192,314110,1,0,0:0:0:0:
460,192,314347,1,0,0:0:0:100:LR_Drum Rpd.wav
256,192,314347,1,2,0:0:0:0:
51,192,314347,1,0,0:0:0:0:
51,192,314584,1,2,0:0:0:0:
256,192,314584,1,0,0:0:0:100:LR_Drum Rpd.wav
460,192,314584,1,0,0:0:0:0:
153,192,314741,1,0,0:0:0:25:LR_Drum Kick Low.wav
358,192,314741,1,2,0:0:0:0:
460,192,314741,1,4,0:0:0:0:
51,192,314899,1,0,0:0:0:100:LR_Drum Rpd.wav
256,192,314899,1,0,0:0:0:0:
153,192,315057,1,0,0:0:0:60:LR_Drum Hit Clap Sn.wav
358,192,315057,1,0,0:0:0:55:LR_Drum Rpd Fast .wav
460,192,315215,1,0,0:0:0:100:LR_Drum Rpd.wav
51,192,315215,1,2,0:0:0:0:
153,192,315215,1,0,0:0:0:0:
358,192,315294,1,0,0:0:0:45:LR_Drum Hit Clap Sn.wav
256,192,315373,1,0,0:0:0:25:LR_Drum Kick Low.wav
153,192,315452,1,0,0:0:0:45:LR_Drum Hit Clap Sn.wav
51,192,315531,1,0,0:0:0:25:LR_Drum Kick Low.wav
358,192,315531,1,0,0:0:0:0:
460,192,315689,1,0,0:0:0:60:LR_Drum Hit Clap Sn.wav
153,192,315689,1,0,0:0:0:55:LR_Drum Rpd Fast .wav
51,192,315847,1,0,0:0:0:25:LR_Drum Kick Low.wav
358,192,315847,1,0,0:0:0:0:
256,192,315926,1,0,0:0:0:45:LR_Drum Hit Clap Sn.wav
460,192,316005,1,0,0:0:0:100:LR_Drum Rpd.wav
153,192,316005,1,2,0:0:0:0:
51,192,316005,1,0,0:0:0:0:
358,192,316163,1,0,0:0:0:25:LR_Drum Kick Low.wav
51,192,316163,1,0,0:0:0:0:
460,192,316320,1,0,0:0:0:60:LR_Drum Hit Clap Sn.wav
153,192,316320,1,0,0:0:0:55:LR_Drum Rpd Fast .wav
51,192,316478,1,0,0:0:0:100:LR_Drum Rpd.wav
460,192,316478,1,2,0:0:0:0:
358,192,316478,1,0,0:0:0:0:
153,192,316557,1,0,0:0:0:45:LR_Drum Hit Clap Sn.wav
256,192,316636,1,0,0:0:0:25:LR_Drum Kick Low.wav
358,192,316715,1,0,0:0:0:45:LR_Drum Hit Clap Sn.wav
460,192,316794,1,0,0:0:0:25:LR_Drum Kick Low.wav
153,192,316794,1,0,0:0:0:0:
358,192,316952,1,0,0:0:0:60:LR_Drum Hit Clap Sn.wav
51,192,316952,1,0,0:0:0:55:LR_Drum Rpd Fast .wav
153,192,317110,1,0,0:0:0:100:LR_Drum Rpd.wav
460,192,317110,1,0,0:0:0:0:
256,192,317189,1,0,0:0:0:45:LR_Drum Hit Clap Sn.wav
51,192,317268,1,0,0:0:0:25:LR_Drum Kick Low.wav
460,192,317268,1,2,0:0:0:0:
358,192,317268,1,4,0:0:0:0:
153,192,317426,1,0,0:0:0:100:LR_Drum Rpd.wav
358,192,317426,1,0,0:0:0:0:
51,192,317584,1,0,0:0:0:60:LR_Drum Hit Clap Sn.wav
256,192,317584,1,0,0:0:0:55:LR_Drum Rpd Fast .wav
153,192,317741,1,0,0:0:0:25:LR_Drum Kick Low.wav
460,192,317741,1,0,0:0:0:0:
358,192,317820,1,0,0:0:0:45:LR_Drum Hit Clap Sn.wav
51,192,317899,1,0,0:0:0:100:LR_Drum Rpd.wav
256,192,317899,1,0,0:0:0:0:
153,192,317978,1,0,0:0:0:45:LR_Drum Hit Clap Sn.wav
358,192,318057,1,0,0:0:0:60:LR_Drum Hit Clap Sn.wav
256,192,318057,1,0,0:0:0:55:LR_Drum Rpd Fast .wav
460,192,318136,1,0,0:0:0:0:
51,192,318215,1,0,0:0:0:70:LR_Drum Rpd.wav
153,192,318215,1,0,0:0:0:0:
256,192,318294,1,0,0:0:0:45:LR_Drum Hit Clap Sn.wav
358,192,318373,1,0,0:0:0:25:LR_Drum Kick Low.wav
51,192,318373,1,0,0:0:0:0:
460,192,318452,1,0,0:0:0:45:LR_Drum Hit Clap Sn.wav
358,192,318531,1,0,0:0:0:45:LR_Drum Hit Clap Sn.wav
153,192,318531,1,0,0:0:0:25:LR_Drum Kick Low.wav
256,192,318531,1,2,0:0:0:0:
460,192,318610,1,0,0:0:0:55:LR_Drum Hit Clap Sn.wav
51,192,318689,1,0,0:0:0:55:LR_Drum Hit Clap Sn.wav
358,192,318689,1,0,0:0:0:0:
256,192,318768,1,0,0:0:0:55:LR_Drum Hit Clap Sn.wav
460,192,318847,1,0,0:0:0:45:LR_Drum Hit Clap Sn.wav
153,192,318847,1,0,0:0:0:25:LR_Drum Kick Low.wav
51,192,318926,1,0,0:0:0:55:LR_Drum Hit Clap Sn.wav
256,192,319005,1,0,0:0:0:55:LR_Drum Hit Clap Sn.wav
358,192,319005,1,0,0:0:0:0:
153,192,319084,1,0,0:0:0:55:LR_Drum Hit Clap Sn.wav
358,192,319163,1,0,0:0:0:25:LR_Drum Kick Low.wav
51,192,319163,1,0,0:0:0:70:LR_Tom Hit 2.wav
460,192,319163,1,2,0:0:0:0:
256,192,319320,1,0,0:0:0:0:
153,192,319399,1,0,0:0:0:0:
460,192,319478,1,0,0:0:0:25:LR_Drum Kick Low.wav
51,192,319478,1,0,0:0:0:0:
358,192,319557,1,0,0:0:0:0:
256,192,319636,1,0,0:0:0:0:
153,192,319715,1,0,0:0:0:0:
51,192,319794,5,0,0:0:0:25:LR_Drum Kick Low.wav
460,192,319794,1,4,0:0:0:0:
358,192,319794,1,2,0:0:0:0:
256,192,319952,1,0,0:0:0:45:LR_Drum Hit Clap Sn.wav
153,192,319952,1,0,0:0:0:0:
51,192,320110,1,0,0:0:0:25:LR_Drum Kick Low.wav
460,192,320110,1,0,0:0:0:0:
153,192,320189,1,0,0:0:0:100:LR_Drum Rpd.wav
256,192,320268,1,0,0:0:0:45:LR_Drum Hit Clap Sn.wav
358,192,320268,1,0,0:0:0:55:LR_Drum Rpd Fast .wav
51,192,320426,1,0,0:0:0:25:LR_Drum Kick Low.wav
460,192,320426,1,0,0:0:0:0:
153,192,320505,1,0,0:0:0:45:LR_Drum Hit Clap Sn.wav
358,192,320584,1,0,0:0:0:100:LR_Drum Rpd.wav
256,192,320584,1,0,0:0:0:0:
153,192,320663,1,0,0:0:0:0:
51,192,320741,1,0,0:0:0:45:LR_Drum Hit Clap Sn.wav
460,192,320741,1,0,0:0:0:55:LR_Drum Rpd Fast .wav
358,192,320820,1,0,0:0:0:0:
256,192,320899,1,0,0:0:0:100:LR_Drum Rpd.wav
51,192,320899,1,0,0:0:0:0:
358,192,320978,1,0,0:0:0:45:LR_Drum Hit Clap Sn.wav
153,192,320978,1,0,0:0:0:0:
256,192,321057,1,0,0:0:0:25:LR_Drum Kick Low.wav
460,192,321057,1,0,0:0:0:100:LR_Drum Rpd.wav
51,192,321057,1,4,0:0:0:0:
358,192,321215,5,0,0:0:0:45:LR_Drum Hit Clap Sn.wav
153,192,321215,1,0,0:0:0:55:LR_Drum Rpd Fast .wav
51,192,321373,1,0,0:0:0:25:LR_Drum Kick Low.wav
256,192,321373,1,0,0:0:0:0:
153,192,321452,1,0,0:0:0:45:LR_Drum Hit Clap Sn.wav
460,192,321452,1,0,0:0:0:0:
51,192,321531,1,0,0:0:0:100:LR_Drum Rpd.wav
358,192,321531,1,0,0:0:0:0:
256,192,321610,1,0,0:0:0:0:
51,192,321689,1,0,0:0:0:45:LR_Drum Hit Clap Sn.wav
358,192,321689,1,0,0:0:0:55:LR_Drum Rpd Fast .wav
153,192,321768,1,0,0:0:0:0:
460,192,321847,1,0,0:0:0:100:LR_Drum Rpd.wav
256,192,321847,1,0,0:0:0:0:
358,192,321926,1,0,0:0:0:0:
51,192,322005,1,0,0:0:0:45:LR_Drum Hit Clap Sn.wav
460,192,322005,1,0,0:0:0:55:LR_Drum Rpd Fast .wav
153,192,322084,1,0,0:0:0:0:
256,192,322163,1,0,0:0:0:100:LR_Drum Rpd.wav
358,192,322163,1,0,0:0:0:0:
153,192,322241,1,0,0:0:0:0:
51,192,322320,5,0,0:0:0:45:LR_Drum Hit Clap Sn.wav
460,192,322320,1,0,0:0:0:25:LR_Drum Kick Low.wav
256,192,322320,1,6,0:0:0:0:
358,192,322399,5,0,0:0:0:45:LR_Drum Hit Clap Sn.wav
153,192,322478,1,0,0:0:0:45:LR_Drum Hit Clap Sn.wav
460,192,322478,1,0,0:0:0:25:LR_Drum Kick Low.wav
51,192,322557,1,0,0:0:0:45:LR_Drum Hit Clap Sn.wav
358,192,322636,5,0,0:0:0:45:LR_Drum Hit Clap Sn.wav
460,192,322636,1,0,0:0:0:25:LR_Drum Kick Low.wav
256,192,322715,1,0,0:0:0:45:LR_Drum Hit Clap Sn.wav
51,192,322715,1,0,0:0:0:70:LR_Drum Rpd.wav
358,192,322794,1,0,0:0:0:45:LR_Drum Hit Clap Sn.wav
153,192,322794,1,0,0:0:0:25:LR_Drum Kick Low.wav
460,192,322873,1,0,0:0:0:45:LR_Drum Hit Clap Sn.wav
256,192,322873,1,0,0:0:0:70:LR_Drum Rpd.wav
153,192,322952,1,0,0:0:0:45:LR_Drum Hit Clap Sn.wav
358,192,322952,1,0,0:0:0:25:LR_Drum Kick Low.wav
51,192,323031,1,0,0:0:0:45:LR_Drum Hit Clap Sn.wav
256,192,323031,1,0,0:0:0:70:LR_Drum Rpd.wav
153,192,323110,1,0,0:0:0:45:LR_Drum Hit Clap Sn.wav
358,192,323110,1,0,0:0:0:25:LR_Drum Kick Low.wav
460,192,323189,1,0,0:0:0:45:LR_Drum Hit Clap Sn.wav
256,192,323189,1,0,0:0:0:70:LR_Drum Rpd.wav
153,192,323268,1,0,0:0:0:25:LR_Drum Kick Low.wav
51,192,323268,1,0,0:0:0:50:LR_Drum Rpd.wav
256,192,323347,1,0,0:0:0:45:LR_Drum Hit Clap Sn.wav
358,192,323426,1,0,0:0:0:25:LR_Drum Kick Low.wav
51,192,323426,1,0,0:0:0:50:LR_Drum Rpd.wav
460,192,323505,1,0,0:0:0:45:LR_Drum Hit Clap Sn.wav
358,192,323584,5,0,0:0:0:45:LR_Drum Hit Clap Sn.wav
153,192,323584,1,0,0:0:0:25:LR_Drum Kick Low.wav
256,192,323584,1,6,0:0:0:0:
460,192,323663,5,0,0:0:0:45:LR_Drum Hit Clap Sn.wav
51,192,323663,1,0,0:0:0:70:LR_Drum Rpd.wav
153,192,323741,1,0,0:0:0:45:LR_Drum Hit Clap Sn.wav
358,192,323741,1,0,0:0:0:25:LR_Drum Kick Low.wav
460,192,323820,1,0,0:0:0:45:LR_Drum Hit Clap Sn.wav
51,192,323820,1,0,0:0:0:70:LR_Drum Rpd.wav
153,192,323899,1,0,0:0:0:25:LR_Drum Kick Low.wav
358,192,323899,1,6,0:0:0:0:
256,192,323978,1,0,0:0:0:70:LR_Drum Rpd.wav
51,192,324057,1,0,0:0:0:45:LR_Drum Hit Clap Sn.wav
460,192,324057,1,0,0:0:0:25:LR_Drum Kick Low.wav
153,192,324136,1,0,0:0:0:45:LR_Drum Hit Clap Sn.wav
358,192,324136,1,0,0:0:0:70:LR_Drum Rpd.wav
460,192,324215,1,6,0:0:0:0:
51,192,324215,1,0,0:0:0:45:LR_Drum Hit Clap Sn.wav
256,192,324215,1,0,0:0:0:35:LR_RevCyRDW.wav
153,192,324294,1,0,0:0:0:45:LR_Drum Hit Clap Sn.wav
358,192,324294,1,0,0:0:0:70:LR_Drum Rpd.wav
256,192,324373,1,0,0:0:0:25:LR_Drum Kick Low.wav
460,192,324373,1,6,0:0:0:0:
153,192,324452,1,0,0:0:0:70:LR_Drum Rpd.wav
51,192,324531,1,0,0:0:0:45:LR_Drum Hit Clap Sn.wav
460,192,324531,1,6,0:0:0:0:
358,192,324584,1,2,0:0:0:0:
256,192,324636,1,2,0:0:0:0:
460,192,324689,1,0,0:0:0:45:LR_Drum Hit Clap Sn.wav
51,192,324689,1,6,0:0:0:0:
153,192,324741,1,2,0:0:0:0:
256,192,324794,1,2,0:0:0:0:
51,192,324847,128,6,329892:0:0:0:0:
358,192,324847,1,0,0:0:0:70:crash.wav
460,192,324847,128,4,327373:1:0:0:0:
153,192,325478,1,2,0:0:0:0:
256,192,326110,1,2,0:0:0:0:
358,192,327373,1,2,0:0:0:0:
460,192,328005,1,2,0:0:0:0:
358,192,328950,1,2,0:0:0:0:
256,192,329264,1,2,0:0:0:0:
460,192,329578,1,2,0:0:0:0:
256,192,329892,1,0,0:0:0:0:
153,192,329892,128,0,332418:0:0:0:0:
358,192,329911,1,0,0:0:0:0:
51,192,330207,1,0,0:0:0:0:
256,192,330523,1,0,0:0:0:0:
358,192,330839,1,0,0:0:0:0:
460,192,331155,1,0,0:0:0:0:
358,192,331470,1,2,0:0:0:0:
256,192,331628,1,2,0:0:0:0:
51,192,332378,1,0,0:0:0:0:
256,192,332418,128,0,333033:0:0:0:0:
460,192,332418,1,0,0:0:0:0:
358,192,332725,1,0,0:0:0:0:
153,192,333033,1,0,0:0:0:0:
256,192,333341,1,2,0:0:0:0:
153,192,333640,1,2,0:0:0:0:
51,192,333680,1,0,0:0:0:0:
460,192,333680,1,0,0:0:0:0:
256,192,333985,1,0,0:0:0:0:
358,192,334250,1,2,0:0:0:0:
153,192,334311,1,0,0:0:0:0:
256,192,334616,1,0,0:0:0:0:
51,192,334901,1,0,0:0:0:0:
460,192,334942,1,2,0:0:0:0:
256,192,334942,128,0,337482:0:0:0:0:
153,192,335257,1,0,0:0:0:0:
358,192,335573,1,2,0:0:0:0:
51,192,335573,1,0,0:0:0:0:
153,192,335889,1,0,0:0:0:0:
460,192,336205,1,2,0:0:0:0:
358,192,336205,1,0,0:0:0:0:
51,192,336495,1,2,0:0:0:0:
153,192,336809,1,2,0:0:0:0:
460,192,337123,1,2,0:0:0:0:
51,192,337417,1,0,0:0:0:0:
358,192,337482,1,2,0:0:0:0:
153,192,337482,128,0,338110:0:0:0:0:
460,192,338051,1,0,0:0:0:0:
256,192,338110,1,2,0:0:0:0:
358,192,338110,128,0,339995:0:0:0:0:
460,192,339052,1,2,0:0:0:0:
153,192,339052,1,0,0:0:0:0:
256,192,339366,1,2,0:0:0:0:
51,192,339366,1,0,0:0:0:0:
153,192,339680,1,2,0:0:0:0:
51,192,339680,1,0,0:0:0:0:
51,192,339955,1,0,0:0:0:0:
153,192,339995,1,2,0:0:0:0:
460,192,339995,128,0,342521:0:0:0:0:
256,192,340034,1,0,0:0:0:0:
51,192,340310,1,0,0:0:0:0:
153,192,340626,1,0,0:0:0:0:
256,192,340922,1,0,0:0:0:0:
358,192,340922,1,2,0:0:0:0:
51,192,341258,1,0,0:0:0:0:
153,192,341554,1,0,0:0:0:0:
358,192,341554,1,2,0:0:0:0:
256,192,341712,1,2,0:0:0:0:
51,192,341712,1,0,0:0:0:0:
153,192,342481,1,0,0:0:0:0:
51,192,342521,128,0,345047:0:0:0:0:
358,192,342521,1,2,0:0:0:0:
153,192,342837,1,2,0:0:0:0:
256,192,343152,1,2,0:0:0:0:
358,192,343468,1,2,0:0:0:0:
153,192,343784,1,0,0:0:0:25:LR_Chm Echo long.wav
460,192,343784,1,2,0:0:0:0:
460,192,344100,1,0,0:0:0:0:
358,192,344416,1,0,0:0:0:0:
256,192,344731,1,0,0:0:0:0:
358,192,345027,1,0,0:0:0:0:
153,192,345047,1,2,0:0:0:0:
460,192,345047,1,0,0:0:0:0:
256,192,345363,1,0,0:0:0:0:
358,192,345679,1,2,0:0:0:0:
153,192,345679,1,0,0:0:0:0:
51,192,345995,1,0,0:0:0:0:
256,192,346310,1,2,0:0:0:0:
460,192,346310,1,0,0:0:0:0:
153,192,347573,1,2,0:0:0:0:
256,192,347573,1,0,0:0:0:0:
358,192,347573,1,0,0:0:0:0:
460,192,348211,1,2,0:0:0:0:
256,192,348211,1,0,0:0:0:0:
51,192,348211,1,0,0:0:0:0:
256,192,349168,1,2,0:0:0:0:
153,192,349487,1,2,0:0:0:0:
358,192,349807,1,2,0:0:0:0:
256,192,350106,1,0,0:0:0:0:
51,192,350126,1,0,0:0:0:0:
460,192,350126,1,2,0:0:0:0:
153,192,350448,1,0,0:0:0:0:
256,192,350771,1,0,0:0:0:0:
358,192,351093,1,0,0:0:0:0:
460,192,351416,1,0,0:0:0:0:
358,192,351738,1,2,0:0:0:0:
256,192,351900,1,2,0:0:0:0:
153,192,352682,1,0,0:0:0:0:
460,192,352702,1,2,0:0:0:0:
51,192,352702,1,0,0:0:0:0:
153,192,353008,1,0,0:0:0:0:
256,192,353334,1,0,0:0:0:0:
358,192,353660,1,2,0:0:0:0:
153,192,353660,1,0,0:0:0:0:
256,192,353965,1,0,0:0:0:0:
51,192,353965,1,2,0:0:0:0:
460,192,354006,1,0,0:0:0:0:
153,192,354340,1,0,0:0:0:0:
358,192,354604,1,2,0:0:0:0:
256,192,354653,1,0,0:0:0:0:
153,192,355001,1,0,0:0:0:0:
256,192,355311,1,0,0:0:0:0:
51,192,355357,1,0,0:0:0:0:
460,192,355357,1,2,0:0:0:0:
153,192,355681,1,0,0:0:0:0:
358,192,356014,1,2,0:0:0:0:
51,192,356014,1,0,0:0:0:0:
256,192,356347,1,0,0:0:0:0:
460,192,356681,1,2,0:0:0:0:
153,192,356681,1,0,0:0:0:0:
51,192,356996,1,2,0:0:0:0:
256,192,356996,1,0,0:0:0:0:
153,192,357329,1,2,0:0:0:0:
358,192,357329,1,0,0:0:0:0:
256,192,357662,1,2,0:0:0:0:
460,192,357662,1,0,0:0:0:0:
153,192,357996,1,0,0:0:0:0:
51,192,358037,1,0,0:0:0:0:
358,192,358037,1,2,0:0:0:0:
358,192,358681,1,0,0:0:0:0:
460,192,358722,1,2,0:0:0:0:
153,192,358722,1,0,0:0:0:0:
460,192,359757,1,2,0:0:0:0:
256,192,359757,1,0,0:0:0:0:
358,192,360109,1,2,0:0:0:0:
153,192,360109,1,0,0:0:0:0:
51,192,360462,1,2,0:0:0:0:
256,192,360462,1,0,0:0:0:0:
153,192,360771,1,0,0:0:0:0:
256,192,360815,1,2,0:0:0:0:
358,192,360845,1,0,0:0:0:0:
460,192,360874,1,0,0:0:0:0:
51,192,361168,1,0,0:0:0:0:
153,192,361516,1,0,0:0:0:0:
460,192,361831,1,2,0:0:0:0:
256,192,361831,1,0,0:0:0:0:
358,192,362183,1,0,0:0:0:0:
460,192,362492,1,2,0:0:0:0:
153,192,362492,1,0,0:0:0:0:
358,192,362669,1,2,0:0:0:0:
51,192,362669,1,0,0:0:0:0:
256,192,363463,1,0,0:0:0:0:
51,192,363507,1,2,0:0:0:0:
460,192,363507,1,0,0:0:0:0:
51,192,363872,1,2,0:0:0:0:
153,192,363872,1,0,0:0:0:0:
256,192,364247,1,2,0:0:0:0:
153,192,364247,1,0,0:0:0:0:
358,192,364631,1,0,0:0:0:0:
256,192,364631,1,2,0:0:0:0:
51,192,365025,1,0,0:0:0:0:
460,192,365025,1,0,0:0:0:0:
358,192,365025,1,2,0:0:0:0:
460,192,365418,1,2,0:0:0:0:
256,192,365831,1,2,0:0:0:0:
153,192,366245,1,2,0:0:0:0:
51,192,366560,1,0,0:0:0:0:
256,192,366698,1,2,0:0:0:0:
358,192,366758,1,2,0:0:0:0:
460,192,366837,1,2,0:0:0:0:
51,192,367981,5,0,0:0:0:0:
153,192,368422,1,0,0:0:0:0:
256,192,368832,1,0,0:0:0:0:
358,192,369245,1,0,0:0:0:0:
460,192,369771,1,0,0:0:0:0:
51,192,370271,1,0,0:0:0:0:
153,192,370699,1,0,0:0:0:0:
256,192,371167,1,0,0:0:0:0:
358,192,371618,1,0,0:0:0:0:
256,192,372139,1,0,0:0:0:0:
460,192,372580,1,0,0:0:0:0:
51,192,373002,1,0,0:0:0:0:
153,192,373602,1,0,0:0:0:0:
256,192,374254,1,0,0:0:0:0:
358,192,374935,1,0,0:0:0:0:
153,192,375675,1,0,0:0:0:0:
358,192,376425,1,0,0:0:0:0:
256,192,377381,1,0,0:0:0:0:
358,192,377487,1,0,0:0:0:0:
460,192,377593,1,0,0:0:0:10:LR_Chm Echo long.wav
