osu file format v14

[General]
AudioFilename: xi - Happy End of the World.mp3
AudioLeadIn: 1825
PreviewTime: 81543
Countdown: 0
SampleSet: Soft
StackLeniency: 0.7
Mode: 3
LetterboxInBreaks: 0
SpecialStyle: 0
WidescreenStoryboard: 0

[Editor]
DistanceSpacing: 1.6
BeatDivisor: 16
GridSize: 8
TimelineZoom: 1.1

[Metadata]
Title:Happy End of the World
TitleUnicode:ハッピーエンドオブザワールド
Artist:xi
ArtistUnicode:xi
Creator:Blocko
Version:5K Collab Normal
Source:
Tags:agartha 100sec records marathon remillion cross fullerene- hellgert -kamikaze- ajeemaniz exusagi ijinjin squishykorean
BeatmapID:431988
BeatmapSetID:171880

[Difficulty]
HPDrainRate:7.2
CircleSize:5
OverallDifficulty:7.2
ApproachRate:7.5
SliderMultiplier:1.4
SliderTickRate:1

[Events]
//Background and Video events
0,0,"background.jpg",0,0
//Break Periods
//Storyboard Layer 0 (Background)
//Storyboard Layer 1 (Fail)
//Storyboard Layer 2 (Pass)
//Storyboard Layer 3 (Foreground)
//Storyboard Sound Samples

[TimingPoints]
706,315.789473684211,4,2,0,10,1,0
706,-125,4,2,0,10,0,0
20916,-111.111111111111,4,2,1,25,0,0
36074,-125,4,2,1,25,0,0
36706,-125,4,2,1,15,0,0
38600,-111.111111111111,4,2,1,30,0,0
41127,-100,4,2,1,35,0,0
76495,-125,4,2,1,35,0,0
77758,-125,4,2,1,20,0,0
79021,-111.111111111111,4,2,1,35,0,0
81548,-100,4,2,1,40,0,0
121969,-100,4,2,1,40,0,1
142100,-100,4,2,1,40,0,0
142179,-125,4,2,0,40,0,1
142811,-125,4,2,0,30,0,1
144706,-125,4,2,0,20,0,0
145969,-126.582278481013,4,2,0,20,0,0
147232,-126.582278481013,4,2,0,15,0,0
152284,-128.205128205128,4,2,0,14,0,0
155495,335.195530726257,4,2,0,14,1,0
155495,-120.481927710843,4,2,0,14,0,0
156479,333.333333333333,4,2,0,14,1,0
156479,-121.951219512195,4,2,0,14,0,0
157479,-121.951219512195,4,2,0,13,0,0
158167,348.837209302326,4,2,0,13,1,0
158167,-117.647058823529,4,2,0,13,0,0
160260,-119.047619047619,4,2,0,12,0,0
160936,352.941176470588,4,2,0,12,1,0
160936,-119.047619047619,4,2,0,12,0,0
161641,361.44578313253,4,2,0,12,1,0
161641,-116.279069767442,4,2,0,12,0,0
162002,-117.647058823529,4,2,0,12,0,0
162363,400,4,2,0,12,1,0
162363,-106.382978723404,4,2,0,12,0,0
162763,-107.52688172043,4,2,0,12,0,0
163163,315.789473684211,4,2,0,15,1,0
163163,-125,4,2,0,15,0,0
170741,-121.951219512195,4,2,0,18,0,0
172005,-119.047619047619,4,2,0,21,0,0
172320,-116.279069767442,4,2,0,24,0,0
172636,-113.636363636364,4,2,0,27,0,0
172794,-111.111111111111,4,2,0,30,0,0
172952,-108.695652173913,4,2,0,33,0,0
173031,-106.382978723404,4,2,0,36,0,0
173110,-104.166666666667,4,2,0,39,0,0
173189,-102.040816326531,4,2,0,42,0,0
173268,-100,4,2,1,45,0,0
180847,-100,4,2,1,30,0,0
182110,-100,4,2,1,45,0,0
182268,-80,4,2,1,45,0,0
182426,-113.636363636364,4,2,1,45,0,0
182741,-100,4,2,1,45,0,0
183373,-100,4,2,1,50,0,1
203584,-125,4,2,0,50,0,0
204215,-125,4,2,0,30,0,0
204847,-125,4,2,0,25,0,0
206110,-125,4,2,0,20,0,0
208636,-125,4,2,0,15,0,0
213689,-111.111111111111,4,2,1,25,0,0
218741,-125,4,2,1,25,0,0
219373,-125,4,2,1,20,0,0
221268,-111.111111111111,4,2,1,35,0,0
223794,-100,4,2,1,45,0,0
228847,-100,4,2,1,50,0,0
244005,-100,4,2,1,45,0,0
249057,-100,4,2,1,50,0,0
259163,-125,4,2,1,45,0,0
260426,-125,4,2,1,25,0,0
261689,-111.111111111111,4,2,1,40,0,0
264215,-100,4,2,1,50,0,1
284347,-100,4,2,1,50,0,0
284426,-100,4,2,1,50,0,1
304557,-100,4,2,1,50,0,0
304636,-100,4,2,1,50,0,1
324768,-100,4,2,1,50,0,0
324847,-125,4,2,0,80,0,1
325478,-125,4,2,0,30,0,1
327373,-125,4,2,0,20,0,0
328636,314.13612565445,4,2,0,20,1,0
328636,-126.582278481013,4,2,0,20,0,0
329892,315.789473684211,4,2,0,15,1,0
329892,-126.582278481013,4,2,0,15,0,0
332418,307.692307692308,4,2,0,14,1,0
332418,-129.87012987013,4,2,0,14,0,0
333341,333.333333333333,4,2,0,14,1,0
333341,-120.481927710843,4,2,0,14,0,0
333640,325.644504748982,4,2,0,14,1,0
333640,-123.456790123457,4,2,0,14,0,0
334942,315.789473684211,4,2,0,13,1,0
334942,-128.205128205128,4,2,0,13,0,0
336205,309.677419354839,4,2,0,13,1,0
336205,-129.87012987013,4,2,0,13,0,0
336495,314.13612565445,4,2,0,13,1,0
336495,-128.205128205128,4,2,0,13,0,0
337482,314.13612565445,4,2,0,12,1,0
337482,-128.205128205128,4,2,0,12,0,0
338738,-129.87012987013,4,2,0,12,0,0
339995,315.789473684211,4,2,0,11,1,0
339995,-128.205128205128,4,2,0,11,0,0
341258,-129.87012987013,4,2,0,11,0,0
345047,-129.87012987013,4,2,0,10,0,0
347573,319.148936170213,4,2,0,10,1,0
347573,-129.87012987013,4,2,0,10,0,0
350126,322.58064516129,4,2,0,10,1,0
350126,-128.205128205128,4,2,0,10,0,0
351416,-129.87012987013,4,2,0,10,0,0
352061,310.880829015544,4,2,0,10,1,0
352061,-133.333333333333,4,2,0,10,0,0
352682,326.086956521739,4,2,0,10,1,0
352682,-128.205128205128,4,2,0,10,0,0
353965,333.333333333333,4,2,0,10,1,0
353965,-125,4,2,0,10,0,0
354604,397.350993377483,4,2,0,10,1,0
354604,-105.263157894737,4,2,0,10,0,0
355001,310.880829015544,4,2,0,10,1,0
355001,-135.135135135135,4,2,0,10,0,0
355311,370.37037037037,4,2,0,10,1,0
355311,-113.636363636364,4,2,0,10,0,0
355681,333.333333333333,4,2,0,10,1,0
355681,-126.582278481013,4,2,0,10,0,0
356681,315.789473684211,4,2,0,10,1,0
356681,-133.333333333333,4,2,0,10,0,0
356996,333.333333333333,4,2,0,10,1,0
356996,-126.582278481013,4,2,0,10,0,0
358329,315.789473684211,4,2,0,10,1,0
358329,-133.333333333333,4,2,0,10,0,0
358681,333.333333333333,4,2,0,10,1,0
358681,-126.582278481013,4,2,0,10,0,0
359347,410.958904109589,4,2,0,10,1,0
359347,-103.092783505155,4,2,0,10,0,0
359757,352.941176470588,4,2,0,10,1,0
359757,-120.481927710843,4,2,0,10,0,0
361516,315.789473684211,4,2,0,10,1,0
361516,-135.135135135135,4,2,0,10,0,0
361831,352.941176470588,4,2,0,10,1,0
361831,-120.481927710843,4,2,0,10,0,0
363507,365.853658536585,4,2,0,10,1,0
363507,-116.279069767442,4,2,0,10,0,0
363872,375,4,2,0,10,1,0
363872,-113.636363636364,4,2,0,10,0,0
364247,384.615384615385,4,2,0,10,1,0
364247,-111.111111111111,4,2,0,10,0,0
364631,394.736842105263,4,2,0,10,1,0
364631,-107.52688172043,4,2,0,10,0,0
365025,393.44262295082,4,2,0,10,1,0
365025,-108.695652173913,4,2,0,10,0,0
365418,413.793103448276,4,2,0,10,1,0
365418,-103.092783505155,4,2,0,10,0,0
366245,315.789473684211,4,2,0,10,1,0
366245,-135.135135135135,4,2,0,10,0,0
367981,441.176470588235,4,2,0,9,1,0
367981,-97.0873786407767,4,2,0,9,0,0
368422,410.958904109589,4,2,0,9,1,0
368422,-104.166666666667,4,2,0,9,0,0
368832,413.793103448276,4,2,0,9,1,0
368832,-104.166666666667,4,2,0,9,0,0
369245,526.315789473684,4,2,0,9,1,0
369245,-81.9672131147541,4,2,0,9,0,0
369771,500,4,2,0,9,1,0
369771,-86.2068965517241,4,2,0,9,0,0
370271,428.571428571429,4,2,0,8,1,0
370271,-101.010101010101,4,2,0,8,0,0
370699,468.75,4,2,0,8,1,0
370699,-92.5925925925926,4,2,0,8,0,0
371167,451.127819548872,4,2,0,8,1,0
371167,-96.1538461538461,4,2,0,8,0,0
371618,521.739130434783,4,2,0,8,1,0
371618,-83.3333333333333,4,2,0,8,0,0
372139,441.176470588235,4,2,0,8,1,0
372139,-98.0392156862745,4,2,0,8,0,0
372580,422.535211267606,4,2,0,8,1,0
372580,-103.092783505155,4,2,0,8,0,0
373002,600,4,2,0,7,1,0
373002,-72.463768115942,4,2,0,7,0,0
373602,652.173913043478,4,2,0,7,1,0
373602,-66.6666666666667,4,2,0,7,0,0
374254,681.818181818182,4,2,0,7,1,0
374254,-64.1025641025641,4,2,0,7,0,0
374935,740.740740740741,4,2,0,6,1,0
374935,-58.8235294117647,4,2,0,6,0,0
375675,750,4,2,0,6,1,0
375675,-58.4795321637427,4,2,0,6,0,0
376425,956.175298804781,4,2,0,6,1,0
376425,-45.662100456621,4,2,0,6,0,0
377381,638.297872340426,4,2,0,5,1,0
377381,-68.4931506849315,4,2,0,5,0,0

[HitObjects]
51,192,706,5,0,0:0:0:0:
153,192,1021,1,0,0:0:0:0:
358,192,1337,1,2,0:0:0:0:
256,192,1653,1,0,0:0:0:0:
460,192,1969,1,2,0:0:0:0:
358,192,3232,1,2,0:0:0:0:
460,192,3863,1,2,0:0:0:0:
358,192,4811,1,2,0:0:0:0:
153,192,5127,1,2,0:0:0:0:
460,192,5442,1,2,0:0:0:0:
51,192,5758,1,0,0:0:0:0:
153,192,6074,1,0,0:0:0:0:
256,192,6390,1,0,0:0:0:0:
358,192,6706,1,0,0:0:0:0:
460,192,7021,1,0,0:0:0:0:
358,192,7337,1,2,0:0:0:0:
153,192,7495,1,2,0:0:0:0:
51,192,8284,1,0,0:0:0:0:
153,192,8600,1,0,0:0:0:0:
256,192,8916,1,0,0:0:0:0:
358,192,9232,1,0,0:0:0:0:
460,192,9548,1,2,0:0:0:0:
358,192,9863,1,0,0:0:0:0:
256,192,10179,1,2,0:0:0:0:
153,192,10495,1,0,0:0:0:0:
51,192,10811,1,0,0:0:0:0:
153,192,11127,1,0,0:0:0:0:
256,192,11442,1,2,0:0:0:0:
153,192,11758,1,0,0:0:0:0:
358,192,12074,1,2,0:0:0:0:
153,192,13337,1,2,0:0:0:0:
460,192,13969,1,2,0:0:0:0:
460,192,14916,1,2,0:0:0:0:
358,192,15232,1,2,0:0:0:0:
256,192,15548,1,2,0:0:0:0:
51,192,15863,1,0,0:0:0:0:
153,192,16179,1,0,0:0:0:0:
256,192,16495,1,0,0:0:0:0:
358,192,16811,1,0,0:0:0:0:
460,192,17127,1,0,0:0:0:0:
358,192,17442,1,2,0:0:0:0:
153,192,17600,1,2,0:0:0:0:
51,192,18390,1,0,0:0:0:25:LR_Chm Echo long.wav
153,192,18706,1,0,0:0:0:0:
256,192,19021,1,0,0:0:0:0:
358,192,19337,1,0,0:0:0:0:
460,192,19653,1,0,0:0:0:0:
358,192,19969,1,0,0:0:0:0:
256,192,20284,1,0,0:0:0:0:
153,192,20600,1,0,0:0:0:0:
51,192,20916,1,0,0:0:0:80:LR_Drum Crush Finish.wav
460,192,20916,1,4,0:0:0:0:
256,192,21232,1,0,0:0:0:35:LR_HiHat SClick 2.wav
358,192,21548,1,2,0:0:0:0:
153,192,21863,1,0,0:0:0:35:LR_HiHat SClick 2.wav
460,192,22179,1,2,0:0:0:0:
51,192,22495,1,0,0:0:0:60:LR_Hat Synth.wav
256,192,22811,1,0,0:0:0:35:LR_HiHat SClick 2.wav
358,192,23127,1,0,0:0:0:35:LR_HiHat SClick 2.wav
460,192,23442,1,2,0:0:0:0:
153,192,23758,1,0,0:0:0:35:LR_HiHat SClick 2.wav
460,192,24074,1,2,0:0:0:0:
256,192,24390,1,0,0:0:0:35:LR_HiHat SClick 2.wav
51,192,24706,1,0,0:0:0:35:LR_HiHat SClick 2.wav
358,192,25021,1,2,0:0:0:0:
153,192,25337,1,2,0:0:0:0:
460,192,25653,1,2,0:0:0:0:
153,192,25969,1,2,0:0:0:0:
358,192,25969,1,4,0:0:0:0:
51,192,26284,1,0,0:0:0:35:LR_HiHat SClick 2.wav
358,192,26600,1,0,0:0:0:50:LR_HiHat Click.wav
256,192,26916,1,0,0:0:0:35:LR_HiHat SClick 2.wav
153,192,27232,1,0,0:0:0:50:LR_HiHat Click.wav
460,192,27548,1,2,0:0:0:0:
358,192,27706,1,2,0:0:0:0:
256,192,27863,1,0,0:0:0:35:LR_HiHat SClick 2.wav
51,192,28179,1,0,0:0:0:35:LR_HiHat SClick 2.wav
358,192,28495,1,0,0:0:0:50:LR_HiHat Click.wav
256,192,28811,1,0,0:0:0:60:LR_Hat Synth.wav
153,192,29127,1,0,0:0:0:35:LR_HiHat SClick 2.wav
51,192,29442,1,0,0:0:0:35:LR_HiHat SClick 2.wav
460,192,29758,1,2,0:0:0:0:
358,192,30074,1,2,0:0:0:0:
256,192,30390,1,2,0:0:0:0:
153,192,30706,1,2,0:0:0:0:
256,192,31021,1,2,0:0:0:0:
460,192,31021,1,4,0:0:0:0:
51,192,31337,1,0,0:0:0:35:LR_HiHat SClick 2.wav
358,192,31653,1,2,0:0:0:0:
153,192,31969,1,0,0:0:0:35:LR_HiHat SClick 2.wav
460,192,32284,1,2,0:0:0:0:
51,192,32600,1,0,0:0:0:60:LR_Hat Synth.wav
153,192,32916,1,0,0:0:0:50:LR_HiHat Click.wav
256,192,33232,1,0,0:0:0:35:LR_HiHat SClick 2.wav
358,192,33548,1,2,0:0:0:0:
51,192,33863,1,0,0:0:0:35:LR_HiHat SClick 2.wav
460,192,34179,1,4,0:0:0:0:
256,192,34179,1,2,0:0:0:0:
153,192,34495,1,0,0:0:0:35:LR_HiHat SClick 2.wav
51,192,34811,1,0,0:0:0:50:LR_HiHat Click.wav
460,192,35127,1,2,0:0:0:0:
256,192,35442,1,2,0:0:0:0:
51,192,35758,1,2,0:0:0:0:
358,192,36074,1,0,0:0:0:100:LR_Drum Crush Finish.wav
153,192,36074,1,6,0:0:0:0:
460,192,36706,1,2,0:0:0:0:
51,192,36706,1,2,0:0:0:0:
153,192,37653,1,0,0:0:0:15:LR2_KickDBeatBass.wav
358,192,37969,1,0,0:0:0:35:LR_Drum Hit Clap Sn.wav
256,192,38284,1,0,0:0:0:25:LR_HiHat SClick 2.wav
153,192,38600,1,4,0:0:0:0:
358,192,38758,1,4,0:0:0:0:
51,192,39074,1,4,0:0:0:0:
460,192,39232,1,4,0:0:0:0:
153,192,39548,1,4,0:0:0:0:
358,192,39706,1,4,0:0:0:0:
51,192,40021,1,4,0:0:0:0:
460,192,40179,1,4,0:0:0:0:
153,192,40495,1,4,0:0:0:0:
358,192,40811,1,4,0:0:0:0:
51,192,41127,1,0,0:0:0:40:crash.wav
460,192,41127,1,4,1:0:0:0:
153,192,41127,1,2,0:0:0:0:
256,192,41442,1,0,0:0:0:40:LR_HiHat SClick 2.wav
358,192,41758,1,0,0:0:0:50:LR_Drum Rpd Fast .wav
153,192,41758,1,2,0:0:0:0:
51,192,42074,1,0,0:0:0:20:LR_Drum Kick Low.wav
358,192,42390,1,0,0:0:0:40:LR_HiHat SClick 2.wav
153,192,42706,1,0,0:0:0:50:LR_Drum Rpd Fast .wav
460,192,43021,1,0,0:0:0:20:LR_Drum Kick Low.wav
256,192,43337,1,0,0:0:0:40:LR_HiHat SClick 2.wav
358,192,43653,1,0,0:0:0:45:LR_Drum Rpd Fast .wav
51,192,43653,1,2,0:0:0:0:
153,192,43969,1,0,0:0:0:20:LR_Drum Kick Low.wav
358,192,44284,1,0,0:0:0:40:LR_HiHat SClick 2.wav
256,192,44600,1,0,0:0:0:40:LR_Drum Hit Clap Sn.wav
460,192,44916,1,0,0:0:0:20:LR_Drum Kick Low.wav
153,192,44916,1,2,0:0:0:0:
256,192,45232,1,0,0:0:0:20:LR_Drum Kick Low.wav
358,192,45548,1,0,0:0:0:20:LR_Drum Kick Low.wav
51,192,45548,1,2,0:0:0:0:
153,192,45863,1,0,0:0:0:20:LR_Drum Kick Low.wav
460,192,46179,1,0,0:0:0:30:LR_Drum Kick Low.wav
51,192,46179,1,6,0:0:0:0:
358,192,46495,1,0,0:0:0:40:LR_HiHat SClick 2.wav
256,192,46811,1,0,0:0:0:45:LR_Drum Rpd Fast .wav
51,192,47127,1,0,0:0:0:20:LR_Drum Kick Low.wav
358,192,47442,1,0,0:0:0:40:LR_HiHat SClick 2.wav
153,192,47758,1,0,0:0:0:45:LR_Drum Rpd Fast .wav
358,192,48074,1,0,0:0:0:20:LR_Drum Kick Low.wav
51,192,48074,1,2,0:0:0:0:
256,192,48390,1,0,0:0:0:40:LR_HiHat SClick 2.wav
153,192,48706,1,0,0:0:0:45:LR_Drum Rpd Fast .wav
460,192,48706,1,2,0:0:0:0:
51,192,49021,1,0,0:0:0:20:LR_Drum Kick Low.wav
358,192,49337,1,0,0:0:0:40:LR_HiHat SClick 2.wav
256,192,49653,1,0,0:0:0:45:LR_Drum Rpd Fast .wav
460,192,49969,1,0,0:0:0:40:LR_Drum Hit Clap Sn.wav
256,192,50284,1,0,0:0:0:50:LR_Drum Rpd Fast .wav
51,192,50600,1,2,0:0:0:0:
153,192,50758,1,2,0:0:0:0:
256,192,50916,1,2,0:0:0:0:
358,192,51074,1,2,0:0:0:0:
460,192,51232,1,6,0:0:0:0:
51,192,51232,1,0,0:0:0:20:LR_Drum Kick Low.wav
358,192,51548,1,0,0:0:0:40:LR_HiHat SClick 2.wav
153,192,51863,1,0,0:0:0:45:LR_Drum Rpd Fast .wav
256,192,52179,1,0,0:0:0:20:LR_Drum Kick Low.wav
153,192,52495,1,0,0:0:0:40:LR_HiHat SClick 2.wav
358,192,52495,1,2,0:0:0:0:
256,192,52811,1,0,0:0:0:45:LR_Drum Rpd Fast .wav
358,192,53127,1,0,0:0:0:20:LR_Drum Kick Low.wav
153,192,53442,1,0,0:0:0:40:LR_HiHat SClick 2.wav
51,192,53758,1,0,0:0:0:45:LR_Drum Rpd Fast .wav
256,192,53758,1,2,0:0:0:0:
358,192,54074,1,0,0:0:0:20:LR_Drum Kick Low.wav
460,192,54390,1,0,0:0:0:40:LR_HiHat SClick 2.wav
51,192,54706,1,0,0:0:0:45:LR_Drum Rpd Fast .wav
460,192,55021,1,0,0:0:0:20:LR_Drum Kick Low.wav
256,192,55021,1,2,0:0:0:0:
153,192,55337,1,0,0:0:0:40:LR_HiHat SClick 2.wav
51,192,55653,1,0,0:0:0:45:LR_Drum Rpd Fast .wav
460,192,55653,1,2,0:0:0:0:
358,192,55831,1,0,0:0:0:100:LR_Drum Rpd.wav
256,192,55969,1,0,0:0:0:70:LR_Tom Hit 2.wav
153,192,56127,1,0,0:0:0:70:LR_Tom Hit 3.wav
460,192,56284,1,0,0:0:0:25:LR_Drum Kick Low.wav
51,192,56284,1,6,0:0:0:0:
256,192,56600,1,0,0:0:0:40:LR_HiHat SClick 2.wav
153,192,56916,1,0,0:0:0:45:LR_Drum Rpd Fast .wav
358,192,56916,1,2,0:0:0:0:
51,192,57232,1,0,0:0:0:20:LR_Drum Kick Low.wav
256,192,57548,1,0,0:0:0:40:LR_HiHat SClick 2.wav
460,192,57863,1,0,0:0:0:45:LR_Drum Rpd Fast .wav
256,192,58179,1,0,0:0:0:20:LR_Drum Kick Low.wav
51,192,58495,1,0,0:0:0:40:LR_Drum Hit Clap Sn.wav
153,192,58811,1,0,0:0:0:90:LR_Drum Crush Finish.wav
358,192,58811,1,4,0:0:0:0:
460,192,59127,1,0,0:0:0:20:LR_Drum Kick Low.wav
358,192,59442,1,0,0:0:0:40:LR_HiHat SClick 2.wav
256,192,59758,1,0,0:0:0:20:LR_Drum Kick Low.wav
51,192,60074,1,0,0:0:0:90:LR_Drum Crush Finish.wav
460,192,60074,1,4,0:0:0:0:
153,192,60284,1,4,0:0:0:0:
358,192,60495,1,4,0:0:0:0:
460,192,60706,1,0,0:0:0:40:LR_Drum Hit Clap Sn.wav
51,192,60706,1,4,0:0:0:0:
153,192,61337,1,6,0:0:0:0:
358,192,61337,1,4,1:0:0:0:
51,192,61653,1,0,0:0:0:40:LR_HiHat SClick 2.wav
256,192,61969,1,0,0:0:0:45:LR_Drum Rpd Fast .wav
460,192,61969,1,2,0:0:0:0:
153,192,62284,1,0,0:0:0:20:LR_Drum Kick Low.wav
460,192,62600,1,0,0:0:0:40:LR_HiHat SClick 2.wav
358,192,62916,1,0,0:0:0:45:LR_Drum Rpd Fast .wav
153,192,63232,1,0,0:0:0:20:LR_Drum Kick Low.wav
51,192,63548,1,0,0:0:0:40:LR_HiHat SClick 2.wav
153,192,63863,1,0,0:0:0:45:LR_Drum Rpd Fast .wav
358,192,63863,1,2,0:0:0:0:
256,192,64179,1,0,0:0:0:20:LR_Drum Kick Low.wav
358,192,64495,1,0,0:0:0:40:LR_HiHat SClick 2.wav
153,192,64811,1,0,0:0:0:40:LR_Drum Hit Clap Sn.wav
460,192,65127,1,0,0:0:0:20:LR_Drum Kick Low.wav
256,192,65127,1,2,0:0:0:0:
51,192,65442,1,0,0:0:0:20:LR_Drum Kick Low.wav
460,192,65758,1,0,0:0:0:20:LR_Drum Kick Low.wav
153,192,65758,1,2,0:0:0:0:
256,192,66074,1,0,0:0:0:20:LR_Drum Kick Low.wav
51,192,66390,1,6,0:0:0:0:
358,192,66390,1,0,0:0:0:20:LR_Drum Kick Low.wav
153,192,66706,1,0,0:0:0:40:LR_HiHat SClick 2.wav
358,192,67021,1,0,0:0:0:45:LR_Drum Rpd Fast .wav
256,192,67337,1,0,0:0:0:20:LR_Drum Kick Low.wav
460,192,67653,1,0,0:0:0:40:LR_HiHat SClick 2.wav
153,192,67969,1,0,0:0:0:45:LR_Drum Rpd Fast .wav
51,192,68284,1,0,0:0:0:20:LR_Drum Kick Low.wav
358,192,68284,1,2,0:0:0:0:
256,192,68600,1,0,0:0:0:40:LR_HiHat SClick 2.wav
153,192,68916,1,0,0:0:0:45:LR_Drum Rpd Fast .wav
460,192,68916,1,2,0:0:0:0:
256,192,69232,1,0,0:0:0:20:LR_Drum Kick Low.wav
358,192,69548,1,0,0:0:0:40:LR_HiHat SClick 2.wav
153,192,69863,1,0,0:0:0:45:LR_Drum Rpd Fast .wav
256,192,70179,1,2,0:0:0:0:
51,192,70179,1,0,0:0:0:0:
153,192,70600,1,0,0:0:0:0:
358,192,70600,1,2,0:0:0:0:
256,192,71021,1,0,0:0:0:0:
460,192,71021,1,2,0:0:0:0:
358,192,71442,1,0,0:0:0:25:LR_Drum Kick Low.wav
153,192,71442,1,6,0:0:0:0:
51,192,71758,1,0,0:0:0:40:LR_HiHat SClick 2.wav
358,192,72074,1,0,0:0:0:45:LR_Drum Rpd Fast .wav
153,192,72390,1,0,0:0:0:20:LR_Drum Kick Low.wav
460,192,72706,1,0,0:0:0:40:LR_HiHat SClick 2.wav
256,192,73021,1,0,0:0:0:45:LR_Drum Rpd Fast .wav
358,192,73337,1,0,0:0:0:20:LR_Drum Kick Low.wav
51,192,73337,1,2,0:0:0:0:
256,192,73653,1,0,0:0:0:40:LR_HiHat SClick 2.wav
153,192,73969,1,0,0:0:0:45:LR_Drum Rpd Fast .wav
460,192,73969,1,6,0:0:0:0:
256,192,74284,1,0,0:0:0:20:LR_Drum Kick Low.wav
358,192,74600,1,0,0:0:0:45:LR_Drum Rpd Fast .wav
51,192,74916,1,0,0:0:0:40:LR_HiHat SClick 2.wav
153,192,75232,1,2,0:0:0:0:
358,192,75232,1,0,0:0:0:0:
51,192,75653,1,2,0:0:0:0:
460,192,75653,1,0,0:0:0:0:
153,192,76074,1,2,0:0:0:0:
358,192,76074,1,0,0:0:0:0:
51,192,76495,128,0,77758:0:0:0:100:LR_Drum Crush Finish.wav
460,192,76495,128,6,77758:0:0:0:0:
153,192,77758,128,2,79021:0:0:0:0:
358,192,77758,128,2,79021:0:0:0:0:
51,192,79021,1,4,0:0:0:0:
51,192,79179,1,4,0:0:0:0:
358,192,79495,1,4,0:0:0:0:
358,192,79653,1,4,0:0:0:0:
153,192,79969,1,4,0:0:0:0:
153,192,80127,1,4,0:0:0:0:
460,192,80442,1,4,0:0:0:0:
460,192,80600,1,4,0:0:0:0:
256,192,80916,1,4,0:0:0:0:
256,192,81232,1,4,0:0:0:0:
51,192,81548,1,0,0:0:0:50:crash.wav
358,192,81548,1,4,1:0:0:0:
153,192,81548,1,6,0:0:0:0:
460,192,81863,1,0,0:0:0:40:LR_HiHat SClick 2.wav
51,192,82179,1,0,0:0:0:40:LR_HiHat SClick 2.wav
460,192,82495,1,0,0:0:0:40:LR_HiHat SClick 2.wav
51,192,82811,1,0,0:0:0:40:LR_HiHat SClick 2.wav
153,192,82811,1,2,0:0:0:0:
460,192,83127,1,0,0:0:0:90:LR_Hat Synth.wav
51,192,83442,1,0,0:0:0:40:LR_HiHat SClick 2.wav
460,192,83758,1,0,0:0:0:40:LR_HiHat SClick 2.wav
153,192,84074,1,6,0:0:0:0:
256,192,84074,1,0,0:0:0:90:LR_Hat Synth.wav
358,192,84390,1,0,0:0:0:40:LR_HiHat SClick 2.wav
153,192,84706,1,4,0:0:0:0:
256,192,84706,1,0,0:0:0:90:LR_Hat Synth.wav
358,192,85021,1,0,0:0:0:40:LR_HiHat SClick 2.wav
153,192,85337,1,0,0:0:0:40:LR_HiHat SClick 2.wav
51,192,85337,1,2,0:0:0:0:
358,192,85653,1,0,0:0:0:40:LR_HiHat SClick 2.wav
153,192,85969,128,0,86284:0:0:0:40:LR_Drum Hit Clap Sn.wav
358,192,86284,128,0,86600:0:0:0:50:LR_Drum Rpd Fast .wav
51,192,86600,1,6,0:0:0:0:
460,192,86600,1,0,0:0:0:40:LR_HiHat SClick 2.wav
256,192,86916,1,0,0:0:0:40:LR_HiHat SClick 2.wav
51,192,87232,1,0,0:0:0:40:LR_HiHat SClick 2.wav
256,192,87548,1,0,0:0:0:40:LR_HiHat SClick 2.wav
358,192,87863,1,0,0:0:0:40:LR_HiHat SClick 2.wav
51,192,87863,1,2,0:0:0:0:
256,192,88179,1,0,0:0:0:40:LR_HiHat SClick 2.wav
51,192,88495,1,0,0:0:0:40:LR_HiHat SClick 2.wav
256,192,88811,1,0,0:0:0:40:LR_HiHat SClick 2.wav
153,192,89127,1,0,0:0:0:90:LR_Hat Synth.wav
460,192,89127,1,2,0:0:0:0:
358,192,89442,5,0,0:0:0:40:LR_HiHat SClick 2.wav
153,192,89758,1,0,0:0:0:40:LR_HiHat SClick 2.wav
358,192,90074,1,0,0:0:0:40:LR_HiHat SClick 2.wav
51,192,90390,1,0,0:0:0:40:LR_HiHat SClick 2.wav
460,192,90390,1,2,0:0:0:0:
358,192,90706,1,0,0:0:0:90:LR_Hat Synth.wav
256,192,91021,128,0,91337:0:0:0:40:LR_Drum Hit Clap Sn.wav
153,192,91337,128,0,91653:0:0:0:70:LR_Tom Hit 2.wav
51,192,91653,1,0,0:0:0:40:LR_HiHat SClick 2.wav
358,192,91653,1,6,0:0:0:0:
460,192,91969,1,0,0:0:0:90:LR_Hat Synth.wav
153,192,92284,1,0,0:0:0:40:LR_HiHat SClick 2.wav
460,192,92600,1,0,0:0:0:40:LR_HiHat SClick 2.wav
153,192,92916,1,0,0:0:0:40:LR_HiHat SClick 2.wav
51,192,92916,1,2,0:0:0:0:
460,192,93232,1,0,0:0:0:90:LR_Hat Synth.wav
153,192,93548,1,0,0:0:0:40:LR_HiHat SClick 2.wav
460,192,93863,1,0,0:0:0:40:LR_HiHat SClick 2.wav
51,192,94179,1,0,0:0:0:90:LR_Hat Synth.wav
256,192,94179,1,2,0:0:0:0:
358,192,94495,1,0,0:0:0:40:LR_HiHat SClick 2.wav
51,192,94811,1,0,0:0:0:100:LR_Drum Rpd.wav
358,192,95127,1,0,0:0:0:40:LR_HiHat SClick 2.wav
51,192,95442,1,0,0:0:0:40:LR_HiHat SClick 2.wav
153,192,95442,1,2,0:0:0:0:
358,192,95758,1,0,0:0:0:90:LR_Hat Synth.wav
51,192,96074,128,0,96390:0:0:0:40:LR_Drum Hit Clap Sn.wav
358,192,96390,128,0,96706:0:0:0:50:LR_Drum Rpd Fast .wav
256,192,96706,1,6,0:0:0:0:
153,192,96706,1,0,0:0:0:40:LR_HiHat SClick 2.wav
460,192,97021,1,0,0:0:0:40:LR_HiHat SClick 2.wav
256,192,97337,1,0,0:0:0:40:LR_HiHat SClick 2.wav
460,192,97653,1,0,0:0:0:40:LR_HiHat SClick 2.wav
256,192,97969,1,0,0:0:0:40:LR_HiHat SClick 2.wav
51,192,97969,1,2,0:0:0:0:
460,192,98284,1,0,0:0:0:90:LR_Hat Synth.wav
256,192,98600,1,0,0:0:0:40:LR_HiHat SClick 2.wav
460,192,98916,1,0,0:0:0:40:LR_HiHat SClick 2.wav
358,192,99232,1,2,0:0:0:0:
51,192,99232,1,0,0:0:0:90:LR_Hat Synth.wav
256,192,99548,1,0,0:0:0:90:LR_Hat Synth.wav
153,192,99863,1,0,0:0:0:40:LR_HiHat SClick 2.wav
358,192,100179,1,0,0:0:0:40:LR_HiHat SClick 2.wav
460,192,100495,128,0,100811:0:0:0:40:LR_Drum Hit Clap Sn.wav
51,192,100495,1,2,0:0:0:0:
358,192,100811,128,0,101127:0:0:0:50:LR_Drum Rpd Fast .wav
256,192,101127,1,0,0:0:0:70:LR_Tom Hit 2.wav
153,192,101127,128,2,101442:0:0:0:0:
51,192,101442,128,0,101758:0:0:0:70:LR_Tom Hit 3.wav
460,192,101758,1,6,0:0:0:0:
256,192,101758,1,0,0:0:0:40:LR_HiHat SClick 2.wav
358,192,102074,1,0,0:0:0:90:LR_Hat Synth.wav
153,192,102390,1,0,0:0:0:40:LR_HiHat SClick 2.wav
460,192,102706,1,0,0:0:0:40:LR_HiHat SClick 2.wav
51,192,103021,1,0,0:0:0:40:LR_HiHat SClick 2.wav
256,192,103021,1,2,0:0:0:0:
358,192,103337,1,0,0:0:0:90:LR_Hat Synth.wav
153,192,103653,1,0,0:0:0:40:LR_HiHat SClick 2.wav
460,192,103969,1,0,0:0:0:40:LR_HiHat SClick 2.wav
51,192,104284,1,2,0:0:0:0:
256,192,104284,1,0,0:0:0:90:LR_Hat Synth.wav
358,192,104600,1,0,0:0:0:40:LR_HiHat SClick 2.wav
153,192,104916,1,0,0:0:0:90:LR_Hat Synth.wav
256,192,105232,1,0,0:0:0:40:LR_HiHat SClick 2.wav
51,192,105548,1,0,0:0:0:40:LR_HiHat SClick 2.wav
358,192,105548,1,2,0:0:0:0:
153,192,105863,1,0,0:0:0:90:LR_Hat Synth.wav
358,192,106179,1,6,0:0:0:0:
256,192,106390,1,6,0:0:0:0:
153,192,106600,1,6,0:0:0:0:
51,192,106811,1,0,0:0:0:100:LR_Drum Crush Finish.wav
460,192,106811,1,6,0:0:0:0:
358,192,107127,1,0,0:0:0:40:LR_HiHat SClick 2.wav
153,192,107442,1,0,0:0:0:40:LR_HiHat SClick 2.wav
460,192,107758,1,0,0:0:0:40:LR_HiHat SClick 2.wav
256,192,108074,1,0,0:0:0:40:LR_HiHat SClick 2.wav
51,192,108074,1,2,0:0:0:0:
460,192,108390,1,0,0:0:0:90:LR_Hat Synth.wav
153,192,108706,1,0,0:0:0:40:LR_HiHat SClick 2.wav
256,192,109021,1,0,0:0:0:40:LR_HiHat SClick 2.wav
460,192,109337,1,0,0:0:0:90:LR_Hat Synth.wav
358,192,109337,1,2,0:0:0:0:
153,192,109653,1,0,0:0:0:40:LR_HiHat SClick 2.wav
51,192,109969,1,0,0:0:0:40:LR_HiHat SClick 2.wav
358,192,110284,1,2,0:0:0:0:
256,192,110442,1,2,0:0:0:0:
153,192,110600,128,2,111021:0:0:0:0:
256,192,111021,128,2,111442:0:0:0:0:
358,192,111442,128,2,111863:0:0:0:0:
460,192,111863,1,0,0:0:0:100:LR_Drum Crush Finish.wav
51,192,111863,1,6,0:0:0:0:
256,192,112179,1,0,0:0:0:40:LR_HiHat SClick 2.wav
153,192,112495,1,0,0:0:0:40:LR_HiHat SClick 2.wav
358,192,112811,1,0,0:0:0:40:LR_HiHat SClick 2.wav
460,192,112811,1,2,0:0:0:0:
51,192,113127,1,0,0:0:0:40:LR_HiHat SClick 2.wav
256,192,113442,1,0,0:0:0:90:LR_Hat Synth.wav
153,192,113758,1,0,0:0:0:40:LR_HiHat SClick 2.wav
460,192,113758,1,2,0:0:0:0:
358,192,114074,1,0,0:0:0:40:LR_HiHat SClick 2.wav
460,192,114390,1,0,0:0:0:90:LR_Hat Synth.wav
51,192,114390,1,6,0:0:0:0:
153,192,114706,1,0,0:0:0:40:LR_HiHat SClick 2.wav
256,192,115021,1,0,0:0:0:40:LR_HiHat SClick 2.wav
153,192,115337,1,0,0:0:0:40:LR_HiHat SClick 2.wav
358,192,115337,1,2,0:0:0:0:
51,192,115653,1,0,0:0:0:40:LR_HiHat SClick 2.wav
460,192,115653,1,2,0:0:0:0:
358,192,115969,1,0,0:0:0:40:LR_HiHat SClick 2.wav
153,192,115969,1,2,0:0:0:0:
256,192,116284,1,0,0:0:0:40:LR_HiHat SClick 2.wav
51,192,116600,1,0,0:0:0:40:LR_HiHat SClick 2.wav
358,192,116600,1,2,0:0:0:0:
153,192,116916,1,6,0:0:0:0:
460,192,116916,1,0,0:0:0:40:LR_HiHat SClick 2.wav
51,192,117232,1,0,0:0:0:40:LR_HiHat SClick 2.wav
358,192,117232,1,2,0:0:0:0:
256,192,117548,1,0,0:0:0:40:LR_HiHat SClick 2.wav
153,192,117863,1,0,0:0:0:40:LR_HiHat SClick 2.wav
358,192,117863,1,2,0:0:0:0:
51,192,118179,1,0,0:0:0:40:LR_HiHat SClick 2.wav
460,192,118179,1,2,0:0:0:0:
153,192,118495,1,0,0:0:0:90:LR_Hat Synth.wav
358,192,118495,1,2,0:0:0:0:
256,192,118811,1,0,0:0:0:40:LR_HiHat SClick 2.wav
460,192,119127,1,0,0:0:0:40:LR_HiHat SClick 2.wav
358,192,119442,128,4,119863:0:0:0:0:
51,192,119442,1,2,0:0:0:0:
256,192,119863,128,2,120284:0:0:0:0:
153,192,120284,128,2,120706:0:0:0:0:
256,192,120706,128,0,121969:0:0:0:40:LR_Drum Hit Clap Sn.wav
460,192,120706,1,0,0:0:0:0:
358,192,121021,1,0,0:0:0:50:LR_Drum Rpd Fast .wav
153,192,121337,1,0,0:0:0:70:LR_Tom Hit 2.wav
51,192,121653,1,0,0:0:0:70:LR_Tom Hit 3.wav
460,192,121969,1,4,1:0:0:0:
153,192,121969,128,6,122284:0:0:0:0:
358,192,122284,1,0,0:0:0:45:LR_HiHat SClick 2.wav
153,192,122600,128,0,122916:0:0:0:45:LR_HiHat SClick 2.wav
358,192,122916,1,0,0:0:0:45:LR_HiHat SClick 2.wav
51,192,123232,128,0,123548:0:0:0:45:LR_HiHat SClick 2.wav
256,192,123232,1,2,0:0:0:0:
460,192,123548,1,0,0:0:0:90:LR_Hat Synth.wav
51,192,123863,128,2,124179:3:0:0:0:
460,192,124179,1,0,0:0:0:45:LR_HiHat SClick 2.wav
256,192,124495,128,2,124811:0:0:0:0:
153,192,124495,1,4,0:0:0:0:
358,192,124811,1,0,0:0:0:45:LR_HiHat SClick 2.wav
256,192,125127,128,0,125442:0:0:0:90:LR_Hat Synth.wav
358,192,125442,1,0,0:0:0:45:LR_HiHat SClick 2.wav
153,192,125758,128,0,126074:0:0:0:90:LR_Hat Synth.wav
51,192,125758,1,2,0:0:0:0:
460,192,126074,1,0,0:0:0:45:LR_HiHat SClick 2.wav
153,192,126390,128,0,126706:0:0:0:45:LR_Drum Hit Clap Sn.wav
256,192,126706,128,0,127021:0:0:0:70:LR_Tom Hit 2.wav
358,192,127021,128,4,127337:0:0:0:0:
51,192,127021,1,2,0:0:0:0:
153,192,127337,1,0,0:0:0:90:LR_Hat Synth.wav
358,192,127653,128,0,127969:0:0:0:45:LR_HiHat SClick 2.wav
153,192,127969,1,0,0:0:0:45:LR_HiHat SClick 2.wav
256,192,128284,128,0,128600:0:0:0:45:LR_HiHat SClick 2.wav
460,192,128284,1,2,0:0:0:0:
51,192,128600,1,0,0:0:0:90:LR_Hat Synth.wav
256,192,128916,128,2,129232:3:0:0:0:
51,192,129232,1,0,0:0:0:45:LR_HiHat SClick 2.wav
460,192,129548,128,4,129863:0:0:0:0:
358,192,129548,1,2,0:0:0:0:
153,192,129863,1,0,0:0:0:45:LR_HiHat SClick 2.wav
460,192,130179,128,0,130495:0:0:0:45:LR_HiHat SClick 2.wav
153,192,130495,1,0,0:0:0:45:LR_HiHat SClick 2.wav
358,192,130811,128,0,131127:0:0:0:90:LR_Hat Synth.wav
256,192,130811,1,2,0:0:0:0:
51,192,131127,1,0,0:0:0:45:LR_HiHat SClick 2.wav
256,192,131442,128,0,131758:0:0:0:45:LR_Drum Hit Clap Sn.wav
358,192,131758,128,0,132074:0:0:0:70:LR_Tom Hit 2.wav
460,192,132074,128,4,132390:0:0:0:0:
51,192,132074,1,2,0:0:0:0:
256,192,132390,1,0,0:0:0:90:LR_Hat Synth.wav
460,192,132706,128,0,133021:0:0:0:45:LR_HiHat SClick 2.wav
256,192,133021,1,0,0:0:0:45:LR_HiHat SClick 2.wav
51,192,133337,128,0,133653:0:0:0:45:LR_HiHat SClick 2.wav
358,192,133337,1,2,0:0:0:0:
256,192,133653,1,0,0:0:0:90:LR_Hat Synth.wav
51,192,133969,128,2,134284:3:0:0:0:
256,192,134284,1,0,0:0:0:45:LR_HiHat SClick 2.wav
358,192,134600,128,0,134916:0:0:0:90:LR_Hat Synth.wav
153,192,134600,1,6,0:0:0:0:
51,192,134916,1,0,0:0:0:45:LR_HiHat SClick 2.wav
358,192,135232,128,0,135548:0:0:0:90:LR_Hat Synth.wav
51,192,135548,1,0,0:0:0:45:LR_HiHat SClick 2.wav
153,192,135863,128,0,136179:0:0:0:90:LR_Hat Synth.wav
256,192,135863,1,2,0:0:0:0:
460,192,136179,1,0,0:0:0:45:LR_Drum Hit Clap Sn.wav
153,192,136495,128,0,136811:0:0:0:45:LR_Drum Hit Clap Sn.wav
256,192,136811,128,0,137127:0:0:0:70:LR_Tom Hit 2.wav
358,192,137127,128,6,137442:0:0:0:0:
51,192,137127,1,0,0:0:0:20:LR_Drum Kick Low.wav
256,192,137442,1,0,0:0:0:20:LR_Drum Kick Low.wav
358,192,137758,128,0,138074:0:0:0:20:LR_Drum Kick Low.wav
256,192,138074,1,0,0:0:0:20:LR_Drum Kick Low.wav
153,192,138390,128,0,138706:0:0:0:20:LR_Drum Kick Low.wav
358,192,138390,1,2,0:0:0:0:
256,192,138706,1,0,0:0:0:20:LR_Drum Kick Low.wav
153,192,139021,128,0,139337:0:0:0:20:LR_Drum Kick Low.wav
256,192,139337,1,0,0:0:0:20:LR_Drum Kick Low.wav
51,192,139653,1,0,0:0:0:45:LR_Drum Hit Clap Sn.wav
460,192,139653,1,2,0:0:0:0:
153,192,139969,1,0,0:0:0:45:LR_Drum Hit Clap Sn.wav
358,192,140284,1,0,0:0:0:45:LR_Drum Hit Clap Sn.wav
256,192,140600,1,0,0:0:0:70:LR_Tom Hit 2.wav
51,192,140916,1,0,0:0:0:45:LR_Drum Hit Clap Sn.wav
460,192,140916,1,2,0:0:0:0:
153,192,141232,1,0,0:0:0:45:LR_Drum Hit Clap Sn.wav
358,192,141232,1,0,0:0:0:0:
51,192,141548,128,0,141863:0:0:0:45:LR_Drum Hit Clap Sn.wav
460,192,141548,128,0,141863:0:0:0:30:LR_RevCyRDW.wav
153,192,141863,128,0,142179:0:0:0:45:LR_Drum Hit Clap Sn.wav
358,192,141863,128,0,142179:0:0:0:66:LR_Drum Rpd.wav
256,192,142179,1,6,0:0:0:0:
51,192,142179,128,0,144706:0:0:0:60:crash.wav
460,192,142179,128,4,144706:1:0:0:0:
153,192,142811,5,2,0:0:0:0:
358,192,143442,1,2,0:0:0:0:
153,192,144706,1,2,0:0:0:0:
460,192,145337,1,2,0:0:0:0:
256,192,146284,1,2,0:0:0:0:
51,192,146600,1,2,0:0:0:0:
460,192,146916,1,2,0:0:0:0:
153,192,147232,1,0,0:0:0:0:
358,192,147232,1,0,0:0:0:0:
51,192,147548,1,0,0:0:0:0:
153,192,147863,1,0,0:0:0:0:
256,192,148179,1,0,0:0:0:0:
358,192,148495,1,0,0:0:0:0:
460,192,148811,1,2,0:0:0:0:
358,192,148969,1,2,0:0:0:0:
51,192,149758,1,0,0:0:0:0:
460,192,149758,1,0,0:0:0:0:
153,192,150074,1,0,0:0:0:0:
358,192,150390,1,0,0:0:0:0:
51,192,150706,1,2,0:0:0:0:
460,192,151021,1,2,0:0:0:0:
51,192,151337,1,0,0:0:0:0:
358,192,151653,1,2,0:0:0:0:
153,192,151969,1,0,0:0:0:0:
358,192,152284,1,2,0:0:0:0:
256,192,152284,1,0,0:0:0:0:
153,192,152600,1,0,0:0:0:0:
358,192,152916,1,2,0:0:0:0:
51,192,153232,1,0,0:0:0:0:
460,192,153548,1,2,0:0:0:0:
51,192,153863,1,2,0:0:0:0:
256,192,154179,1,2,0:0:0:0:
460,192,154495,1,2,0:0:0:0:
153,192,154811,1,2,0:0:0:0:
51,192,154811,1,0,0:0:0:0:
358,192,155495,1,2,0:0:0:0:
460,192,155495,1,0,0:0:0:0:
460,192,156479,1,2,0:0:0:0:
256,192,156812,1,2,0:0:0:0:
51,192,157145,1,2,0:0:0:0:
153,192,157458,1,0,0:0:0:0:
460,192,157506,1,2,0:0:0:0:
256,192,157812,1,0,0:0:0:0:
358,192,158167,1,0,0:0:0:0:
460,192,158515,1,2,0:0:0:0:
153,192,158515,1,0,0:0:0:0:
256,192,158864,1,0,0:0:0:0:
358,192,159191,1,2,0:0:0:0:
153,192,159366,1,2,0:0:0:0:
460,192,160238,1,0,0:0:0:0:
51,192,160238,1,2,0:0:0:0:
153,192,160587,1,2,0:0:0:0:
256,192,160936,1,2,0:0:0:0:
358,192,161288,1,2,0:0:0:0:
51,192,161641,1,0,0:0:0:25:LR_Chm Echo long.wav
460,192,161641,1,2,0:0:0:0:
358,192,162002,5,2,0:0:0:0:
256,192,162363,1,2,0:0:0:0:
153,192,162763,1,2,0:0:0:0:
460,192,163163,5,0,0:0:0:40:crash.wav
51,192,163163,1,4,1:0:0:0:
256,192,163478,1,0,0:0:0:50:LR_HiHat SClick 2.wav
256,192,164110,1,0,0:0:0:50:LR_HiHat SClick 2.wav
256,192,164741,1,0,0:0:0:50:LR_HiHat SClick 2.wav
256,192,165373,1,0,0:0:0:50:LR_HiHat SClick 2.wav
51,192,165689,1,2,0:0:0:0:
256,192,166005,1,0,0:0:0:50:LR_HiHat SClick 2.wav
256,192,166636,1,0,0:0:0:50:LR_HiHat SClick 2.wav
358,192,166952,1,2,0:0:0:0:
256,192,167268,1,0,0:0:0:50:LR_HiHat SClick 2.wav
153,192,167584,1,2,0:0:0:0:
256,192,167899,1,0,0:0:0:50:LR_HiHat SClick 2.wav
460,192,168215,1,0,0:0:0:25:LR_Chm loong.wav
51,192,168215,1,6,0:0:0:0:
256,192,168531,1,0,0:0:0:50:LR_HiHat SClick 2.wav
256,192,169163,1,0,0:0:0:50:LR_HiHat SClick 2.wav
256,192,169794,1,0,0:0:0:50:LR_HiHat SClick 2.wav
256,192,170426,1,0,0:0:0:50:LR_HiHat SClick 2.wav
153,192,170741,1,0,0:0:0:25:LR_Chm loong.wav
358,192,170741,1,2,0:0:0:0:
256,192,171057,1,0,0:0:0:50:LR_HiHat SClick 2.wav
256,192,171689,1,0,0:0:0:50:LR_HiHat SClick 2.wav
51,192,172005,128,0,172636:0:0:0:25:LR_Chm loong.wav
460,192,172005,128,2,172636:0:0:0:0:
256,192,172320,1,0,0:0:0:50:LR_HiHat SClick 2.wav
153,192,172636,128,0,173268:0:0:0:25:LR_Chm loong.wav
358,192,172636,128,0,173268:0:0:0:30:LR_RevCyRDW.wav
256,192,172952,128,0,173268:0:0:0:50:LR_HiHat SClick 2.wav
460,192,173268,5,0,0:0:0:20:LR_Drum Kick Low.wav
51,192,173268,1,6,0:0:0:0:
358,192,173584,1,0,0:0:0:20:LR_Drum Kick Low.wav
153,192,173899,1,0,0:0:0:20:LR_Drum Kick Low.wav
358,192,174215,1,0,0:0:0:20:LR_Drum Kick Low.wav
153,192,174531,1,0,0:0:0:20:LR_Drum Kick Low.wav
358,192,174847,1,0,0:0:0:20:LR_Drum Kick Low.wav
153,192,175163,1,0,0:0:0:20:LR_Drum Kick Low.wav
358,192,175478,1,0,0:0:0:20:LR_Drum Kick Low.wav
51,192,175794,1,0,0:0:0:20:LR_Drum Kick Low.wav
460,192,175794,1,6,0:0:0:0:
256,192,176110,1,0,0:0:0:20:LR_Drum Kick Low.wav
51,192,176426,1,0,0:0:0:20:LR_Drum Kick Low.wav
256,192,176741,1,0,0:0:0:20:LR_Drum Kick Low.wav
460,192,177057,1,0,0:0:0:20:LR_Drum Kick Low.wav
153,192,177057,1,2,0:0:0:0:
256,192,177373,1,0,0:0:0:20:LR_Drum Kick Low.wav
51,192,177689,1,0,0:0:0:20:LR_Drum Kick Low.wav
460,192,177689,1,2,0:0:0:0:
256,192,178005,1,0,0:0:0:20:LR_Drum Kick Low.wav
358,192,178320,1,0,0:0:0:20:LR_Drum Kick Low.wav
51,192,178320,1,6,0:0:0:0:
460,192,178636,1,0,0:0:0:20:LR_Drum Kick Low.wav
51,192,178952,1,0,0:0:0:20:LR_Drum Kick Low.wav
460,192,179268,1,0,0:0:0:20:LR_Drum Kick Low.wav
51,192,179584,1,0,0:0:0:20:LR_Drum Kick Low.wav
460,192,179899,1,0,0:0:0:20:LR_Drum Kick Low.wav
51,192,180215,1,0,0:0:0:20:LR_Drum Kick Low.wav
460,192,180531,1,0,0:0:0:20:LR_Drum Kick Low.wav
153,192,180847,1,6,0:0:0:0:
358,192,181005,1,6,0:0:0:0:
51,192,181163,1,6,0:0:0:0:
460,192,181320,1,6,0:0:0:0:
153,192,181478,1,6,0:0:0:0:
358,192,181636,1,6,0:0:0:0:
51,192,181794,1,6,0:0:0:0:
460,192,181952,1,6,0:0:0:0:
153,192,182110,1,0,0:0:0:45:LR_Drum Hit Clap Sn.wav
358,192,182110,1,6,0:0:0:0:
51,192,182268,1,0,0:0:0:45:LR_Drum Hit Clap Sn.wav
256,192,182268,1,0,0:0:0:50:LR_Clap Loud L.wav
460,192,182268,1,14,0:0:0:0:
460,192,182741,128,0,183057:0:0:0:30:LR_RevCyRDW.wav
51,192,182741,128,2,183057:0:0:0:0:
358,192,183057,128,2,183373:0:0:0:0:
153,192,183057,128,2,183373:0:0:0:0:
51,192,183373,1,0,0:0:0:30:LR_Drum Kick Low.wav
256,192,183373,1,0,0:0:0:60:crash.wav
460,192,183373,1,4,1:0:0:0:
153,192,183689,1,0,0:0:0:45:LR_Drum Hit Clap Sn.wav
358,192,184005,1,2,0:0:0:0:
51,192,184163,1,0,0:0:0:0:
460,192,184320,1,0,0:0:0:45:LR_Drum Hit Clap Sn.wav
153,192,184478,1,0,0:0:0:0:
256,192,184636,1,2,0:0:0:0:
358,192,184952,1,0,0:0:0:45:LR_Drum Hit Clap Sn.wav
153,192,185268,1,2,0:0:0:0:
256,192,185584,1,0,0:0:0:45:LR_Drum Hit Clap Sn.wav
358,192,185741,1,0,0:0:0:0:
460,192,185899,1,4,0:0:0:0:
51,192,185899,1,2,0:0:0:0:
153,192,186057,1,0,0:0:0:0:
256,192,186215,1,0,0:0:0:45:LR_Drum Hit Clap Sn.wav
358,192,186373,1,4,0:0:0:0:
153,192,186531,1,2,0:0:0:0:
256,192,186689,1,0,0:0:0:45:LR_Drum Hit Clap Sn.wav
358,192,186847,1,0,0:0:0:0:
460,192,187005,1,4,0:0:0:0:
51,192,187005,1,2,0:0:0:0:
358,192,187320,1,0,0:0:0:0:
256,192,187478,1,4,0:0:0:0:
153,192,187478,1,0,0:0:0:45:LR_Drum Hit Clap Sn.wav
460,192,187794,1,2,0:0:0:0:
358,192,187952,1,0,0:0:0:0:
256,192,188110,1,0,0:0:0:55:LR_Drum Rpd Fast .wav
153,192,188268,1,0,0:0:0:55:LR_Drum Rpd Fast .wav
460,192,188426,1,2,0:0:0:0:
51,192,188426,1,4,0:0:0:0:
256,192,188741,1,0,0:0:0:45:LR_Drum Hit Clap Sn.wav
153,192,189057,1,2,0:0:0:0:
51,192,189215,1,0,0:0:0:0:
358,192,189373,1,0,0:0:0:45:LR_Drum Hit Clap Sn.wav
460,192,189531,1,0,0:0:0:0:
256,192,189689,1,2,0:0:0:0:
51,192,190005,1,0,0:0:0:45:LR_Drum Hit Clap Sn.wav
460,192,190163,1,0,0:0:0:0:
358,192,190320,1,2,0:0:0:0:
153,192,190320,1,0,0:0:0:0:
256,192,190636,1,0,0:0:0:45:LR_Drum Hit Clap Sn.wav
460,192,190952,1,2,0:0:0:0:
51,192,190952,1,4,0:0:0:0:
153,192,191110,1,0,0:0:0:0:
256,192,191268,1,0,0:0:0:45:LR_Drum Hit Clap Sn.wav
358,192,191426,1,0,0:0:0:0:
153,192,191584,1,2,0:0:0:0:
256,192,191741,1,0,0:0:0:45:LR_Drum Hit Clap Sn.wav
358,192,191899,1,0,0:0:0:0:
460,192,192057,1,2,0:0:0:0:
153,192,192057,1,0,0:0:0:0:
358,192,192373,1,2,0:0:0:0:
51,192,192373,1,0,0:0:0:0:
460,192,192847,1,2,0:0:0:0:
358,192,193005,1,0,0:0:0:0:
256,192,193163,1,0,0:0:0:100:LR_Drum Rpd.wav
153,192,193320,1,0,0:0:0:45:LR_Drum Hit Clap Sn.wav
51,192,193478,1,2,0:0:0:0:
460,192,193478,1,4,0:0:0:0:
153,192,193794,1,0,0:0:0:45:LR_Drum Hit Clap Sn.wav
358,192,193794,1,0,0:0:0:0:
51,192,194110,1,2,0:0:0:0:
153,192,194268,1,0,0:0:0:0:
256,192,194426,1,0,0:0:0:45:LR_Drum Hit Clap Sn.wav
358,192,194584,1,2,0:0:0:0:
460,192,194584,1,0,0:0:0:0:
51,192,194899,1,2,0:0:0:0:
256,192,195373,1,0,0:0:0:100:LR_Drum Rpd.wav
358,192,195610,1,0,0:0:0:100:LR_Drum Rpd.wav
153,192,195847,1,0,0:0:0:100:LR_Drum Rpd.wav
51,192,196005,1,4,0:0:0:0:
460,192,196005,1,2,0:0:0:0:
358,192,196320,1,0,0:0:0:45:LR_Drum Hit Clap Sn.wav
153,192,196636,1,2,0:0:0:0:
256,192,196952,1,0,0:0:0:0:
460,192,197110,1,2,0:0:0:0:
153,192,197110,1,4,0:0:0:0:
358,192,197426,1,4,0:0:0:0:
51,192,197426,1,2,0:0:0:0:
153,192,197584,1,0,0:0:0:45:LR_Drum Hit Clap Sn.wav
256,192,197741,1,0,0:0:0:0:
460,192,197899,1,2,0:0:0:0:
358,192,198057,1,0,0:0:0:0:
256,192,198215,1,0,0:0:0:45:LR_Drum Hit Clap Sn.wav
153,192,198373,1,0,0:0:0:45:LR_Drum Hit Clap Sn.wav
460,192,198531,1,4,0:0:0:0:
51,192,198531,1,2,0:0:0:0:
358,192,198847,1,0,0:0:0:45:LR_Drum Hit Clap Sn.wav
153,192,199163,1,0,0:0:0:0:
256,192,199320,1,0,0:0:0:0:
358,192,199478,1,0,0:0:0:45:LR_Drum Hit Clap Sn.wav
460,192,199636,1,2,0:0:0:0:
153,192,200070,1,2,0:0:0:0:
358,192,200426,1,2,0:0:0:0:
256,192,200584,1,0,0:0:0:0:
153,192,200741,1,0,0:0:0:45:LR_Drum Hit Clap Sn.wav
51,192,200899,1,0,0:0:0:100:LR_Drum Rpd.wav
460,192,201057,1,2,0:0:0:0:
358,192,201057,1,4,0:0:0:0:
153,192,201373,1,0,0:0:0:45:LR_Drum Hit Clap Sn.wav
51,192,201373,1,0,0:0:0:0:
460,192,201689,1,4,0:0:0:0:
358,192,201689,1,2,0:0:0:0:
153,192,201847,1,0,0:0:0:45:LR_Drum Hit Clap Sn.wav
256,192,202005,1,0,0:0:0:0:
358,192,202163,1,0,0:0:0:0:
460,192,202320,1,4,0:0:0:0:
51,192,202320,1,2,0:0:0:0:
256,192,202478,1,0,0:0:0:0:
153,192,202636,1,4,0:0:0:0:
358,192,202636,1,2,0:0:0:0:
51,192,202794,1,0,0:0:0:100:LR_Drum Rpd.wav
460,192,202952,1,0,0:0:0:45:LR_Drum Hit Clap Sn.wav
358,192,203110,1,0,0:0:0:45:LR_Drum Hit Clap Sn.wav
256,192,203268,128,0,203584:0:0:0:45:LR_Drum Hit Clap Sn.wav
51,192,203584,128,0,208636:0:0:0:100:LR_Drum Crush Finish.wav
460,192,203584,128,6,206110:0:0:0:0:
153,192,204215,1,2,0:0:0:0:
358,192,204847,1,2,0:0:0:0:
256,192,206110,1,2,0:0:0:0:
460,192,206741,1,2,0:0:0:0:
358,192,207689,1,2,0:0:0:0:
153,192,208005,1,2,0:0:0:0:
460,192,208320,1,2,0:0:0:0:
358,192,208636,1,0,0:0:0:0:
256,192,208952,1,0,0:0:0:0:
153,192,209268,1,0,0:0:0:0:
51,192,209584,1,0,0:0:0:0:
256,192,209899,1,0,0:0:0:0:
460,192,210215,1,2,0:0:0:0:
358,192,210373,1,2,0:0:0:0:
256,192,210531,1,0,0:0:0:0:
153,192,210847,1,0,0:0:0:0:
358,192,211163,1,0,0:0:0:0:
256,192,211478,1,0,0:0:0:0:
153,192,211794,1,0,0:0:0:0:
51,192,212110,1,0,0:0:0:0:
460,192,212426,1,0,0:0:0:0:
358,192,212741,1,0,0:0:0:0:
256,192,213057,1,0,0:0:0:0:
153,192,213373,1,0,0:0:0:0:
51,192,213689,1,0,0:0:0:80:LR_Drum Crush Finish.wav
460,192,213689,1,4,0:0:0:0:
256,192,214005,1,0,0:0:0:50:LR_HiHat Click.wav
358,192,214320,1,2,0:0:0:0:
153,192,214636,1,0,0:0:0:50:LR_HiHat Click.wav
460,192,214952,1,2,0:0:0:0:
51,192,215268,1,0,0:0:0:60:LR_Hat Synth.wav
358,192,215584,1,0,0:0:0:35:LR_HiHat SClick 2.wav
153,192,215899,1,0,0:0:0:50:LR_HiHat Click.wav
51,192,216215,1,2,0:0:0:0:
256,192,216215,1,0,0:0:0:0:
358,192,216531,1,0,0:0:0:50:LR_HiHat Click.wav
153,192,216847,1,0,0:0:0:80:LR_Drum Crush Finish.wav
460,192,216847,1,6,0:0:0:0:
358,192,217163,1,0,0:0:0:50:LR_HiHat Click.wav
51,192,217478,1,0,0:0:0:35:LR_HiHat SClick 2.wav
460,192,217794,1,2,0:0:0:0:
256,192,218110,1,2,0:0:0:0:
51,192,218426,1,2,0:0:0:0:
153,192,218741,1,0,0:0:0:80:LR_Drum Crush Finish.wav
358,192,218741,1,6,0:0:0:0:
460,192,219373,1,2,0:0:0:0:
51,192,219373,1,2,0:0:0:0:
153,192,220320,1,0,0:0:0:15:LR2_KickDBeatBass.wav
358,192,220320,1,0,0:0:0:0:
256,192,220636,128,0,221268:0:0:0:35:LR_Drum Hit Clap Sn.wav
460,192,220636,1,0,0:0:0:0:
51,192,220952,1,0,0:0:0:25:LR_HiHat SClick 2.wav
460,192,221268,1,4,0:0:0:0:
460,192,221426,1,4,0:0:0:0:
358,192,221741,1,4,0:0:0:0:
358,192,221899,1,4,0:0:0:0:
256,192,222215,1,4,0:0:0:0:
256,192,222373,1,4,0:0:0:0:
153,192,222689,1,4,0:0:0:0:
153,192,222847,1,4,0:0:0:0:
51,192,223163,1,4,0:0:0:0:
51,192,223478,1,4,0:0:0:0:
153,192,223794,1,4,0:0:0:0:
153,192,223952,1,4,0:0:0:0:
256,192,224268,1,4,0:0:0:0:
256,192,224426,1,4,0:0:0:0:
358,192,224741,1,4,0:0:0:0:
358,192,224899,1,4,0:0:0:0:
51,192,225057,1,2,0:0:0:0:
460,192,225373,1,0,0:0:0:50:LR_Drum Rpd Fast .wav
153,192,225689,1,0,0:0:0:20:LR_Drum Kick Low.wav
256,192,225847,1,0,0:0:0:30:LR_Drum Hit Clap Sn.wav
358,192,226005,1,0,0:0:0:50:LR_Drum Rpd Fast .wav
51,192,226320,1,4,0:0:0:0:
51,192,226478,1,4,0:0:0:0:
153,192,226794,1,4,0:0:0:0:
153,192,226952,1,4,0:0:0:0:
358,192,227268,1,4,0:0:0:0:
460,192,227426,1,4,0:0:0:0:
358,192,227899,1,0,0:0:0:0:
256,192,228215,1,0,0:0:0:90:LR_Drum Crush Finish.wav
460,192,228215,1,4,0:0:0:0:
153,192,228531,1,0,0:0:0:90:LR_Drum Crush Finish.wav
358,192,228531,1,4,0:0:0:0:
51,192,228847,1,6,0:0:0:0:
256,192,228847,1,4,1:0:0:0:
460,192,229163,1,0,0:0:0:45:LR_Drum Hit Clap Sn.wav
153,192,229478,1,2,0:0:0:0:
256,192,229636,1,0,0:0:0:0:
358,192,229794,1,0,0:0:0:45:LR_Drum Hit Clap Sn.wav
51,192,229952,1,0,0:0:0:0:
256,192,230110,1,2,0:0:0:0:
153,192,230268,1,0,0:0:0:0:
358,192,230426,1,0,0:0:0:45:LR_Drum Hit Clap Sn.wav
256,192,230584,1,0,0:0:0:0:
51,192,230741,1,2,0:0:0:0:
460,192,230741,1,0,0:0:0:0:
153,192,230899,1,0,0:0:0:0:
358,192,231057,1,0,0:0:0:45:LR_Drum Hit Clap Sn.wav
460,192,231215,1,2,0:0:0:0:
51,192,231215,1,0,0:0:0:0:
153,192,231531,1,2,0:0:0:0:
358,192,231531,1,0,0:0:0:0:
460,192,231689,1,0,0:0:0:45:LR_Drum Hit Clap Sn.wav
358,192,231847,1,0,0:0:0:0:
256,192,232005,1,2,0:0:0:0:
153,192,232163,1,0,0:0:0:45:LR_Drum Hit Clap Sn.wav
51,192,232320,1,0,0:0:0:0:
358,192,232478,1,2,0:0:0:0:
256,192,232636,1,0,0:0:0:45:LR_Drum Hit Clap Sn.wav
153,192,232794,1,0,0:0:0:0:
51,192,232952,1,0,0:0:0:55:LR_Drum Rpd Fast .wav
153,192,233110,1,0,0:0:0:0:
256,192,233268,1,0,0:0:0:25:LR_Drum Kick Low.wav
358,192,233426,1,0,0:0:0:0:
153,192,233584,1,0,0:0:0:25:LR_Drum Kick Low.wav
460,192,233741,1,6,0:0:0:0:
51,192,233741,1,4,1:0:0:0:
153,192,234057,1,0,0:0:0:0:
256,192,234215,1,0,0:0:0:45:LR_Drum Hit Clap Sn.wav
358,192,234373,1,0,0:0:0:0:
460,192,234531,1,2,0:0:0:0:
51,192,234689,1,0,0:0:0:0:
153,192,234847,1,0,0:0:0:45:LR_Drum Hit Clap Sn.wav
256,192,235005,1,0,0:0:0:0:
358,192,235163,1,2,0:0:0:0:
460,192,235163,1,0,0:0:0:0:
153,192,235320,1,0,0:0:0:0:
460,192,235478,1,0,0:0:0:45:LR_Drum Hit Clap Sn.wav
358,192,235636,1,0,0:0:0:0:
256,192,235794,1,2,0:0:0:0:
153,192,235952,1,0,0:0:0:0:
51,192,236110,1,0,0:0:0:45:LR_Drum Hit Clap Sn.wav
358,192,236268,1,0,0:0:0:0:
153,192,236426,1,2,0:0:0:0:
256,192,236426,1,0,0:0:0:0:
51,192,236741,1,0,0:0:0:45:LR_Drum Hit Clap Sn.wav
153,192,236899,1,0,0:0:0:0:
256,192,237057,1,2,0:0:0:0:
153,192,237215,1,0,0:0:0:45:LR_Drum Hit Clap Sn.wav
256,192,237373,1,0,0:0:0:0:
358,192,237531,1,0,0:0:0:40:LR_Drum Hit Clap Sn.wav
460,192,237531,1,2,0:0:0:0:
153,192,238320,1,0,0:0:0:40:LR_Drum Hit Clap Sn.wav
51,192,238320,1,2,0:0:0:0:
460,192,238794,1,6,0:0:0:0:
51,192,238794,1,4,1:0:0:0:
153,192,239584,1,2,0:0:0:0:
358,192,239584,1,0,0:0:0:0:
460,192,239741,1,0,0:0:0:0:
358,192,239899,1,0,0:0:0:45:LR_Drum Hit Clap Sn.wav
256,192,240057,1,0,0:0:0:0:
153,192,240215,1,2,0:0:0:0:
358,192,240373,1,0,0:0:0:0:
256,192,240531,1,0,0:0:0:45:LR_Drum Hit Clap Sn.wav
153,192,240689,1,0,0:0:0:0:
51,192,240847,1,2,0:0:0:0:
460,192,241005,1,0,0:0:0:0:
358,192,241163,1,0,0:0:0:45:LR_Drum Hit Clap Sn.wav
256,192,241320,1,0,0:0:0:0:
153,192,241478,1,4,0:0:0:0:
460,192,241478,1,2,0:0:0:0:
51,192,241636,1,0,0:0:0:0:
153,192,241794,1,0,0:0:0:45:LR_Drum Hit Clap Sn.wav
256,192,241952,1,0,0:0:0:0:
51,192,242110,1,2,0:0:0:0:
358,192,242110,1,0,0:0:0:0:
256,192,242426,1,0,0:0:0:0:
153,192,242741,1,0,0:0:0:100:LR_Drum Crush Finish.wav
460,192,242741,1,6,0:0:0:0:
256,192,242952,1,6,0:0:0:0:
358,192,243163,1,6,0:0:0:0:
460,192,243373,1,0,0:0:0:100:LR_Drum Crush Finish.wav
51,192,243373,1,6,0:0:0:0:
153,192,243689,1,0,0:0:0:0:
358,192,244005,1,4,0:0:0:0:
358,192,244163,1,4,0:0:0:0:
51,192,244478,1,4,0:0:0:0:
51,192,244636,1,4,0:0:0:0:
460,192,244952,1,4,0:0:0:0:
460,192,245110,1,4,0:0:0:0:
153,192,245426,1,4,0:0:0:0:
153,192,245584,1,4,0:0:0:0:
256,192,245899,1,4,0:0:0:0:
358,192,245899,1,0,0:0:0:90:LR_Drum Crush Finish.wav
51,192,246531,1,4,0:0:0:0:
51,192,246689,1,4,0:0:0:0:
153,192,247005,1,4,0:0:0:0:
153,192,247163,1,4,0:0:0:0:
358,192,247478,1,4,0:0:0:0:
460,192,247636,1,4,0:0:0:0:
51,192,248110,1,0,0:0:0:0:
460,192,248426,1,4,0:0:0:0:
256,192,248426,1,0,0:0:0:90:LR_Drum Crush Finish.wav
256,192,248636,1,0,0:0:0:90:LR_Drum Crush Finish.wav
460,192,248643,1,0,0:0:0:0:
358,192,248847,1,0,0:0:0:90:LR_Drum Crush Finish.wav
153,192,248847,1,4,0:0:0:0:
256,192,249057,1,6,0:0:0:0:
51,192,249057,1,4,1:0:0:0:
358,192,249373,1,0,0:0:0:45:LR_Drum Hit Clap Sn.wav
51,192,249689,1,2,0:0:0:0:
153,192,249847,1,0,0:0:0:0:
256,192,250005,1,0,0:0:0:45:LR_Drum Hit Clap Sn.wav
358,192,250163,1,0,0:0:0:0:
460,192,250320,1,2,0:0:0:0:
153,192,250478,1,0,0:0:0:0:
358,192,250636,1,0,0:0:0:45:LR_Drum Hit Clap Sn.wav
51,192,250794,1,0,0:0:0:0:
256,192,250952,1,2,0:0:0:0:
460,192,250952,1,0,0:0:0:0:
153,192,251110,1,0,0:0:0:0:
358,192,251268,1,0,0:0:0:45:LR_Drum Hit Clap Sn.wav
51,192,251426,1,2,0:0:0:0:
460,192,251426,1,0,0:0:0:0:
358,192,251741,1,2,0:0:0:0:
153,192,251741,1,0,0:0:0:0:
460,192,251899,1,0,0:0:0:45:LR_Drum Hit Clap Sn.wav
256,192,252057,1,0,0:0:0:0:
358,192,252215,1,2,0:0:0:0:
153,192,252373,1,0,0:0:0:45:LR_Drum Hit Clap Sn.wav
256,192,252531,1,0,0:0:0:0:
51,192,252689,1,2,0:0:0:0:
460,192,252847,1,0,0:0:0:45:LR_Drum Hit Clap Sn.wav
358,192,253005,1,0,0:0:0:0:
51,192,253163,1,0,0:0:0:55:LR_Drum Rpd Fast .wav
256,192,253320,1,0,0:0:0:0:
153,192,253478,1,4,0:0:0:0:
256,192,253689,1,4,0:0:0:0:
358,192,253899,1,4,0:0:0:0:
51,192,254110,1,6,0:0:0:0:
460,192,254110,1,4,1:0:0:0:
256,192,254426,1,0,0:0:0:0:
51,192,254741,1,2,0:0:0:0:
153,192,254899,1,0,0:0:0:0:
256,192,255057,1,0,0:0:0:0:
358,192,255215,1,0,0:0:0:45:LR_Drum Hit Clap Sn.wav
460,192,255373,1,2,0:0:0:0:
153,192,255531,1,0,0:0:0:0:
358,192,255689,1,0,0:0:0:0:
256,192,255847,1,0,0:0:0:45:LR_Drum Hit Clap Sn.wav
460,192,256005,1,2,0:0:0:0:
51,192,256005,1,0,0:0:0:0:
358,192,256163,1,0,0:0:0:0:
256,192,256320,1,0,0:0:0:0:
153,192,256478,1,0,0:0:0:100:LR_Drum Rpd.wav
51,192,256636,1,2,0:0:0:0:
460,192,256636,1,4,0:0:0:0:
256,192,256952,1,0,0:0:0:45:LR_Drum Hit Clap Sn.wav
460,192,257268,1,0,0:0:0:45:LR_Drum Hit Clap Sn.wav
51,192,257426,1,0,0:0:0:0:
153,192,257584,1,0,0:0:0:0:
256,192,257741,1,0,0:0:0:45:LR_Drum Hit Clap Sn.wav
358,192,257899,1,0,0:0:0:100:LR_Drum Rpd.wav
51,192,257899,1,2,0:0:0:0:
460,192,258320,1,2,0:0:0:0:
153,192,258320,1,0,0:0:0:100:LR_Drum Rpd.wav
358,192,258741,1,2,0:0:0:0:
51,192,258741,1,0,0:0:0:100:LR_Drum Rpd.wav
256,192,259163,1,0,0:0:0:100:LR_Drum Crush Finish.wav
51,192,259163,128,2,260426:0:0:0:0:
460,192,259163,128,4,260426:0:0:0:0:
153,192,260426,128,2,261689:0:0:0:0:
358,192,260426,128,2,261689:0:0:0:0:
51,192,260741,1,0,0:0:0:20:LR_Drum Kick Low.wav
460,192,261057,1,0,0:0:0:35:LR_Drum Hit Clap Sn.wav
256,192,261373,1,0,0:0:0:25:LR_HiHat SClick 2.wav
51,192,261689,1,0,0:0:0:90:LR_Drum Crush Finish.wav
460,192,261689,1,4,0:0:0:0:
51,192,261847,1,0,0:0:0:90:LR_Drum Crush Finish.wav
460,192,261847,1,4,0:0:0:0:
51,192,262163,1,4,0:0:0:0:
460,192,262163,1,0,0:0:0:90:LR_Drum Crush Finish.wav
51,192,262320,1,4,0:0:0:0:
460,192,262320,1,0,0:0:0:90:LR_Drum Crush Finish.wav
358,192,262636,1,0,0:0:0:90:LR_Drum Crush Finish.wav
153,192,262636,1,4,0:0:0:0:
358,192,262794,1,0,0:0:0:90:LR_Drum Crush Finish.wav
153,192,262794,1,4,0:0:0:0:
153,192,263110,1,4,0:0:0:0:
358,192,263110,1,0,0:0:0:90:LR_Drum Crush Finish.wav
153,192,263268,1,4,0:0:0:0:
358,192,263268,1,0,0:0:0:90:LR_Drum Crush Finish.wav
51,192,263584,1,4,0:0:0:0:
460,192,263584,1,0,0:0:0:30:LR_RevCyRDW.wav
51,192,263899,1,0,0:0:0:90:LR_Drum Crush Finish.wav
460,192,263899,1,4,0:0:0:0:
51,192,264215,1,0,0:0:0:60:crash.wav
256,192,264215,1,4,1:0:0:0:
460,192,264215,1,6,0:0:0:0:
358,192,264531,1,0,0:0:0:45:LR_Drum Hit Clap Sn.wav
153,192,264847,1,2,0:0:0:0:
358,192,265005,1,0,0:0:0:0:
460,192,265163,1,0,0:0:0:45:LR_Drum Hit Clap Sn.wav
51,192,265320,1,0,0:0:0:0:
358,192,265478,1,2,0:0:0:0:
51,192,265794,1,0,0:0:0:45:LR_Drum Hit Clap Sn.wav
256,192,266110,1,2,0:0:0:0:
51,192,266426,1,0,0:0:0:45:LR_Drum Hit Clap Sn.wav
460,192,266426,1,0,0:0:0:0:
153,192,266584,1,0,0:0:0:0:
358,192,266741,1,2,0:0:0:0:
256,192,266741,1,4,0:0:0:0:
51,192,266899,1,0,0:0:0:0:
256,192,267057,1,0,0:0:0:45:LR_Drum Hit Clap Sn.wav
460,192,267215,1,4,0:0:0:0:
153,192,267373,1,2,0:0:0:0:
256,192,267531,1,0,0:0:0:45:LR_Drum Hit Clap Sn.wav
358,192,267689,1,0,0:0:0:0:
460,192,267847,1,4,0:0:0:0:
153,192,267847,1,2,0:0:0:0:
256,192,268163,1,0,0:0:0:0:
51,192,268320,1,4,0:0:0:0:
358,192,268320,1,0,0:0:0:45:LR_Drum Hit Clap Sn.wav
460,192,268636,1,2,0:0:0:0:
358,192,268794,1,0,0:0:0:0:
256,192,268952,1,0,0:0:0:55:LR_Drum Rpd Fast .wav
51,192,269110,1,0,0:0:0:55:LR_Drum Rpd Fast .wav
153,192,269268,1,2,0:0:0:0:
460,192,269268,1,4,0:0:0:0:
358,192,269584,1,0,0:0:0:45:LR_Drum Hit Clap Sn.wav
153,192,269899,1,2,0:0:0:0:
51,192,270057,1,0,0:0:0:0:
256,192,270215,1,0,0:0:0:45:LR_Drum Hit Clap Sn.wav
460,192,270373,1,0,0:0:0:0:
358,192,270531,1,2,0:0:0:0:
51,192,270847,1,0,0:0:0:45:LR_Drum Hit Clap Sn.wav
153,192,271005,1,0,0:0:0:0:
460,192,271163,1,2,0:0:0:0:
256,192,271163,1,0,0:0:0:0:
153,192,271478,1,0,0:0:0:45:LR_Drum Hit Clap Sn.wav
460,192,271794,1,2,0:0:0:0:
51,192,271794,1,4,0:0:0:0:
256,192,271952,1,0,0:0:0:0:
153,192,272110,1,0,0:0:0:45:LR_Drum Hit Clap Sn.wav
358,192,272268,1,0,0:0:0:0:
51,192,272426,1,2,0:0:0:0:
153,192,272584,1,0,0:0:0:45:LR_Drum Hit Clap Sn.wav
256,192,272741,1,0,0:0:0:0:
358,192,272899,1,2,0:0:0:0:
460,192,272899,1,0,0:0:0:0:
51,192,273215,1,2,0:0:0:0:
153,192,273215,1,0,0:0:0:0:
460,192,273689,1,2,0:0:0:0:
358,192,273847,1,0,0:0:0:0:
153,192,274005,1,0,0:0:0:100:LR_Drum Rpd.wav
51,192,274163,1,0,0:0:0:45:LR_Drum Hit Clap Sn.wav
358,192,274320,1,4,0:0:0:0:
460,192,274320,1,2,0:0:0:0:
51,192,274636,1,0,0:0:0:45:LR_Drum Hit Clap Sn.wav
256,192,274636,1,0,0:0:0:0:
153,192,274952,1,2,0:0:0:0:
256,192,275110,1,0,0:0:0:0:
358,192,275268,1,0,0:0:0:45:LR_Drum Hit Clap Sn.wav
460,192,275426,1,2,0:0:0:0:
51,192,275426,1,0,0:0:0:0:
256,192,275741,1,2,0:0:0:0:
51,192,276215,1,0,0:0:0:100:LR_Drum Rpd.wav
460,192,276452,1,0,0:0:0:100:LR_Drum Rpd.wav
256,192,276689,1,0,0:0:0:100:LR_Drum Rpd.wav
153,192,276847,1,4,0:0:0:0:
358,192,276847,1,2,0:0:0:0:
460,192,277163,1,0,0:0:0:45:LR_Drum Hit Clap Sn.wav
51,192,277478,1,2,0:0:0:0:
153,192,277794,1,0,0:0:0:0:
256,192,277952,1,4,0:0:0:0:
460,192,277952,1,2,0:0:0:0:
51,192,278268,1,2,0:0:0:0:
153,192,278268,1,4,0:0:0:0:
256,192,278426,1,0,0:0:0:45:LR_Drum Hit Clap Sn.wav
358,192,278584,1,0,0:0:0:0:
460,192,278741,1,2,0:0:0:0:
358,192,278899,1,0,0:0:0:0:
256,192,279057,1,0,0:0:0:45:LR_Drum Hit Clap Sn.wav
153,192,279215,1,0,0:0:0:45:LR_Drum Hit Clap Sn.wav
51,192,279373,1,4,0:0:0:0:
460,192,279373,1,2,0:0:0:0:
256,192,279689,1,0,0:0:0:45:LR_Drum Hit Clap Sn.wav
153,192,280005,1,0,0:0:0:0:
256,192,280163,1,0,0:0:0:0:
358,192,280320,1,0,0:0:0:45:LR_Drum Hit Clap Sn.wav
460,192,280478,1,2,0:0:0:0:
51,192,280913,1,2,0:0:0:0:
460,192,281268,1,2,0:0:0:0:
358,192,281426,1,0,0:0:0:0:
256,192,281584,1,0,0:0:0:45:LR_Drum Hit Clap Sn.wav
153,192,281741,1,0,0:0:0:100:LR_Drum Rpd.wav
51,192,281899,1,2,0:0:0:0:
358,192,281899,1,4,0:0:0:0:
153,192,282215,1,0,0:0:0:45:LR_Drum Hit Clap Sn.wav
460,192,282215,1,0,0:0:0:0:
358,192,282531,1,4,0:0:0:0:
51,192,282531,1,2,0:0:0:0:
153,192,282689,1,0,0:0:0:45:LR_Drum Hit Clap Sn.wav
256,192,282847,1,0,0:0:0:0:
358,192,283005,1,0,0:0:0:0:
460,192,283163,1,2,0:0:0:0:
153,192,283163,1,4,0:0:0:0:
358,192,283320,1,0,0:0:0:0:
256,192,283478,1,2,0:0:0:0:
51,192,283478,1,4,0:0:0:0:
153,192,283636,1,0,0:0:0:100:LR_Drum Rpd.wav
358,192,283794,1,0,0:0:0:45:LR_Drum Hit Clap Sn.wav
256,192,283952,1,0,0:0:0:45:LR_Drum Hit Clap Sn.wav
153,192,284110,128,0,284426:0:0:0:45:LR_Drum Hit Clap Sn.wav
460,192,284426,1,0,0:0:0:60:crash.wav
51,192,284426,1,4,1:0:0:0:
256,192,284426,1,6,0:0:0:0:
358,192,284741,1,0,0:0:0:45:LR_Drum Hit Clap Sn.wav
51,192,285057,1,2,0:0:0:0:
153,192,285057,1,0,0:0:0:0:
460,192,285373,1,0,0:0:0:45:LR_Drum Hit Clap Sn.wav
358,192,285531,1,0,0:0:0:0:
51,192,285689,1,2,0:0:0:0:
256,192,285689,1,0,0:0:0:0:
358,192,286005,1,0,0:0:0:45:LR_Drum Hit Clap Sn.wav
153,192,286320,1,2,0:0:0:0:
460,192,286320,1,0,0:0:0:0:
256,192,286636,1,0,0:0:0:45:LR_Drum Hit Clap Sn.wav
358,192,286794,1,0,0:0:0:0:
460,192,286952,1,2,0:0:0:0:
51,192,286952,1,4,0:0:0:0:
153,192,287110,1,0,0:0:0:0:
358,192,287268,1,0,0:0:0:45:LR_Drum Hit Clap Sn.wav
460,192,287426,1,4,0:0:0:0:
51,192,287426,1,0,0:0:0:0:
153,192,287584,1,2,0:0:0:0:
256,192,287741,1,0,0:0:0:45:LR_Drum Hit Clap Sn.wav
358,192,287899,1,0,0:0:0:0:
51,192,288057,1,4,0:0:0:0:
460,192,288057,1,2,0:0:0:0:
358,192,288373,1,0,0:0:0:0:
256,192,288531,1,4,0:0:0:0:
153,192,288531,1,0,0:0:0:45:LR_Drum Hit Clap Sn.wav
51,192,288847,1,2,0:0:0:0:
460,192,288847,1,0,0:0:0:0:
358,192,289005,1,0,0:0:0:0:
256,192,289163,1,0,0:0:0:55:LR_Drum Rpd Fast .wav
153,192,289320,1,0,0:0:0:55:LR_Drum Rpd Fast .wav
460,192,289478,1,2,0:0:0:0:
51,192,289478,1,4,0:0:0:0:
256,192,289794,1,0,0:0:0:45:LR_Drum Hit Clap Sn.wav
153,192,290110,1,2,0:0:0:0:
358,192,290110,1,0,0:0:0:0:
51,192,290268,1,0,0:0:0:0:
153,192,290426,1,0,0:0:0:45:LR_Drum Hit Clap Sn.wav
256,192,290584,1,0,0:0:0:0:
460,192,290741,1,2,0:0:0:0:
358,192,290741,1,0,0:0:0:0:
256,192,291057,1,0,0:0:0:45:LR_Drum Hit Clap Sn.wav
358,192,291215,1,0,0:0:0:0:
460,192,291373,1,2,0:0:0:0:
51,192,291373,1,0,0:0:0:0:
153,192,291689,1,0,0:0:0:45:LR_Drum Hit Clap Sn.wav
460,192,292005,1,2,0:0:0:0:
51,192,292005,1,4,0:0:0:0:
153,192,292163,1,0,0:0:0:0:
256,192,292320,1,0,0:0:0:45:LR_Drum Hit Clap Sn.wav
358,192,292478,1,0,0:0:0:0:
153,192,292636,1,2,0:0:0:0:
51,192,292636,1,0,0:0:0:0:
256,192,292794,1,0,0:0:0:45:LR_Drum Hit Clap Sn.wav
358,192,292952,1,0,0:0:0:0:
460,192,293110,1,2,0:0:0:0:
153,192,293110,1,0,0:0:0:0:
51,192,293426,1,0,0:0:0:0:
358,192,293426,1,2,0:0:0:0:
460,192,293899,1,2,0:0:0:0:
153,192,293899,1,0,0:0:0:0:
256,192,294057,1,0,0:0:0:0:
51,192,294215,1,2,0:0:0:0:
358,192,294215,1,0,0:0:0:100:LR_Drum Rpd.wav
256,192,294373,1,0,0:0:0:45:LR_Drum Hit Clap Sn.wav
460,192,294531,1,4,0:0:0:0:
153,192,294531,1,2,0:0:0:0:
51,192,294847,1,0,0:0:0:45:LR_Drum Hit Clap Sn.wav
153,192,295163,1,2,0:0:0:0:
358,192,295163,1,0,0:0:0:0:
51,192,295320,1,0,0:0:0:0:
256,192,295478,1,0,0:0:0:45:LR_Drum Hit Clap Sn.wav
460,192,295636,1,2,0:0:0:0:
153,192,295636,1,0,0:0:0:0:
358,192,295952,1,2,0:0:0:0:
51,192,295952,1,0,0:0:0:0:
51,192,296426,1,2,0:0:0:0:
256,192,296426,1,0,0:0:0:100:LR_Drum Rpd.wav
153,192,296663,1,0,0:0:0:100:LR_Drum Rpd.wav
358,192,296663,1,2,0:0:0:0:
256,192,296899,1,2,0:0:0:0:
460,192,296899,1,0,0:0:0:100:LR_Drum Rpd.wav
51,192,297057,1,2,0:0:0:0:
153,192,297057,1,4,0:0:0:0:
256,192,297373,1,0,0:0:0:45:LR_Drum Hit Clap Sn.wav
358,192,297689,1,2,0:0:0:0:
153,192,297689,1,0,0:0:0:0:
51,192,297847,1,0,0:0:0:45:LR_Drum Hit Clap Sn.wav
256,192,298005,1,0,0:0:0:0:
460,192,298163,1,4,0:0:0:0:
358,192,298163,1,0,0:0:0:0:
51,192,298478,1,4,0:0:0:0:
153,192,298478,1,0,0:0:0:0:
460,192,298636,1,0,0:0:0:45:LR_Drum Hit Clap Sn.wav
256,192,298794,1,0,0:0:0:0:
51,192,298952,1,2,0:0:0:0:
358,192,299110,1,0,0:0:0:0:
256,192,299268,1,0,0:0:0:45:LR_Drum Hit Clap Sn.wav
153,192,299373,1,0,0:0:0:55:LR_Drum Rpd Fast .wav
358,192,299478,1,0,0:0:0:45:LR_Drum Hit Clap Sn.wav
51,192,299584,1,4,0:0:0:0:
460,192,299584,1,2,0:0:0:0:
153,192,299899,1,0,0:0:0:45:LR_Drum Hit Clap Sn.wav
358,192,299899,1,0,0:0:0:0:
51,192,300215,1,0,0:0:0:0:
153,192,300373,1,0,0:0:0:0:
256,192,300531,1,0,0:0:0:45:LR_Drum Hit Clap Sn.wav
358,192,300689,1,2,0:0:0:0:
460,192,300689,1,0,0:0:0:0:
153,192,301123,1,2,0:0:0:0:
460,192,301478,1,2,0:0:0:0:
51,192,301478,1,0,0:0:0:0:
358,192,301636,1,0,0:0:0:0:
256,192,301794,1,0,0:0:0:45:LR_Drum Hit Clap Sn.wav
153,192,301952,1,0,0:0:0:100:LR_Drum Rpd.wav
51,192,302110,1,2,0:0:0:0:
460,192,302110,1,4,0:0:0:0:
153,192,302426,1,0,0:0:0:45:LR_Drum Hit Clap Sn.wav
358,192,302426,1,0,0:0:0:0:
51,192,302741,1,4,0:0:0:0:
460,192,302741,1,2,0:0:0:0:
153,192,302899,1,0,0:0:0:45:LR_Drum Hit Clap Sn.wav
256,192,303057,1,0,0:0:0:0:
358,192,303215,1,0,0:0:0:0:
51,192,303373,128,0,304636:0:0:0:45:LR_Drum Hit Clap Sn.wav
460,192,303373,1,0,0:0:0:0:
358,192,303531,1,0,0:0:0:45:LR_Drum Hit Clap Sn.wav
256,192,303689,1,0,0:0:0:45:LR_Drum Hit Clap Sn.wav
153,192,303847,1,0,0:0:0:45:LR_Drum Hit Clap Sn.wav
460,192,304005,1,0,0:0:0:70:LR_Tom Hit 2.wav
358,192,304163,1,0,0:0:0:70:LR_Tom Hit 2.wav
256,192,304320,128,0,304636:0:0:0:70:LR_Tom Hit 3.wav
460,192,304636,1,0,0:0:0:60:crash.wav
358,192,304636,1,6,0:0:0:0:
153,192,304636,1,4,1:0:0:0:
256,192,304952,1,0,0:0:0:60:LR_Drum Hit Clap Sn.wav
51,192,304952,1,0,0:0:0:0:
153,192,305268,1,0,0:0:0:0:
460,192,305268,1,0,0:0:0:0:
358,192,305584,1,0,0:0:0:60:LR_Drum Hit Clap Sn.wav
51,192,305584,1,0,0:0:0:0:
460,192,305899,1,2,0:0:0:0:
256,192,305899,1,0,0:0:0:0:
358,192,306215,1,0,0:0:0:60:LR_Drum Hit Clap Sn.wav
153,192,306215,1,0,0:0:0:0:
256,192,306531,1,0,0:0:0:0:
51,192,306531,1,0,0:0:0:0:
358,192,306847,1,0,0:0:0:60:LR_Drum Hit Clap Sn.wav
153,192,306847,1,0,0:0:0:0:
460,192,307163,1,4,0:0:0:0:
256,192,307163,1,2,0:0:0:0:
51,192,307478,1,0,0:0:0:60:LR_Drum Hit Clap Sn.wav
358,192,307478,1,0,0:0:0:0:
153,192,307794,1,0,0:0:0:0:
256,192,307952,1,0,0:0:0:60:LR_Drum Hit Clap Sn.wav
358,192,308110,1,0,0:0:0:0:
460,192,308268,1,0,0:0:0:0:
153,192,308426,1,2,0:0:0:0:
256,192,308426,1,0,0:0:0:0:
460,192,308584,1,0,0:0:0:0:
358,192,308741,1,0,0:0:0:60:LR_Drum Hit Clap Sn.wav
256,192,308899,1,0,0:0:0:0:
153,192,309057,1,2,0:0:0:0:
51,192,309057,1,0,0:0:0:0:
358,192,309215,1,0,0:0:0:60:LR_Drum Hit Clap Sn.wav
256,192,309373,1,0,0:0:0:0:
153,192,309531,1,0,0:0:0:0:
51,192,309689,1,4,0:0:0:0:
460,192,309689,1,2,0:0:0:0:
256,192,310005,1,0,0:0:0:60:LR_Drum Hit Clap Sn.wav
358,192,310005,1,0,0:0:0:0:
153,192,310320,1,0,0:0:0:0:
460,192,310320,1,0,0:0:0:0:
51,192,310636,1,0,0:0:0:60:LR_Drum Hit Clap Sn.wav
256,192,310636,1,0,0:0:0:0:
153,192,310952,1,2,0:0:0:0:
358,192,310952,1,0,0:0:0:0:
51,192,311110,1,0,0:0:0:0:
153,192,311268,1,0,0:0:0:60:LR_Drum Hit Clap Sn.wav
358,192,311426,1,0,0:0:0:0:
460,192,311584,1,2,0:0:0:0:
51,192,311584,1,0,0:0:0:0:
358,192,311741,1,0,0:0:0:0:
256,192,311899,1,0,0:0:0:60:LR_Drum Hit Clap Sn.wav
153,192,311899,1,0,0:0:0:0:
460,192,312215,1,2,0:0:0:0:
51,192,312215,1,4,0:0:0:0:
153,192,312531,1,0,0:0:0:60:LR_Drum Hit Clap Sn.wav
358,192,312531,1,0,0:0:0:0:
51,192,312847,1,0,0:0:0:0:
153,192,313005,1,0,0:0:0:60:LR_Drum Hit Clap Sn.wav
256,192,313163,1,0,0:0:0:0:
358,192,313320,1,0,0:0:0:0:
460,192,313478,1,4,0:0:0:0:
51,192,313478,1,2,0:0:0:0:
358,192,313636,1,0,0:0:0:0:
256,192,313794,1,0,0:0:0:60:LR_Drum Hit Clap Sn.wav
153,192,313952,1,0,0:0:0:0:
51,192,314110,1,2,0:0:0:0:
460,192,314110,1,0,0:0:0:0:
460,192,314347,1,2,0:0:0:0:
51,192,314347,1,0,0:0:0:0:
460,192,314584,1,2,0:0:0:0:
51,192,314584,1,0,0:0:0:0:
358,192,314741,1,4,0:0:0:0:
153,192,314741,1,2,0:0:0:0:
51,192,315057,1,0,0:0:0:60:LR_Drum Hit Clap Sn.wav
256,192,315057,1,0,0:0:0:0:
460,192,315373,1,0,0:0:0:0:
153,192,315373,1,0,0:0:0:0:
51,192,315689,1,0,0:0:0:60:LR_Drum Hit Clap Sn.wav
358,192,315689,1,0,0:0:0:0:
256,192,316005,1,2,0:0:0:0:
460,192,316005,1,0,0:0:0:0:
153,192,316320,1,0,0:0:0:60:LR_Drum Hit Clap Sn.wav
358,192,316320,1,0,0:0:0:0:
256,192,316636,1,0,0:0:0:0:
51,192,316636,1,0,0:0:0:0:
358,192,316952,1,0,0:0:0:60:LR_Drum Hit Clap Sn.wav
153,192,316952,1,0,0:0:0:0:
256,192,317268,1,2,0:0:0:0:
460,192,317268,1,4,0:0:0:0:
51,192,317584,1,0,0:0:0:60:LR_Drum Hit Clap Sn.wav
358,192,317584,1,0,0:0:0:0:
153,192,317899,1,0,0:0:0:0:
460,192,317899,1,0,0:0:0:0:
256,192,318057,1,0,0:0:0:60:LR_Drum Hit Clap Sn.wav
358,192,318215,1,0,0:0:0:0:
460,192,318373,1,0,0:0:0:0:
51,192,318531,1,2,0:0:0:0:
256,192,318531,1,0,0:0:0:0:
460,192,318689,1,0,0:0:0:0:
358,192,318847,1,0,0:0:0:0:
256,192,319005,1,0,0:0:0:0:
153,192,319163,1,2,0:0:0:0:
51,192,319163,1,0,0:0:0:0:
358,192,319320,1,0,0:0:0:0:
256,192,319478,1,0,0:0:0:0:
153,192,319636,1,0,0:0:0:0:
51,192,319794,1,4,0:0:0:0:
460,192,319794,1,2,0:0:0:0:
358,192,319794,1,0,0:0:0:0:
153,192,319952,1,0,0:0:0:45:LR_Drum Hit Clap Sn.wav
256,192,320110,1,0,0:0:0:0:
358,192,320268,1,0,0:0:0:45:LR_Drum Hit Clap Sn.wav
153,192,320426,1,0,0:0:0:0:
256,192,320584,1,0,0:0:0:0:
358,192,320741,1,0,0:0:0:45:LR_Drum Hit Clap Sn.wav
460,192,320899,1,0,0:0:0:0:
256,192,321057,1,2,0:0:0:0:
51,192,321057,1,4,0:0:0:0:
153,192,321057,1,0,0:0:0:0:
358,192,321215,1,0,0:0:0:45:LR_Drum Hit Clap Sn.wav
153,192,321373,1,0,0:0:0:0:
256,192,321531,1,0,0:0:0:0:
358,192,321689,1,0,0:0:0:45:LR_Drum Hit Clap Sn.wav
51,192,321847,1,0,0:0:0:0:
153,192,322005,1,0,0:0:0:45:LR_Drum Hit Clap Sn.wav
256,192,322163,1,0,0:0:0:0:
51,192,322320,1,0,0:0:0:45:LR_Drum Hit Clap Sn.wav
460,192,322320,1,2,0:0:0:0:
358,192,322320,1,4,0:0:0:0:
153,192,322478,1,0,0:0:0:45:LR_Drum Hit Clap Sn.wav
256,192,322636,1,0,0:0:0:45:LR_Drum Hit Clap Sn.wav
358,192,322794,1,0,0:0:0:45:LR_Drum Hit Clap Sn.wav
51,192,322952,1,0,0:0:0:45:LR_Drum Hit Clap Sn.wav
153,192,322952,1,0,0:0:0:0:
256,192,323110,1,0,0:0:0:45:LR_Drum Hit Clap Sn.wav
358,192,323268,1,0,0:0:0:45:LR_Drum Hit Clap Sn.wav
460,192,323426,1,0,0:0:0:45:LR_Drum Hit Clap Sn.wav
153,192,323584,1,2,0:0:0:0:
51,192,323584,1,4,0:0:0:0:
358,192,323584,1,0,0:0:0:45:LR_Drum Hit Clap Sn.wav
460,192,323741,1,0,0:0:0:45:LR_Drum Hit Clap Sn.wav
256,192,323899,1,0,0:0:0:45:LR_Drum Hit Clap Sn.wav
153,192,323899,1,4,0:0:0:0:
358,192,324057,1,0,0:0:0:45:LR_Drum Hit Clap Sn.wav
51,192,324215,1,6,0:0:0:0:
460,192,324215,1,0,0:0:0:45:LR_Drum Hit Clap Sn.wav
358,192,324373,1,0,0:0:0:45:LR_Drum Hit Clap Sn.wav
153,192,324373,1,6,0:0:0:0:
51,192,324531,1,0,0:0:0:45:LR_Drum Hit Clap Sn.wav
460,192,324531,1,6,0:0:0:0:
153,192,324689,1,6,0:0:0:0:
358,192,324689,1,0,0:0:0:45:LR_Drum Hit Clap Sn.wav
51,192,324847,128,0,329892:0:0:0:70:crash.wav
460,192,324847,128,4,327373:1:0:0:0:
256,192,324847,1,6,0:0:0:0:
153,192,325478,1,2,0:0:0:0:
358,192,326110,1,2,0:0:0:0:
256,192,327373,1,2,0:0:0:0:
460,192,328005,1,2,0:0:0:0:
358,192,328950,1,2,0:0:0:0:
153,192,329264,1,2,0:0:0:0:
460,192,329578,1,2,0:0:0:0:
358,192,329892,1,0,0:0:0:0:
256,192,329892,1,0,0:0:0:0:
51,192,330207,1,0,0:0:0:0:
153,192,330523,1,0,0:0:0:0:
256,192,330839,1,0,0:0:0:0:
358,192,331155,1,0,0:0:0:0:
460,192,331470,1,2,0:0:0:0:
358,192,331628,1,2,0:0:0:0:
358,192,332418,1,0,0:0:0:0:
51,192,332418,1,0,0:0:0:0:
256,192,332725,1,0,0:0:0:0:
153,192,333033,1,0,0:0:0:0:
358,192,333341,1,2,0:0:0:0:
256,192,333640,1,2,0:0:0:0:
460,192,333640,1,0,0:0:0:0:
51,192,333985,1,0,0:0:0:0:
153,192,334250,1,2,0:0:0:0:
358,192,334250,1,0,0:0:0:0:
460,192,334616,1,0,0:0:0:0:
51,192,334901,1,0,0:0:0:0:
256,192,334942,1,2,0:0:0:0:
153,192,335257,1,0,0:0:0:0:
358,192,335573,1,2,0:0:0:0:
51,192,335889,1,0,0:0:0:0:
460,192,336205,1,2,0:0:0:0:
153,192,336495,1,2,0:0:0:0:
358,192,336809,1,2,0:0:0:0:
460,192,337123,1,2,0:0:0:0:
153,192,337482,1,2,0:0:0:0:
358,192,337482,1,0,0:0:0:0:
51,192,338110,1,0,0:0:0:0:
460,192,338110,1,2,0:0:0:0:
358,192,339052,1,2,0:0:0:0:
256,192,339366,1,2,0:0:0:0:
153,192,339680,1,2,0:0:0:0:
51,192,339955,1,0,0:0:0:0:
460,192,339995,1,2,0:0:0:0:
153,192,340310,1,0,0:0:0:0:
256,192,340626,1,0,0:0:0:0:
460,192,340922,1,0,0:0:0:0:
51,192,340922,1,2,0:0:0:0:
256,192,341258,1,0,0:0:0:0:
358,192,341554,1,2,0:0:0:0:
153,192,341712,1,2,0:0:0:0:
51,192,342481,1,0,0:0:0:0:
460,192,342521,1,2,0:0:0:0:
153,192,342837,1,2,0:0:0:0:
256,192,343152,1,2,0:0:0:0:
358,192,343468,1,2,0:0:0:0:
460,192,343784,1,0,0:0:0:25:LR_Chm Echo long.wav
51,192,343784,1,2,0:0:0:0:
358,192,344100,1,0,0:0:0:0:
256,192,344416,1,0,0:0:0:0:
153,192,344731,1,0,0:0:0:0:
51,192,345027,1,0,0:0:0:0:
460,192,345047,1,2,0:0:0:0:
153,192,345363,1,0,0:0:0:0:
358,192,345679,1,2,0:0:0:0:
51,192,345995,1,0,0:0:0:0:
460,192,346310,1,2,0:0:0:0:
153,192,347573,1,2,0:0:0:0:
358,192,347573,1,0,0:0:0:0:
256,192,348211,1,2,0:0:0:0:
460,192,348211,1,0,0:0:0:0:
358,192,349168,1,2,0:0:0:0:
153,192,349487,1,2,0:0:0:0:
460,192,349807,1,2,0:0:0:0:
51,192,350126,1,0,0:0:0:0:
358,192,350126,1,2,0:0:0:0:
153,192,350448,1,0,0:0:0:0:
256,192,350771,1,0,0:0:0:0:
358,192,351093,1,0,0:0:0:0:
460,192,351416,1,0,0:0:0:0:
358,192,351738,1,2,0:0:0:0:
153,192,351900,1,2,0:0:0:0:
153,192,352682,1,0,0:0:0:0:
460,192,352682,1,2,0:0:0:0:
256,192,353008,1,0,0:0:0:0:
51,192,353334,1,0,0:0:0:0:
358,192,353660,1,2,0:0:0:0:
51,192,353965,1,0,0:0:0:0:
460,192,354006,1,2,0:0:0:0:
256,192,354340,1,0,0:0:0:0:
358,192,354604,1,2,0:0:0:0:
153,192,354653,1,0,0:0:0:0:
256,192,355001,1,0,0:0:0:0:
51,192,355311,1,0,0:0:0:0:
460,192,355357,1,2,0:0:0:0:
153,192,355681,1,0,0:0:0:0:
256,192,356014,1,2,0:0:0:0:
51,192,356347,1,0,0:0:0:0:
358,192,356681,1,2,0:0:0:0:
153,192,356996,1,2,0:0:0:0:
256,192,357329,1,2,0:0:0:0:
460,192,357662,1,2,0:0:0:0:
358,192,357996,1,0,0:0:0:0:
51,192,358037,1,2,0:0:0:0:
153,192,358681,1,0,0:0:0:0:
460,192,358722,1,2,0:0:0:0:
460,192,359757,1,2,0:0:0:0:
256,192,360109,1,2,0:0:0:0:
51,192,360462,1,2,0:0:0:0:
153,192,360815,1,2,0:0:0:0:
358,192,360845,1,0,0:0:0:0:
51,192,361168,1,0,0:0:0:0:
153,192,361516,1,0,0:0:0:0:
256,192,361831,1,2,0:0:0:0:
460,192,361831,1,0,0:0:0:0:
358,192,362183,1,0,0:0:0:0:
460,192,362492,1,2,0:0:0:0:
358,192,362669,1,2,0:0:0:0:
51,192,363463,1,0,0:0:0:0:
460,192,363507,1,2,0:0:0:0:
153,192,363872,1,2,0:0:0:0:
256,192,364247,1,2,0:0:0:0:
358,192,364631,1,2,0:0:0:0:
460,192,365025,1,2,0:0:0:0:
51,192,365025,1,0,0:0:0:0:
358,192,365418,1,2,0:0:0:0:
256,192,365831,1,2,0:0:0:0:
153,192,366245,1,2,0:0:0:0:
51,192,366560,1,0,0:0:0:0:
256,192,366698,1,2,0:0:0:0:
460,192,366837,1,2,0:0:0:0:
51,192,367981,1,0,0:0:0:0:
153,192,368422,1,0,0:0:0:0:
256,192,368832,1,0,0:0:0:0:
358,192,369245,1,0,0:0:0:0:
460,192,369771,1,0,0:0:0:0:
51,192,370271,1,0,0:0:0:0:
256,192,370699,1,0,0:0:0:0:
358,192,371167,1,0,0:0:0:0:
153,192,371618,1,0,0:0:0:0:
256,192,372139,1,0,0:0:0:0:
460,192,372580,1,0,0:0:0:0:
51,192,373002,1,0,0:0:0:0:
153,192,373602,1,0,0:0:0:0:
256,192,374254,1,0,0:0:0:0:
358,192,374935,1,0,0:0:0:0:
153,192,375675,1,0,0:0:0:0:
358,192,376425,1,0,0:0:0:0:
256,192,377381,1,0,0:0:0:0:
358,192,377487,1,0,0:0:0:0:
460,192,377593,1,0,0:0:0:10:LR_Chm Echo long.wav
