osu file format v14

[General]
AudioFilename: 34.mp3
AudioLeadIn: 0
PreviewTime: 151348
Countdown: 0
SampleSet: Soft
StackLeniency: 0.7
Mode: 3
LetterboxInBreaks: 0
SpecialStyle: 0
WidescreenStoryboard: 0

[Editor]
Bookmarks: 10965,18347,63741
DistanceSpacing: 1.2
BeatDivisor: 4
GridSize: 4
TimelineZoom: 2.3

[Metadata]
Title:Halcyon -Long Version-
TitleUnicode:Halcyon -Long Version-
Artist:xi
ArtistUnicode:xi
Creator:JamesHappy
Version:Alcyone
Source:BMS
Tags:of fighters groundbreaking bof 2010 -the evolution of war- renaissance hardcore yama_ko Lyrical Signal Parousia Cytus
BeatmapID:667192
BeatmapSetID:297193

[Difficulty]
HPDrainRate:8.3
CircleSize:5
OverallDifficulty:8.4
ApproachRate:5
SliderMultiplier:1.4
SliderTickRate:1

[Events]
//Background and Video events
0,0,"Konachan.com - 184607 sample.jpg",0,0
//Break Periods
//Storyboard Layer 0 (Background)
//Storyboard Layer 1 (Fail)
//Storyboard Layer 2 (Pass)
//Storyboard Layer 3 (Foreground)
//Storyboard Sound Samples

[TimingPoints]
914,628.272251308901,4,2,1,25,1,0
914,-55.5555555555556,4,2,1,25,0,0
1699,-62.5,4,2,1,25,0,0
2170,628.272251308901,4,2,1,25,1,0
2170,-55.5555555555556,4,2,1,25,0,0
9709,638.297872340426,4,2,1,25,1,0
9709,-54.6448087431694,4,2,1,25,0,0
10985,666.666666666667,4,2,1,25,1,0
10985,-52.3560209424084,4,2,1,25,0,0
11651,714.285714285714,4,2,1,25,1,0
11651,-48.8758553274682,4,2,1,25,0,0
12365,628.272251308901,4,2,1,25,1,0
12379,-55.5555555555556,4,2,1,25,0,0
17391,666.666666666667,4,2,1,25,1,0
17391,-52.3560209424084,4,2,1,25,0,0
20057,722.89156626506,4,2,1,25,1,0
20057,-54.3478260869565,4,2,1,25,0,0
21502,736.196319018405,4,2,1,25,1,0
21502,-53.3376963350785,4,2,1,25,0,0
22974,681.818181818182,4,2,1,25,1,0
22974,-57.5916230366492,4,2,1,25,0,0
25701,681.818181818182,4,2,1,25,1,0
25701,-50.761421319797,4,2,1,25,0,0
26212,550.45871559633,4,2,1,25,1,0
26212,-63.4089586969168,4,2,1,25,0,0
26349,628.272251308901,4,2,1,25,1,0
26349,-62.5,4,2,1,25,0,0
61532,628.272251308901,4,2,1,25,1,0
61532,-64.5161290322581,4,2,1,25,0,0
62160,659.340659340659,4,2,1,25,1,0
62165,-63.6942675159236,4,2,1,25,0,0
62819,705.882352941176,4,2,1,25,1,0
62819,-59.8802395209581,4,2,1,25,0,0
63524,750,4,2,1,25,1,0
63524,-55.8659217877095,4,2,1,25,0,0
64274,784.313725490196,4,2,1,25,1,0
64274,-73.5294117647059,4,2,1,25,0,0
65058,869.565217391304,4,2,1,25,1,0
65058,-66.6666666666667,4,2,1,25,0,0
65927,1090.90909090909,4,2,1,25,1,0
65927,-71.9895287958115,4,2,1,25,0,0
66745,800,4,2,1,25,1,0
66745,-98.1675392670157,4,2,1,25,0,0
66945,1500,4,2,1,25,1,0
66945,-52.3560209424084,4,2,1,25,0,0
67695,1445.78313253012,4,2,1,25,1,0
67695,-43.4554973821989,4,2,1,25,0,0
68417,314.13612565445,4,2,1,25,1,0
68417,-200,4,2,1,25,0,0
69045,-100,4,2,1,25,0,0
69673,-100,4,2,1,25,0,1
89778,-40,4,2,1,25,0,0
89856,-200,4,2,1,25,0,0
90092,-100,4,2,1,25,0,0
99830,-40,4,2,1,25,0,0
99909,-200,4,2,1,25,0,0
100144,-100,4,2,1,25,0,0
109882,-40,4,2,1,25,0,0
109961,-200,4,2,1,25,0,0
110197,-100,4,2,1,25,0,0
119935,-40,4,2,1,25,0,0
120013,-200,4,2,1,25,0,0
120249,-100,4,2,1,25,0,0
151034,-40,4,2,1,25,0,0
151113,-200,4,2,1,25,0,0
151348,-100,4,2,1,25,0,0
171453,-100,4,2,1,25,0,1
192500,-40,4,2,1,25,0,1
192579,-200,4,2,1,25,0,1
192814,-105.263157894737,4,2,1,25,0,0
193443,-107.52688172043,4,2,1,25,0,0
194071,-125,4,2,1,25,0,0
196584,-117.647058823529,4,2,1,25,0,0
199097,-125,4,2,1,25,0,0
199569,-133.333333333333,4,2,1,25,0,0
200040,-142.857142857143,4,2,1,25,0,0
203181,-117.647058823529,4,2,1,25,0,0
205380,-125,4,2,1,25,0,0
206637,-117.647058823529,4,2,1,25,0,0
209150,-125,4,2,1,25,0,0
209621,-133.333333333333,4,2,1,25,0,0
210092,-142.857142857143,4,2,1,25,0,0
213234,-117.647058823529,4,2,1,25,0,0
214176,-100,4,2,1,25,0,0
224228,-100,4,2,1,25,0,0
233024,-100,4,2,1,25,0,0
256584,-40,4,2,1,25,0,0
256663,-200,4,2,1,25,0,0
256898,-100,4,2,1,25,0,0
277003,-100,4,2,1,25,0,1
280616,-133.333333333333,4,2,1,25,0,1
280746,-66.6666666666667,4,2,1,25,0,1
280877,-133.333333333333,4,2,1,25,0,1
280982,-66.6666666666667,4,2,1,25,0,1
281087,-133.333333333333,4,2,1,25,0,1
281191,-66.6666666666667,4,2,1,25,0,1
281296,-133.333333333333,4,2,1,25,0,1
281401,-66.6666666666667,4,2,1,25,0,1
281506,-133.333333333333,4,2,1,25,0,1
281610,-66.6666666666667,4,2,1,25,0,1
281715,-100,4,2,1,25,0,1
299307,-40,4,2,1,25,0,0
299385,-200,4,2,1,25,0,0
299621,-66.6666666666667,4,2,1,25,0,0
299778,-200,4,2,1,25,0,0
299935,-100,4,2,1,25,0,1
303076,-100,4,2,1,25,0,0

[HitObjects]
256,192,914,5,0,0:0:0:0:
51,192,1228,1,0,0:0:0:0:
256,192,1385,1,0,0:0:0:0:
460,192,1542,1,0,0:0:0:0:
153,192,1699,1,0,0:0:0:0:
256,192,1856,1,0,0:0:0:0:
358,192,2013,1,0,0:0:0:0:
64,192,2170,1,0,0:0:0:0:
460,192,2170,1,0,0:0:0:0:
192,192,2484,1,0,0:0:0:0:
320,192,2798,1,0,0:0:0:0:
448,192,3112,1,0,0:0:0:0:
153,192,3740,128,0,3793:0:0:0:0:
256,192,4054,128,0,4107:0:0:0:0:
358,192,4368,128,0,4421:0:0:0:0:
36,192,4683,1,0,0:0:0:0:
256,192,4683,1,0,0:0:0:0:
109,192,4997,1,0,0:0:0:0:
51,192,4997,1,0,0:0:0:0:
256,192,5311,1,0,0:0:0:0:
460,192,5311,1,0,0:0:0:0:
358,192,5625,1,0,0:0:0:0:
460,192,5625,1,0,0:0:0:0:
256,192,5939,1,0,0:0:0:0:
51,192,5939,1,0,0:0:0:0:
460,192,6253,1,0,0:0:0:0:
358,192,6253,1,0,0:0:0:0:
448,192,6567,1,0,0:0:0:0:
153,192,6567,1,0,0:0:0:0:
358,192,6567,1,0,0:0:0:0:
51,192,6777,1,0,0:0:0:0:
153,192,6986,1,0,0:0:0:0:
153,192,7196,1,0,0:0:0:0:
448,192,7196,1,0,0:0:0:0:
358,192,7196,1,0,0:0:0:0:
256,192,7510,1,0,0:0:0:0:
320,192,7824,1,0,0:0:0:0:
51,192,7824,1,0,0:0:0:0:
448,192,8138,1,0,0:0:0:0:
256,192,8138,1,0,0:0:0:0:
51,192,8452,1,0,0:0:0:0:
402,192,8766,1,0,0:0:0:0:
36,192,8766,1,0,0:0:0:0:
256,192,9080,1,0,0:0:0:0:
153,192,9080,1,0,0:0:0:0:
36,192,9395,1,0,0:0:0:0:
460,192,9395,1,0,0:0:0:0:
182,192,9709,1,0,0:0:0:0:
358,192,10028,1,0,0:0:0:0:
109,192,10347,1,0,0:0:0:0:
460,192,10347,1,0,0:0:0:0:
329,192,10985,1,0,0:0:0:0:
36,192,10985,1,0,0:0:0:0:
109,192,11318,1,0,0:0:0:0:
51,192,11651,1,0,0:0:0:0:
475,192,11651,1,0,0:0:0:0:
109,192,12008,1,0,0:0:0:0:
256,192,12186,1,0,0:0:0:0:
402,192,12365,1,0,0:0:0:0:
36,192,12365,1,0,0:0:0:0:
109,192,12679,1,0,0:0:0:0:
256,192,12993,1,0,0:0:0:0:
358,192,13307,1,0,0:0:0:0:
460,192,13307,1,0,0:0:0:0:
182,192,13935,1,0,0:0:0:0:
329,192,14249,1,0,0:0:0:0:
256,192,14563,1,0,0:0:0:0:
460,192,14878,1,0,0:0:0:0:
36,192,14878,1,0,0:0:0:0:
109,192,15192,1,0,0:0:0:0:
256,192,15506,1,0,0:0:0:0:
329,192,15820,1,0,0:0:0:0:
475,192,15820,1,0,0:0:0:0:
51,192,16448,1,0,0:0:0:0:
182,192,16762,1,0,0:0:0:0:
256,192,17077,1,0,0:0:0:0:
329,192,17391,1,0,0:0:0:0:
36,192,17391,1,0,0:0:0:0:
182,192,17724,1,0,0:0:0:0:
329,192,18057,1,0,0:0:0:0:
475,192,18391,1,0,0:0:0:0:
256,192,18391,1,0,0:0:0:0:
182,192,19057,1,0,0:0:0:0:
256,192,19391,1,0,0:0:0:0:
329,192,19724,1,0,0:0:0:0:
109,192,20057,1,0,0:0:0:0:
256,192,20102,1,0,0:0:0:0:
358,192,20147,1,0,0:0:0:0:
460,192,21502,1,0,0:0:0:0:
36,192,22974,1,0,0:0:0:0:
153,192,22974,1,0,0:0:0:0:
51,192,25701,128,0,25871:0:0:0:0:
153,192,25871,128,0,26041:0:0:0:0:
256,192,26041,128,0,26212:0:0:0:0:
320,192,26212,128,0,26349:0:0:0:0:
64,192,26349,1,4,0:0:0:0:
448,192,26349,128,0,28862:0:0:0:0:
256,192,28862,1,0,0:0:0:0:
51,192,28862,1,0,0:0:0:0:
153,192,29176,128,0,29333:0:0:0:0:
358,192,29333,128,0,29490:0:0:0:0:
64,192,29490,128,0,29699:0:0:0:0:
256,192,29699,128,0,29909:0:0:0:0:
460,192,29909,128,0,30118:0:0:0:0:
402,192,30118,128,0,30432:0:0:0:0:
256,192,30432,128,0,30746:0:0:0:0:
192,192,30746,128,0,31061:0:0:0:0:
64,192,31061,128,0,31375:0:0:0:0:
460,192,31375,1,0,0:0:0:0:
256,192,31375,128,0,31846:0:0:0:0:
358,192,31846,128,0,32317:0:0:0:0:
460,192,32317,128,0,35144:0:0:0:0:
256,192,33888,1,0,0:0:0:0:
329,192,35144,1,0,0:0:0:0:
51,192,35144,1,0,0:0:0:0:
448,192,35458,128,0,35773:0:0:0:0:
51,192,35773,128,0,35930:0:0:0:0:
153,192,35930,128,0,36087:0:0:0:0:
256,192,36087,128,0,36244:0:0:0:0:
358,192,36244,128,0,36401:0:0:0:0:
51,192,36401,1,0,0:0:0:0:
460,192,36401,128,0,37657:0:0:0:0:
64,192,37657,128,0,38914:0:0:0:0:
320,192,37657,128,0,38914:0:0:0:0:
460,192,38914,1,0,0:0:0:0:
256,192,39228,128,0,39856:0:0:0:0:
51,192,39856,128,0,40013:0:0:0:0:
153,192,40013,128,0,40170:0:0:0:0:
358,192,40170,128,0,40328:0:0:0:0:
460,192,40170,1,0,0:0:0:0:
51,192,40328,128,0,40485:0:0:0:0:
358,192,40485,128,0,40642:0:0:0:0:
51,192,40642,128,0,40799:0:0:0:0:
358,192,40799,128,0,41113:0:0:0:0:
460,192,41113,128,0,41270:0:0:0:0:
182,192,41427,1,0,0:0:0:0:
329,192,41427,128,0,41898:0:0:0:0:
475,192,41427,128,0,41898:0:0:0:0:
192,192,41898,128,0,42212:0:0:0:0:
51,192,41898,128,0,42212:0:0:0:0:
153,192,42369,128,0,45197:0:0:0:0:
51,192,42369,128,0,45197:0:0:0:0:
256,192,43940,1,0,0:0:0:0:
256,192,45197,1,0,0:0:0:0:
448,192,45511,128,0,45825:0:0:0:0:
51,192,45825,128,0,45982:0:0:0:0:
153,192,45982,128,0,46139:0:0:0:0:
256,192,46139,128,0,46296:0:0:0:0:
329,192,46296,128,0,46453:0:0:0:0:
36,192,46453,1,0,0:0:0:0:
448,192,46453,128,0,48966:0:0:0:0:
153,192,46453,1,0,0:0:0:0:
256,192,48966,1,0,0:0:0:0:
109,192,48966,1,0,0:0:0:0:
448,192,49280,128,0,49438:0:0:0:0:
153,192,49438,128,0,49595:0:0:0:0:
358,192,49595,128,0,49804:0:0:0:0:
51,192,49804,128,0,50013:0:0:0:0:
256,192,50013,128,0,50223:0:0:0:0:
320,192,50223,128,0,50537:0:0:0:0:
256,192,50537,128,0,50851:0:0:0:0:
192,192,50851,128,0,51165:0:0:0:0:
51,192,51165,128,0,51479:0:0:0:0:
109,192,51479,1,0,0:0:0:0:
256,192,51479,128,0,51951:0:0:0:0:
329,192,51951,128,0,52422:0:0:0:0:
256,192,52422,128,0,52579:0:0:0:0:
192,192,52579,128,0,52736:0:0:0:0:
475,192,52736,1,0,0:0:0:0:
64,192,52736,128,0,53364:0:0:0:0:
256,192,52736,128,0,53364:0:0:0:0:
153,192,53364,128,0,53992:0:0:0:0:
358,192,53364,128,0,53992:0:0:0:0:
256,192,53992,1,0,0:0:0:0:
460,192,53992,128,0,54464:0:0:0:0:
358,192,54464,128,0,54935:0:0:0:0:
256,192,54935,128,0,55249:0:0:0:0:
51,192,55249,1,0,0:0:0:0:
358,192,55249,128,0,55563:0:0:0:0:
153,192,55563,128,0,55877:0:0:0:0:
51,192,55877,128,0,56034:0:0:0:0:
153,192,56034,128,0,56191:0:0:0:0:
256,192,56191,128,0,56349:0:0:0:0:
329,192,56349,128,0,56506:0:0:0:0:
51,192,56506,1,0,0:0:0:0:
460,192,56506,128,0,57762:0:0:0:0:
358,192,57762,128,0,59019:0:0:0:0:
153,192,57762,128,0,59019:0:0:0:0:
460,192,59019,1,0,0:0:0:0:
51,192,59019,128,0,59647:0:0:0:0:
460,192,59647,128,0,60275:0:0:0:0:
402,192,60275,128,0,60903:0:0:0:0:
256,192,60275,1,0,0:0:0:0:
153,192,60275,128,0,60903:0:0:0:0:
460,192,60903,128,0,61061:0:0:0:0:
358,192,61061,128,0,61218:0:0:0:0:
256,192,61218,128,0,61375:0:0:0:0:
153,192,61375,128,0,61532:0:0:0:0:
256,192,61532,128,0,62160:0:0:0:0:
460,192,61532,128,0,62160:0:0:0:0:
51,192,61532,1,0,0:0:0:0:
153,192,62160,128,0,62819:0:0:0:0:
51,192,62819,1,0,0:0:0:0:
460,192,62819,128,0,63774:0:0:0:0:
358,192,62819,128,0,63774:0:0:0:0:
51,192,63774,128,0,64024:0:0:0:0:
256,192,64024,128,0,64274:0:0:0:0:
51,192,64274,1,0,0:0:0:0:
460,192,64274,128,0,65927:0:0:0:0:
153,192,64274,128,0,65927:0:0:0:0:
51,192,65927,128,0,68417:0:0:0:0:
358,192,65927,128,0,68417:0:0:0:0:
256,192,65927,1,0,0:0:0:0:
153,192,68417,1,0,0:0:0:0:
153,192,68731,1,0,0:0:0:0:
256,192,69045,1,0,0:0:0:0:
51,192,69202,1,0,0:0:0:0:
153,192,69280,1,0,0:0:0:0:
256,192,69359,1,0,0:0:0:0:
358,192,69437,1,0,0:0:0:0:
256,192,69516,1,0,0:0:0:0:
358,192,69595,1,0,0:0:0:0:
51,192,69673,1,2,0:0:0:0:
153,192,69673,1,4,0:0:0:0:
460,192,69673,1,0,0:0:0:0:
358,192,69830,1,0,0:0:0:0:
256,192,69909,1,0,0:0:0:0:
460,192,69987,1,2,0:0:0:0:
153,192,69987,1,0,0:0:0:0:
402,192,70144,1,0,0:0:0:0:
256,192,70144,1,0,0:0:0:0:
51,192,70144,1,0,0:0:0:0:
475,192,70458,1,0,0:0:0:0:
153,192,70458,1,0,0:0:0:0:
256,192,70458,1,0,0:0:0:0:
358,192,70773,1,2,0:0:0:0:
256,192,70773,1,0,0:0:0:0:
36,192,70773,1,0,0:0:0:0:
329,192,71087,1,0,0:0:0:0:
460,192,71087,1,0,0:0:0:0:
153,192,71087,1,0,0:0:0:0:
256,192,71244,1,2,0:0:0:0:
36,192,71244,1,0,0:0:0:0:
153,192,71401,1,0,0:0:0:0:
460,192,71401,1,0,0:0:0:0:
358,192,71401,1,0,0:0:0:0:
402,192,71715,1,2,0:0:0:0:
256,192,71715,1,0,0:0:0:0:
460,192,71715,1,0,0:0:0:0:
182,192,71872,1,2,0:0:0:0:
448,192,71872,1,0,0:0:0:0:
36,192,71872,1,0,0:0:0:0:
256,192,71951,1,2,0:0:0:0:
153,192,72029,1,2,0:0:0:0:
358,192,72029,1,0,0:0:0:0:
256,192,72108,1,2,0:0:0:0:
460,192,72186,1,0,0:0:0:0:
402,192,72186,1,0,0:0:0:0:
51,192,72186,1,0,0:0:0:0:
460,192,72343,1,0,0:0:0:0:
256,192,72500,1,2,0:0:0:0:
153,192,72500,1,0,0:0:0:0:
36,192,72500,1,0,0:0:0:0:
402,192,72657,1,0,0:0:0:0:
460,192,72657,1,0,0:0:0:0:
51,192,72657,1,0,0:0:0:0:
475,192,72971,1,0,0:0:0:0:
153,192,72971,1,0,0:0:0:0:
358,192,72971,1,0,0:0:0:0:
256,192,73286,1,2,0:0:0:0:
402,192,73286,1,0,0:0:0:0:
36,192,73286,1,0,0:0:0:0:
329,192,73600,1,0,0:0:0:0:
460,192,73600,1,0,0:0:0:0:
256,192,73600,1,0,0:0:0:0:
182,192,73757,1,2,0:0:0:0:
36,192,73757,1,0,0:0:0:0:
358,192,73914,1,0,0:0:0:0:
460,192,73914,1,0,0:0:0:0:
256,192,73914,1,0,0:0:0:0:
460,192,74228,1,2,0:0:0:0:
153,192,74228,1,0,0:0:0:0:
51,192,74228,1,0,0:0:0:0:
320,192,74385,1,2,0:0:0:0:
256,192,74385,1,0,0:0:0:0:
192,192,74542,1,0,0:0:0:0:
448,192,74542,1,0,0:0:0:0:
51,192,74542,1,0,0:0:0:0:
320,192,74699,1,2,0:0:0:0:
256,192,74778,1,2,0:0:0:0:
448,192,74856,1,2,0:0:0:0:
358,192,74935,1,2,0:0:0:0:
182,192,75013,1,2,0:0:0:0:
36,192,75013,1,4,0:0:0:0:
256,192,75013,1,0,0:0:0:0:
51,192,75170,1,0,0:0:0:0:
256,192,75249,1,0,0:0:0:0:
460,192,75327,1,0,0:0:0:0:
256,192,75485,1,0,0:0:0:0:
109,192,75642,1,8,0:0:0:0:
51,192,75642,1,0,0:0:0:0:
256,192,75799,1,4,0:0:0:0:
460,192,75799,1,0,0:0:0:0:
358,192,75799,1,0,0:0:0:0:
460,192,75956,1,2,0:0:0:0:
153,192,75956,1,4,0:0:0:0:
51,192,75956,1,0,0:0:0:0:
358,192,76113,1,0,0:0:0:0:
256,192,76270,1,2,0:0:0:0:
36,192,76270,1,4,0:0:0:0:
402,192,76427,1,0,0:0:0:0:
460,192,76427,1,0,0:0:0:0:
182,192,76584,1,4,0:0:0:0:
36,192,76584,1,2,0:0:0:0:
256,192,76584,1,0,0:0:0:0:
109,192,76898,1,2,0:0:0:0:
460,192,76898,1,4,0:0:0:0:
51,192,76898,1,0,0:0:0:0:
256,192,77055,1,0,0:0:0:0:
460,192,77212,1,2,0:0:0:0:
358,192,77212,1,4,0:0:0:0:
36,192,77212,1,0,0:0:0:0:
256,192,77684,1,4,0:0:0:0:
36,192,77684,1,0,0:0:0:0:
358,192,77684,1,0,0:0:0:0:
460,192,77998,1,4,0:0:0:0:
256,192,77998,1,0,0:0:0:0:
153,192,78155,1,4,0:0:0:0:
358,192,78155,1,0,0:0:0:0:
36,192,78155,1,0,0:0:0:0:
51,192,78312,1,4,0:0:0:0:
256,192,78312,1,0,0:0:0:0:
460,192,78312,1,0,0:0:0:0:
358,192,78626,1,4,0:0:0:0:
153,192,78626,1,0,0:0:0:0:
358,192,78783,1,4,0:0:0:0:
153,192,78783,1,0,0:0:0:0:
256,192,79097,1,4,0:0:0:0:
36,192,79097,1,0,0:0:0:0:
475,192,79097,1,0,0:0:0:0:
153,192,79254,1,0,0:0:0:0:
51,192,79254,1,0,0:0:0:0:
256,192,79333,1,0,0:0:0:0:
460,192,79333,1,0,0:0:0:0:
153,192,79411,1,4,0:0:0:0:
51,192,79411,1,0,0:0:0:0:
460,192,79490,1,0,0:0:0:0:
358,192,79490,1,0,0:0:0:0:
256,192,79568,1,0,0:0:0:0:
51,192,79568,1,0,0:0:0:0:
460,192,79647,1,0,0:0:0:0:
358,192,79647,1,0,0:0:0:0:
192,192,79725,1,2,0:0:0:0:
51,192,79725,1,4,0:0:0:0:
256,192,79725,1,0,0:0:0:0:
475,192,79882,1,0,0:0:0:0:
182,192,80040,1,2,0:0:0:0:
329,192,80040,1,0,0:0:0:0:
36,192,80040,1,0,0:0:0:0:
460,192,80197,1,0,0:0:0:0:
256,192,80197,1,0,0:0:0:0:
109,192,80511,1,0,0:0:0:0:
475,192,80511,1,0,0:0:0:0:
358,192,80511,1,0,0:0:0:0:
182,192,80825,1,2,0:0:0:0:
402,192,80825,1,0,0:0:0:0:
36,192,80825,1,0,0:0:0:0:
109,192,81139,1,0,0:0:0:0:
460,192,81139,1,0,0:0:0:0:
256,192,81139,1,0,0:0:0:0:
358,192,81296,1,2,0:0:0:0:
36,192,81296,1,0,0:0:0:0:
109,192,81453,1,0,0:0:0:0:
256,192,81453,1,0,0:0:0:0:
460,192,81453,1,0,0:0:0:0:
51,192,81610,1,2,0:0:0:0:
153,192,81689,1,2,0:0:0:0:
460,192,81767,1,2,0:0:0:0:
358,192,81767,1,0,0:0:0:0:
256,192,81767,1,0,0:0:0:0:
51,192,81846,1,2,0:0:0:0:
460,192,81924,1,2,0:0:0:0:
153,192,81924,1,0,0:0:0:0:
358,192,82003,1,2,0:0:0:0:
153,192,82081,1,2,0:0:0:0:
256,192,82160,1,2,0:0:0:0:
358,192,82238,1,4,0:0:0:0:
51,192,82238,1,0,0:0:0:0:
460,192,82238,1,0,0:0:0:0:
153,192,82317,1,0,0:0:0:0:
460,192,82396,1,0,0:0:0:0:
256,192,82396,1,0,0:0:0:0:
51,192,82474,1,0,0:0:0:0:
153,192,82553,1,2,0:0:0:0:
329,192,82553,1,0,0:0:0:0:
475,192,82710,1,0,0:0:0:0:
153,192,82710,1,0,0:0:0:0:
51,192,82710,1,0,0:0:0:0:
51,192,83024,1,0,0:0:0:0:
402,192,83024,1,0,0:0:0:0:
256,192,83024,1,0,0:0:0:0:
182,192,83338,1,2,0:0:0:0:
256,192,83338,1,0,0:0:0:0:
475,192,83338,1,0,0:0:0:0:
109,192,83652,1,0,0:0:0:0:
460,192,83652,1,0,0:0:0:0:
51,192,83652,1,0,0:0:0:0:
358,192,83809,1,2,0:0:0:0:
256,192,83809,1,0,0:0:0:0:
109,192,83966,1,0,0:0:0:0:
460,192,83966,1,0,0:0:0:0:
51,192,83966,1,0,0:0:0:0:
358,192,84123,1,2,0:0:0:0:
256,192,84202,1,2,0:0:0:0:
460,192,84280,1,2,0:0:0:0:
51,192,84280,1,0,0:0:0:0:
153,192,84280,1,0,0:0:0:0:
358,192,84359,1,2,0:0:0:0:
256,192,84437,1,2,0:0:0:0:
36,192,84437,1,0,0:0:0:0:
256,192,84595,1,2,0:0:0:0:
475,192,84595,1,0,0:0:0:0:
153,192,84673,1,2,0:0:0:0:
460,192,84752,1,2,0:0:0:0:
358,192,84752,1,4,0:0:0:0:
51,192,84752,1,0,0:0:0:0:
256,192,84909,1,0,0:0:0:0:
182,192,85066,1,2,0:0:0:0:
36,192,85066,1,0,0:0:0:0:
358,192,85066,1,0,0:0:0:0:
109,192,85537,1,8,0:0:0:0:
329,192,85537,1,0,0:0:0:0:
51,192,85537,1,0,0:0:0:0:
475,192,85694,1,0,0:0:0:0:
256,192,85694,1,0,0:0:0:0:
182,192,85851,1,2,0:0:0:0:
402,192,85851,1,0,0:0:0:0:
36,192,85851,1,0,0:0:0:0:
320,192,86165,1,8,0:0:0:0:
460,192,86165,1,0,0:0:0:0:
256,192,86322,1,2,0:0:0:0:
36,192,86322,1,8,0:0:0:0:
153,192,86322,1,0,0:0:0:0:
358,192,86479,1,8,0:0:0:0:
109,192,86636,1,8,0:0:0:0:
358,192,86715,1,2,0:0:0:0:
51,192,86793,1,2,0:0:0:0:
256,192,86793,1,0,0:0:0:0:
153,192,86872,1,2,0:0:0:0:
256,192,86951,1,2,0:0:0:0:
402,192,86951,1,0,0:0:0:0:
460,192,86951,1,0,0:0:0:0:
153,192,87108,1,2,0:0:0:0:
475,192,87108,1,4,0:0:0:0:
51,192,87108,1,0,0:0:0:0:
109,192,87422,1,8,0:0:0:0:
256,192,87422,1,0,0:0:0:0:
460,192,87579,1,8,0:0:0:0:
36,192,87579,1,0,0:0:0:0:
358,192,87579,1,0,0:0:0:0:
256,192,87657,1,0,0:0:0:0:
109,192,87736,1,8,0:0:0:0:
358,192,87814,1,0,0:0:0:0:
256,192,87893,1,8,0:0:0:0:
448,192,87971,1,8,0:0:0:0:
153,192,88050,1,8,0:0:0:0:
460,192,88129,1,8,0:0:0:0:
36,192,88207,1,8,0:0:0:0:
358,192,88207,1,0,0:0:0:0:
182,192,88246,1,8,0:0:0:0:
460,192,88286,1,0,0:0:0:0:
358,192,88325,1,8,0:0:0:0:
51,192,88364,1,0,0:0:0:0:
153,192,88403,1,0,0:0:0:0:
460,192,88443,1,8,0:0:0:0:
358,192,88482,1,0,0:0:0:0:
192,192,88521,1,8,0:0:0:0:
51,192,88521,1,0,0:0:0:0:
256,192,88521,1,0,0:0:0:0:
329,192,88600,1,8,0:0:0:0:
460,192,88678,1,8,0:0:0:0:
153,192,88757,1,8,0:0:0:0:
256,192,88835,1,8,0:0:0:0:
358,192,88914,1,8,0:0:0:0:
51,192,88992,1,8,0:0:0:0:
153,192,89071,1,8,0:0:0:0:
358,192,89149,1,8,0:0:0:0:
475,192,89149,1,0,0:0:0:0:
256,192,89228,1,8,0:0:0:0:
153,192,89307,1,8,0:0:0:0:
460,192,89385,1,8,0:0:0:0:
358,192,89464,1,8,0:0:0:0:
51,192,89464,1,0,0:0:0:0:
256,192,89464,1,0,0:0:0:0:
448,192,89778,1,8,0:0:0:0:
51,192,89778,1,0,0:0:0:0:
358,192,89778,1,0,0:0:0:0:
182,192,90092,1,4,0:0:0:0:
460,192,90092,1,4,0:0:0:0:
36,192,90092,1,0,0:0:0:0:
358,192,90092,1,0,0:0:0:0:
402,192,90406,1,0,0:0:0:0:
109,192,90563,1,0,0:0:0:0:
460,192,90563,1,0,0:0:0:0:
256,192,90720,1,0,0:0:0:0:
182,192,90877,1,2,0:0:0:0:
36,192,90877,1,0,0:0:0:0:
475,192,90877,1,0,0:0:0:0:
51,192,91191,1,0,0:0:0:0:
402,192,91191,1,0,0:0:0:0:
256,192,91191,1,0,0:0:0:0:
153,192,91348,1,2,0:0:0:0:
448,192,91348,1,0,0:0:0:0:
329,192,91506,1,0,0:0:0:0:
109,192,91663,1,0,0:0:0:0:
460,192,91820,1,0,0:0:0:0:
36,192,91977,1,0,0:0:0:0:
256,192,91977,1,0,0:0:0:0:
320,192,92291,1,0,0:0:0:0:
460,192,92291,1,0,0:0:0:0:
256,192,92448,1,0,0:0:0:0:
182,192,92605,1,2,0:0:0:0:
36,192,92605,1,0,0:0:0:0:
358,192,92605,1,0,0:0:0:0:
460,192,92919,1,0,0:0:0:0:
109,192,93076,1,0,0:0:0:0:
402,192,93076,1,0,0:0:0:0:
256,192,93233,1,0,0:0:0:0:
460,192,93233,1,0,0:0:0:0:
153,192,93390,1,2,0:0:0:0:
402,192,93390,1,0,0:0:0:0:
36,192,93390,1,0,0:0:0:0:
109,192,93704,1,0,0:0:0:0:
475,192,93704,1,0,0:0:0:0:
256,192,93862,1,2,0:0:0:0:
329,192,93862,1,0,0:0:0:0:
36,192,93862,1,0,0:0:0:0:
475,192,94019,1,0,0:0:0:0:
51,192,94176,1,0,0:0:0:0:
320,192,94176,1,0,0:0:0:0:
192,192,94254,1,0,0:0:0:0:
256,192,94333,1,0,0:0:0:0:
460,192,94333,1,0,0:0:0:0:
51,192,94411,1,0,0:0:0:0:
358,192,94490,1,0,0:0:0:0:
153,192,94490,1,0,0:0:0:0:
460,192,94568,1,0,0:0:0:0:
51,192,94647,1,0,0:0:0:0:
256,192,94647,1,0,0:0:0:0:
358,192,94725,1,0,0:0:0:0:
256,192,94804,1,2,0:0:0:0:
153,192,94804,1,4,0:0:0:0:
460,192,94804,1,0,0:0:0:0:
182,192,95118,1,4,0:0:0:0:
460,192,95118,1,4,0:0:0:0:
36,192,95118,1,0,0:0:0:0:
256,192,95275,1,0,0:0:0:0:
329,192,95432,1,0,0:0:0:0:
109,192,95589,1,0,0:0:0:0:
256,192,95589,1,0,0:0:0:0:
329,192,95746,1,0,0:0:0:0:
256,192,95903,1,2,0:0:0:0:
460,192,95903,1,0,0:0:0:0:
36,192,95903,1,0,0:0:0:0:
448,192,96060,1,0,0:0:0:0:
320,192,96139,1,0,0:0:0:0:
51,192,96218,1,0,0:0:0:0:
256,192,96218,1,0,0:0:0:0:
460,192,96296,1,0,0:0:0:0:
51,192,96375,1,0,0:0:0:0:
358,192,96375,1,0,0:0:0:0:
153,192,96375,1,0,0:0:0:0:
460,192,96453,1,0,0:0:0:0:
256,192,96532,1,0,0:0:0:0:
358,192,96610,1,0,0:0:0:0:
51,192,96689,1,0,0:0:0:0:
460,192,96689,1,0,0:0:0:0:
153,192,96767,1,0,0:0:0:0:
256,192,96846,1,0,0:0:0:0:
460,192,96846,1,0,0:0:0:0:
51,192,96924,1,0,0:0:0:0:
182,192,97003,1,2,0:0:0:0:
402,192,97003,1,0,0:0:0:0:
460,192,97003,1,0,0:0:0:0:
51,192,97081,1,0,0:0:0:0:
256,192,97160,1,0,0:0:0:0:
153,192,97238,1,0,0:0:0:0:
51,192,97317,1,4,0:0:0:0:
460,192,97317,1,0,0:0:0:0:
358,192,97317,1,0,0:0:0:0:
256,192,97474,1,0,0:0:0:0:
153,192,97631,1,2,0:0:0:0:
36,192,97631,1,0,0:0:0:0:
460,192,97631,1,0,0:0:0:0:
358,192,97788,1,0,0:0:0:0:
153,192,97867,1,0,0:0:0:0:
256,192,97945,1,0,0:0:0:0:
109,192,98102,1,0,0:0:0:0:
51,192,98102,1,0,0:0:0:0:
358,192,98181,1,0,0:0:0:0:
256,192,98259,1,0,0:0:0:0:
460,192,98338,1,0,0:0:0:0:
358,192,98416,1,0,0:0:0:0:
153,192,98416,1,0,0:0:0:0:
51,192,98469,1,0,0:0:0:0:
256,192,98521,1,0,0:0:0:0:
358,192,98574,1,0,0:0:0:0:
460,192,98574,1,0,0:0:0:0:
192,192,98652,1,0,0:0:0:0:
358,192,98731,1,0,0:0:0:0:
51,192,98731,1,0,0:0:0:0:
256,192,98809,1,0,0:0:0:0:
182,192,98888,1,2,0:0:0:0:
448,192,98888,1,0,0:0:0:0:
51,192,99045,1,0,0:0:0:0:
256,192,99045,1,0,0:0:0:0:
153,192,99202,1,0,0:0:0:0:
358,192,99202,1,0,0:0:0:0:
51,192,99280,1,0,0:0:0:0:
256,192,99359,1,0,0:0:0:0:
460,192,99359,1,0,0:0:0:0:
153,192,99437,1,0,0:0:0:0:
358,192,99516,1,2,0:0:0:0:
36,192,99516,1,0,0:0:0:0:
256,192,99595,1,0,0:0:0:0:
153,192,99673,1,0,0:0:0:0:
448,192,99673,1,0,0:0:0:0:
320,192,99752,1,0,0:0:0:0:
256,192,99830,1,0,0:0:0:0:
51,192,99830,1,0,0:0:0:0:
153,192,99830,1,0,0:0:0:0:
460,192,100144,1,4,0:0:0:0:
402,192,100144,1,4,0:0:0:0:
36,192,100144,1,0,0:0:0:0:
153,192,100144,1,0,0:0:0:0:
402,192,100458,1,0,0:0:0:0:
109,192,100615,1,0,0:0:0:0:
460,192,100615,1,0,0:0:0:0:
256,192,100773,1,0,0:0:0:0:
182,192,100930,1,2,0:0:0:0:
36,192,100930,1,0,0:0:0:0:
475,192,100930,1,0,0:0:0:0:
109,192,101244,1,0,0:0:0:0:
402,192,101244,1,0,0:0:0:0:
256,192,101401,1,2,0:0:0:0:
36,192,101401,1,0,0:0:0:0:
358,192,101558,1,0,0:0:0:0:
460,192,101558,1,0,0:0:0:0:
153,192,101715,1,0,0:0:0:0:
320,192,101872,1,0,0:0:0:0:
51,192,102029,1,0,0:0:0:0:
256,192,102029,1,0,0:0:0:0:
320,192,102343,1,0,0:0:0:0:
153,192,102343,1,0,0:0:0:0:
36,192,102657,1,0,0:0:0:0:
475,192,102657,1,0,0:0:0:0:
256,192,102657,1,2,0:0:0:0:
153,192,102971,1,0,0:0:0:0:
51,192,103129,1,0,0:0:0:0:
256,192,103129,1,0,0:0:0:0:
358,192,103286,1,0,0:0:0:0:
153,192,103286,1,0,0:0:0:0:
256,192,103443,1,2,0:0:0:0:
51,192,103443,1,0,0:0:0:0:
475,192,103443,1,0,0:0:0:0:
460,192,103757,1,0,0:0:0:0:
153,192,103757,1,0,0:0:0:0:
256,192,103914,1,2,0:0:0:0:
329,192,103914,1,0,0:0:0:0:
36,192,103914,1,0,0:0:0:0:
109,192,104071,1,0,0:0:0:0:
358,192,104071,1,0,0:0:0:0:
256,192,104228,1,0,0:0:0:0:
402,192,104307,1,0,0:0:0:0:
109,192,104385,1,0,0:0:0:0:
460,192,104385,1,0,0:0:0:0:
256,192,104464,1,0,0:0:0:0:
358,192,104542,1,0,0:0:0:0:
36,192,104542,1,0,0:0:0:0:
153,192,104621,1,0,0:0:0:0:
460,192,104699,1,0,0:0:0:0:
256,192,104699,1,0,0:0:0:0:
51,192,104778,1,0,0:0:0:0:
109,192,104856,1,0,0:0:0:0:
402,192,104856,1,0,0:0:0:0:
460,192,104856,1,0,0:0:0:0:
182,192,105170,1,4,0:0:0:0:
402,192,105170,1,0,0:0:0:0:
36,192,105170,1,0,0:0:0:0:
460,192,105327,1,0,0:0:0:0:
329,192,105485,1,0,0:0:0:0:
109,192,105642,1,0,0:0:0:0:
256,192,105642,1,0,0:0:0:0:
329,192,105799,1,0,0:0:0:0:
182,192,105956,1,2,0:0:0:0:
36,192,105956,1,0,0:0:0:0:
475,192,105956,1,0,0:0:0:0:
153,192,106113,1,0,0:0:0:0:
256,192,106191,1,0,0:0:0:0:
460,192,106270,1,0,0:0:0:0:
358,192,106270,1,0,0:0:0:0:
256,192,106348,1,0,0:0:0:0:
182,192,106427,1,2,0:0:0:0:
460,192,106427,1,0,0:0:0:0:
36,192,106427,1,0,0:0:0:0:
358,192,106506,1,0,0:0:0:0:
256,192,106584,1,0,0:0:0:0:
153,192,106663,1,0,0:0:0:0:
51,192,106741,1,0,0:0:0:0:
358,192,106741,1,0,0:0:0:0:
256,192,106820,1,0,0:0:0:0:
51,192,106898,1,0,0:0:0:0:
153,192,106898,1,0,0:0:0:0:
256,192,106977,1,0,0:0:0:0:
358,192,107055,1,2,0:0:0:0:
448,192,107055,1,0,0:0:0:0:
36,192,107055,1,0,0:0:0:0:
153,192,107134,1,0,0:0:0:0:
460,192,107212,1,0,0:0:0:0:
256,192,107212,1,0,0:0:0:0:
51,192,107291,1,0,0:0:0:0:
460,192,107369,1,4,0:0:0:0:
153,192,107369,1,0,0:0:0:0:
256,192,107369,1,0,0:0:0:0:
358,192,107526,1,0,0:0:0:0:
256,192,107684,1,2,0:0:0:0:
182,192,107684,1,0,0:0:0:0:
36,192,107684,1,0,0:0:0:0:
358,192,107841,1,0,0:0:0:0:
475,192,107998,1,0,0:0:0:0:
51,192,108155,1,0,0:0:0:0:
460,192,108155,1,0,0:0:0:0:
153,192,108194,1,0,0:0:0:0:
256,192,108233,1,0,0:0:0:0:
358,192,108273,1,0,0:0:0:0:
448,192,108312,1,0,0:0:0:0:
36,192,108312,1,0,0:0:0:0:
256,192,108390,1,0,0:0:0:0:
153,192,108469,1,0,0:0:0:0:
358,192,108547,1,0,0:0:0:0:
51,192,108626,1,4,0:0:0:0:
256,192,108626,1,0,0:0:0:0:
460,192,108704,1,0,0:0:0:0:
320,192,108783,1,0,0:0:0:0:
153,192,108862,1,0,0:0:0:0:
256,192,108940,1,4,0:0:0:0:
329,192,108940,1,0,0:0:0:0:
460,192,108940,1,0,0:0:0:0:
51,192,109019,1,0,0:0:0:0:
153,192,109097,1,0,0:0:0:0:
256,192,109176,1,0,0:0:0:0:
460,192,109254,1,4,0:0:0:0:
329,192,109254,1,0,0:0:0:0:
36,192,109254,1,0,0:0:0:0:
153,192,109307,1,0,0:0:0:0:
256,192,109359,1,0,0:0:0:0:
51,192,109411,1,0,0:0:0:0:
153,192,109464,1,0,0:0:0:0:
460,192,109516,1,0,0:0:0:0:
51,192,109568,1,0,0:0:0:0:
358,192,109568,1,0,0:0:0:0:
256,192,109621,1,0,0:0:0:0:
460,192,109673,1,0,0:0:0:0:
358,192,109725,1,4,0:0:0:0:
51,192,109778,1,0,0:0:0:0:
153,192,109830,1,0,0:0:0:0:
358,192,109882,1,4,0:0:0:0:
460,192,109882,1,4,0:0:0:0:
256,192,109882,1,0,0:0:0:0:
256,192,110197,128,0,112003:0:0:0:0:
358,192,110197,1,4,0:0:0:0:
153,192,110197,1,4,0:0:0:0:
51,192,110668,1,0,0:0:0:0:
182,192,110825,1,0,0:0:0:0:
358,192,110982,1,0,0:0:0:0:
475,192,111139,1,0,0:0:0:0:
192,192,111218,1,0,0:0:0:0:
36,192,111296,1,0,0:0:0:0:
402,192,111375,1,0,0:0:0:0:
192,192,111453,1,0,0:0:0:0:
358,192,111532,1,0,0:0:0:0:
475,192,111610,1,0,0:0:0:0:
192,192,111689,1,0,0:0:0:0:
36,192,111767,1,0,0:0:0:0:
402,192,111846,1,0,0:0:0:0:
64,192,111924,1,0,0:0:0:0:
192,192,112003,1,0,0:0:0:0:
475,192,112003,128,0,112238:0:0:0:0:
358,192,112081,1,0,0:0:0:0:
153,192,112160,1,0,0:0:0:0:
64,192,112238,128,0,112396:0:0:0:0:
256,192,112238,1,0,0:0:0:0:
358,192,112291,1,0,0:0:0:0:
153,192,112343,1,0,0:0:0:0:
256,192,112396,1,0,0:0:0:0:
460,192,112396,128,0,113652:0:0:0:0:
51,192,112710,1,0,0:0:0:0:
358,192,112710,1,0,0:0:0:0:
256,192,112788,1,0,0:0:0:0:
51,192,112867,1,0,0:0:0:0:
358,192,112945,1,0,0:0:0:0:
153,192,113024,1,0,0:0:0:0:
51,192,113102,1,0,0:0:0:0:
256,192,113181,1,0,0:0:0:0:
153,192,113259,1,0,0:0:0:0:
358,192,113338,1,0,0:0:0:0:
256,192,113416,1,0,0:0:0:0:
153,192,113495,1,0,0:0:0:0:
358,192,113574,1,0,0:0:0:0:
182,192,113652,1,0,0:0:0:0:
64,192,113652,128,0,114595:0:0:0:0:
402,192,113731,1,0,0:0:0:0:
256,192,113809,1,0,0:0:0:0:
192,192,113888,1,0,0:0:0:0:
320,192,113966,1,0,0:0:0:0:
256,192,114045,1,0,0:0:0:0:
192,192,114123,1,0,0:0:0:0:
320,192,114202,1,0,0:0:0:0:
475,192,114280,1,0,0:0:0:0:
329,192,114359,1,0,0:0:0:0:
182,192,114437,1,0,0:0:0:0:
256,192,114516,1,0,0:0:0:0:
329,192,114595,1,0,0:0:0:0:
192,192,114595,128,0,114909:0:0:0:0:
448,192,114673,1,0,0:0:0:0:
329,192,114752,1,0,0:0:0:0:
460,192,114830,1,0,0:0:0:0:
64,192,114909,1,0,0:0:0:0:
256,192,114909,128,0,115851:0:0:0:0:
358,192,115223,1,0,0:0:0:0:
460,192,115223,1,0,0:0:0:0:
51,192,115380,1,0,0:0:0:0:
460,192,115694,1,0,0:0:0:0:
358,192,115773,1,0,0:0:0:0:
153,192,115851,1,0,0:0:0:0:
51,192,115851,128,0,116165:0:0:0:0:
460,192,115930,1,0,0:0:0:0:
358,192,116008,1,0,0:0:0:0:
153,192,116087,1,0,0:0:0:0:
448,192,116165,1,0,0:0:0:0:
256,192,116165,128,0,117108:0:0:0:0:
153,192,116244,1,0,0:0:0:0:
358,192,116322,1,0,0:0:0:0:
51,192,116401,1,0,0:0:0:0:
153,192,116479,1,0,0:0:0:0:
358,192,116558,1,0,0:0:0:0:
460,192,116636,1,0,0:0:0:0:
51,192,116715,1,0,0:0:0:0:
153,192,116793,1,0,0:0:0:0:
358,192,116872,1,0,0:0:0:0:
460,192,116951,1,0,0:0:0:0:
51,192,117029,1,0,0:0:0:0:
460,192,117108,1,0,0:0:0:0:
320,192,117108,128,0,117422:0:0:0:0:
192,192,117186,1,0,0:0:0:0:
256,192,117265,1,0,0:0:0:0:
64,192,117343,1,0,0:0:0:0:
192,192,117422,1,0,0:0:0:0:
460,192,117422,128,0,118678:0:0:0:0:
256,192,117579,1,0,0:0:0:0:
51,192,117736,1,0,0:0:0:0:
358,192,117736,1,0,0:0:0:0:
153,192,117893,1,0,0:0:0:0:
256,192,117893,1,0,0:0:0:0:
51,192,118050,1,0,0:0:0:0:
358,192,118207,1,0,0:0:0:0:
51,192,118364,1,0,0:0:0:0:
192,192,118443,1,0,0:0:0:0:
256,192,118521,1,0,0:0:0:0:
329,192,118600,1,0,0:0:0:0:
182,192,118678,1,0,0:0:0:0:
64,192,118678,128,0,119935:0:0:0:0:
256,192,118835,1,0,0:0:0:0:
460,192,118992,1,0,0:0:0:0:
358,192,119071,1,0,0:0:0:0:
256,192,119149,1,0,0:0:0:0:
153,192,119228,1,0,0:0:0:0:
460,192,119307,1,0,0:0:0:0:
358,192,119385,1,0,0:0:0:0:
153,192,119464,1,0,0:0:0:0:
460,192,119542,1,0,0:0:0:0:
256,192,119621,1,0,0:0:0:0:
153,192,119699,1,0,0:0:0:0:
460,192,119778,1,0,0:0:0:0:
358,192,119856,1,0,0:0:0:0:
153,192,119935,1,0,0:0:0:0:
256,192,119935,1,0,0:0:0:0:
109,192,120249,1,4,0:0:0:0:
256,192,120249,1,4,0:0:0:0:
402,192,120249,1,0,0:0:0:0:
109,192,120720,1,0,0:0:0:0:
256,192,120720,1,0,0:0:0:0:
329,192,120877,1,0,0:0:0:0:
460,192,121034,1,0,0:0:0:0:
182,192,121034,1,0,0:0:0:0:
36,192,121034,1,0,0:0:0:0:
475,192,121191,1,0,0:0:0:0:
320,192,121270,1,0,0:0:0:0:
256,192,121348,1,0,0:0:0:0:
109,192,121348,1,0,0:0:0:0:
320,192,121427,1,0,0:0:0:0:
182,192,121506,1,0,0:0:0:0:
448,192,121506,1,0,0:0:0:0:
36,192,121506,1,0,0:0:0:0:
256,192,121584,1,0,0:0:0:0:
475,192,121663,1,0,0:0:0:0:
358,192,121741,1,0,0:0:0:0:
109,192,121820,1,0,0:0:0:0:
256,192,121820,1,0,0:0:0:0:
475,192,121898,1,0,0:0:0:0:
51,192,121977,1,0,0:0:0:0:
329,192,121977,1,0,0:0:0:0:
192,192,122055,1,0,0:0:0:0:
320,192,122134,1,0,0:0:0:0:
460,192,122134,1,0,0:0:0:0:
256,192,122134,1,0,0:0:0:0:
51,192,122212,1,0,0:0:0:0:
153,192,122291,1,0,0:0:0:0:
256,192,122343,1,0,0:0:0:0:
358,192,122396,1,0,0:0:0:0:
51,192,122448,1,0,0:0:0:0:
460,192,122448,1,0,0:0:0:0:
153,192,122448,1,0,0:0:0:0:
358,192,122605,1,0,0:0:0:0:
448,192,122762,1,0,0:0:0:0:
256,192,122762,1,0,0:0:0:0:
36,192,122762,1,0,0:0:0:0:
192,192,122841,1,0,0:0:0:0:
460,192,122919,1,0,0:0:0:0:
358,192,122998,1,0,0:0:0:0:
256,192,123076,1,0,0:0:0:0:
51,192,123155,1,0,0:0:0:0:
109,192,123233,1,0,0:0:0:0:
329,192,123233,1,0,0:0:0:0:
460,192,123312,1,0,0:0:0:0:
192,192,123390,1,0,0:0:0:0:
358,192,123469,1,0,0:0:0:0:
256,192,123547,1,0,0:0:0:0:
36,192,123547,1,0,0:0:0:0:
460,192,123626,1,0,0:0:0:0:
358,192,123704,1,0,0:0:0:0:
153,192,123704,1,0,0:0:0:0:
51,192,123783,1,0,0:0:0:0:
460,192,123862,1,0,0:0:0:0:
256,192,123862,1,0,0:0:0:0:
153,192,123940,1,0,0:0:0:0:
402,192,124019,1,0,0:0:0:0:
36,192,124019,1,0,0:0:0:0:
256,192,124097,1,0,0:0:0:0:
460,192,124176,1,0,0:0:0:0:
320,192,124254,1,0,0:0:0:0:
153,192,124333,1,0,0:0:0:0:
51,192,124333,1,0,0:0:0:0:
460,192,124411,1,0,0:0:0:0:
109,192,124490,1,0,0:0:0:0:
256,192,124490,1,0,0:0:0:0:
460,192,124568,1,0,0:0:0:0:
256,192,124647,1,0,0:0:0:0:
36,192,124647,1,0,0:0:0:0:
358,192,124647,1,0,0:0:0:0:
192,192,124725,1,0,0:0:0:0:
256,192,124804,1,0,0:0:0:0:
358,192,124882,1,0,0:0:0:0:
51,192,124961,1,0,0:0:0:0:
460,192,124961,1,0,0:0:0:0:
153,192,124961,1,0,0:0:0:0:
256,192,125275,1,0,0:0:0:0:
460,192,125275,1,0,0:0:0:0:
153,192,125432,1,0,0:0:0:0:
51,192,125589,1,0,0:0:0:0:
329,192,125589,1,0,0:0:0:0:
192,192,125668,1,0,0:0:0:0:
256,192,125746,1,0,0:0:0:0:
402,192,125825,1,0,0:0:0:0:
460,192,125903,1,0,0:0:0:0:
192,192,125903,1,0,0:0:0:0:
256,192,125982,1,0,0:0:0:0:
358,192,126060,1,0,0:0:0:0:
36,192,126060,1,0,0:0:0:0:
153,192,126139,1,0,0:0:0:0:
256,192,126218,1,0,0:0:0:0:
475,192,126218,1,0,0:0:0:0:
358,192,126218,1,0,0:0:0:0:
51,192,126375,1,0,0:0:0:0:
182,192,126532,1,0,0:0:0:0:
329,192,126532,1,0,0:0:0:0:
36,192,126532,1,0,0:0:0:0:
460,192,126610,1,0,0:0:0:0:
256,192,126689,1,0,0:0:0:0:
402,192,126767,1,0,0:0:0:0:
153,192,126846,1,0,0:0:0:0:
460,192,126846,1,0,0:0:0:0:
256,192,126924,1,0,0:0:0:0:
358,192,127003,1,0,0:0:0:0:
153,192,127081,1,0,0:0:0:0:
256,192,127160,1,0,0:0:0:0:
460,192,127160,1,0,0:0:0:0:
36,192,127160,1,0,0:0:0:0:
329,192,127238,1,0,0:0:0:0:
256,192,127317,1,0,0:0:0:0:
51,192,127317,1,0,0:0:0:0:
153,192,127396,1,0,0:0:0:0:
256,192,127474,1,8,0:0:0:0:
402,192,127474,1,0,0:0:0:0:
460,192,127474,1,0,0:0:0:0:
109,192,127631,1,8,0:0:0:0:
460,192,127631,1,0,0:0:0:0:
256,192,127788,1,8,0:0:0:0:
402,192,127788,1,0,0:0:0:0:
36,192,127788,1,0,0:0:0:0:
460,192,127867,1,0,0:0:0:0:
109,192,127945,1,8,0:0:0:0:
402,192,127945,1,0,0:0:0:0:
51,192,128024,1,0,0:0:0:0:
460,192,128102,1,8,0:0:0:0:
358,192,128181,1,0,0:0:0:0:
256,192,128259,1,8,0:0:0:0:
51,192,128259,1,0,0:0:0:0:
153,192,128338,1,0,0:0:0:0:
358,192,128338,1,0,0:0:0:0:
256,192,128416,1,8,0:0:0:0:
36,192,128416,1,0,0:0:0:0:
475,192,128416,1,0,0:0:0:0:
109,192,128731,1,0,0:0:0:0:
256,192,128731,1,0,0:0:0:0:
358,192,128731,1,0,0:0:0:0:
475,192,129045,1,4,0:0:0:0:
51,192,129045,1,0,0:0:0:0:
153,192,129045,1,0,0:0:0:0:
329,192,129084,1,0,0:0:0:0:
256,192,129123,1,0,0:0:0:0:
153,192,129163,1,0,0:0:0:0:
51,192,129202,1,0,0:0:0:0:
460,192,129241,1,0,0:0:0:0:
358,192,129280,1,0,0:0:0:0:
256,192,129320,1,0,0:0:0:0:
153,192,129359,1,0,0:0:0:0:
51,192,129398,1,0,0:0:0:0:
460,192,129437,1,0,0:0:0:0:
358,192,129477,1,0,0:0:0:0:
256,192,129516,1,0,0:0:0:0:
192,192,129555,1,0,0:0:0:0:
36,192,129595,1,0,0:0:0:0:
460,192,129634,1,0,0:0:0:0:
358,192,129673,1,0,0:0:0:0:
256,192,129712,1,0,0:0:0:0:
153,192,129752,1,0,0:0:0:0:
51,192,129791,1,0,0:0:0:0:
460,192,129830,1,0,0:0:0:0:
358,192,129869,1,0,0:0:0:0:
256,192,129909,1,0,0:0:0:0:
153,192,129948,1,0,0:0:0:0:
460,192,129987,1,8,0:0:0:0:
64,192,129987,128,4,131244:0:0:0:0:
460,192,130301,1,8,0:0:0:0:
460,192,130615,1,8,0:0:0:0:
460,192,130930,1,8,0:0:0:0:
192,192,131244,128,8,131872:0:0:0:0:
460,192,131244,1,0,0:0:0:0:
358,192,131322,1,0,0:0:0:0:
51,192,131401,1,0,0:0:0:0:
256,192,131479,1,0,0:0:0:0:
460,192,131558,1,8,0:0:0:0:
51,192,131636,1,0,0:0:0:0:
256,192,131715,1,0,0:0:0:0:
358,192,131793,1,0,0:0:0:0:
64,192,131872,1,8,0:0:0:0:
256,192,131872,128,0,132500:0:0:0:0:
460,192,131872,1,0,0:0:0:0:
402,192,132108,1,0,0:0:0:0:
51,192,132186,1,8,0:0:0:0:
475,192,132343,1,2,0:0:0:0:
358,192,132343,1,0,0:0:0:0:
192,192,132500,1,8,0:0:0:0:
448,192,132500,128,4,133757:0:0:0:0:
51,192,132500,1,0,0:0:0:0:
51,192,132814,1,8,0:0:0:0:
51,192,133129,1,8,0:0:0:0:
109,192,133286,1,0,0:0:0:0:
256,192,133443,1,8,0:0:0:0:
51,192,133443,1,0,0:0:0:0:
153,192,133600,1,0,0:0:0:0:
64,192,133757,1,8,0:0:0:0:
358,192,133757,128,0,135013:0:0:0:0:
192,192,133835,1,0,0:0:0:0:
256,192,133914,1,0,0:0:0:0:
51,192,133992,1,0,0:0:0:0:
448,192,134071,1,8,0:0:0:0:
153,192,134071,1,0,0:0:0:0:
256,192,134149,1,0,0:0:0:0:
51,192,134228,1,0,0:0:0:0:
153,192,134307,1,0,0:0:0:0:
256,192,134385,1,4,0:0:0:0:
460,192,134385,1,0,0:0:0:0:
51,192,134464,1,0,0:0:0:0:
153,192,134542,1,0,0:0:0:0:
256,192,134621,1,4,0:0:0:0:
51,192,134699,1,0,0:0:0:0:
460,192,134699,1,0,0:0:0:0:
153,192,134752,1,0,0:0:0:0:
256,192,134804,1,0,0:0:0:0:
51,192,134856,1,4,0:0:0:0:
460,192,134856,1,0,0:0:0:0:
153,192,134909,1,0,0:0:0:0:
256,192,134961,1,0,0:0:0:0:
153,192,135013,1,8,0:0:0:0:
51,192,135013,128,4,136898:0:0:0:0:
460,192,135013,1,0,0:0:0:0:
460,192,135327,1,8,0:0:0:0:
460,192,135642,1,8,0:0:0:0:
256,192,135956,1,8,0:0:0:0:
460,192,135956,1,0,0:0:0:0:
256,192,136270,1,8,0:0:0:0:
460,192,136270,1,0,0:0:0:0:
192,192,136348,1,0,0:0:0:0:
256,192,136427,1,0,0:0:0:0:
358,192,136506,1,0,0:0:0:0:
192,192,136584,1,8,0:0:0:0:
460,192,136584,1,0,0:0:0:0:
256,192,136623,1,0,0:0:0:0:
358,192,136663,1,0,0:0:0:0:
460,192,136702,1,0,0:0:0:0:
153,192,136741,1,0,0:0:0:0:
256,192,136780,1,0,0:0:0:0:
358,192,136820,1,0,0:0:0:0:
460,192,136859,1,0,0:0:0:0:
256,192,136898,1,8,0:0:0:0:
182,192,136898,128,0,137526:0:0:0:0:
256,192,137134,1,0,0:0:0:0:
51,192,137212,1,0,0:0:0:0:
256,192,137330,1,0,0:0:0:0:
460,192,137369,1,0,0:0:0:0:
358,192,137369,1,0,0:0:0:0:
256,192,137526,128,8,139411:0:0:0:0:
51,192,137526,1,0,0:0:0:0:
460,192,137526,1,0,0:0:0:0:
36,192,137841,1,8,0:0:0:0:
182,192,137919,1,0,0:0:0:0:
448,192,137998,1,0,0:0:0:0:
358,192,138076,1,0,0:0:0:0:
51,192,138155,1,8,0:0:0:0:
460,192,138233,1,0,0:0:0:0:
153,192,138312,1,0,0:0:0:0:
358,192,138390,1,0,0:0:0:0:
51,192,138469,1,8,0:0:0:0:
460,192,138547,1,0,0:0:0:0:
153,192,138626,1,2,0:0:0:0:
51,192,138626,1,0,0:0:0:0:
358,192,138704,1,0,0:0:0:0:
460,192,138783,1,8,0:0:0:0:
51,192,138783,1,4,0:0:0:0:
153,192,138783,1,0,0:0:0:0:
358,192,138862,1,0,0:0:0:0:
153,192,138940,1,0,0:0:0:0:
51,192,139019,1,0,0:0:0:0:
358,192,139097,1,8,0:0:0:0:
153,192,139097,1,0,0:0:0:0:
51,192,139176,1,0,0:0:0:0:
358,192,139254,1,0,0:0:0:0:
460,192,139254,1,0,0:0:0:0:
192,192,139333,1,0,0:0:0:0:
64,192,139411,1,4,0:0:0:0:
448,192,139411,128,0,140040:0:0:0:0:
358,192,139411,1,0,0:0:0:0:
153,192,139490,1,0,0:0:0:0:
358,192,139568,1,0,0:0:0:0:
36,192,139647,1,4,0:0:0:0:
256,192,139725,1,0,0:0:0:0:
153,192,139804,1,0,0:0:0:0:
358,192,139882,1,4,0:0:0:0:
256,192,139961,1,0,0:0:0:0:
182,192,140040,1,4,0:0:0:0:
64,192,140040,128,8,141296:0:0:0:0:
358,192,140040,1,0,0:0:0:0:
256,192,140118,1,0,0:0:0:0:
448,192,140197,1,8,0:0:0:0:
192,192,140275,1,0,0:0:0:0:
358,192,140354,1,8,0:0:0:0:
460,192,140432,1,0,0:0:0:0:
256,192,140511,1,8,0:0:0:0:
358,192,140589,1,0,0:0:0:0:
460,192,140668,1,8,0:0:0:0:
192,192,140668,1,0,0:0:0:0:
256,192,140825,1,8,0:0:0:0:
358,192,140825,1,0,0:0:0:0:
153,192,140982,1,0,0:0:0:0:
256,192,141139,1,8,0:0:0:0:
358,192,141139,1,0,0:0:0:0:
460,192,141296,1,8,0:0:0:0:
192,192,141296,128,0,142553:0:0:0:0:
358,192,141375,1,0,0:0:0:0:
256,192,141453,1,8,0:0:0:0:
460,192,141532,1,0,0:0:0:0:
320,192,141610,1,8,0:0:0:0:
51,192,141610,1,0,0:0:0:0:
460,192,141689,1,0,0:0:0:0:
256,192,141767,1,8,0:0:0:0:
358,192,141846,1,0,0:0:0:0:
51,192,141924,1,8,0:0:0:0:
460,192,141924,1,0,0:0:0:0:
256,192,142003,1,0,0:0:0:0:
460,192,142081,1,8,0:0:0:0:
358,192,142081,1,0,0:0:0:0:
51,192,142160,1,0,0:0:0:0:
256,192,142238,1,8,0:0:0:0:
358,192,142238,1,0,0:0:0:0:
460,192,142317,1,0,0:0:0:0:
51,192,142396,1,8,0:0:0:0:
256,192,142396,1,0,0:0:0:0:
448,192,142474,1,0,0:0:0:0:
36,192,142553,1,8,0:0:0:0:
256,192,142553,128,0,144437:0:0:0:0:
358,192,142631,1,0,0:0:0:0:
448,192,142710,1,8,0:0:0:0:
64,192,142788,1,8,0:0:0:0:
192,192,142867,1,0,0:0:0:0:
358,192,142867,1,0,0:0:0:0:
460,192,142945,1,8,0:0:0:0:
51,192,143024,1,8,0:0:0:0:
448,192,143102,1,8,0:0:0:0:
192,192,143181,1,8,0:0:0:0:
51,192,143181,1,0,0:0:0:0:
402,192,143259,1,0,0:0:0:0:
192,192,143338,1,8,0:0:0:0:
460,192,143338,1,0,0:0:0:0:
36,192,143416,1,0,0:0:0:0:
448,192,143495,1,0,0:0:0:0:
358,192,143495,1,0,0:0:0:0:
192,192,143547,1,8,0:0:0:0:
51,192,143600,1,0,0:0:0:0:
402,192,143652,1,0,0:0:0:0:
460,192,143652,1,0,0:0:0:0:
192,192,143704,1,0,0:0:0:0:
51,192,143757,1,0,0:0:0:0:
475,192,143809,1,8,0:0:0:0:
358,192,143809,1,0,0:0:0:0:
64,192,143966,1,8,0:0:0:0:
192,192,144123,1,8,0:0:0:0:
460,192,144123,1,0,0:0:0:0:
64,192,144202,1,8,0:0:0:0:
358,192,144280,1,8,0:0:0:0:
192,192,144359,1,8,0:0:0:0:
64,192,144437,1,4,0:0:0:0:
448,192,144437,128,8,144752:0:0:0:0:
358,192,144516,1,0,0:0:0:0:
256,192,144595,1,0,0:0:0:0:
182,192,144673,1,4,0:0:0:0:
64,192,144752,1,0,0:0:0:0:
320,192,144752,128,0,145066:0:0:0:0:
256,192,144830,1,0,0:0:0:0:
153,192,144909,1,4,0:0:0:0:
256,192,144987,1,0,0:0:0:0:
153,192,145066,1,8,0:0:0:0:
51,192,145066,128,0,145694:0:0:0:0:
460,192,145066,1,0,0:0:0:0:
256,192,145144,1,0,0:0:0:0:
358,192,145223,1,8,0:0:0:0:
153,192,145301,1,0,0:0:0:0:
256,192,145380,1,8,0:0:0:0:
460,192,145458,1,0,0:0:0:0:
153,192,145537,1,8,0:0:0:0:
358,192,145615,1,0,0:0:0:0:
256,192,145694,1,8,0:0:0:0:
460,192,145694,1,0,0:0:0:0:
153,192,145694,128,0,146165:0:0:0:0:
475,192,145851,1,8,0:0:0:0:
256,192,145851,1,0,0:0:0:0:
320,192,146165,1,8,0:0:0:0:
460,192,146165,1,0,0:0:0:0:
256,192,146165,128,0,146951:0:0:0:0:
51,192,146322,1,8,0:0:0:0:
153,192,146322,1,0,0:0:0:0:
460,192,146636,1,8,0:0:0:0:
51,192,146636,1,0,0:0:0:0:
358,192,146715,1,0,0:0:0:0:
153,192,146793,1,8,0:0:0:0:
64,192,146872,1,0,0:0:0:0:
153,192,146951,1,8,0:0:0:0:
358,192,146951,128,0,147265:0:0:0:0:
64,192,147029,1,0,0:0:0:0:
182,192,147108,1,8,0:0:0:0:
256,192,147186,1,0,0:0:0:0:
51,192,147265,1,8,0:0:0:0:
448,192,147265,128,0,148678:0:0:0:0:
153,192,147343,1,0,0:0:0:0:
256,192,147422,1,8,0:0:0:0:
51,192,147500,1,0,0:0:0:0:
256,192,147579,1,8,0:0:0:0:
358,192,147579,1,0,0:0:0:0:
153,192,147579,1,0,0:0:0:0:
51,192,147657,1,0,0:0:0:0:
256,192,147736,1,8,0:0:0:0:
358,192,147814,1,8,0:0:0:0:
36,192,147893,1,8,0:0:0:0:
182,192,147971,1,0,0:0:0:0:
329,192,148050,1,8,0:0:0:0:
51,192,148129,1,8,0:0:0:0:
109,192,148207,1,8,0:0:0:0:
256,192,148207,1,0,0:0:0:0:
329,192,148364,1,8,0:0:0:0:
192,192,148364,1,0,0:0:0:0:
256,192,148521,1,8,0:0:0:0:
51,192,148521,1,0,0:0:0:0:
192,192,148678,1,8,0:0:0:0:
256,192,148678,1,0,0:0:0:0:
64,192,148678,128,0,150092:0:0:0:0:
358,192,148835,1,8,0:0:0:0:
460,192,148835,1,0,0:0:0:0:
153,192,148835,1,0,0:0:0:0:
256,192,148914,1,0,0:0:0:0:
358,192,148992,1,8,0:0:0:0:
460,192,149071,1,8,0:0:0:0:
153,192,149149,1,8,0:0:0:0:
256,192,149228,1,0,0:0:0:0:
358,192,149307,1,8,0:0:0:0:
153,192,149385,1,8,0:0:0:0:
256,192,149464,1,8,0:0:0:0:
358,192,149542,1,0,0:0:0:0:
460,192,149621,1,8,0:0:0:0:
358,192,149699,1,8,0:0:0:0:
256,192,149778,1,8,0:0:0:0:
153,192,149817,1,0,0:0:0:0:
460,192,149856,1,0,0:0:0:0:
358,192,149896,1,0,0:0:0:0:
256,192,149935,1,0,0:0:0:0:
153,192,149974,1,0,0:0:0:0:
460,192,150013,1,0,0:0:0:0:
358,192,150053,1,0,0:0:0:0:
192,192,150092,1,8,0:0:0:0:
256,192,150092,1,0,0:0:0:0:
256,192,150406,1,0,0:0:0:0:
51,192,150485,1,0,0:0:0:0:
109,192,150563,1,0,0:0:0:0:
256,192,150642,1,0,0:0:0:0:
358,192,150720,1,0,0:0:0:0:
256,192,150799,1,0,0:0:0:0:
153,192,150877,1,0,0:0:0:0:
256,192,150956,1,0,0:0:0:0:
51,192,151034,1,4,0:0:0:0:
460,192,151034,1,0,0:0:0:0:
358,192,151034,1,0,0:0:0:0:
109,192,151348,1,4,0:0:0:0:
402,192,151348,1,4,0:0:0:0:
51,192,151348,1,0,0:0:0:0:
460,192,151348,1,0,0:0:0:0:
256,192,151506,1,0,0:0:0:0:
182,192,151663,1,8,0:0:0:0:
329,192,151663,1,0,0:0:0:0:
51,192,151820,1,0,0:0:0:0:
460,192,151820,1,0,0:0:0:0:
256,192,151820,1,0,0:0:0:0:
109,192,152134,1,0,0:0:0:0:
475,192,152134,1,0,0:0:0:0:
358,192,152134,1,0,0:0:0:0:
256,192,152448,1,8,0:0:0:0:
402,192,152448,1,0,0:0:0:0:
36,192,152448,1,0,0:0:0:0:
109,192,152762,1,0,0:0:0:0:
329,192,152762,1,0,0:0:0:0:
460,192,152762,1,0,0:0:0:0:
256,192,152919,1,8,0:0:0:0:
36,192,152919,1,0,0:0:0:0:
109,192,153076,1,0,0:0:0:0:
460,192,153076,1,0,0:0:0:0:
358,192,153076,1,0,0:0:0:0:
51,192,153233,1,8,0:0:0:0:
460,192,153312,1,8,0:0:0:0:
109,192,153390,1,8,0:0:0:0:
256,192,153390,1,0,0:0:0:0:
358,192,153390,1,0,0:0:0:0:
51,192,153469,1,8,0:0:0:0:
460,192,153469,1,0,0:0:0:0:
182,192,153547,1,8,0:0:0:0:
358,192,153547,1,0,0:0:0:0:
256,192,153626,1,8,0:0:0:0:
460,192,153704,1,8,0:0:0:0:
358,192,153783,1,8,0:0:0:0:
256,192,153862,1,8,0:0:0:0:
51,192,153862,1,0,0:0:0:0:
51,192,154019,1,0,0:0:0:0:
256,192,154019,1,0,0:0:0:0:
153,192,154176,1,8,0:0:0:0:
329,192,154176,1,0,0:0:0:0:
51,192,154176,1,0,0:0:0:0:
256,192,154333,1,0,0:0:0:0:
460,192,154333,1,0,0:0:0:0:
358,192,154333,1,0,0:0:0:0:
109,192,154647,1,0,0:0:0:0:
475,192,154647,1,0,0:0:0:0:
256,192,154647,1,0,0:0:0:0:
182,192,154961,1,8,0:0:0:0:
402,192,154961,1,0,0:0:0:0:
36,192,154961,1,0,0:0:0:0:
51,192,155275,1,0,0:0:0:0:
460,192,155275,1,0,0:0:0:0:
358,192,155275,1,0,0:0:0:0:
256,192,155432,1,8,0:0:0:0:
153,192,155432,1,0,0:0:0:0:
51,192,155589,1,0,0:0:0:0:
358,192,155589,1,0,0:0:0:0:
460,192,155589,1,0,0:0:0:0:
51,192,155903,1,8,0:0:0:0:
256,192,155903,1,0,0:0:0:0:
153,192,155903,1,0,0:0:0:0:
460,192,156060,1,8,0:0:0:0:
358,192,156060,1,0,0:0:0:0:
51,192,156218,1,0,0:0:0:0:
153,192,156218,1,0,0:0:0:0:
256,192,156218,1,0,0:0:0:0:
460,192,156296,1,0,0:0:0:0:
153,192,156375,1,0,0:0:0:0:
358,192,156453,1,0,0:0:0:0:
51,192,156532,1,0,0:0:0:0:
256,192,156610,1,0,0:0:0:0:
182,192,156689,1,4,0:0:0:0:
36,192,156689,1,0,0:0:0:0:
460,192,156689,1,0,0:0:0:0:
256,192,156846,1,0,0:0:0:0:
402,192,156924,1,0,0:0:0:0:
475,192,157003,1,0,0:0:0:0:
109,192,157160,1,0,0:0:0:0:
402,192,157160,1,0,0:0:0:0:
256,192,157317,1,0,0:0:0:0:
182,192,157474,1,8,0:0:0:0:
402,192,157474,1,0,0:0:0:0:
36,192,157474,1,0,0:0:0:0:
109,192,157788,1,0,0:0:0:0:
256,192,157788,1,0,0:0:0:0:
358,192,157945,1,8,0:0:0:0:
36,192,157945,1,0,0:0:0:0:
475,192,158102,1,0,0:0:0:0:
109,192,158259,1,0,0:0:0:0:
460,192,158416,1,0,0:0:0:0:
256,192,158416,1,0,0:0:0:0:
182,192,158574,1,8,0:0:0:0:
329,192,158574,1,0,0:0:0:0:
36,192,158574,1,0,0:0:0:0:
460,192,158731,1,0,0:0:0:0:
109,192,158888,1,4,0:0:0:0:
329,192,158888,1,0,0:0:0:0:
256,192,158888,1,0,0:0:0:0:
182,192,159202,1,0,0:0:0:0:
36,192,159202,1,0,0:0:0:0:
256,192,159359,1,4,0:0:0:0:
460,192,159359,1,0,0:0:0:0:
358,192,159359,1,0,0:0:0:0:
109,192,159673,1,4,0:0:0:0:
460,192,159673,1,0,0:0:0:0:
329,192,159830,1,4,0:0:0:0:
36,192,159830,1,0,0:0:0:0:
109,192,159987,1,8,0:0:0:0:
460,192,159987,1,4,0:0:0:0:
256,192,159987,1,0,0:0:0:0:
256,192,160301,1,8,0:0:0:0:
358,192,160301,1,0,0:0:0:0:
182,192,160458,1,8,0:0:0:0:
36,192,160458,1,4,0:0:0:0:
182,192,160773,1,8,0:0:0:0:
402,192,160773,1,4,0:0:0:0:
36,192,160773,1,0,0:0:0:0:
51,192,160930,1,0,0:0:0:0:
256,192,160930,1,0,0:0:0:0:
182,192,161008,1,0,0:0:0:0:
402,192,161008,1,0,0:0:0:0:
256,192,161087,1,8,0:0:0:0:
475,192,161087,1,4,0:0:0:0:
51,192,161165,1,0,0:0:0:0:
358,192,161165,1,0,0:0:0:0:
182,192,161244,1,0,0:0:0:0:
460,192,161244,1,0,0:0:0:0:
256,192,161322,1,0,0:0:0:0:
358,192,161322,1,0,0:0:0:0:
109,192,161401,1,4,0:0:0:0:
460,192,161401,1,4,0:0:0:0:
51,192,161401,1,0,0:0:0:0:
109,192,161558,1,0,0:0:0:0:
402,192,161558,1,0,0:0:0:0:
256,192,161715,1,8,0:0:0:0:
460,192,161715,1,0,0:0:0:0:
36,192,161715,1,0,0:0:0:0:
109,192,161872,1,0,0:0:0:0:
402,192,161872,1,0,0:0:0:0:
256,192,161872,1,0,0:0:0:0:
109,192,162186,1,0,0:0:0:0:
475,192,162186,1,0,0:0:0:0:
51,192,162186,1,0,0:0:0:0:
256,192,162500,1,8,0:0:0:0:
402,192,162500,1,0,0:0:0:0:
36,192,162500,1,0,0:0:0:0:
109,192,162814,1,0,0:0:0:0:
329,192,162814,1,0,0:0:0:0:
256,192,162814,1,0,0:0:0:0:
460,192,162971,1,8,0:0:0:0:
36,192,162971,1,0,0:0:0:0:
109,192,163129,1,0,0:0:0:0:
256,192,163129,1,0,0:0:0:0:
51,192,163443,1,8,0:0:0:0:
402,192,163443,1,0,0:0:0:0:
256,192,163443,1,0,0:0:0:0:
182,192,163600,1,8,0:0:0:0:
358,192,163600,1,0,0:0:0:0:
36,192,163600,1,0,0:0:0:0:
256,192,163678,1,8,0:0:0:0:
460,192,163678,1,0,0:0:0:0:
329,192,163757,1,8,0:0:0:0:
153,192,163757,1,0,0:0:0:0:
256,192,163835,1,8,0:0:0:0:
51,192,163835,1,0,0:0:0:0:
109,192,163914,1,4,0:0:0:0:
475,192,163914,1,8,0:0:0:0:
358,192,163914,1,0,0:0:0:0:
109,192,164071,1,0,0:0:0:0:
475,192,164071,1,0,0:0:0:0:
256,192,164228,1,8,0:0:0:0:
329,192,164228,1,0,0:0:0:0:
36,192,164228,1,0,0:0:0:0:
109,192,164385,1,0,0:0:0:0:
402,192,164385,1,0,0:0:0:0:
460,192,164385,1,0,0:0:0:0:
109,192,164699,1,0,0:0:0:0:
329,192,164699,1,0,0:0:0:0:
256,192,164699,1,0,0:0:0:0:
256,192,165013,1,8,0:0:0:0:
36,192,165013,1,0,0:0:0:0:
475,192,165013,1,0,0:0:0:0:
256,192,165327,1,0,0:0:0:0:
402,192,165327,1,0,0:0:0:0:
153,192,165327,1,0,0:0:0:0:
460,192,165485,1,8,0:0:0:0:
36,192,165485,1,0,0:0:0:0:
256,192,165642,1,0,0:0:0:0:
153,192,165642,1,0,0:0:0:0:
358,192,165642,1,0,0:0:0:0:
460,192,165799,1,8,0:0:0:0:
256,192,165877,1,8,0:0:0:0:
51,192,165956,1,8,0:0:0:0:
153,192,165956,1,0,0:0:0:0:
358,192,165956,1,0,0:0:0:0:
460,192,166034,1,8,0:0:0:0:
256,192,166113,1,8,0:0:0:0:
358,192,166113,1,0,0:0:0:0:
51,192,166270,1,8,0:0:0:0:
460,192,166270,1,0,0:0:0:0:
153,192,166348,1,8,0:0:0:0:
358,192,166427,1,8,0:0:0:0:
256,192,166427,1,4,0:0:0:0:
460,192,166427,1,0,0:0:0:0:
182,192,166741,1,8,0:0:0:0:
36,192,166741,1,0,0:0:0:0:
109,192,167212,1,0,0:0:0:0:
256,192,167212,1,0,0:0:0:0:
358,192,167212,1,0,0:0:0:0:
475,192,167369,1,0,0:0:0:0:
182,192,167526,1,8,0:0:0:0:
402,192,167526,1,0,0:0:0:0:
36,192,167526,1,0,0:0:0:0:
109,192,167841,1,0,0:0:0:0:
358,192,167841,1,0,0:0:0:0:
256,192,167998,1,8,0:0:0:0:
36,192,167998,1,0,0:0:0:0:
460,192,167998,1,0,0:0:0:0:
51,192,168312,1,8,0:0:0:0:
358,192,168312,1,0,0:0:0:0:
460,192,168390,1,8,0:0:0:0:
109,192,168469,1,8,0:0:0:0:
256,192,168469,1,0,0:0:0:0:
460,192,168547,1,8,0:0:0:0:
182,192,168626,1,8,0:0:0:0:
329,192,168626,1,0,0:0:0:0:
36,192,168626,1,0,0:0:0:0:
109,192,168783,1,8,0:0:0:0:
460,192,168783,1,4,0:0:0:0:
256,192,168783,1,0,0:0:0:0:
460,192,169097,1,0,0:0:0:0:
358,192,169097,1,0,0:0:0:0:
256,192,169254,1,8,0:0:0:0:
36,192,169254,1,0,0:0:0:0:
109,192,169411,1,0,0:0:0:0:
256,192,169490,1,0,0:0:0:0:
402,192,169568,1,0,0:0:0:0:
256,192,169647,1,0,0:0:0:0:
109,192,169725,1,0,0:0:0:0:
358,192,169804,1,0,0:0:0:0:
51,192,169882,1,0,0:0:0:0:
460,192,169882,1,0,0:0:0:0:
153,192,169922,1,0,0:0:0:0:
358,192,169961,1,0,0:0:0:0:
460,192,170000,1,0,0:0:0:0:
51,192,170040,1,0,0:0:0:0:
153,192,170079,1,0,0:0:0:0:
256,192,170118,1,0,0:0:0:0:
358,192,170157,1,0,0:0:0:0:
153,192,170197,1,0,0:0:0:0:
475,192,170197,1,0,0:0:0:0:
51,192,170197,1,0,0:0:0:0:
320,192,170275,1,0,0:0:0:0:
256,192,170354,1,0,0:0:0:0:
153,192,170432,1,0,0:0:0:0:
51,192,170511,1,0,0:0:0:0:
358,192,170511,1,0,0:0:0:0:
256,192,170589,1,0,0:0:0:0:
153,192,170668,1,0,0:0:0:0:
51,192,170746,1,0,0:0:0:0:
153,192,170825,1,0,0:0:0:0:
460,192,170825,1,0,0:0:0:0:
358,192,170903,1,0,0:0:0:0:
256,192,170982,1,0,0:0:0:0:
153,192,171060,1,0,0:0:0:0:
51,192,171139,1,0,0:0:0:0:
256,192,171139,1,0,0:0:0:0:
460,192,171191,1,0,0:0:0:0:
153,192,171244,1,0,0:0:0:0:
256,192,171296,1,0,0:0:0:0:
358,192,171348,1,0,0:0:0:0:
51,192,171401,1,0,0:0:0:0:
256,192,171453,1,4,0:0:0:0:
109,192,171453,1,4,0:0:0:0:
460,192,171453,1,4,0:0:0:0:
109,192,171610,1,4,0:0:0:0:
402,192,171610,1,0,0:0:0:0:
460,192,171767,1,4,0:0:0:0:
256,192,171767,1,0,0:0:0:0:
36,192,171767,1,0,0:0:0:0:
109,192,171924,1,4,0:0:0:0:
475,192,171924,1,0,0:0:0:0:
358,192,171924,1,0,0:0:0:0:
109,192,172238,1,4,0:0:0:0:
402,192,172238,1,0,0:0:0:0:
51,192,172238,1,0,0:0:0:0:
256,192,172553,1,4,0:0:0:0:
36,192,172553,1,0,0:0:0:0:
475,192,172553,1,0,0:0:0:0:
109,192,172867,1,4,0:0:0:0:
402,192,172867,1,0,0:0:0:0:
256,192,172867,1,0,0:0:0:0:
460,192,173024,1,0,0:0:0:0:
36,192,173024,1,0,0:0:0:0:
256,192,173181,1,4,0:0:0:0:
329,192,173181,1,0,0:0:0:0:
153,192,173181,1,0,0:0:0:0:
109,192,173495,1,4,0:0:0:0:
256,192,173495,1,0,0:0:0:0:
460,192,173495,1,0,0:0:0:0:
182,192,173652,1,0,0:0:0:0:
36,192,173652,1,0,0:0:0:0:
460,192,173731,1,0,0:0:0:0:
256,192,173809,1,0,0:0:0:0:
51,192,173888,1,0,0:0:0:0:
460,192,173966,1,4,0:0:0:0:
402,192,173966,1,0,0:0:0:0:
256,192,174123,1,4,0:0:0:0:
153,192,174123,1,0,0:0:0:0:
460,192,174280,1,4,0:0:0:0:
36,192,174280,1,0,0:0:0:0:
109,192,174437,1,4,0:0:0:0:
402,192,174437,1,0,0:0:0:0:
256,192,174437,1,0,0:0:0:0:
109,192,174752,1,4,0:0:0:0:
475,192,174752,1,0,0:0:0:0:
51,192,174752,1,0,0:0:0:0:
182,192,175066,1,4,0:0:0:0:
402,192,175066,1,0,0:0:0:0:
36,192,175066,1,0,0:0:0:0:
51,192,175380,1,4,0:0:0:0:
460,192,175380,1,0,0:0:0:0:
256,192,175380,1,0,0:0:0:0:
182,192,175537,1,0,0:0:0:0:
358,192,175537,1,0,0:0:0:0:
460,192,175694,1,4,0:0:0:0:
256,192,175694,1,0,0:0:0:0:
109,192,176008,1,4,0:0:0:0:
402,192,176008,1,0,0:0:0:0:
460,192,176008,1,0,0:0:0:0:
256,192,176165,1,0,0:0:0:0:
36,192,176165,1,0,0:0:0:0:
153,192,176322,1,4,0:0:0:0:
460,192,176322,1,0,0:0:0:0:
358,192,176479,1,0,0:0:0:0:
153,192,176558,1,0,0:0:0:0:
358,192,176636,1,0,0:0:0:0:
153,192,176715,1,0,0:0:0:0:
358,192,176793,1,4,0:0:0:0:
36,192,176793,1,4,0:0:0:0:
460,192,176793,1,0,0:0:0:0:
256,192,176951,1,0,0:0:0:0:
153,192,177029,1,0,0:0:0:0:
475,192,177108,1,0,0:0:0:0:
109,192,177265,1,0,0:0:0:0:
402,192,177265,1,0,0:0:0:0:
402,192,177422,1,0,0:0:0:0:
460,192,177579,1,0,0:0:0:0:
182,192,177579,1,0,0:0:0:0:
36,192,177579,1,0,0:0:0:0:
358,192,177893,1,0,0:0:0:0:
460,192,177893,1,0,0:0:0:0:
182,192,178050,1,0,0:0:0:0:
36,192,178050,1,0,0:0:0:0:
329,192,178207,1,0,0:0:0:0:
460,192,178207,1,0,0:0:0:0:
256,192,178364,1,0,0:0:0:0:
51,192,178443,1,0,0:0:0:0:
109,192,178521,1,0,0:0:0:0:
402,192,178521,1,0,0:0:0:0:
460,192,178600,1,0,0:0:0:0:
256,192,178678,1,0,0:0:0:0:
36,192,178678,1,0,0:0:0:0:
153,192,178678,1,0,0:0:0:0:
109,192,178992,1,4,0:0:0:0:
475,192,178992,1,4,0:0:0:0:
256,192,178992,1,0,0:0:0:0:
182,192,179307,1,0,0:0:0:0:
358,192,179307,1,0,0:0:0:0:
256,192,179464,1,4,0:0:0:0:
51,192,179464,1,4,0:0:0:0:
358,192,179464,1,0,0:0:0:0:
460,192,179778,1,4,0:0:0:0:
51,192,179778,1,0,0:0:0:0:
358,192,179935,1,4,0:0:0:0:
51,192,179935,1,0,0:0:0:0:
256,192,179935,1,0,0:0:0:0:
256,192,180092,1,4,0:0:0:0:
153,192,180092,1,0,0:0:0:0:
460,192,180092,1,0,0:0:0:0:
109,192,180406,1,4,0:0:0:0:
358,192,180406,1,0,0:0:0:0:
256,192,180563,1,4,0:0:0:0:
358,192,180563,1,0,0:0:0:0:
256,192,180877,1,4,0:0:0:0:
36,192,180877,1,4,0:0:0:0:
475,192,180877,1,0,0:0:0:0:
51,192,181034,1,0,0:0:0:0:
460,192,181034,1,0,0:0:0:0:
182,192,181113,1,0,0:0:0:0:
256,192,181191,1,4,0:0:0:0:
475,192,181191,1,0,0:0:0:0:
153,192,181270,1,0,0:0:0:0:
256,192,181348,1,0,0:0:0:0:
358,192,181427,1,0,0:0:0:0:
460,192,181506,1,4,0:0:0:0:
256,192,181506,1,4,0:0:0:0:
51,192,181506,1,0,0:0:0:0:
402,192,181663,1,0,0:0:0:0:
256,192,181820,1,0,0:0:0:0:
329,192,181820,1,0,0:0:0:0:
109,192,181898,1,0,0:0:0:0:
402,192,181977,1,4,0:0:0:0:
51,192,181977,1,0,0:0:0:0:
460,192,181977,1,0,0:0:0:0:
109,192,182055,1,0,0:0:0:0:
256,192,182134,1,0,0:0:0:0:
109,192,182212,1,0,0:0:0:0:
51,192,182291,1,4,0:0:0:0:
475,192,182291,1,0,0:0:0:0:
358,192,182291,1,0,0:0:0:0:
109,192,182369,1,0,0:0:0:0:
256,192,182448,1,0,0:0:0:0:
109,192,182526,1,0,0:0:0:0:
402,192,182605,1,4,0:0:0:0:
51,192,182605,1,0,0:0:0:0:
460,192,182605,1,0,0:0:0:0:
153,192,182684,1,0,0:0:0:0:
256,192,182762,1,0,0:0:0:0:
109,192,182841,1,0,0:0:0:0:
329,192,182919,1,4,0:0:0:0:
51,192,182919,1,0,0:0:0:0:
460,192,182919,1,0,0:0:0:0:
109,192,182998,1,0,0:0:0:0:
256,192,183076,1,0,0:0:0:0:
109,192,183155,1,0,0:0:0:0:
51,192,183233,1,4,0:0:0:0:
475,192,183233,1,0,0:0:0:0:
358,192,183233,1,0,0:0:0:0:
109,192,183312,1,0,0:0:0:0:
256,192,183390,1,0,0:0:0:0:
109,192,183469,1,0,0:0:0:0:
402,192,183547,1,4,0:0:0:0:
51,192,183547,1,0,0:0:0:0:
460,192,183547,1,0,0:0:0:0:
153,192,183626,1,0,0:0:0:0:
460,192,183704,1,0,0:0:0:0:
256,192,183704,1,0,0:0:0:0:
51,192,183783,1,0,0:0:0:0:
329,192,183783,1,0,0:0:0:0:
182,192,183862,1,0,0:0:0:0:
256,192,183862,1,0,0:0:0:0:
64,192,183940,1,0,0:0:0:0:
320,192,183940,1,0,0:0:0:0:
182,192,184019,1,4,0:0:0:0:
460,192,184019,1,0,0:0:0:0:
320,192,184097,1,0,0:0:0:0:
182,192,184176,1,0,0:0:0:0:
256,192,184176,1,0,0:0:0:0:
320,192,184254,1,0,0:0:0:0:
36,192,184333,1,0,0:0:0:0:
475,192,184333,1,0,0:0:0:0:
320,192,184411,1,0,0:0:0:0:
109,192,184490,1,4,0:0:0:0:
256,192,184490,1,0,0:0:0:0:
51,192,184490,1,0,0:0:0:0:
320,192,184568,1,0,0:0:0:0:
475,192,184647,1,0,0:0:0:0:
320,192,184725,1,0,0:0:0:0:
182,192,184804,1,4,0:0:0:0:
256,192,184804,1,0,0:0:0:0:
51,192,184804,1,0,0:0:0:0:
320,192,184882,1,0,0:0:0:0:
448,192,184961,1,0,0:0:0:0:
153,192,185040,1,0,0:0:0:0:
64,192,185118,1,4,0:0:0:0:
358,192,185118,1,0,0:0:0:0:
460,192,185118,1,0,0:0:0:0:
256,192,185432,1,4,0:0:0:0:
460,192,185432,1,0,0:0:0:0:
358,192,185432,1,0,0:0:0:0:
109,192,185746,1,4,0:0:0:0:
329,192,185746,1,0,0:0:0:0:
256,192,185746,1,0,0:0:0:0:
256,192,186060,1,0,0:0:0:0:
36,192,186060,1,0,0:0:0:0:
153,192,186060,1,0,0:0:0:0:
460,192,186139,1,0,0:0:0:0:
256,192,186218,1,0,0:0:0:0:
51,192,186296,1,0,0:0:0:0:
460,192,186375,1,0,0:0:0:0:
358,192,186375,1,0,0:0:0:0:
182,192,186453,1,0,0:0:0:0:
256,192,186453,1,0,0:0:0:0:
51,192,186532,1,4,0:0:0:0:
358,192,186532,1,4,0:0:0:0:
460,192,186532,1,0,0:0:0:0:
51,192,186846,1,0,0:0:0:0:
460,192,186846,1,0,0:0:0:0:
109,192,187317,1,0,0:0:0:0:
256,192,187317,1,0,0:0:0:0:
329,192,187474,1,0,0:0:0:0:
475,192,187474,1,0,0:0:0:0:
256,192,187631,1,0,0:0:0:0:
402,192,187631,1,0,0:0:0:0:
51,192,187631,1,0,0:0:0:0:
358,192,187945,1,0,0:0:0:0:
153,192,187945,1,0,0:0:0:0:
51,192,188102,1,0,0:0:0:0:
256,192,188102,1,0,0:0:0:0:
153,192,188416,1,0,0:0:0:0:
358,192,188495,1,0,0:0:0:0:
51,192,188574,1,0,0:0:0:0:
256,192,188574,1,0,0:0:0:0:
460,192,188652,1,0,0:0:0:0:
153,192,188731,1,0,0:0:0:0:
358,192,188731,1,0,0:0:0:0:
256,192,188888,1,0,0:0:0:0:
475,192,188888,1,0,0:0:0:0:
51,192,188888,1,0,0:0:0:0:
153,192,189045,1,0,0:0:0:0:
51,192,189202,1,0,0:0:0:0:
358,192,189202,1,0,0:0:0:0:
256,192,189359,1,0,0:0:0:0:
460,192,189359,1,0,0:0:0:0:
153,192,189359,1,0,0:0:0:0:
358,192,189516,1,0,0:0:0:0:
256,192,189595,1,0,0:0:0:0:
153,192,189673,1,0,0:0:0:0:
358,192,189752,1,0,0:0:0:0:
51,192,189830,1,0,0:0:0:0:
256,192,189909,1,0,0:0:0:0:
460,192,189987,1,0,0:0:0:0:
358,192,190026,1,0,0:0:0:0:
153,192,190066,1,0,0:0:0:0:
51,192,190105,1,0,0:0:0:0:
460,192,190144,1,0,0:0:0:0:
358,192,190184,1,0,0:0:0:0:
153,192,190223,1,0,0:0:0:0:
51,192,190262,1,0,0:0:0:0:
475,192,190301,1,0,0:0:0:0:
358,192,190301,1,0,0:0:0:0:
256,192,190301,1,0,0:0:0:0:
153,192,190380,1,0,0:0:0:0:
358,192,190458,1,0,0:0:0:0:
460,192,190537,1,0,0:0:0:0:
358,192,190615,1,0,0:0:0:0:
256,192,190694,1,0,0:0:0:0:
153,192,190773,1,0,0:0:0:0:
51,192,190851,1,0,0:0:0:0:
460,192,190930,1,0,0:0:0:0:
358,192,191008,1,0,0:0:0:0:
153,192,191087,1,0,0:0:0:0:
51,192,191165,1,0,0:0:0:0:
475,192,191244,1,0,0:0:0:0:
329,192,191322,1,0,0:0:0:0:
256,192,191401,1,0,0:0:0:0:
153,192,191453,1,0,0:0:0:0:
51,192,191506,1,0,0:0:0:0:
153,192,191558,1,0,0:0:0:0:
256,192,191636,1,0,0:0:0:0:
358,192,191715,1,0,0:0:0:0:
460,192,191793,1,0,0:0:0:0:
51,192,191872,1,0,0:0:0:0:
153,192,191951,1,0,0:0:0:0:
256,192,192029,1,0,0:0:0:0:
358,192,192108,1,0,0:0:0:0:
51,192,192186,1,8,0:0:0:0:
153,192,192265,1,8,0:0:0:0:
358,192,192343,1,8,0:0:0:0:
460,192,192422,1,8,0:0:0:0:
358,192,192500,1,4,0:0:0:0:
256,192,192500,1,8,0:0:0:0:
51,192,192500,1,0,0:0:0:0:
153,192,192814,1,4,0:0:0:0:
36,192,192814,1,4,0:0:0:0:
475,192,192814,1,0,0:0:0:0:
358,192,192814,1,0,0:0:0:0:
256,192,192814,1,0,0:0:0:0:
51,192,193443,128,0,193600:0:0:0:0:
153,192,193600,128,0,193757:0:0:0:0:
256,192,193757,128,0,193914:0:0:0:0:
320,192,193914,128,0,194071:0:0:0:0:
182,192,194071,1,0,0:0:0:0:
36,192,194071,1,0,0:0:0:0:
448,192,194071,128,0,195013:0:0:0:0:
109,192,195013,128,0,195327:0:0:0:0:
256,192,195327,128,0,195956:0:0:0:0:
475,192,195327,128,0,195956:0:0:0:0:
153,192,195956,128,0,196584:0:0:0:0:
358,192,195956,128,0,196584:0:0:0:0:
51,192,196584,1,0,0:0:0:0:
475,192,196898,128,0,197055:0:0:0:0:
320,192,197055,128,0,197212:0:0:0:0:
256,192,197212,128,0,197422:0:0:0:0:
153,192,197422,128,0,197631:0:0:0:0:
51,192,197631,128,0,197841:0:0:0:0:
256,192,197841,128,0,198155:0:0:0:0:
358,192,198155,128,0,198469:0:0:0:0:
460,192,198469,128,0,198626:0:0:0:0:
182,192,198626,128,0,198783:0:0:0:0:
460,192,198783,128,0,198940:0:0:0:0:
51,192,198940,128,0,199097:0:0:0:0:
358,192,199097,1,0,0:0:0:0:
256,192,199097,128,0,199568:0:0:0:0:
358,192,199568,128,0,200040:0:0:0:0:
192,192,200040,128,0,201610:0:0:0:0:
460,192,200040,128,0,203181:0:0:0:0:
256,192,201610,1,0,0:0:0:0:
64,192,201610,128,0,202867:0:0:0:0:
358,192,202867,1,0,0:0:0:0:
192,192,202867,128,0,203181:0:0:0:0:
64,192,203181,128,0,203495:0:0:0:0:
192,192,203495,128,0,203652:0:0:0:0:
256,192,203652,128,0,203809:0:0:0:0:
51,192,203809,1,0,0:0:0:0:
358,192,203888,1,0,0:0:0:0:
153,192,203966,1,0,0:0:0:0:
256,192,204045,1,0,0:0:0:0:
358,192,204123,1,0,0:0:0:0:
460,192,204123,128,0,205380:0:0:0:0:
109,192,205066,128,0,205380:0:0:0:0:
256,192,205380,128,0,206636:0:0:0:0:
358,192,205380,128,0,206636:0:0:0:0:
36,192,206636,1,0,0:0:0:0:
402,192,206951,128,0,207579:0:0:0:0:
109,192,207579,128,0,207736:0:0:0:0:
256,192,207736,128,0,207893:0:0:0:0:
402,192,207893,128,0,208207:0:0:0:0:
109,192,208050,128,0,208207:0:0:0:0:
460,192,208207,128,0,208521:0:0:0:0:
182,192,208364,128,0,208521:0:0:0:0:
256,192,208521,128,0,208835:0:0:0:0:
51,192,208835,128,0,209071:0:0:0:0:
358,192,208835,128,0,209071:0:0:0:0:
448,192,209149,1,0,0:0:0:0:
64,192,209149,128,0,209621:0:0:0:0:
320,192,209149,128,0,209621:0:0:0:0:
192,192,209621,128,0,210013:0:0:0:0:
448,192,209621,128,0,210013:0:0:0:0:
153,192,210092,128,0,213233:0:0:0:0:
460,192,210092,128,0,211663:0:0:0:0:
256,192,211663,1,0,0:0:0:0:
358,192,211663,128,0,212919:0:0:0:0:
256,192,212919,1,0,0:0:0:0:
51,192,212919,128,0,213233:0:0:0:0:
448,192,213233,128,0,213547:0:0:0:0:
51,192,213547,128,0,213704:0:0:0:0:
256,192,213704,128,0,213862:0:0:0:0:
51,192,213862,1,0,0:0:0:0:
460,192,213862,1,0,0:0:0:0:
153,192,213940,1,0,0:0:0:0:
51,192,214019,1,0,0:0:0:0:
320,192,214097,1,0,0:0:0:0:
192,192,214176,1,4,0:0:0:0:
36,192,214176,1,4,0:0:0:0:
448,192,214176,128,0,215118:0:0:0:0:
329,192,214254,1,0,0:0:0:0:
182,192,214333,1,0,0:0:0:0:
36,192,214411,1,0,0:0:0:0:
192,192,214490,1,0,0:0:0:0:
329,192,214568,1,0,0:0:0:0:
256,192,214647,1,0,0:0:0:0:
358,192,214725,1,0,0:0:0:0:
192,192,214804,1,0,0:0:0:0:
256,192,214882,1,0,0:0:0:0:
182,192,214961,1,0,0:0:0:0:
320,192,215040,1,0,0:0:0:0:
192,192,215118,1,0,0:0:0:0:
36,192,215118,128,0,215432:0:0:0:0:
329,192,215197,1,0,0:0:0:0:
256,192,215275,1,0,0:0:0:0:
320,192,215354,1,0,0:0:0:0:
192,192,215432,1,0,0:0:0:0:
448,192,215432,128,0,216060:0:0:0:0:
256,192,215511,1,0,0:0:0:0:
51,192,215589,1,0,0:0:0:0:
109,192,215668,1,0,0:0:0:0:
256,192,215746,1,0,0:0:0:0:
182,192,215825,1,0,0:0:0:0:
51,192,215903,1,0,0:0:0:0:
192,192,215982,1,0,0:0:0:0:
256,192,216060,1,0,0:0:0:0:
64,192,216060,128,0,216689:0:0:0:0:
358,192,216139,1,0,0:0:0:0:
460,192,216218,1,0,0:0:0:0:
192,192,216296,1,0,0:0:0:0:
256,192,216375,1,0,0:0:0:0:
358,192,216453,1,0,0:0:0:0:
256,192,216532,1,0,0:0:0:0:
358,192,216610,1,0,0:0:0:0:
448,192,216689,1,0,0:0:0:0:
153,192,216689,1,0,0:0:0:0:
460,192,217003,1,0,0:0:0:0:
358,192,217003,128,0,217212:0:0:0:0:
256,192,217212,128,0,217422:0:0:0:0:
182,192,217422,128,0,217631:0:0:0:0:
51,192,217631,128,0,217841:0:0:0:0:
192,192,217841,128,0,217945:0:0:0:0:
402,192,217945,1,0,0:0:0:0:
256,192,217945,128,0,218259:0:0:0:0:
64,192,218024,1,0,0:0:0:0:
192,192,218102,1,0,0:0:0:0:
358,192,218181,1,0,0:0:0:0:
192,192,218259,1,0,0:0:0:0:
448,192,218259,128,0,218574:0:0:0:0:
51,192,218338,1,0,0:0:0:0:
182,192,218416,1,0,0:0:0:0:
256,192,218495,1,0,0:0:0:0:
192,192,218574,1,0,0:0:0:0:
320,192,218574,128,0,218731:0:0:0:0:
64,192,218652,1,0,0:0:0:0:
448,192,218731,1,0,0:0:0:0:
256,192,218731,128,0,218888:0:0:0:0:
153,192,218809,1,0,0:0:0:0:
51,192,218888,1,0,0:0:0:0:
460,192,218888,128,0,219045:0:0:0:0:
153,192,218966,1,0,0:0:0:0:
256,192,219045,1,0,0:0:0:0:
358,192,219045,128,0,219202:0:0:0:0:
153,192,219123,1,0,0:0:0:0:
460,192,219202,1,0,0:0:0:0:
51,192,219202,1,0,0:0:0:0:
256,192,219280,1,0,0:0:0:0:
460,192,219359,1,0,0:0:0:0:
256,192,219437,1,0,0:0:0:0:
153,192,219516,1,0,0:0:0:0:
51,192,219516,1,0,0:0:0:0:
358,192,219595,1,0,0:0:0:0:
153,192,219673,1,0,0:0:0:0:
358,192,219752,1,0,0:0:0:0:
460,192,219830,1,0,0:0:0:0:
256,192,219830,1,0,0:0:0:0:
153,192,219830,1,0,0:0:0:0:
51,192,219909,1,0,0:0:0:0:
256,192,219987,1,0,0:0:0:0:
51,192,220066,1,0,0:0:0:0:
460,192,220144,1,0,0:0:0:0:
358,192,220144,1,0,0:0:0:0:
256,192,220223,1,0,0:0:0:0:
51,192,220301,1,0,0:0:0:0:
358,192,220380,1,0,0:0:0:0:
153,192,220458,1,0,0:0:0:0:
51,192,220458,128,0,221087:0:0:0:0:
358,192,220537,1,0,0:0:0:0:
256,192,220615,1,0,0:0:0:0:
109,192,220694,1,0,0:0:0:0:
320,192,220773,1,0,0:0:0:0:
448,192,220851,1,0,0:0:0:0:
256,192,220930,1,0,0:0:0:0:
109,192,221008,1,0,0:0:0:0:
320,192,221087,1,0,0:0:0:0:
448,192,221087,128,0,221715:0:0:0:0:
256,192,221165,1,0,0:0:0:0:
182,192,221244,1,0,0:0:0:0:
51,192,221322,1,0,0:0:0:0:
192,192,221401,1,0,0:0:0:0:
256,192,221479,1,0,0:0:0:0:
358,192,221558,1,0,0:0:0:0:
256,192,221636,1,0,0:0:0:0:
192,192,221715,1,0,0:0:0:0:
358,192,221715,128,0,222343:0:0:0:0:
64,192,221793,1,0,0:0:0:0:
182,192,221872,1,0,0:0:0:0:
256,192,221951,1,0,0:0:0:0:
460,192,222029,1,0,0:0:0:0:
256,192,222108,1,0,0:0:0:0:
153,192,222186,1,0,0:0:0:0:
51,192,222265,1,0,0:0:0:0:
192,192,222343,1,0,0:0:0:0:
256,192,222343,128,0,222657:0:0:0:0:
460,192,222422,1,0,0:0:0:0:
358,192,222500,1,0,0:0:0:0:
153,192,222579,1,0,0:0:0:0:
51,192,222657,1,0,0:0:0:0:
358,192,222657,128,0,222971:0:0:0:0:
153,192,222736,1,0,0:0:0:0:
460,192,222814,1,0,0:0:0:0:
256,192,222893,1,0,0:0:0:0:
51,192,222971,1,0,0:0:0:0:
460,192,222971,1,0,0:0:0:0:
358,192,223050,1,0,0:0:0:0:
51,192,223129,1,0,0:0:0:0:
256,192,223129,1,0,0:0:0:0:
460,192,223207,1,0,0:0:0:0:
358,192,223286,1,0,0:0:0:0:
153,192,223286,1,0,0:0:0:0:
51,192,223364,1,0,0:0:0:0:
460,192,223443,1,0,0:0:0:0:
256,192,223443,1,0,0:0:0:0:
153,192,223521,1,0,0:0:0:0:
358,192,223600,1,0,0:0:0:0:
51,192,223600,128,0,223757:0:0:0:0:
256,192,223678,1,0,0:0:0:0:
460,192,223757,1,0,0:0:0:0:
109,192,223757,128,0,223914:0:0:0:0:
256,192,223835,1,0,0:0:0:0:
51,192,223914,1,0,0:0:0:0:
358,192,223914,128,0,224071:0:0:0:0:
256,192,223992,1,0,0:0:0:0:
51,192,224071,1,2,0:0:0:0:
153,192,224071,1,0,0:0:0:0:
460,192,224071,128,0,224228:0:0:0:0:
256,192,224149,1,2,0:0:0:0:
36,192,224228,1,4,0:0:0:0:
358,192,224228,1,2,0:0:0:0:
153,192,224228,1,0,0:0:0:0:
460,192,224307,1,0,0:0:0:0:
256,192,224307,1,0,0:0:0:0:
51,192,224385,1,0,0:0:0:0:
153,192,224385,1,0,0:0:0:0:
358,192,224464,1,0,0:0:0:0:
460,192,224464,1,0,0:0:0:0:
51,192,224542,1,0,0:0:0:0:
256,192,224542,1,0,0:0:0:0:
460,192,224621,1,0,0:0:0:0:
320,192,224621,1,0,0:0:0:0:
51,192,224699,1,0,0:0:0:0:
153,192,224699,1,0,0:0:0:0:
256,192,224778,1,0,0:0:0:0:
460,192,224778,1,0,0:0:0:0:
153,192,224856,1,0,0:0:0:0:
51,192,224856,1,0,0:0:0:0:
460,192,224935,1,0,0:0:0:0:
358,192,224935,1,0,0:0:0:0:
51,192,225013,1,0,0:0:0:0:
256,192,225013,1,0,0:0:0:0:
460,192,225092,1,0,0:0:0:0:
358,192,225092,1,0,0:0:0:0:
51,192,225170,1,0,0:0:0:0:
153,192,225170,1,0,0:0:0:0:
256,192,225249,1,0,0:0:0:0:
460,192,225249,1,0,0:0:0:0:
51,192,225327,1,0,0:0:0:0:
153,192,225327,1,0,0:0:0:0:
256,192,225406,1,0,0:0:0:0:
358,192,225406,1,0,0:0:0:0:
51,192,225485,1,0,0:0:0:0:
475,192,225485,1,0,0:0:0:0:
153,192,225563,1,0,0:0:0:0:
320,192,225563,1,0,0:0:0:0:
51,192,225642,1,0,0:0:0:0:
448,192,225642,1,0,0:0:0:0:
109,192,225720,1,0,0:0:0:0:
358,192,225720,1,0,0:0:0:0:
256,192,225799,1,0,0:0:0:0:
51,192,225799,1,0,0:0:0:0:
460,192,225877,1,0,0:0:0:0:
402,192,225877,1,0,0:0:0:0:
51,192,225956,1,0,0:0:0:0:
153,192,225956,1,0,0:0:0:0:
460,192,226034,1,0,0:0:0:0:
256,192,226034,1,0,0:0:0:0:
51,192,226113,1,0,0:0:0:0:
153,192,226113,1,0,0:0:0:0:
358,192,226191,1,0,0:0:0:0:
460,192,226191,1,0,0:0:0:0:
256,192,226270,1,0,0:0:0:0:
51,192,226270,1,0,0:0:0:0:
460,192,226348,1,0,0:0:0:0:
153,192,226348,1,0,0:0:0:0:
256,192,226427,1,0,0:0:0:0:
358,192,226427,1,0,0:0:0:0:
51,192,226506,1,0,0:0:0:0:
460,192,226506,1,0,0:0:0:0:
153,192,226584,1,2,0:0:0:0:
256,192,226584,1,0,0:0:0:0:
358,192,226663,1,2,0:0:0:0:
460,192,226663,1,0,0:0:0:0:
182,192,226741,1,2,0:0:0:0:
256,192,226741,1,4,0:0:0:0:
51,192,226741,1,0,0:0:0:0:
460,192,226820,1,0,0:0:0:0:
256,192,226898,1,0,0:0:0:0:
51,192,226977,1,0,0:0:0:0:
358,192,226977,1,0,0:0:0:0:
182,192,227055,1,0,0:0:0:0:
475,192,227055,1,0,0:0:0:0:
51,192,227134,1,0,0:0:0:0:
402,192,227134,1,0,0:0:0:0:
182,192,227212,1,0,0:0:0:0:
256,192,227212,1,0,0:0:0:0:
51,192,227291,1,0,0:0:0:0:
402,192,227291,1,0,0:0:0:0:
256,192,227369,1,0,0:0:0:0:
475,192,227369,1,0,0:0:0:0:
153,192,227448,1,0,0:0:0:0:
51,192,227526,1,0,0:0:0:0:
460,192,227605,1,0,0:0:0:0:
358,192,227605,1,0,0:0:0:0:
153,192,227684,1,0,0:0:0:0:
51,192,227684,1,0,0:0:0:0:
256,192,227762,1,0,0:0:0:0:
358,192,227841,1,0,0:0:0:0:
460,192,227841,1,0,0:0:0:0:
51,192,227919,1,0,0:0:0:0:
153,192,227998,1,0,0:0:0:0:
256,192,227998,1,0,0:0:0:0:
460,192,227998,1,0,0:0:0:0:
402,192,228076,1,0,0:0:0:0:
51,192,228155,1,0,0:0:0:0:
256,192,228155,1,0,0:0:0:0:
153,192,228233,1,0,0:0:0:0:
358,192,228312,1,0,0:0:0:0:
475,192,228312,1,0,0:0:0:0:
51,192,228390,1,0,0:0:0:0:
256,192,228390,1,0,0:0:0:0:
182,192,228469,1,0,0:0:0:0:
460,192,228469,1,0,0:0:0:0:
358,192,228547,1,0,0:0:0:0:
256,192,228626,1,0,0:0:0:0:
51,192,228626,1,0,0:0:0:0:
460,192,228704,1,0,0:0:0:0:
182,192,228783,1,0,0:0:0:0:
51,192,228783,1,0,0:0:0:0:
460,192,228862,1,0,0:0:0:0:
358,192,228862,1,0,0:0:0:0:
51,192,228940,1,0,0:0:0:0:
256,192,228940,1,0,0:0:0:0:
153,192,229019,1,0,0:0:0:0:
460,192,229019,1,0,0:0:0:0:
358,192,229097,1,2,0:0:0:0:
256,192,229097,1,0,0:0:0:0:
51,192,229176,1,2,0:0:0:0:
153,192,229176,1,0,0:0:0:0:
460,192,229254,1,2,0:0:0:0:
256,192,229254,1,4,0:0:0:0:
358,192,229254,1,0,0:0:0:0:
51,192,229333,1,0,0:0:0:0:
153,192,229333,1,0,0:0:0:0:
460,192,229411,1,0,0:0:0:0:
358,192,229411,1,0,0:0:0:0:
256,192,229490,1,0,0:0:0:0:
51,192,229490,1,0,0:0:0:0:
358,192,229568,1,0,0:0:0:0:
460,192,229568,1,0,0:0:0:0:
51,192,229647,1,0,0:0:0:0:
153,192,229647,1,0,0:0:0:0:
256,192,229725,1,0,0:0:0:0:
460,192,229725,1,0,0:0:0:0:
51,192,229804,1,0,0:0:0:0:
153,192,229804,1,0,0:0:0:0:
460,192,229882,1,0,0:0:0:0:
358,192,229882,1,0,0:0:0:0:
51,192,229961,1,0,0:0:0:0:
256,192,229961,1,0,0:0:0:0:
358,192,230040,1,0,0:0:0:0:
460,192,230040,1,0,0:0:0:0:
51,192,230118,1,0,0:0:0:0:
153,192,230118,1,0,0:0:0:0:
256,192,230197,1,0,0:0:0:0:
358,192,230197,1,0,0:0:0:0:
51,192,230275,1,0,0:0:0:0:
460,192,230275,1,0,0:0:0:0:
256,192,230354,1,2,0:0:0:0:
153,192,230354,1,0,0:0:0:0:
460,192,230432,1,2,0:0:0:0:
402,192,230432,1,0,0:0:0:0:
51,192,230511,1,2,0:0:0:0:
256,192,230511,1,4,0:0:0:0:
153,192,230511,1,0,0:0:0:0:
460,192,230589,1,0,0:0:0:0:
402,192,230589,1,0,0:0:0:0:
256,192,230668,1,0,0:0:0:0:
51,192,230668,1,0,0:0:0:0:
460,192,230746,1,0,0:0:0:0:
358,192,230746,1,0,0:0:0:0:
153,192,230825,1,0,0:0:0:0:
51,192,230825,1,0,0:0:0:0:
256,192,230903,1,0,0:0:0:0:
460,192,230903,1,0,0:0:0:0:
153,192,230982,1,0,0:0:0:0:
51,192,230982,1,0,0:0:0:0:
460,192,231060,1,0,0:0:0:0:
402,192,231060,1,0,0:0:0:0:
256,192,231139,1,0,0:0:0:0:
51,192,231139,1,0,0:0:0:0:
460,192,231218,1,0,0:0:0:0:
402,192,231218,1,0,0:0:0:0:
51,192,231296,1,0,0:0:0:0:
153,192,231296,1,0,0:0:0:0:
460,192,231375,1,0,0:0:0:0:
256,192,231375,1,0,0:0:0:0:
51,192,231453,1,0,0:0:0:0:
153,192,231453,1,0,0:0:0:0:
358,192,231532,1,0,0:0:0:0:
460,192,231532,1,0,0:0:0:0:
51,192,231610,1,2,0:0:0:0:
256,192,231610,1,0,0:0:0:0:
460,192,231689,1,2,0:0:0:0:
402,192,231689,1,0,0:0:0:0:
256,192,231767,1,2,0:0:0:0:
153,192,231767,1,4,0:0:0:0:
36,192,231767,1,4,0:0:0:0:
460,192,231846,1,0,0:0:0:0:
402,192,231846,1,0,0:0:0:0:
51,192,231924,1,0,0:0:0:0:
153,192,231924,1,0,0:0:0:0:
460,192,232003,1,0,0:0:0:0:
256,192,232003,1,0,0:0:0:0:
51,192,232081,1,0,0:0:0:0:
153,192,232081,1,0,0:0:0:0:
358,192,232160,1,0,0:0:0:0:
460,192,232160,1,0,0:0:0:0:
51,192,232238,1,2,0:0:0:0:
256,192,232238,1,0,0:0:0:0:
460,192,232317,1,2,0:0:0:0:
358,192,232317,1,0,0:0:0:0:
51,192,232396,1,2,0:0:0:0:
153,192,232396,1,4,0:0:0:0:
256,192,232396,1,4,0:0:0:0:
460,192,232474,1,0,0:0:0:0:
358,192,232474,1,0,0:0:0:0:
51,192,232553,1,0,0:0:0:0:
153,192,232553,1,0,0:0:0:0:
358,192,232631,1,0,0:0:0:0:
460,192,232631,1,0,0:0:0:0:
256,192,232710,1,0,0:0:0:0:
153,192,232710,1,0,0:0:0:0:
51,192,232788,1,0,0:0:0:0:
460,192,232788,1,0,0:0:0:0:
256,192,232867,1,0,0:0:0:0:
358,192,232867,1,0,0:0:0:0:
153,192,232945,1,0,0:0:0:0:
51,192,232945,1,0,0:0:0:0:
256,192,233024,1,4,0:0:0:0:
358,192,233024,1,4,0:0:0:0:
475,192,233024,1,0,0:0:0:0:
475,192,233338,1,0,0:0:0:0:
51,192,233338,1,0,0:0:0:0:
320,192,233377,1,0,0:0:0:0:
256,192,233416,1,0,0:0:0:0:
153,192,233456,1,0,0:0:0:0:
51,192,233495,1,0,0:0:0:0:
460,192,233534,1,0,0:0:0:0:
358,192,233574,1,0,0:0:0:0:
256,192,233613,1,0,0:0:0:0:
153,192,233652,1,0,0:0:0:0:
51,192,233691,1,0,0:0:0:0:
460,192,233731,1,0,0:0:0:0:
358,192,233770,1,0,0:0:0:0:
256,192,233809,1,0,0:0:0:0:
153,192,233848,1,0,0:0:0:0:
51,192,233888,1,0,0:0:0:0:
460,192,233927,1,0,0:0:0:0:
358,192,233966,1,0,0:0:0:0:
256,192,234006,1,0,0:0:0:0:
192,192,234045,1,0,0:0:0:0:
64,192,234084,1,0,0:0:0:0:
448,192,234123,1,0,0:0:0:0:
358,192,234163,1,0,0:0:0:0:
256,192,234202,1,0,0:0:0:0:
109,192,234241,1,0,0:0:0:0:
448,192,234280,1,4,0:0:0:0:
51,192,234280,1,8,0:0:0:0:
256,192,234595,1,8,0:0:0:0:
256,192,234909,1,8,0:0:0:0:
256,192,235223,1,8,0:0:0:0:
256,192,235537,1,8,0:0:0:0:
51,192,235694,1,0,0:0:0:0:
153,192,235773,1,0,0:0:0:0:
256,192,235851,1,8,0:0:0:0:
51,192,235930,1,0,0:0:0:0:
153,192,236008,1,0,0:0:0:0:
358,192,236087,1,0,0:0:0:0:
256,192,236165,1,8,0:0:0:0:
460,192,236165,1,0,0:0:0:0:
153,192,236401,1,0,0:0:0:0:
51,192,236401,1,0,0:0:0:0:
460,192,236479,1,8,0:0:0:0:
256,192,236479,1,0,0:0:0:0:
358,192,236636,1,2,0:0:0:0:
51,192,236636,1,8,0:0:0:0:
153,192,236636,1,0,0:0:0:0:
256,192,236793,1,8,0:0:0:0:
460,192,236793,1,0,0:0:0:0:
109,192,237108,1,8,0:0:0:0:
109,192,237422,1,8,0:0:0:0:
256,192,237579,1,0,0:0:0:0:
109,192,237736,1,8,0:0:0:0:
358,192,237736,1,0,0:0:0:0:
460,192,237893,1,0,0:0:0:0:
358,192,238050,1,8,0:0:0:0:
153,192,238050,1,0,0:0:0:0:
51,192,238129,1,0,0:0:0:0:
256,192,238207,1,0,0:0:0:0:
320,192,238286,1,0,0:0:0:0:
109,192,238364,1,8,0:0:0:0:
475,192,238364,1,0,0:0:0:0:
256,192,238443,1,0,0:0:0:0:
358,192,238521,1,0,0:0:0:0:
51,192,238600,1,0,0:0:0:0:
153,192,238678,1,4,0:0:0:0:
358,192,238678,1,0,0:0:0:0:
475,192,238678,1,0,0:0:0:0:
256,192,238757,1,0,0:0:0:0:
51,192,238835,1,0,0:0:0:0:
153,192,238914,1,0,0:0:0:0:
358,192,238992,1,0,0:0:0:0:
51,192,238992,1,0,0:0:0:0:
460,192,239045,1,0,0:0:0:0:
256,192,239097,1,0,0:0:0:0:
358,192,239149,1,4,0:0:0:0:
153,192,239202,1,0,0:0:0:0:
256,192,239254,1,0,0:0:0:0:
51,192,239307,1,4,0:0:0:0:
475,192,239307,1,8,0:0:0:0:
358,192,239307,1,0,0:0:0:0:
51,192,239621,1,8,0:0:0:0:
51,192,239935,1,8,0:0:0:0:
358,192,240092,1,0,0:0:0:0:
51,192,240249,1,8,0:0:0:0:
256,192,240249,1,0,0:0:0:0:
329,192,240406,1,0,0:0:0:0:
51,192,240563,1,8,0:0:0:0:
256,192,240563,1,0,0:0:0:0:
460,192,240642,1,0,0:0:0:0:
358,192,240720,1,0,0:0:0:0:
256,192,240799,1,0,0:0:0:0:
153,192,240877,1,8,0:0:0:0:
51,192,240877,1,0,0:0:0:0:
460,192,240956,1,0,0:0:0:0:
358,192,241034,1,0,0:0:0:0:
256,192,241087,1,0,0:0:0:0:
153,192,241139,1,0,0:0:0:0:
51,192,241191,1,8,0:0:0:0:
475,192,241191,1,0,0:0:0:0:
153,192,241427,1,0,0:0:0:0:
358,192,241427,1,0,0:0:0:0:
475,192,241506,1,0,0:0:0:0:
51,192,241506,1,0,0:0:0:0:
329,192,241663,1,8,0:0:0:0:
256,192,241663,1,0,0:0:0:0:
51,192,241820,1,8,0:0:0:0:
153,192,241820,1,0,0:0:0:0:
460,192,241820,1,0,0:0:0:0:
51,192,242134,1,8,0:0:0:0:
256,192,242134,1,0,0:0:0:0:
358,192,242212,1,0,0:0:0:0:
460,192,242291,1,0,0:0:0:0:
153,192,242369,1,0,0:0:0:0:
460,192,242448,1,8,0:0:0:0:
256,192,242448,1,0,0:0:0:0:
358,192,242526,1,0,0:0:0:0:
51,192,242605,1,0,0:0:0:0:
153,192,242684,1,0,0:0:0:0:
460,192,242762,1,8,0:0:0:0:
256,192,242762,1,0,0:0:0:0:
51,192,242841,1,0,0:0:0:0:
358,192,242919,1,0,0:0:0:0:
153,192,242919,1,0,0:0:0:0:
460,192,242998,1,0,0:0:0:0:
256,192,243076,1,4,0:0:0:0:
182,192,243076,1,4,0:0:0:0:
51,192,243076,1,0,0:0:0:0:
320,192,243155,1,0,0:0:0:0:
153,192,243233,1,0,0:0:0:0:
256,192,243312,1,0,0:0:0:0:
358,192,243390,1,0,0:0:0:0:
51,192,243390,1,0,0:0:0:0:
153,192,243469,1,0,0:0:0:0:
460,192,243547,1,0,0:0:0:0:
358,192,243587,1,0,0:0:0:0:
256,192,243626,1,0,0:0:0:0:
153,192,243665,1,0,0:0:0:0:
51,192,243704,1,4,0:0:0:0:
460,192,243704,1,4,0:0:0:0:
402,192,243783,1,0,0:0:0:0:
256,192,243862,1,0,0:0:0:0:
182,192,243940,1,4,0:0:0:0:
36,192,243940,1,0,0:0:0:0:
475,192,244019,1,0,0:0:0:0:
402,192,244097,1,0,0:0:0:0:
256,192,244176,1,4,0:0:0:0:
36,192,244176,1,0,0:0:0:0:
153,192,244254,1,0,0:0:0:0:
402,192,244333,1,8,0:0:0:0:
256,192,244333,1,4,0:0:0:0:
460,192,244333,1,0,0:0:0:0:
51,192,244411,1,0,0:0:0:0:
153,192,244490,1,8,0:0:0:0:
402,192,244490,1,0,0:0:0:0:
475,192,244568,1,0,0:0:0:0:
153,192,244647,1,8,0:0:0:0:
36,192,244647,1,0,0:0:0:0:
329,192,244725,1,0,0:0:0:0:
109,192,244804,1,8,0:0:0:0:
256,192,244804,1,0,0:0:0:0:
475,192,244882,1,0,0:0:0:0:
256,192,244961,1,8,0:0:0:0:
402,192,244961,1,0,0:0:0:0:
36,192,244961,1,0,0:0:0:0:
109,192,245118,1,8,0:0:0:0:
358,192,245118,1,0,0:0:0:0:
460,192,245118,1,0,0:0:0:0:
36,192,245275,1,8,0:0:0:0:
256,192,245275,1,0,0:0:0:0:
109,192,245432,1,8,0:0:0:0:
460,192,245432,1,0,0:0:0:0:
402,192,245432,1,0,0:0:0:0:
182,192,245589,1,8,0:0:0:0:
36,192,245589,1,0,0:0:0:0:
256,192,245668,1,0,0:0:0:0:
460,192,245746,1,8,0:0:0:0:
329,192,245746,1,0,0:0:0:0:
153,192,245825,1,0,0:0:0:0:
402,192,245903,1,8,0:0:0:0:
256,192,245903,1,0,0:0:0:0:
51,192,245982,1,0,0:0:0:0:
109,192,246060,1,8,0:0:0:0:
256,192,246060,1,0,0:0:0:0:
358,192,246139,1,0,0:0:0:0:
182,192,246218,1,8,0:0:0:0:
36,192,246218,1,0,0:0:0:0:
358,192,246296,1,0,0:0:0:0:
109,192,246375,1,8,0:0:0:0:
256,192,246375,1,0,0:0:0:0:
329,192,246453,1,0,0:0:0:0:
460,192,246532,1,8,0:0:0:0:
36,192,246532,1,0,0:0:0:0:
182,192,246610,1,0,0:0:0:0:
358,192,246689,1,8,0:0:0:0:
256,192,246689,1,8,0:0:0:0:
475,192,246689,1,0,0:0:0:0:
51,192,246767,1,0,0:0:0:0:
182,192,246846,1,8,0:0:0:0:
256,192,246846,1,0,0:0:0:0:
460,192,246924,1,0,0:0:0:0:
109,192,247003,1,8,0:0:0:0:
329,192,247003,1,0,0:0:0:0:
256,192,247081,1,8,0:0:0:0:
36,192,247160,1,8,0:0:0:0:
475,192,247160,1,0,0:0:0:0:
153,192,247160,1,0,0:0:0:0:
358,192,247238,1,0,0:0:0:0:
109,192,247317,1,8,0:0:0:0:
256,192,247317,1,0,0:0:0:0:
460,192,247396,1,8,0:0:0:0:
329,192,247474,1,8,0:0:0:0:
256,192,247474,1,0,0:0:0:0:
153,192,247553,1,0,0:0:0:0:
358,192,247631,1,8,0:0:0:0:
475,192,247631,1,0,0:0:0:0:
51,192,247631,1,0,0:0:0:0:
256,192,247710,1,0,0:0:0:0:
51,192,247788,1,0,0:0:0:0:
460,192,247788,1,0,0:0:0:0:
358,192,247867,1,8,0:0:0:0:
153,192,247945,1,8,0:0:0:0:
64,192,247945,1,0,0:0:0:0:
460,192,247945,1,0,0:0:0:0:
256,192,247998,1,0,0:0:0:0:
358,192,248050,1,0,0:0:0:0:
460,192,248102,1,8,0:0:0:0:
51,192,248102,1,0,0:0:0:0:
153,192,248102,1,0,0:0:0:0:
256,192,248181,1,0,0:0:0:0:
460,192,248259,1,8,0:0:0:0:
36,192,248416,1,8,0:0:0:0:
256,192,248416,1,0,0:0:0:0:
460,192,248495,1,0,0:0:0:0:
109,192,248574,1,8,0:0:0:0:
329,192,248574,1,0,0:0:0:0:
51,192,248652,1,8,0:0:0:0:
256,192,248731,1,8,0:0:0:0:
460,192,248731,1,4,0:0:0:0:
153,192,248731,1,0,0:0:0:0:
329,192,248809,1,0,0:0:0:0:
51,192,248888,1,0,0:0:0:0:
153,192,248966,1,4,0:0:0:0:
402,192,248966,1,0,0:0:0:0:
36,192,249045,1,0,0:0:0:0:
475,192,249045,1,0,0:0:0:0:
256,192,249123,1,0,0:0:0:0:
109,192,249202,1,4,0:0:0:0:
475,192,249202,1,0,0:0:0:0:
358,192,249280,1,0,0:0:0:0:
256,192,249359,1,8,0:0:0:0:
51,192,249359,1,0,0:0:0:0:
460,192,249359,1,0,0:0:0:0:
153,192,249437,1,0,0:0:0:0:
460,192,249516,1,8,0:0:0:0:
329,192,249516,1,0,0:0:0:0:
256,192,249595,1,0,0:0:0:0:
36,192,249673,1,8,0:0:0:0:
153,192,249673,1,0,0:0:0:0:
460,192,249752,1,0,0:0:0:0:
109,192,249830,1,8,0:0:0:0:
329,192,249830,1,0,0:0:0:0:
51,192,249909,1,0,0:0:0:0:
256,192,249987,1,8,0:0:0:0:
475,192,249987,1,0,0:0:0:0:
358,192,249987,1,0,0:0:0:0:
109,192,250144,1,8,0:0:0:0:
329,192,250144,1,0,0:0:0:0:
475,192,250144,1,0,0:0:0:0:
36,192,250301,1,8,0:0:0:0:
256,192,250301,1,0,0:0:0:0:
460,192,250458,1,8,0:0:0:0:
153,192,250458,1,0,0:0:0:0:
402,192,250458,1,0,0:0:0:0:
36,192,250615,1,8,0:0:0:0:
256,192,250615,1,0,0:0:0:0:
358,192,250615,1,0,0:0:0:0:
109,192,250773,1,8,0:0:0:0:
460,192,250773,1,0,0:0:0:0:
256,192,250930,1,8,0:0:0:0:
36,192,250930,1,0,0:0:0:0:
358,192,251008,1,0,0:0:0:0:
109,192,251087,1,8,0:0:0:0:
460,192,251087,1,0,0:0:0:0:
256,192,251165,1,0,0:0:0:0:
36,192,251244,1,8,0:0:0:0:
358,192,251244,1,0,0:0:0:0:
153,192,251322,1,0,0:0:0:0:
460,192,251401,1,8,0:0:0:0:
256,192,251401,1,0,0:0:0:0:
153,192,251479,1,0,0:0:0:0:
36,192,251558,1,8,0:0:0:0:
358,192,251558,1,0,0:0:0:0:
256,192,251636,1,0,0:0:0:0:
109,192,251715,1,8,0:0:0:0:
460,192,251715,1,0,0:0:0:0:
358,192,251793,1,0,0:0:0:0:
256,192,251872,1,8,0:0:0:0:
36,192,251872,1,0,0:0:0:0:
153,192,251872,1,0,0:0:0:0:
358,192,251951,1,0,0:0:0:0:
51,192,252029,1,8,0:0:0:0:
153,192,252068,1,8,0:0:0:0:
256,192,252108,1,8,0:0:0:0:
358,192,252147,1,8,0:0:0:0:
460,192,252186,1,8,0:0:0:0:
51,192,252186,1,0,0:0:0:0:
256,192,252265,1,0,0:0:0:0:
460,192,252343,1,8,0:0:0:0:
358,192,252382,1,8,0:0:0:0:
256,192,252422,1,8,0:0:0:0:
153,192,252461,1,8,0:0:0:0:
460,192,252500,1,8,0:0:0:0:
51,192,252500,1,0,0:0:0:0:
256,192,252579,1,0,0:0:0:0:
460,192,252657,1,8,0:0:0:0:
51,192,252657,1,0,0:0:0:0:
153,192,252697,1,8,0:0:0:0:
256,192,252736,1,8,0:0:0:0:
358,192,252775,1,8,0:0:0:0:
51,192,252814,1,8,0:0:0:0:
460,192,252814,1,0,0:0:0:0:
460,192,252971,1,8,0:0:0:0:
51,192,252971,1,0,0:0:0:0:
358,192,253011,1,8,0:0:0:0:
256,192,253050,1,8,0:0:0:0:
153,192,253089,1,8,0:0:0:0:
460,192,253129,1,8,0:0:0:0:
358,192,253129,1,0,0:0:0:0:
51,192,253129,1,0,0:0:0:0:
256,192,253207,1,0,0:0:0:0:
51,192,253286,1,8,0:0:0:0:
153,192,253325,1,8,0:0:0:0:
256,192,253364,1,8,0:0:0:0:
358,192,253403,1,8,0:0:0:0:
460,192,253443,1,8,0:0:0:0:
51,192,253443,1,0,0:0:0:0:
256,192,253521,1,0,0:0:0:0:
460,192,253600,1,8,0:0:0:0:
358,192,253639,1,8,0:0:0:0:
256,192,253678,1,8,0:0:0:0:
153,192,253718,1,8,0:0:0:0:
460,192,253757,1,8,0:0:0:0:
51,192,253757,1,0,0:0:0:0:
256,192,253835,1,0,0:0:0:0:
51,192,253914,1,8,0:0:0:0:
153,192,253953,1,8,0:0:0:0:
256,192,253992,1,8,0:0:0:0:
358,192,254032,1,8,0:0:0:0:
460,192,254071,1,8,0:0:0:0:
51,192,254071,1,0,0:0:0:0:
256,192,254149,1,0,0:0:0:0:
460,192,254228,1,8,0:0:0:0:
358,192,254267,1,0,0:0:0:0:
256,192,254307,1,0,0:0:0:0:
153,192,254346,1,0,0:0:0:0:
51,192,254385,1,8,0:0:0:0:
153,192,255642,128,0,255956:0:0:0:0:
256,192,255956,128,0,256113:0:0:0:0:
153,192,256113,128,0,256191:0:0:0:0:
358,192,256191,128,0,256270:0:0:0:0:
51,192,256270,128,0,256348:0:0:0:0:
460,192,256348,128,0,256427:0:0:0:0:
153,192,256427,128,0,256506:0:0:0:0:
358,192,256506,128,0,256584:0:0:0:0:
51,192,256584,1,4,0:0:0:0:
256,192,256584,1,0,0:0:0:0:
460,192,256584,1,0,0:0:0:0:
51,192,256898,1,4,0:0:0:0:
256,192,256898,1,4,0:0:0:0:
358,192,256898,1,2,0:0:0:0:
109,192,257055,1,2,0:0:0:0:
460,192,257055,1,2,0:0:0:0:
460,192,257212,1,2,0:0:0:0:
36,192,257212,1,0,0:0:0:0:
358,192,257212,1,0,0:0:0:0:
109,192,257369,1,2,0:0:0:0:
256,192,257369,1,2,0:0:0:0:
460,192,257369,1,0,0:0:0:0:
109,192,257684,1,2,0:0:0:0:
475,192,257684,1,2,0:0:0:0:
256,192,257684,1,0,0:0:0:0:
182,192,257998,1,2,0:0:0:0:
402,192,257998,1,2,0:0:0:0:
36,192,257998,1,0,0:0:0:0:
109,192,258312,1,2,0:0:0:0:
256,192,258312,1,2,0:0:0:0:
460,192,258312,1,0,0:0:0:0:
358,192,258469,1,0,0:0:0:0:
36,192,258469,1,0,0:0:0:0:
109,192,258626,1,2,0:0:0:0:
256,192,258626,1,2,0:0:0:0:
460,192,258626,1,0,0:0:0:0:
109,192,258940,1,2,0:0:0:0:
402,192,258940,1,2,0:0:0:0:
51,192,258940,1,0,0:0:0:0:
256,192,259097,1,2,0:0:0:0:
448,192,259097,1,0,0:0:0:0:
51,192,259176,1,2,0:0:0:0:
153,192,259254,1,2,0:0:0:0:
358,192,259254,1,0,0:0:0:0:
460,192,259333,1,2,0:0:0:0:
51,192,259411,1,2,0:0:0:0:
256,192,259411,1,2,0:0:0:0:
358,192,259411,1,0,0:0:0:0:
109,192,259568,1,2,0:0:0:0:
475,192,259568,1,2,0:0:0:0:
358,192,259725,1,2,0:0:0:0:
36,192,259725,1,0,0:0:0:0:
109,192,259882,1,2,0:0:0:0:
256,192,259882,1,2,0:0:0:0:
460,192,259882,1,0,0:0:0:0:
109,192,260197,1,2,0:0:0:0:
475,192,260197,1,2,0:0:0:0:
256,192,260197,1,0,0:0:0:0:
182,192,260511,1,2,0:0:0:0:
402,192,260511,1,2,0:0:0:0:
36,192,260511,1,0,0:0:0:0:
256,192,260825,1,2,0:0:0:0:
358,192,260825,1,2,0:0:0:0:
460,192,260825,1,0,0:0:0:0:
153,192,260982,1,0,0:0:0:0:
460,192,260982,1,0,0:0:0:0:
51,192,261139,1,2,0:0:0:0:
256,192,261139,1,2,0:0:0:0:
358,192,261139,1,0,0:0:0:0:
153,192,261296,1,0,0:0:0:0:
256,192,261453,1,2,0:0:0:0:
402,192,261453,1,2,0:0:0:0:
460,192,261453,1,0,0:0:0:0:
460,192,261610,1,0,0:0:0:0:
36,192,261610,1,0,0:0:0:0:
109,192,261767,1,2,0:0:0:0:
329,192,261767,1,2,0:0:0:0:
256,192,261767,1,0,0:0:0:0:
358,192,261924,1,0,0:0:0:0:
153,192,262003,1,0,0:0:0:0:
358,192,262081,1,0,0:0:0:0:
153,192,262160,1,0,0:0:0:0:
358,192,262238,1,4,0:0:0:0:
36,192,262238,1,0,0:0:0:0:
460,192,262238,1,0,0:0:0:0:
256,192,262396,1,0,0:0:0:0:
402,192,262474,1,0,0:0:0:0:
475,192,262553,1,0,0:0:0:0:
51,192,262710,1,0,0:0:0:0:
153,192,262710,1,0,0:0:0:0:
358,192,262710,1,0,0:0:0:0:
256,192,262867,1,0,0:0:0:0:
153,192,263024,1,0,0:0:0:0:
460,192,263024,1,0,0:0:0:0:
36,192,263024,1,0,0:0:0:0:
256,192,263338,1,0,0:0:0:0:
460,192,263338,1,0,0:0:0:0:
182,192,263495,1,0,0:0:0:0:
36,192,263495,1,0,0:0:0:0:
358,192,263495,1,0,0:0:0:0:
475,192,263652,1,0,0:0:0:0:
256,192,263652,1,0,0:0:0:0:
51,192,263652,1,0,0:0:0:0:
358,192,263731,1,0,0:0:0:0:
109,192,263809,1,0,0:0:0:0:
256,192,263888,1,0,0:0:0:0:
358,192,263966,1,0,0:0:0:0:
109,192,264045,1,0,0:0:0:0:
256,192,264123,1,0,0:0:0:0:
460,192,264123,1,0,0:0:0:0:
36,192,264123,1,0,0:0:0:0:
402,192,264280,1,0,0:0:0:0:
153,192,264280,1,0,0:0:0:0:
153,192,264437,1,4,0:0:0:0:
460,192,264437,1,4,0:0:0:0:
256,192,264437,1,0,0:0:0:0:
51,192,264437,1,0,0:0:0:0:
182,192,264752,1,0,0:0:0:0:
36,192,264752,1,0,0:0:0:0:
358,192,264909,1,4,0:0:0:0:
256,192,264909,1,4,0:0:0:0:
460,192,264909,1,0,0:0:0:0:
109,192,265223,1,0,0:0:0:0:
402,192,265223,1,0,0:0:0:0:
256,192,265380,1,0,0:0:0:0:
460,192,265380,1,0,0:0:0:0:
36,192,265380,1,0,0:0:0:0:
109,192,265537,1,4,0:0:0:0:
402,192,265537,1,4,0:0:0:0:
460,192,265537,1,0,0:0:0:0:
109,192,265851,1,4,0:0:0:0:
256,192,266008,1,4,0:0:0:0:
36,192,266008,1,4,0:0:0:0:
358,192,266008,1,0,0:0:0:0:
256,192,266322,1,4,0:0:0:0:
460,192,266322,1,0,0:0:0:0:
153,192,266322,1,0,0:0:0:0:
51,192,266479,1,0,0:0:0:0:
358,192,266479,1,0,0:0:0:0:
153,192,266558,1,0,0:0:0:0:
256,192,266636,1,4,0:0:0:0:
475,192,266636,1,0,0:0:0:0:
51,192,266715,1,0,0:0:0:0:
153,192,266793,1,0,0:0:0:0:
358,192,266793,1,0,0:0:0:0:
460,192,266872,1,0,0:0:0:0:
256,192,266951,1,2,0:0:0:0:
153,192,266951,1,4,0:0:0:0:
51,192,266951,1,4,0:0:0:0:
358,192,267108,1,2,0:0:0:0:
182,192,267265,1,2,0:0:0:0:
256,192,267265,1,2,0:0:0:0:
36,192,267265,1,0,0:0:0:0:
460,192,267422,1,2,0:0:0:0:
402,192,267422,1,2,0:0:0:0:
153,192,267422,1,0,0:0:0:0:
109,192,267736,1,2,0:0:0:0:
475,192,267736,1,2,0:0:0:0:
256,192,267736,1,0,0:0:0:0:
182,192,268050,1,2,0:0:0:0:
402,192,268050,1,2,0:0:0:0:
36,192,268050,1,0,0:0:0:0:
109,192,268364,1,2,0:0:0:0:
460,192,268364,1,2,0:0:0:0:
256,192,268364,1,0,0:0:0:0:
36,192,268521,1,0,0:0:0:0:
460,192,268521,1,0,0:0:0:0:
109,192,268678,1,2,0:0:0:0:
256,192,268678,1,2,0:0:0:0:
51,192,268678,1,0,0:0:0:0:
460,192,268835,1,0,0:0:0:0:
51,192,268914,1,0,0:0:0:0:
109,192,268992,1,2,0:0:0:0:
460,192,268992,1,2,0:0:0:0:
256,192,268992,1,0,0:0:0:0:
358,192,269071,1,0,0:0:0:0:
256,192,269149,1,0,0:0:0:0:
36,192,269149,1,0,0:0:0:0:
358,192,269228,1,2,0:0:0:0:
256,192,269307,1,2,0:0:0:0:
153,192,269385,1,2,0:0:0:0:
51,192,269464,1,4,0:0:0:0:
475,192,269464,1,2,0:0:0:0:
358,192,269464,1,4,0:0:0:0:
109,192,269621,1,2,0:0:0:0:
358,192,269621,1,2,0:0:0:0:
256,192,269778,1,2,0:0:0:0:
460,192,269778,1,2,0:0:0:0:
36,192,269778,1,0,0:0:0:0:
109,192,269935,1,2,0:0:0:0:
402,192,269935,1,2,0:0:0:0:
460,192,269935,1,0,0:0:0:0:
109,192,270249,1,2,0:0:0:0:
329,192,270249,1,2,0:0:0:0:
256,192,270249,1,0,0:0:0:0:
256,192,270563,1,2,0:0:0:0:
36,192,270563,1,2,0:0:0:0:
475,192,270563,1,0,0:0:0:0:
460,192,270877,1,2,0:0:0:0:
256,192,270877,1,2,0:0:0:0:
358,192,270877,1,0,0:0:0:0:
460,192,271034,1,4,0:0:0:0:
36,192,271034,1,0,0:0:0:0:
256,192,271191,1,2,0:0:0:0:
329,192,271191,1,2,0:0:0:0:
153,192,271191,1,0,0:0:0:0:
460,192,271348,1,0,0:0:0:0:
358,192,271427,1,0,0:0:0:0:
109,192,271506,1,2,0:0:0:0:
256,192,271506,1,2,0:0:0:0:
51,192,271506,1,0,0:0:0:0:
460,192,271584,1,0,0:0:0:0:
358,192,271663,1,0,0:0:0:0:
36,192,271663,1,0,0:0:0:0:
153,192,271741,1,0,0:0:0:0:
475,192,271820,1,2,0:0:0:0:
256,192,271820,1,0,0:0:0:0:
358,192,271820,1,0,0:0:0:0:
51,192,271898,1,2,0:0:0:0:
153,192,271898,1,0,0:0:0:0:
460,192,271977,1,2,0:0:0:0:
256,192,271977,1,4,0:0:0:0:
358,192,271977,1,0,0:0:0:0:
182,192,272291,1,0,0:0:0:0:
36,192,272291,1,0,0:0:0:0:
358,192,272291,1,0,0:0:0:0:
109,192,272762,1,0,0:0:0:0:
358,192,272762,1,0,0:0:0:0:
51,192,272762,1,0,0:0:0:0:
256,192,272919,1,0,0:0:0:0:
358,192,272919,1,0,0:0:0:0:
182,192,273076,1,0,0:0:0:0:
460,192,273076,1,0,0:0:0:0:
36,192,273076,1,0,0:0:0:0:
256,192,273390,1,0,0:0:0:0:
182,192,273547,1,0,0:0:0:0:
36,192,273547,1,0,0:0:0:0:
460,192,273547,1,0,0:0:0:0:
256,192,273862,1,0,0:0:0:0:
358,192,273940,1,0,0:0:0:0:
153,192,274019,1,0,0:0:0:0:
460,192,274019,1,0,0:0:0:0:
256,192,274097,1,0,0:0:0:0:
358,192,274176,1,0,0:0:0:0:
51,192,274176,1,0,0:0:0:0:
460,192,274176,1,0,0:0:0:0:
153,192,274254,1,0,0:0:0:0:
256,192,274333,1,4,0:0:0:0:
358,192,274333,1,0,0:0:0:0:
460,192,274333,1,0,0:0:0:0:
109,192,274647,1,0,0:0:0:0:
358,192,274804,1,0,0:0:0:0:
36,192,274804,1,0,0:0:0:0:
460,192,274804,1,0,0:0:0:0:
256,192,274961,1,0,0:0:0:0:
402,192,275118,1,0,0:0:0:0:
256,192,275197,1,0,0:0:0:0:
109,192,275275,1,0,0:0:0:0:
358,192,275354,1,0,0:0:0:0:
51,192,275432,1,8,0:0:0:0:
460,192,275432,1,0,0:0:0:0:
182,192,275471,1,8,0:0:0:0:
256,192,275511,1,8,0:0:0:0:
358,192,275550,1,8,0:0:0:0:
448,192,275589,1,8,0:0:0:0:
51,192,275589,1,0,0:0:0:0:
153,192,275629,1,8,0:0:0:0:
256,192,275668,1,8,0:0:0:0:
358,192,275707,1,8,0:0:0:0:
475,192,275746,1,0,0:0:0:0:
51,192,275746,1,0,0:0:0:0:
402,192,275825,1,0,0:0:0:0:
256,192,275903,1,0,0:0:0:0:
460,192,275903,1,0,0:0:0:0:
153,192,275982,1,0,0:0:0:0:
51,192,276060,1,0,0:0:0:0:
460,192,276060,1,0,0:0:0:0:
358,192,276139,1,0,0:0:0:0:
256,192,276218,1,0,0:0:0:0:
153,192,276296,1,0,0:0:0:0:
51,192,276375,1,0,0:0:0:0:
460,192,276453,1,0,0:0:0:0:
358,192,276532,1,0,0:0:0:0:
256,192,276610,1,0,0:0:0:0:
153,192,276689,1,0,0:0:0:0:
460,192,276689,1,0,0:0:0:0:
36,192,276689,1,0,0:0:0:0:
256,192,276741,1,0,0:0:0:0:
358,192,276793,1,0,0:0:0:0:
153,192,276846,1,0,0:0:0:0:
256,192,276898,1,0,0:0:0:0:
358,192,276951,1,0,0:0:0:0:
153,192,277003,1,4,0:0:0:0:
51,192,277003,1,4,0:0:0:0:
460,192,277003,1,4,0:0:0:0:
51,192,277160,1,8,0:0:0:0:
256,192,277160,1,8,0:0:0:0:
182,192,277317,1,8,0:0:0:0:
329,192,277317,1,8,0:0:0:0:
256,192,277317,1,0,0:0:0:0:
109,192,277474,1,8,0:0:0:0:
475,192,277474,1,8,0:0:0:0:
109,192,277788,1,8,0:0:0:0:
402,192,277788,1,8,0:0:0:0:
51,192,277788,1,0,0:0:0:0:
358,192,278102,1,4,0:0:0:0:
36,192,278102,1,4,0:0:0:0:
475,192,278102,1,0,0:0:0:0:
109,192,278416,1,4,0:0:0:0:
402,192,278416,1,4,0:0:0:0:
256,192,278416,1,0,0:0:0:0:
460,192,278574,1,0,0:0:0:0:
36,192,278574,1,0,0:0:0:0:
109,192,278731,1,4,0:0:0:0:
329,192,278731,1,4,0:0:0:0:
256,192,278731,1,0,0:0:0:0:
51,192,278888,1,0,0:0:0:0:
109,192,278966,1,0,0:0:0:0:
402,192,279045,1,4,0:0:0:0:
256,192,279045,1,4,0:0:0:0:
460,192,279045,1,0,0:0:0:0:
51,192,279123,1,0,0:0:0:0:
182,192,279202,1,8,0:0:0:0:
358,192,279202,1,0,0:0:0:0:
460,192,279280,1,8,0:0:0:0:
51,192,279359,1,8,0:0:0:0:
256,192,279437,1,8,0:0:0:0:
109,192,279516,1,8,0:0:0:0:
460,192,279516,1,8,0:0:0:0:
51,192,279516,1,0,0:0:0:0:
256,192,279673,1,8,0:0:0:0:
460,192,279673,1,8,0:0:0:0:
182,192,279830,1,8,0:0:0:0:
329,192,279830,1,8,0:0:0:0:
36,192,279830,1,0,0:0:0:0:
51,192,279987,1,8,0:0:0:0:
256,192,279987,1,8,0:0:0:0:
460,192,279987,1,0,0:0:0:0:
256,192,280301,1,8,0:0:0:0:
153,192,280301,1,0,0:0:0:0:
51,192,280301,1,0,0:0:0:0:
460,192,280458,1,0,0:0:0:0:
358,192,280498,1,0,0:0:0:0:
256,192,280537,1,0,0:0:0:0:
153,192,280576,1,0,0:0:0:0:
358,192,280615,1,4,0:0:0:0:
448,192,280615,1,4,0:0:0:0:
51,192,280615,1,4,0:0:0:0:
358,192,280877,1,4,0:0:0:0:
153,192,280877,1,4,0:0:0:0:
256,192,280877,1,4,0:0:0:0:
460,192,280877,1,4,0:0:0:0:
358,192,281087,1,4,0:0:0:0:
51,192,281087,1,4,0:0:0:0:
153,192,281087,1,4,0:0:0:0:
256,192,281087,1,4,0:0:0:0:
460,192,281296,1,4,0:0:0:0:
256,192,281296,1,4,0:0:0:0:
358,192,281296,1,4,0:0:0:0:
153,192,281296,1,4,0:0:0:0:
358,192,281506,1,4,0:0:0:0:
51,192,281506,1,4,0:0:0:0:
256,192,281506,1,4,0:0:0:0:
153,192,281506,1,4,0:0:0:0:
358,192,281715,1,4,0:0:0:0:
460,192,281715,1,4,0:0:0:0:
153,192,281715,1,4,0:0:0:0:
256,192,281715,1,4,0:0:0:0:
51,192,281872,1,4,0:0:0:0:
329,192,281872,1,4,0:0:0:0:
460,192,281872,1,4,0:0:0:0:
256,192,281951,1,0,0:0:0:0:
51,192,282029,1,0,0:0:0:0:
358,192,282108,1,0,0:0:0:0:
153,192,282186,1,0,0:0:0:0:
460,192,282265,1,0,0:0:0:0:
36,192,282343,1,8,0:0:0:0:
256,192,282343,1,0,0:0:0:0:
256,192,282500,1,0,0:0:0:0:
329,192,282579,1,0,0:0:0:0:
475,192,282657,1,0,0:0:0:0:
109,192,282814,1,0,0:0:0:0:
329,192,282814,1,0,0:0:0:0:
256,192,282971,1,0,0:0:0:0:
182,192,283129,1,8,0:0:0:0:
329,192,283129,1,0,0:0:0:0:
36,192,283129,1,0,0:0:0:0:
475,192,283129,1,0,0:0:0:0:
109,192,283443,1,0,0:0:0:0:
402,192,283443,1,0,0:0:0:0:
256,192,283600,1,8,0:0:0:0:
36,192,283600,1,0,0:0:0:0:
329,192,283757,1,0,0:0:0:0:
475,192,283757,1,0,0:0:0:0:
51,192,283914,1,0,0:0:0:0:
256,192,284071,1,0,0:0:0:0:
402,192,284071,1,0,0:0:0:0:
153,192,284228,1,8,0:0:0:0:
36,192,284228,1,0,0:0:0:0:
475,192,284228,1,0,0:0:0:0:
256,192,284385,1,0,0:0:0:0:
460,192,284542,1,4,0:0:0:0:
358,192,284542,1,8,0:0:0:0:
51,192,284542,1,4,0:0:0:0:
182,192,284856,1,0,0:0:0:0:
36,192,284856,1,0,0:0:0:0:
256,192,285013,1,4,0:0:0:0:
329,192,285013,1,4,0:0:0:0:
460,192,285013,1,0,0:0:0:0:
358,192,285327,1,4,0:0:0:0:
475,192,285327,1,4,0:0:0:0:
182,192,285485,1,4,0:0:0:0:
256,192,285485,1,4,0:0:0:0:
36,192,285485,1,0,0:0:0:0:
109,192,285642,1,4,0:0:0:0:
329,192,285642,1,4,0:0:0:0:
475,192,285642,1,0,0:0:0:0:
109,192,285956,1,4,0:0:0:0:
358,192,286113,1,4,0:0:0:0:
36,192,286113,1,4,0:0:0:0:
256,192,286113,1,0,0:0:0:0:
256,192,286427,1,4,0:0:0:0:
153,192,286427,1,4,0:0:0:0:
475,192,286427,1,0,0:0:0:0:
51,192,286584,1,0,0:0:0:0:
358,192,286584,1,0,0:0:0:0:
153,192,286663,1,0,0:0:0:0:
256,192,286741,1,4,0:0:0:0:
475,192,286741,1,0,0:0:0:0:
51,192,286820,1,0,0:0:0:0:
153,192,286898,1,0,0:0:0:0:
358,192,286898,1,0,0:0:0:0:
460,192,286977,1,0,0:0:0:0:
153,192,287055,1,4,0:0:0:0:
256,192,287055,1,4,0:0:0:0:
51,192,287055,1,0,0:0:0:0:
460,192,287212,1,0,0:0:0:0:
256,192,287369,1,0,0:0:0:0:
329,192,287369,1,0,0:0:0:0:
109,192,287448,1,0,0:0:0:0:
402,192,287526,1,4,0:0:0:0:
51,192,287526,1,0,0:0:0:0:
460,192,287526,1,0,0:0:0:0:
109,192,287605,1,0,0:0:0:0:
256,192,287684,1,0,0:0:0:0:
109,192,287762,1,0,0:0:0:0:
51,192,287841,1,4,0:0:0:0:
475,192,287841,1,0,0:0:0:0:
358,192,287841,1,0,0:0:0:0:
109,192,287919,1,0,0:0:0:0:
256,192,287998,1,0,0:0:0:0:
109,192,288076,1,0,0:0:0:0:
402,192,288155,1,4,0:0:0:0:
51,192,288155,1,0,0:0:0:0:
460,192,288155,1,0,0:0:0:0:
153,192,288233,1,0,0:0:0:0:
256,192,288312,1,0,0:0:0:0:
109,192,288390,1,0,0:0:0:0:
329,192,288469,1,4,0:0:0:0:
51,192,288469,1,0,0:0:0:0:
460,192,288469,1,0,0:0:0:0:
109,192,288547,1,0,0:0:0:0:
256,192,288626,1,0,0:0:0:0:
109,192,288704,1,0,0:0:0:0:
51,192,288783,1,4,0:0:0:0:
475,192,288783,1,0,0:0:0:0:
358,192,288783,1,0,0:0:0:0:
109,192,288862,1,0,0:0:0:0:
256,192,288940,1,0,0:0:0:0:
109,192,289019,1,0,0:0:0:0:
402,192,289097,1,4,0:0:0:0:
51,192,289097,1,0,0:0:0:0:
460,192,289097,1,0,0:0:0:0:
153,192,289176,1,0,0:0:0:0:
460,192,289254,1,0,0:0:0:0:
256,192,289254,1,0,0:0:0:0:
51,192,289333,1,0,0:0:0:0:
329,192,289333,1,0,0:0:0:0:
182,192,289411,1,0,0:0:0:0:
256,192,289411,1,0,0:0:0:0:
64,192,289490,1,0,0:0:0:0:
320,192,289490,1,0,0:0:0:0:
182,192,289568,1,4,0:0:0:0:
460,192,289568,1,0,0:0:0:0:
320,192,289647,1,0,0:0:0:0:
51,192,289725,1,0,0:0:0:0:
256,192,289725,1,0,0:0:0:0:
320,192,289804,1,0,0:0:0:0:
36,192,289882,1,0,0:0:0:0:
475,192,289882,1,0,0:0:0:0:
320,192,289961,1,0,0:0:0:0:
109,192,290040,1,4,0:0:0:0:
256,192,290040,1,0,0:0:0:0:
51,192,290040,1,0,0:0:0:0:
320,192,290118,1,0,0:0:0:0:
475,192,290197,1,0,0:0:0:0:
51,192,290197,1,0,0:0:0:0:
320,192,290275,1,0,0:0:0:0:
182,192,290354,1,4,0:0:0:0:
256,192,290354,1,0,0:0:0:0:
51,192,290354,1,0,0:0:0:0:
320,192,290432,1,0,0:0:0:0:
448,192,290511,1,0,0:0:0:0:
51,192,290511,1,0,0:0:0:0:
256,192,290589,1,0,0:0:0:0:
64,192,290668,1,4,0:0:0:0:
358,192,290668,1,0,0:0:0:0:
460,192,290668,1,0,0:0:0:0:
460,192,290982,1,4,0:0:0:0:
402,192,290982,1,4,0:0:0:0:
256,192,290982,1,0,0:0:0:0:
256,192,291296,1,4,0:0:0:0:
358,192,291296,1,4,0:0:0:0:
153,192,291296,1,0,0:0:0:0:
460,192,291453,1,0,0:0:0:0:
358,192,291532,1,0,0:0:0:0:
256,192,291610,1,4,0:0:0:0:
36,192,291610,1,4,0:0:0:0:
153,192,291610,1,0,0:0:0:0:
358,192,291689,1,0,0:0:0:0:
256,192,291767,1,0,0:0:0:0:
153,192,291846,1,8,0:0:0:0:
358,192,291924,1,8,0:0:0:0:
460,192,291924,1,0,0:0:0:0:
51,192,292003,1,8,0:0:0:0:
256,192,292003,1,0,0:0:0:0:
358,192,292081,1,4,0:0:0:0:
460,192,292081,1,4,0:0:0:0:
153,192,292081,1,8,0:0:0:0:
51,192,292396,1,2,0:0:0:0:
358,192,292396,1,0,0:0:0:0:
460,192,292396,1,0,0:0:0:0:
51,192,292867,1,8,0:0:0:0:
153,192,292867,1,0,0:0:0:0:
358,192,292867,1,0,0:0:0:0:
51,192,293024,1,0,0:0:0:0:
256,192,293181,1,2,0:0:0:0:
460,192,293181,1,0,0:0:0:0:
153,192,293181,1,0,0:0:0:0:
460,192,293495,1,0,0:0:0:0:
358,192,293495,1,0,0:0:0:0:
51,192,293652,1,8,0:0:0:0:
256,192,293652,1,0,0:0:0:0:
460,192,293966,1,2,0:0:0:0:
358,192,294045,1,2,0:0:0:0:
182,192,294123,1,2,0:0:0:0:
256,192,294123,1,0,0:0:0:0:
51,192,294123,1,0,0:0:0:0:
460,192,294202,1,2,0:0:0:0:
256,192,294280,1,2,0:0:0:0:
402,192,294280,1,0,0:0:0:0:
153,192,294359,1,2,0:0:0:0:
329,192,294437,1,2,0:0:0:0:
475,192,294437,1,4,0:0:0:0:
51,192,294437,1,0,0:0:0:0:
153,192,294595,1,0,0:0:0:0:
358,192,294752,1,0,0:0:0:0:
109,192,294909,1,2,0:0:0:0:
460,192,294909,1,0,0:0:0:0:
51,192,294909,1,0,0:0:0:0:
358,192,294987,1,0,0:0:0:0:
153,192,295066,1,0,0:0:0:0:
51,192,295144,1,0,0:0:0:0:
256,192,295223,1,0,0:0:0:0:
460,192,295301,1,0,0:0:0:0:
153,192,295380,1,0,0:0:0:0:
358,192,295458,1,0,0:0:0:0:
36,192,295537,1,2,0:0:0:0:
475,192,295537,1,0,0:0:0:0:
256,192,295537,1,0,0:0:0:0:
153,192,295615,1,0,0:0:0:0:
256,192,295694,1,0,0:0:0:0:
358,192,295773,1,0,0:0:0:0:
460,192,295851,1,8,0:0:0:0:
256,192,295851,1,0,0:0:0:0:
153,192,295930,1,0,0:0:0:0:
51,192,296008,1,8,0:0:0:0:
358,192,296008,1,0,0:0:0:0:
256,192,296087,1,0,0:0:0:0:
460,192,296165,1,8,0:0:0:0:
153,192,296165,1,0,0:0:0:0:
36,192,296165,1,0,0:0:0:0:
358,192,296244,1,0,0:0:0:0:
109,192,296322,1,8,0:0:0:0:
256,192,296322,1,0,0:0:0:0:
358,192,296401,1,0,0:0:0:0:
460,192,296401,1,0,0:0:0:0:
109,192,296479,1,8,0:0:0:0:
51,192,296479,1,0,0:0:0:0:
329,192,296558,1,0,0:0:0:0:
51,192,296636,1,8,0:0:0:0:
256,192,296636,1,0,0:0:0:0:
475,192,296715,1,0,0:0:0:0:
182,192,296793,1,8,0:0:0:0:
329,192,296793,1,0,0:0:0:0:
36,192,296793,1,0,0:0:0:0:
256,192,296872,1,0,0:0:0:0:
460,192,296951,1,8,0:0:0:0:
51,192,296951,1,0,0:0:0:0:
358,192,297029,1,0,0:0:0:0:
256,192,297029,1,0,0:0:0:0:
51,192,297108,1,8,0:0:0:0:
153,192,297108,1,0,0:0:0:0:
460,192,297186,1,0,0:0:0:0:
358,192,297186,1,0,0:0:0:0:
153,192,297265,1,0,0:0:0:0:
51,192,297304,1,8,0:0:0:0:
256,192,297343,1,8,0:0:0:0:
358,192,297382,1,8,0:0:0:0:
460,192,297422,1,0,0:0:0:0:
51,192,297422,1,0,0:0:0:0:
153,192,297422,1,0,0:0:0:0:
256,192,297500,1,0,0:0:0:0:
460,192,297579,1,8,0:0:0:0:
51,192,297579,1,0,0:0:0:0:
153,192,297618,1,8,0:0:0:0:
256,192,297657,1,8,0:0:0:0:
358,192,297697,1,8,0:0:0:0:
460,192,297736,1,8,0:0:0:0:
51,192,297736,1,0,0:0:0:0:
153,192,297775,1,8,0:0:0:0:
256,192,297814,1,8,0:0:0:0:
358,192,297854,1,8,0:0:0:0:
51,192,297893,1,8,0:0:0:0:
460,192,297893,1,0,0:0:0:0:
153,192,297932,1,8,0:0:0:0:
256,192,297971,1,8,0:0:0:0:
358,192,298011,1,8,0:0:0:0:
36,192,298050,1,8,0:0:0:0:
460,192,298050,1,0,0:0:0:0:
153,192,298089,1,8,0:0:0:0:
256,192,298129,1,8,0:0:0:0:
358,192,298168,1,8,0:0:0:0:
460,192,298207,1,8,0:0:0:0:
51,192,298207,1,0,0:0:0:0:
153,192,298246,1,8,0:0:0:0:
256,192,298286,1,8,0:0:0:0:
358,192,298325,1,8,0:0:0:0:
460,192,298364,1,4,0:0:0:0:
51,192,298364,1,8,0:0:0:0:
153,192,298364,1,0,0:0:0:0:
256,192,298443,1,0,0:0:0:0:
460,192,298521,1,0,0:0:0:0:
51,192,298600,1,0,0:0:0:0:
153,192,298678,1,0,0:0:0:0:
358,192,298757,1,0,0:0:0:0:
51,192,298835,1,0,0:0:0:0:
256,192,298914,1,0,0:0:0:0:
460,192,298992,1,0,0:0:0:0:
358,192,299071,1,0,0:0:0:0:
256,192,299149,1,0,0:0:0:0:
153,192,299228,1,0,0:0:0:0:
460,192,299307,1,4,0:0:0:0:
51,192,299307,1,0,0:0:0:0:
358,192,299307,1,0,0:0:0:0:
51,192,299621,1,0,0:0:0:0:
460,192,299621,1,0,0:0:0:0:
36,192,299935,1,4,0:0:0:0:
475,192,299935,1,4,0:0:0:0:
192,192,299935,128,4,303076:0:0:0:0:
320,192,299935,128,4,303076:0:0:0:0:
256,192,299935,128,4,303076:0:0:0:0:
