osu file format v12

[General]
AudioFilename: xi_halcyon_1_04.mp3
AudioLeadIn: 0
PreviewTime: 27667
Countdown: 0
SampleSet: Normal
StackLeniency: 0.3
Mode: 0
LetterboxInBreaks: 1
WidescreenStoryboard: 0

[Editor]
Bookmarks: 150494
DistanceSpacing: 1
BeatDivisor: 4
GridSize: 16

[Metadata]
Title:Halcyon
TitleUnicode:Halcyon
Artist:xi
ArtistUnicode:xi
Creator:judgment light
Version:Standard
Source:BMS
Tags:cytus bof2010
BeatmapID:344652
BeatmapSetID:115487

[Difficulty]
HPDrainRate:3
CircleSize:3
OverallDifficulty:3
ApproachRate:5
SliderMultiplier:1
SliderTickRate:2

[Events]
//Background and Video events
0,0,"_halsfile.jpg",0,0
//Break Periods
2,48585,52212
2,58638,62264
//Storyboard Layer 0 (Background)
//Storyboard Layer 1 (Fail)
//Storyboard Layer 2 (Pass)
//Storyboard Layer 3 (Foreground)
//Storyboard Sound Samples
//Background Colour Transformations
3,100,163,162,255

[TimingPoints]
27025,314.13612565445,4,1,2,40,1,0
28281,-100,4,1,2,50,0,1
33150,-100,4,1,2,50,0,0
38333,-100,4,1,2,50,0,1
48386,-100,4,1,2,80,0,0
53726,-100,4,1,2,50,0,0
58438,-100,4,1,2,60,0,0
58752,-100,4,1,1,50,0,0
63778,-100,4,1,2,60,0,0
68805,-100,4,1,1,50,0,0
74773,-100,4,1,1,45,0,0
75087,-100,4,1,1,50,0,0
75401,-100,4,1,1,55,0,0
75716,-100,4,1,1,60,0,0
76030,-100,4,1,1,80,0,0
76344,-100,4,1,1,50,0,0
77915,-100,4,1,1,50,0,0
78229,-100,4,1,1,40,0,0
78543,-100,4,1,1,80,0,0
78857,-100,4,1,1,50,0,0
109956,-100,4,1,2,50,0,1
114826,-100,4,1,2,50,0,0
119381,-100,4,1,2,40,0,0
120009,-100,4,1,2,50,0,1
124878,-100,4,1,2,50,0,1
128805,-100,4,1,2,70,0,1
129119,-100,4,1,2,60,0,1
129433,-100,4,1,2,50,0,1
129747,-66.6666666666667,4,1,2,90,0,1
130061,-100,4,1,2,90,0,1
130375,-100,4,1,2,50,0,1
143726,-100,4,1,2,70,0,1
145140,-100,4,1,2,50,0,1
148909,-100,4,1,2,70,0,1
149223,-100,4,1,2,60,0,1
149538,-100,4,1,2,50,0,1
149852,-66.6666666666667,4,1,2,80,0,1
150166,-66.6666666666667,4,1,2,60,0,0
150480,-100,4,1,2,100,0,1
150559,-100,4,2,2,75,0,0
152993,-100,4,2,2,5,0,0

[Colours]
Combo1 : 128,0,255
Combo2 : 0,128,255
Combo3 : 255,255,0
Combo4 : 0,255,64

[HitObjects]
124,256,27653,2,0,P|224:296|296:224,1,200,0|2,0:0|0:0,0:0:0:0:
203,191,28595,2,0,L|201:126,1,50,0|2,0:0|0:0,0:0:0:0:
276,76,29066,1,2,0:0:0:0:
360,128,29381,2,0,L|360:232,1,100,2|2,0:0|0:0,0:0:0:0:
296,304,30009,2,0,L|184:304,1,100,2|2,0:0|0:0,0:0:0:0:
152,160,30794,5,2,0:0:0:0:
248,120,31108,2,0,L|248:56,1,50,0|2,0:0|0:0,0:0:0:0:
344,72,31579,1,2,0:0:0:0:
440,96,31894,2,0,L|440:208,1,100,2|2,0:0|0:0,0:0:0:0:
344,176,32522,2,0,L|344:288,1,100,2|2,0:0|0:0,0:0:0:0:
248,304,33150,1,2,0:0:0:0:
128,144,33778,5,0,0:0:0:0:
156,104,33935,2,0,L|316:104,1,150,0|4,0:0|0:0,0:0:0:0:
372,180,34721,1,0,0:0:0:0:
456,128,35035,2,0,L|456:300,1,150
372,332,35820,5,4,0:0:0:0:
236,268,36292,1,4,0:0:0:0:
310,200,36606,2,0,L|358:163,2,50,0|0|4,0:0|0:0|0:0,0:0:0:0:
60,204,37705,6,0,P|64:300|176:288,1,200,4|2,0:0|0:0,0:0:0:0:
168,212,38648,2,0,L|220:176,1,50,0|2,0:0|0:0,0:0:0:0:
296,132,39119,1,2,0:0:0:0:
368,200,39433,2,0,L|440:288,1,100,2|2,0:0|0:0,0:0:0:0:
336,296,40061,2,0,L|272:218,1,100,2|2,0:0|0:0,0:0:0:0:
184,96,40846,5,6,0:0:0:0:
88,128,41161,2,0,L|88:188,1,50,0|2,0:0|0:0,0:0:0:0:
88,280,41632,1,2,0:0:0:0:
176,240,41946,2,0,P|224:224|288:256,1,100,2|2,0:0|0:0,0:0:0:0:
336,312,42574,2,0,P|408:336|448:320,1,100,2|2,0:0|0:0,0:0:0:0:
480,240,43203,1,2,0:0:0:0:
512,200,43360,2,0,P|492:152|392:120,1,150,4|0,0:0|0:0,0:0:0:0:
344,36,44145,6,0,L|296:84,1,50
260,68,44459,2,0,P|216:124|256:252,1,200,4|0,0:0|0:0,0:0:0:0:
340,212,45401,2,0,L|400:252,1,50
428,256,45716,2,0,P|380:312|276:320,1,150,4|0,0:0|0:0,0:0:0:0:
208,308,46501,1,0,0:0:0:0:
144,232,46815,1,0,0:0:0:0:
68,168,47129,6,0,P|256:100|440:172,1,400,0|4,0:0|0:0,0:0:0:0:
336,288,53412,5,0,0:0:0:0:
276,208,53726,1,2,0:0:0:0:
180,180,54040,2,0,L|180:68,1,100,2|0,0:0|0:0,0:0:0:0:
276,108,54668,2,0,L|376:108,2,100,2|2|2,0:0|0:0|0:0,0:0:0:0:
180,80,55611,1,0,0:0:0:0:
92,128,55925,6,0,L|92:236,1,100,2|2,0:0|0:0,0:0:0:0:
172,288,56553,2,0,P|224:300|284:280,1,100,2|2,0:0|0:0,0:0:0:0:
344,220,57182,1,2,0:0:0:0:
436,260,57496,1,2,0:0:0:0:
428,160,57810,2,2,P|328:116|244:184,1,200,2|4,0:0|0:0,0:0:0:0:
392,272,63464,5,0,0:0:0:0:
308,328,63778,1,2,0:0:0:0:
220,280,64093,2,0,L|220:172,1,100,2|0,0:0|0:0,0:0:0:0:
304,128,64721,2,0,L|412:128,2,100,2|2|2,0:0|0:0|0:0,0:0:0:0:
220,180,65663,1,2,0:0:0:0:
140,120,65977,2,0,L|112:184,1,50,2|0,0:0|0:0,0:0:0:0:
112,216,66292,2,0,P|148:268|204:284,2,100,2|2|2,0:0|0:0|0:0,0:0:0:0:
256,192,67234,12,4,68490,0:0:0:0:
368,284,69276,6,0,L|332:180,1,100,2|0,0:0|0:0,0:0:0:0:
316,144,69747,2,0,B|284:76|284:76|216:112|216:112|152:80|152:80|124:152,1,300,2|2,0:0|0:0,0:0:0:0:
100,248,71004,1,2,0:0:0:0:
184,304,71318,2,0,L|336:304,1,150
416,244,72103,1,0,0:0:0:0:
453,211,72260,2,0,P|441:153|402:117,1,100,2|2,0:0|0:0,0:0:0:0:
330,68,72888,2,0,P|275:52|215:57,1,100,2|2,0:0|0:0,0:0:0:0:
140,91,73517,1,2,0:0:0:0:
70,162,73831,1,0,0:0:0:0:
268,312,74616,5,0,0:0:0:0:
296,272,74773,2,0,L|404:272,1,100,2|2,0:0|0:0,0:0:0:0:
344,188,75401,2,0,L|212:188,1,100,2|2,0:0|0:0,0:0:0:0:
184,268,76030,1,2,0:0:0:0:
84,268,76344,1,0,0:0:0:0:
64,169,76658,2,0,L|108:113,1,50,2|0,0:0|0:0,0:0:0:0:
128,92,76972,2,0,L|232:92,1,100,2|2,0:0|0:0,0:0:0:0:
312,144,77600,5,2,0:0:0:0:
248,224,77915,1,2,0:0:0:0:
164,168,78229,1,2,0:0:0:0:
228,92,78543,1,2,1:2:0:0:
312,144,78857,1,4,1:2:0:0:
476,128,79328,6,0,L|448:240,1,100
440,272,79799,2,0,B|376:312|376:312|308:284|308:284|236:308|236:308|180:244,1,300
132,168,81056,2,0,P|180:136|232:136,1,100
300,196,81684,2,0,L|364:220,2,50
296,96,82312,1,0,0:0:0:0:
200,65,82627,1,0,0:0:0:0:
128,136,82941,2,0,L|81:118,2,50
256,192,83569,12,2,87339,0:0:0:0:
106,120,88595,6,0,L|203:175,1,100
272,112,89223,2,0,L|360:159,1,100
328,256,89852,2,0,L|440:312,2,100
128,216,91108,5,0,0:0:0:0:
128,312,91422,1,0,0:0:0:0:
208,256,91737,1,0,0:0:0:0:
208,160,92051,1,0,0:0:0:0:
296,216,92365,2,0,L|296:336,2,100
144,80,93621,5,0,0:0:0:0:
56,128,93935,1,0,0:0:0:0:
152,168,94250,1,0,0:0:0:0:
64,216,94564,1,0,0:0:0:0:
152,256,94878,2,0,L|40:320,2,100
344,208,96134,6,0,P|408:224|440:256,1,100
352,304,96763,2,0,P|288:288|256:256,1,100
248,168,97391,2,0,L|304:48,1,100
192,56,98019,2,0,P|128:40|72:72,1,100
144,144,98648,6,0,L|240:208,1,100,2|2,0:0|0:0,0:0:0:0:
312,256,99276,1,2,0:0:0:0:
312,256,99433,1,2,0:0:0:0:
232,316,99747,1,0,0:0:0:0:
232,316,99904,2,0,P|280:356|336:352,1,100,2|0,0:0|0:0,0:0:0:0:
412,332,100532,2,0,P|464:262|420:155,1,200,2|2,0:0|0:0,0:0:0:0:
369,242,101475,5,2,0:0:0:0:
280,195,101789,1,0,0:0:0:0:
280,195,101946,1,2,0:0:0:0:
182,171,102260,1,0,0:0:0:0:
182,171,102417,2,0,P|214:119|262:99,1,100,2|0,0:0|0:0,0:0:0:0:
343,128,103045,2,0,P|385:102|408:58,1,100,2|0,0:0|0:0,0:0:0:0:
459,143,103674,6,0,L|482:247,1,100,2|2,0:0|0:0,0:0:0:0:
503,337,104302,1,2,0:0:0:0:
503,337,104459,1,2,0:0:0:0:
408,296,104773,1,2,0:0:0:0:
408,296,104930,2,0,P|352:288|280:304,1,100,2|0,0:0|0:0,0:0:0:0:
216,328,105559,2,0,P|200:288|208:224,1,100,2|2,0:0|0:0,0:0:0:0:
168,144,106187,6,0,L|276:104,1,100,2|2,0:0|0:0,0:0:0:0:
336,48,106815,1,2,0:0:0:0:
336,48,106972,2,0,L|416:120,1,100,2|0,0:0|0:0,0:0:0:0:
256,192,107443,12,4,108700,0:0:0:0:
120,252,109956,6,2,P|156:304|192:316,1,100,2|0,0:0|0:0,0:0:0:0:
240,320,110428,1,2,0:0:0:0:
336,296,110742,1,2,0:0:0:0:
416,232,111056,2,0,P|432:184|416:120,1,100,2|2,0:0|0:0,0:0:0:0:
344,72,111684,2,0,P|328:120|344:184,1,100,2|2,0:0|0:0,0:0:0:0:
384,312,112470,6,2,P|328:312|280:288,1,100,2|0,0:0|0:0,0:0:0:0:
248,264,112941,1,2,0:0:0:0:
224,168,113255,1,2,0:0:0:0:
184,80,113569,2,0,P|138:66|74:88,1,100,2|2,0:0|0:0,0:0:0:0:
33,161,114197,2,0,P|79:175|143:153,1,100,2|2,0:0|0:0,0:0:0:0:
228,169,114826,1,2,0:0:0:0:
424,112,115454,5,0,0:0:0:0:
424,112,115611,2,0,L|384:216,1,100
368,252,116082,1,0,0:0:0:0:
272,216,116396,1,0,0:0:0:0:
176,248,116710,1,0,0:0:0:0:
48,176,117182,6,4,L|28:120,2,50,0|0|4,0:0|0:0|0:0,0:0:0:0:
113,311,117967,1,4,0:0:0:0:
212,319,118281,2,0,L|242:365,2,50,0|0|4,0:0|0:0|0:0,0:0:0:0:
112,144,119381,6,0,P|208:96|288:144,1,200,0|2,0:0|0:0,0:0:0:0:
284,236,120323,2,0,L|284:292,1,50,0|2,0:0|0:0,0:0:0:0:
204,348,120794,1,2,0:0:0:0:
124,284,121108,2,0,L|124:164,1,100,2|2,0:0|0:0,0:0:0:0:
204,124,121737,2,0,L|204:228,1,100,2|2,0:0|0:0,0:0:0:0:
316,316,122522,5,2,0:0:0:0:
412,300,122836,2,0,L|412:244,1,50,0|2,0:0|0:0,0:0:0:0:
404,148,123307,1,2,0:0:0:0:
316,188,123621,2,0,L|212:236,1,100,2|2,0:0|0:0,0:0:0:0:
204,332,124250,2,0,L|308:284,1,100,2|2,0:0|0:0,0:0:0:0:
376,232,124878,1,2,0:0:0:0:
336,208,125035,2,0,L|272:24,1,150,4|0,0:0|0:0,0:0:0:0:
384,104,125820,6,0,L|408:168,1,50
448,160,126134,2,0,L|344:352,1,200,4|0,0:0|0:0,0:0:0:0:
280,272,127077,2,0,L|216:288,1,50
184,304,127391,2,0,L|280:160,1,150,4|0,0:0|0:0,0:0:0:0:
225,85,128176,1,0,0:0:0:0:
159,164,128490,1,0,0:0:0:0:
71,213,128805,6,0,P|83:83|233:94,1,300,0|0,0:0|0:0,0:0:0:0:
320,112,130061,6,0,L|408:184,1,100,2|0,0:0|0:0,0:0:0:0:
440,208,130532,2,0,P|400:264|360:280,1,100,2|2,0:0|0:0,0:0:0:0:
272,280,131161,2,0,L|160:280,2,100,2|2|2,0:0|0:0|0:0,0:0:0:0:
240,184,132103,1,2,0:0:0:0:
352,88,132574,6,0,L|440:160,1,100,2|0,0:0|0:0,0:0:0:0:
472,184,133045,2,0,P|432:240|392:256,1,100,2|2,0:0|0:0,0:0:0:0:
304,256,133674,2,0,L|192:256,2,100,2|2|2,0:0|0:0|0:0,0:0:0:0:
272,160,134616,1,2,0:0:0:0:
184,112,134930,1,2,0:0:0:0:
216,312,135559,5,0,0:0:0:0:
256,280,135716,2,0,P|320:264|432:280,1,150,2|2,0:0|0:0,0:0:0:0:
488,328,136501,1,2,0:0:0:0:
480,232,136815,1,2,0:0:0:0:
408,168,137129,1,0,0:0:0:0:
408,168,137286,1,2,0:0:0:0:
312,144,137600,5,6,0:0:0:0:
216,264,138072,1,6,0:0:0:0:
152,192,138386,2,0,L|120:152,2,50,2|0|6,0:0|0:0|0:0,0:0:0:0:
392,256,139485,6,0,P|408:176|280:120,1,200,0|2,0:0|0:0,0:0:0:0:
248,184,140428,1,0,0:0:0:0:
216,224,140585,2,0,L|112:224,1,100,2|2,0:0|0:0,0:0:0:0:
56,144,141213,2,0,L|160:144,1,100,2|2,0:0|0:0,0:0:0:0:
232,88,141841,2,0,L|344:88,1,100,2|2,0:0|0:0,0:0:0:0:
408,160,142470,6,0,L|360:216,1,50,2|2,0:0|0:0,0:0:0:0:
312,272,142941,1,2,0:0:0:0:
240,208,143255,1,2,0:0:0:0:
160,272,143569,1,2,0:0:0:0:
160,272,143726,5,2,0:0:0:0:
88,208,144040,1,2,0:0:0:0:
160,144,144354,1,2,0:0:0:0:
240,208,144668,1,2,0:0:0:0:
312,272,144983,5,0,0:0:0:0:
352,304,145140,2,0,P|392:232|360:144,1,150,2|0,0:0|0:0,0:0:0:0:
312,88,145925,2,0,L|264:128,1,50,2|0,0:0|0:0,0:0:0:0:
240,80,146239,2,0,L|176:280,1,200,2|0,0:0|0:0,0:0:0:0:
264,320,147182,2,0,L|320:296,1,50,2|0,0:0|0:0,0:0:0:0:
328,256,147496,2,0,L|471:301,1,150,2|2,0:0|0:0,0:0:0:0:
456,200,148281,1,2,0:0:0:0:
392,128,148595,1,2,0:0:0:0:
256,192,148909,12,0,150166,0:0:0:0:
256,192,150480,12,0,152993,0:0:0:0:
