osu file format v12

[General]
AudioFilename: xi_halcyon_1_04.mp3
AudioLeadIn: 0
PreviewTime: 27667
Countdown: 0
SampleSet: Normal
StackLeniency: 0.3
Mode: 0
LetterboxInBreaks: 1
WidescreenStoryboard: 0

[Editor]
Bookmarks: 150494
DistanceSpacing: 1.1
BeatDivisor: 4
GridSize: 4

[Metadata]
Title:Halcyon
TitleUnicode:Halcyon
Artist:xi
ArtistUnicode:xi
Creator:judgment light
Version:Hyper
Source:BMS
Tags:cytus bof2010
BeatmapID:322441
BeatmapSetID:115487

[Difficulty]
HPDrainRate:5
CircleSize:4
OverallDifficulty:5
ApproachRate:8
SliderMultiplier:1.6
SliderTickRate:1

[Events]
//Background and Video events
0,0,"_halsfile.jpg",0,0
//Break Periods
//Storyboard Layer 0 (Background)
//Storyboard Layer 1 (Fail)
//Storyboard Layer 2 (Pass)
//Storyboard Layer 3 (Foreground)
//Storyboard Sound Samples
//Background Colour Transformations
3,100,163,162,255

[TimingPoints]
27025,314.13612565445,4,1,2,40,1,0
28281,-100,4,1,2,50,0,1
33150,-100,4,1,2,50,0,0
37862,-100,4,1,2,40,0,0
38333,-100,4,1,2,50,0,1
38490,-100,4,1,2,20,0,1
38648,-100,4,1,2,50,0,1
38962,-100,4,1,2,20,0,1
39119,-100,4,1,2,50,0,1
41475,-100,4,1,2,20,0,1
41632,-100,4,1,2,50,0,1
41789,-100,4,1,2,20,0,1
41946,-100,4,1,2,50,0,1
47129,-100,4,1,2,60,0,1
47443,-100,4,1,2,50,0,1
47757,-100,4,1,2,40,0,1
48072,-66.6666666666667,4,1,2,90,0,1
48386,-100,4,1,2,80,0,0
48700,-100,4,1,1,50,0,0
53726,-100,4,1,2,50,0,0
58124,-100,4,1,2,55,0,0
58281,-100,4,1,2,55,0,0
58438,-100,4,1,2,60,0,0
58752,-100,4,1,1,50,0,0
63778,-100,4,1,2,60,0,0
68805,-100,4,1,1,50,0,0
74773,-100,4,1,1,45,0,0
75087,-100,4,1,1,50,0,0
75401,-100,4,1,1,55,0,0
75716,-100,4,1,1,60,0,0
76030,-100,4,1,1,80,0,0
76344,-100,4,1,1,50,0,0
77915,-100,4,1,1,50,0,0
78229,-100,4,1,1,40,0,0
78543,-100,4,1,1,80,0,0
78857,-100,4,1,1,50,0,0
87653,-100,4,1,1,70,0,0
87810,-100,4,1,1,60,0,0
87967,-100,4,1,1,50,0,0
88124,-100,4,1,1,40,0,0
88281,-66.6666666666667,4,1,1,70,0,0
88595,-100,4,1,1,50,0,0
90009,-100,4,2,1,50,0,0
90166,-100,4,1,1,50,0,0
90323,-100,4,2,1,50,0,0
90480,-100,4,1,1,50,0,0
92522,-100,4,2,1,50,0,0
92679,-100,4,1,1,50,0,0
92836,-100,4,2,1,50,0,0
92993,-100,4,1,1,50,0,0
95035,-100,4,2,1,50,0,0
95192,-100,4,1,1,50,0,0
95349,-100,4,2,1,50,0,0
95506,-100,4,1,1,50,0,0
109642,-66.6666666666667,4,1,1,50,0,0
109956,-100,4,1,2,50,0,1
110585,-100,4,1,2,20,0,1
110742,-100,4,1,2,50,0,1
110899,-100,4,1,2,20,0,1
111056,-100,4,1,2,50,0,1
113098,-100,4,1,2,20,0,1
113255,-100,4,1,2,50,0,1
113412,-100,4,1,2,20,0,1
113569,-100,4,1,2,50,0,1
114826,-100,4,1,2,50,0,0
119381,-100,4,1,2,40,0,0
120009,-100,4,1,2,50,0,1
120166,-100,4,1,2,20,0,1
120323,-100,4,1,2,50,0,1
120637,-100,4,1,2,20,0,1
120794,-100,4,1,2,50,0,1
120951,-100,4,1,2,20,0,1
121108,-100,4,1,2,50,0,1
123150,-100,4,1,2,20,0,1
123307,-100,4,1,2,50,0,1
123464,-100,4,1,2,20,0,1
123621,-100,4,1,2,50,0,1
128805,-100,4,1,2,70,0,1
129119,-100,4,1,2,60,0,1
129433,-100,4,1,2,50,0,1
129747,-66.6666666666667,4,1,2,90,0,1
130061,-100,4,1,2,90,0,1
130218,-100,4,1,2,20,0,1
130375,-100,4,1,2,50,0,1
130689,-100,4,1,2,20,0,1
130846,-100,4,1,2,50,0,1
131004,-100,4,1,2,20,0,1
131161,-100,4,1,2,50,0,1
131318,-100,4,1,2,20,0,1
131475,-100,4,1,2,50,0,1
131632,-100,4,1,2,20,0,1
131789,-100,4,1,2,50,0,1
131946,-100,4,1,2,20,0,1
132103,-100,4,1,2,50,0,1
132731,-100,4,1,2,20,0,1
132888,-100,4,1,2,50,0,1
133203,-100,4,1,2,20,0,1
133360,-100,4,1,2,50,0,1
133517,-100,4,1,2,20,0,1
133674,-100,4,1,2,50,0,1
133831,-100,4,1,2,20,0,1
133988,-100,4,1,2,50,0,1
134145,-100,4,1,2,20,0,1
134302,-100,4,1,2,50,0,1
134459,-100,4,1,2,20,0,1
134616,-100,4,1,2,50,0,1
134773,-100,4,1,2,20,0,1
134930,-100,4,1,2,50,0,1
143726,-100,4,1,2,70,0,1
145140,-100,4,1,2,50,0,1
148909,-100,4,1,2,70,0,1
149223,-100,4,1,2,60,0,1
149538,-100,4,1,2,50,0,1
149852,-66.6666666666667,4,1,2,80,0,1
150166,-66.6666666666667,4,1,2,60,0,0
150480,-100,4,1,2,100,0,1
150559,-100,4,2,2,75,0,0
152993,-100,4,2,2,5,0,0

[Colours]
Combo1 : 128,0,255
Combo2 : 0,128,255
Combo3 : 255,255,0
Combo4 : 0,255,64

[HitObjects]
191,144,27653,1,0,0:0:0:0:
236,248,27810,2,0,L|252:284,5,40
252,284,28281,2,0,P|338:297|409:269,1,160,2|0,0:0|0:0,0:0:0:0:
473,217,28752,1,2,0:0:0:0:
308,118,29066,1,2,0:0:0:0:
177,259,29381,1,2,0:0:0:0:
304,94,29695,1,2,0:0:0:0:
488,239,30009,1,2,0:0:0:0:
298,64,30323,1,2,0:0:0:0:
216,144,30480,6,0,L|192:176,3,40
192,176,30794,2,0,P|246:237|332:241,1,160,2|0,0:0|0:0,0:0:0:0:
399,220,31265,1,2,0:0:0:0:
267,103,31579,1,2,0:0:0:0:
145,251,31894,1,2,0:0:0:0:
265,65,32208,1,2,0:0:0:0:
408,271,32522,1,2,0:0:0:0:
263,29,32836,1,2,0:0:0:0:
123,304,33150,6,0,P|205:322|294:291,1,160,2|0,0:0|0:0,0:0:0:0:
341,242,33621,1,4,0:0:0:0:
427,228,33778,1,0,0:0:0:0:
427,228,33857,1,0,0:0:0:0:
427,228,33935,2,0,L|400:129,1,80,2|0,0:0|0:0,0:0:0:0:
344,88,34250,1,0,0:0:0:0:
260,64,34407,2,0,P|204:76|168:108,1,80,2|0,0:0|0:0,0:0:0:0:
128,156,34721,2,0,P|184:172|228:164,1,80,2|0,0:0|0:0,0:0:0:0:
288,140,35035,2,0,P|272:228|200:264,1,160,2|0,0:0|0:0,0:0:0:0:
128,251,35506,1,2,0:0:0:0:
167,329,35663,1,0,0:0:0:0:
252,348,35820,6,0,P|348:328|436:336,1,160,2|0,0:0|0:0,0:0:0:0:
461,229,36292,2,0,P|365:249|277:241,1,160,2|0,0:0|0:0,0:0:0:0:
252,174,36763,1,2,0:0:0:0:
237,87,36920,2,0,P|157:85|79:104,1,160,2|0,0:0|0:0,0:0:0:0:
35,180,37391,1,0,0:0:0:0:
214,324,37705,5,0,0:0:0:0:
300,276,37862,2,0,L|320:234,5,40
316,240,38333,2,0,P|263:181|177:154,1,160,2|0,0:0|0:0,0:0:0:0:
112,116,38805,2,0,P|101:166|120:208,1,80,2|0,0:0|0:0,0:0:0:0:
56,254,39119,2,0,P|113:275|144:267,1,80,2|0,0:0|0:0,0:0:0:0:
207,237,39433,1,2,0:0:0:0:
314,76,39747,1,2,0:0:0:0:
443,194,40061,1,2,0:0:0:0:
348,332,40375,5,2,0:0:0:0:
248,324,40532,2,0,L|204:318,3,40
209,318,40846,2,0,P|170:280|187:175,1,160,2|0,0:0|0:0,0:0:0:0:
228,107,41318,2,0,P|258:141|268:187,1,80,2|0,0:0|0:0,0:0:0:0:
280,260,41632,2,0,P|326:237|345:194,1,80,2|0,0:0|0:0,0:0:0:0:
339,130,41946,1,2,0:0:0:0:
404,270,42260,1,2,0:0:0:0:
414,81,42574,1,2,0:0:0:0:
497,300,42888,1,2,0:0:0:0:
295,209,43203,5,0,0:0:0:0:
295,209,43281,1,0,0:0:0:0:
295,209,43360,2,0,P|242:198|133:214,1,160,2|0,0:0|0:0,0:0:0:0:
63,165,43831,2,0,P|145:132|230:127,1,160,0|0,0:0|0:0,0:0:0:0:
308,123,44302,1,2,0:0:0:0:
394,140,44459,2,0,P|425:182|422:288,1,160,2|0,0:0|0:0,0:0:0:0:
352,232,44930,2,0,P|304:168|330:80,1,160
260,27,45401,2,0,L|170:57,1,80,2|0,0:0|0:0,0:0:0:0:
112,101,45716,2,0,L|64:269,1,160,2|0,0:0|0:0,0:0:0:0:
134,312,46187,2,0,L|177:158,2,160,0|0|0,0:0|0:0|0:0,0:0:0:0:
256,192,47129,12,0,48386,0:0:0:0:
401,229,48700,6,0,P|336:167|250:154,1,160,2|2,0:0|0:0,0:0:0:0:
183,173,49171,1,0,0:0:0:0:
117,232,49328,1,2,0:0:0:0:
39,190,49485,2,0,P|35:111|83:31,2,160,2|2|2,0:0|0:0|0:0,0:0:0:0:
39,190,50428,5,0,0:0:0:0:
86,263,50585,2,0,P|172:284|241:222,1,160,2|0,0:0|0:0,0:0:0:0:
153,199,51056,1,0,0:0:0:0:
204,127,51213,2,0,P|282:135|352:206,1,160,2|2,0:0|0:0,0:0:0:0:
356,280,51684,1,0,0:0:0:0:
284,344,51841,1,2,0:0:0:0:
188,352,51998,2,0,L|257:203,2,160,2|2|2,0:0|0:0|0:0,0:0:0:0:
144,266,52784,2,0,L|100:170,1,80,2|0,0:0|0:0,0:0:0:0:
189,153,53098,2,0,L|145:57,1,80,2|0,0:0|0:0,0:0:0:0:
228,30,53412,1,2,0:0:0:0:
386,93,53726,6,0,P|418:172|406:260,1,160,2|2,0:0|0:0,0:0:0:0:
364,319,54197,1,0,0:0:0:0:
294,265,54354,1,0,0:0:0:0:
240,334,54511,1,2,0:0:0:0:
167,284,54668,2,0,L|112:208,1,80,2|0,0:0|0:0,0:0:0:0:
148,118,54983,2,0,L|194:182,1,80,2|0,0:0|0:0,0:0:0:0:
160,315,55297,2,0,L|105:239,1,80,2|0,0:0|0:0,0:0:0:0:
76,170,55611,1,2,0:0:0:0:
79,82,55768,1,2,0:0:0:0:
156,40,55925,6,0,P|216:38|253:42,1,80,0|2,0:0|0:0,0:0:0:0:
256,125,56239,2,0,P|317:129|352:123,1,80,0|2,0:0|0:0,0:0:0:0:
417,95,56553,1,2,0:0:0:0:
406,182,56710,1,0,0:0:0:0:
352,252,56867,2,0,P|306:249|249:256,1,80,2|2,0:0|0:0,0:0:0:0:
199,201,57182,1,2,0:0:0:0:
128,254,57339,2,0,P|125:312|130:341,1,80,0|2,0:0|0:0,0:0:0:0:
208,297,57653,1,0,0:0:0:0:
279,347,57810,2,0,L|328:346,8,40,2|0|2|0|2|0|2|0|2,0:0|0:0|0:0|0:0|0:0|0:0|0:0|0:0|0:0,0:0:0:0:
419,241,58752,6,0,B|340:198|266:253|257:222,1,160,2|2,0:0|0:0,0:0:0:0:
215,155,59223,1,0,0:0:0:0:
157,222,59381,1,2,0:0:0:0:
91,163,59538,2,0,P|67:237|114:310,2,160,2|2|2,0:0|0:0|0:0,0:0:0:0:
91,163,60480,5,0,0:0:0:0:
159,108,60637,2,0,P|259:99|317:140,1,160,2|0,0:0|0:0,0:0:0:0:
359,198,61108,1,0,0:0:0:0:
444,176,61265,2,0,L|411:334,1,160,2|2,0:0|0:0,0:0:0:0:
335,287,61737,1,0,0:0:0:0:
257,328,61894,1,2,0:0:0:0:
180,284,62051,2,0,P|165:200|223:138,2,160,2|2|2,0:0|0:0|0:0,0:0:0:0:
248,229,62836,2,0,P|292:198|308:158,1,80,2|0,0:0|0:0,0:0:0:0:
299,87,63150,2,0,P|247:54|200:52,1,80,2|0,0:0|0:0,0:0:0:0:
150,89,63464,1,2,0:0:0:0:
41,236,63778,6,0,P|84:267|203:260,1,160,2|2,0:0|0:0,0:0:0:0:
272,232,64250,2,0,L|300:312,2,80,0|0|2,0:0|0:0|0:0,0:0:0:0:
234,148,64721,2,0,P|171:168|153:167,1,80,2|0,0:0|0:0,0:0:0:0:
182,58,65035,2,0,P|220:45|283:49,1,80,2|0,0:0|0:0,0:0:0:0:
322,92,65349,2,0,P|337:132|331:179,1,80,2|0,0:0|0:0,0:0:0:0:
272,232,65663,1,2,0:0:0:0:
184,187,65820,1,0,0:0:0:0:
125,121,65977,6,0,P|96:183|97:210,1,80,2|0,0:0|0:0,0:0:0:0:
105,281,66292,2,0,P|169:321|278:308,1,160,2|2,0:0|0:0,0:0:0:0:
328,277,66763,2,0,P|378:279|417:306,2,80,0|2|2,0:0|0:0|0:0,0:0:0:0:
256,192,67234,12,4,68490,0:0:0:0:
194,259,68805,5,6,0:0:0:0:
376,104,69276,5,0,0:0:0:0:
305,51,69433,1,2,0:0:0:0:
259,126,69590,1,0,0:0:0:0:
217,205,69747,6,0,P|159:241|94:221,1,120,2|2,0:0|0:0,0:0:0:0:
293,206,70218,6,0,P|351:242|416:222,1,120,2|2,0:0|0:0,0:0:0:0:
256,64,70689,6,0,L|256:152,1,80,2|0,0:0|0:0,0:0:0:0:
172,97,71004,2,0,P|96:85|31:164,1,160,2|0,0:0|0:0,0:0:0:0:
145,284,71632,2,0,L|119:166,2,120,2|0|2,0:0|0:0|0:0,0:0:0:0:
230,306,72260,5,2,0:0:0:0:
304,333,72417,1,0,0:0:0:0:
371,289,72574,1,2,0:0:0:0:
445,318,72731,1,0,0:0:0:0:
460,239,72888,2,0,L|440:145,1,80,2|2,0:0|0:0,0:0:0:0:
424,82,73203,1,2,0:0:0:0:
424,82,73517,6,0,P|308:64|261:88,1,160,2|0,0:0|0:0,0:0:0:0:
222,151,73988,1,2,0:0:0:0:
203,237,74145,2,0,P|155:211|132:140,2,120,2|0|2,0:0|0:0|0:0,0:0:0:0:
276,206,74773,6,0,P|327:203|379:212,1,80,2|0,0:0|0:0,0:0:0:0:
422,162,75087,2,0,P|426:248|419:264,1,80,2|0,0:0|0:0,0:0:0:0:
465,310,75401,2,0,P|388:311|359:298,1,80,2|2,0:0|0:0,0:0:0:0:
321,357,75716,2,0,P|313:283|319:267,1,80,2|2,0:0|0:0,0:0:0:0:
370,217,76030,1,2,0:0:0:0:
268,93,76344,6,0,P|204:72|134:142,1,160
146,205,76815,1,0,0:0:0:0:
219,172,76972,2,0,L|279:324,1,160,2|2,0:0|0:0,0:0:0:0:
256,192,77600,12,4,78543,0:0:0:0:
141,120,78857,5,4,0:0:0:0:
409,280,79328,5,0,0:0:0:0:
413,200,79485,1,2,0:0:0:0:
361,138,79642,1,0,0:0:0:0:
287,106,79799,6,0,P|207:98|159:133,1,120,2|2,0:0|0:0,0:0:0:0:
116,235,80271,6,0,P|196:243|244:208,1,120,2|2,0:0|0:0,0:0:0:0:
129,136,80742,6,0,P|85:136|35:173,1,80,2|2,0:0|0:0,0:0:0:0:
18,234,81056,2,0,P|49:301|134:324,1,160,2|2,0:0|0:0,0:0:0:0:
289,258,81684,1,2,0:0:0:0:
289,258,81841,1,2,0:0:0:0:
289,258,81998,2,0,L|386:285,1,80,2|0,0:0|0:0,0:0:0:0:
467,324,82312,6,0,L|420:157,1,160,2|2,0:0|0:0,0:0:0:0:
293,51,82941,1,2,0:0:0:0:
293,51,83098,1,2,0:0:0:0:
293,51,83255,2,0,L|215:103,1,80,2|0,0:0|0:0,0:0:0:0:
138,52,83569,6,0,L|75:207,1,160,2|0,0:0|0:0,0:0:0:0:
52,284,84040,1,0,0:0:0:0:
126,330,84197,2,0,P|187:344|232:329,1,80,2|0,0:0|0:0,0:0:0:0:
189,254,84511,2,0,P|254:254|279:262,1,80,2|0,0:0|0:0,0:0:0:0:
352,289,84826,6,0,L|306:117,1,160,2|0,0:0|0:0,0:0:0:0:
291,48,85297,1,0,0:0:0:0:
238,118,85454,2,0,L|190:189,1,80,2|0,0:0|0:0,0:0:0:0:
84,206,85768,2,0,L|128:139,1,80,2|0,0:0|0:0,0:0:0:0:
256,192,86082,12,2,87024,0:0:0:0:
256,191,87339,5,2,0:0:0:0:
217,101,87653,6,0,P|181:244|323:261,1,320,2|4,0:0|0:0,0:0:0:0:
396,109,88595,5,0,0:0:0:0:
198,173,88909,1,0,0:0:0:0:
419,179,89223,1,0,0:0:0:0:
184,242,89538,1,0,0:0:0:0:
448,248,89852,2,0,P|352:243|334:245,1,80
306,325,90166,2,0,P|402:330|420:328,1,80
469,323,90480,1,0,0:0:0:0:
348,200,90794,5,0,0:0:0:0:
348,200,90951,2,0,L|248:145,1,80,0|0,1:0|0:0,0:0:0:0:
132,84,91422,1,0,0:0:0:0:
300,252,91737,1,0,0:0:0:0:
124,156,92051,1,0,0:0:0:0:
235,306,92365,2,0,P|191:312|151:302,1,80
202,223,92679,2,0,P|224:181|259:161,1,80
300,252,92993,2,0,P|323:295|289:364,2,120,0|0|0,1:2|1:2|1:2,0:0:0:0:
236,305,93621,5,0,0:0:0:0:
94,200,93935,1,0,0:0:0:0:
269,182,94250,1,0,0:0:0:0:
149,52,94564,1,0,0:0:0:0:
324,68,94878,2,0,L|389:152,1,80
350,216,95192,2,0,L|415:300,1,80
347,340,95506,2,0,P|284:325|222:343,2,120,2|2|2,0:0|0:0|1:2,0:0:0:0:
426,350,96134,5,2,0:0:0:0:
419,189,96449,1,0,0:0:0:0:
273,276,96763,1,0,0:0:0:0:
237,120,97077,2,0,L|170:197,1,80,2|2,0:0|1:2,0:0:0:0:
132,235,97391,5,0,0:0:0:0:
193,285,97548,1,0,0:0:0:0:
266,252,97705,1,0,0:0:0:0:
342,274,97862,1,0,0:0:0:0:
414,239,98019,2,0,P|446:168|445:122,2,120,6|6|6,1:2|1:2|1:2,0:0:0:0:
368,172,98648,6,0,P|292:136|284:136,1,80,2|0,0:0|0:0,0:0:0:0:
213,136,98962,2,0,P|175:147|132:140,1,80,2|0,0:0|0:0,0:0:0:0:
56,100,99276,1,2,0:0:0:0:
56,100,99433,1,2,0:0:0:0:
122,252,99747,5,2,0:0:0:0:
195,286,99904,2,0,P|253:297|279:287,1,80,2|0,0:0|0:0,0:0:0:0:
339,234,100218,2,0,P|399:224|425:229,1,80,2|0,0:0|0:0,0:0:0:0:
478,164,100532,2,0,P|489:101|454:51,2,120,2|2|2,0:0|0:0|0:0,0:0:0:0:
400,120,101161,5,2,0:0:0:0:
314,139,101318,1,0,0:0:0:0:
234,100,101475,2,0,P|167:106|130:131,1,80,2|0,0:0|0:0,0:0:0:0:
85,163,101789,1,2,0:0:0:0:
56,246,101946,2,0,L|147:294,1,80,2|0,0:0|0:0,0:0:0:0:
215,286,102260,1,2,0:0:0:0:
296,251,102417,2,0,P|394:240|453:257,2,160,2|2|2,0:0|0:0|0:0,0:0:0:0:
157,141,103360,1,2,0:0:0:0:
296,251,103674,6,0,L|329:328,1,80,2|0,0:0|0:0,0:0:0:0:
385,258,103988,2,0,L|353:184,1,80,2|0,0:0|0:0,0:0:0:0:
266,171,104302,1,2,0:0:0:0:
266,171,104459,1,2,0:0:0:0:
148,260,104773,5,2,0:0:0:0:
93,331,104930,2,0,P|29:336|-1:318,1,80,2|0,0:0|0:0,0:0:0:0:
54,254,105244,2,0,P|66:211|108:184,1,80,2|0,0:0|0:0,0:0:0:0:
178,183,105559,2,0,P|224:224|202:328,1,160,2|2,0:0|0:0,0:0:0:0:
372,242,106187,6,0,L|460:204,1,80,2|0,0:0|0:0,0:0:0:0:
512,152,106501,2,0,L|422:113,1,80,2|0,0:0|0:0,0:0:0:0:
359,83,106815,1,2,0:0:0:0:
359,83,106972,2,0,L|273:134,1,80,2|0,0:0|0:0,0:0:0:0:
222,160,107286,5,2,0:0:0:0:
256,192,107443,12,4,108700,0:0:0:0:
159,162,109642,5,0,0:0:0:0:
160,161,109956,6,0,P|244:130|321:159,1,160,2|0,0:0|0:0,0:0:0:0:
349,228,110428,2,0,P|300:234|254:216,1,80,2|0,0:0|0:0,0:0:0:0:
182,239,110742,2,0,P|211:289|247:310,1,80,2|0,0:0|0:0,0:0:0:0:
314,319,111056,2,0,P|406:297|437:226,1,160,2|2,0:0|0:0,0:0:0:0:
314,64,111684,2,0,P|391:75|435:139,1,160,2|2,0:0|0:0,0:0:0:0:
358,182,112155,5,0,0:0:0:0:
341,193,112234,1,0,0:0:0:0:
324,203,112312,1,0,0:0:0:0:
307,214,112391,1,0,0:0:0:0:
289,223,112470,2,0,L|130:153,1,160,2|0,0:0|0:0,0:0:0:0:
70,107,112941,2,0,P|59:183|70:200,1,80,2|0,0:0|0:0,0:0:0:0:
116,247,113255,2,0,P|124:291|99:337,1,80,2|0,0:0|0:0,0:0:0:0:
197,305,113569,2,0,P|273:301|335:357,1,160,2|2,0:0|0:0,0:0:0:0:
481,259,114197,2,0,P|439:195|457:113,1,160,2|2,0:0|0:0,0:0:0:0:
284,70,114826,6,0,P|182:53|113:91,1,160,2|0,0:0|0:0,0:0:0:0:
93,152,115297,1,0,0:0:0:0:
106,238,115454,1,0,0:0:0:0:
106,238,115532,1,0,0:0:0:0:
106,238,115611,2,0,L|173:295,1,80,2|0,0:0|0:0,0:0:0:0:
254,292,115925,1,2,0:0:0:0:
329,246,116082,2,0,P|339:309|331:338,1,80,2|0,0:0|0:0,0:0:0:0:
417,290,116396,2,0,P|407:227|415:198,1,80,2|0,0:0|0:0,0:0:0:0:
388,126,116710,2,0,P|320:165|216:157,1,160,2|0,0:0|0:0,0:0:0:0:
181,99,117182,1,2,0:0:0:0:
96,124,117339,1,0,0:0:0:0:
52,200,117496,6,0,P|105:282|165:280,1,160,2|0,0:0|0:0,0:0:0:0:
201,205,117967,2,0,P|248:193|343:261,1,160,2|2,0:0|0:0,0:0:0:0:
369,330,118438,1,0,0:0:0:0:
433,270,118595,2,0,P|425:172|387:125,1,160,2|0,0:0|0:0,0:0:0:0:
301,112,119066,1,2,0:0:0:0:
125,126,119381,5,0,0:0:0:0:
82,203,119538,2,0,L|67:240,5,40
66,240,120009,2,0,P|154:277|219:263,1,160,2|0,0:0|0:0,0:0:0:0:
286,210,120480,2,0,P|299:264|298:305,1,80,2|0,0:0|0:0,0:0:0:0:
196,187,120794,2,0,P|227:141|271:117,1,80,2|0,0:0|0:0,0:0:0:0:
333,137,121108,1,2,0:0:0:0:
438,277,121422,1,2,0:0:0:0:
267,321,121737,2,0,P|165:297|76:315,1,160,2|2,0:0|0:0,0:0:0:0:
47,243,122208,5,0,0:0:0:0:
53,224,122286,1,0,0:0:0:0:
59,204,122365,1,0,0:0:0:0:
65,185,122443,1,0,0:0:0:0:
71,165,122522,2,0,P|141:140|246:157,1,160,2|0,0:0|0:0,0:0:0:0:
308,175,122993,2,0,P|261:225|236:234,1,80,2|0,0:0|0:0,0:0:0:0:
295,92,123307,2,0,P|365:108|389:138,1,80,2|0,0:0|0:0,0:0:0:0:
393,196,123621,1,2,0:0:0:0:
255,305,123935,1,2,0:0:0:0:
99,221,124250,2,0,L|172:65,1,160,2|2,0:0|0:0,0:0:0:0:
342,75,124878,5,2,0:0:0:0:
342,75,124956,1,0,0:0:0:0:
342,75,125035,2,0,L|415:227,1,160,2|0,0:0|0:0,0:0:0:0:
440,302,125506,2,0,P|364:317|297:274,1,160,0|2,0:0|0:0,0:0:0:0:
284,187,125977,1,0,0:0:0:0:
246,108,126134,2,0,P|185:102|111:185,1,160,2|0,0:0|0:0,0:0:0:0:
34,200,126606,2,0,P|40:259|121:314,1,160
197,275,127077,2,0,P|258:264|288:269,1,80,2|0,0:0|0:0,0:0:0:0:
352,308,127391,2,0,P|419:270|435:194,1,160,2|0,0:0|0:0,0:0:0:0:
350,215,127862,2,0,P|326:173|395:62,2,160
256,192,128805,12,0,129747,0:0:0:0:
77,282,130061,6,0,P|133:307|244:273,1,160,2|0,0:0|0:0,0:0:0:0:
287,223,130532,2,0,P|341:209|380:218,1,80,2|0,0:0|0:0,0:0:0:0:
442,172,130846,2,0,P|451:132|437:87,1,80,2|0,0:0|0:0,0:0:0:0:
369,43,131161,2,0,P|321:31|277:51,1,80,2|0,0:0|0:0,0:0:0:0:
217,84,131475,2,0,L|166:178,1,80,2|0,0:0|0:0,0:0:0:0:
90,154,131789,2,0,L|101:252,1,80,2|0,0:0|0:0,0:0:0:0:
41,299,132103,1,2,0:0:0:0:
123,329,132260,6,0,L|161:302,3,40
155,305,132574,2,0,P|221:287|332:315,1,160,2|0,0:0|0:0,0:0:0:0:
396,317,133045,2,0,P|378:255|350:232,1,80,2|0,0:0|0:0,0:0:0:0:
285,214,133360,2,0,P|277:156|296:121,1,80,2|0,0:0|0:0,0:0:0:0:
242,60,133674,2,0,P|201:47|137:67,1,80,2|0,0:0|0:0,0:0:0:0:
92,102,133988,2,0,L|55:180,1,80,2|0,0:0|0:0,0:0:0:0:
115,256,134302,2,0,L|149:183,1,80,2|0,0:0|0:0,0:0:0:0:
248,163,134616,2,0,L|211:241,1,80,2|0,0:0|0:0,0:0:0:0:
256,314,134930,6,0,P|326:334|408:295,1,160,2|0,0:0|0:0,0:0:0:0:
430,215,135401,1,0,0:0:0:0:
406,129,135559,1,0,0:0:0:0:
406,129,135637,1,0,0:0:0:0:
406,129,135716,2,0,L|330:179,1,80,2|0,0:0|0:0,0:0:0:0:
252,188,136030,1,0,0:0:0:0:
172,143,136187,2,0,P|113:140|62:156,1,80,2|0,0:0|0:0,0:0:0:0:
46,236,136501,2,0,P|105:239|156:223,1,80,2|0,0:0|0:0,0:0:0:0:
213,233,136815,2,0,P|261:127|236:73,1,160,2|0,0:0|0:0,0:0:0:0:
169,53,137286,1,2,0:0:0:0:
132,225,137600,6,0,P|168:303|249:303,1,160,6|2,0:0|0:0,0:0:0:0:
292,243,138072,2,0,P|256:165|175:165,1,160,6|2,0:0|0:0,0:0:0:0:
105,132,138543,1,0,0:0:0:0:
35,186,138700,2,0,L|64:357,1,160,6|2,0:0|0:0,0:0:0:0:
61,343,139171,1,2,0:0:0:0:
222,229,139485,5,0,0:0:0:0:
317,244,139642,2,0,L|368:238,5,40
358,240,140114,2,0,P|386:228|413:166,1,80,2|0,0:0|0:0,0:0:0:0:
442,98,140428,6,0,L|461:59,2,40,2|0|0,0:0|0:0|0:0,0:0:0:0:
354,102,140742,2,0,L|361:55,2,40,2|0|0,0:0|0:0|0:0,0:0:0:0:
268,122,141056,2,0,L|261:67,2,40,2|0|0,0:0|0:0|0:0,0:0:0:0:
194,170,141370,2,0,L|178:111,2,40,2|0|0,0:0|0:0|0:0,0:0:0:0:
136,236,141684,2,0,L|107:175,2,40,2|0|0,0:0|0:0|0:0,0:0:0:0:
91,311,141998,2,0,L|52:262,2,40,2|0|0,0:0|0:0|0:0,0:0:0:0:
176,332,142312,5,2,0:0:0:0:
195,326,142391,1,0,0:0:0:0:
214,320,142470,1,2,0:0:0:0:
299,299,142627,2,0,L|350:312,2,40,2|0|2,0:0|0:0|0:0,0:0:0:0:
352,229,142941,2,0,L|408:232,2,40,2|0|2,0:0|0:0|0:0,0:0:0:0:
393,151,143255,2,0,L|443:140,2,40,2|0|2,0:0|0:0|0:0,0:0:0:0:
390,63,143569,6,0,L|432:37,2,40,2|0|2,0:0|0:0|0:0,0:0:0:0:
256,206,144040,1,2,0:0:0:0:
122,63,144354,1,2,0:0:0:0:
256,206,144668,1,2,0:0:0:0:
390,321,144983,1,2,0:0:0:0:
390,321,145061,1,0,0:0:0:0:
390,321,145140,6,0,P|426:240|398:173,1,160,2|0,0:0|0:0,0:0:0:0:
325,221,145611,2,0,P|286:147|323:67,1,160,2|2,0:0|0:0,0:0:0:0:
237,29,146082,1,0,0:0:0:0:
180,96,146239,2,0,L|123:274,1,160,2|0,0:0|0:0,0:0:0:0:
171,326,146710,2,0,P|224:344|323:282,1,160,2|0,0:0|0:0,0:0:0:0:
321,212,147182,2,0,P|354:178|397:162,1,80,2|0,0:0|0:0,0:0:0:0:
468,143,147496,2,0,P|416:84|318:102,1,160,2|0,0:0|0:0,0:0:0:0:
262,128,147967,2,0,P|155:149|110:109,2,160,2|2|2,0:0|0:0|0:0,0:0:0:0:
256,192,148909,12,0,150166,0:0:0:0:
256,192,150480,5,4,0:0:0:0:
256,192,150559,12,0,152993,0:0:0:0:
