osu file format v12

[General]
AudioFilename: xi_halcyon_1_04.mp3
AudioLeadIn: 0
PreviewTime: 27667
Countdown: 0
SampleSet: Normal
StackLeniency: 0.3
Mode: 0
LetterboxInBreaks: 1
WidescreenStoryboard: 0

[Editor]
Bookmarks: 150494
DistanceSpacing: 1
BeatDivisor: 2
GridSize: 8

[Metadata]
Title:Halcyon
TitleUnicode:Halcyon
Artist:xi
ArtistUnicode:xi
Creator:judgment light
Version:Beginner
Source:BMS
Tags:cytus bof2010
BeatmapID:346062
BeatmapSetID:115487

[Difficulty]
HPDrainRate:3
CircleSize:3
OverallDifficulty:2
ApproachRate:4
SliderMultiplier:0.8
SliderTickRate:2

[Events]
//Background and Video events
0,0,"_halsfile.jpg",0,0
//Break Periods
2,48585,52406
2,58638,62458
2,88795,97328
//Storyboard Layer 0 (Background)
//Storyboard Layer 1 (Fail)
//Storyboard Layer 2 (Pass)
//Storyboard Layer 3 (Foreground)
//Storyboard Sound Samples
//Background Colour Transformations
3,100,163,162,255

[TimingPoints]
27025,314.13612565445,4,1,2,40,1,0
28281,-100,4,1,2,50,0,1
33150,-100,4,1,2,50,0,0
38333,-100,4,1,2,50,0,1
48386,-100,4,1,2,80,0,0
53726,-100,4,1,2,50,0,0
58438,-100,4,1,2,60,0,0
58752,-100,4,1,1,50,0,0
63778,-100,4,1,2,60,0,0
68805,-100,4,1,1,50,0,0
74773,-100,4,1,1,45,0,0
75087,-100,4,1,1,50,0,0
75401,-100,4,1,1,55,0,0
75716,-100,4,1,1,60,0,0
76030,-100,4,1,1,80,0,0
76344,-100,4,1,1,50,0,0
77915,-100,4,1,1,50,0,0
78229,-100,4,1,1,40,0,0
78543,-100,4,1,1,80,0,0
78857,-100,4,1,1,50,0,0
109956,-100,4,1,2,50,0,1
114826,-100,4,1,2,50,0,0
119381,-100,4,1,2,40,0,0
120009,-100,4,1,2,50,0,1
124878,-100,4,1,2,50,0,1
128805,-100,4,1,2,70,0,1
129119,-100,4,1,2,60,0,1
129433,-100,4,1,2,50,0,1
129747,-100,4,1,2,90,0,1
130061,-100,4,1,2,90,0,1
130375,-100,4,1,2,50,0,1
143726,-100,4,1,2,70,0,1
145140,-100,4,1,2,50,0,1
148909,-100,4,1,2,70,0,1
149223,-100,4,1,2,60,0,1
149538,-100,4,1,2,50,0,1
149852,-100,4,1,2,80,0,1
150166,-100,4,1,2,60,0,0
150480,-100,4,1,2,100,0,1
150559,-100,4,2,2,75,0,0
152993,-100,4,2,2,5,0,0

[Colours]
Combo1 : 128,0,255
Combo2 : 0,128,255
Combo3 : 255,255,0
Combo4 : 0,255,64

[HitObjects]
200,96,27653,2,0,P|296:80|352:120,1,160,0|2,0:0|0:0,0:0:0:0:
264,200,28752,2,0,L|200:352,2,160,2|2|2,0:0|0:0|0:0,0:0:0:0:
64,240,30794,1,2,0:0:0:0:
177,202,31265,2,0,L|113:50,2,160,2|2|2,0:0|0:0|0:0,0:0:0:0:
244,347,33150,5,0,0:0:0:0:
219,148,33935,2,0,P|291:156|347:204,1,120
278,333,35035,2,0,L|158:333,1,120
78,333,35820,1,4,0:0:0:0:
158,245,36292,2,0,L|270:125,1,160,4|4,0:0|0:0,0:0:0:0:
440,232,37705,6,0,P|392:288|296:280,1,160,0|2,0:0|0:0,0:0:0:0:
344,176,38805,2,0,L|432:32,2,160,2|2|2,0:0|0:0|0:0,0:0:0:0:
200,320,40846,1,2,0:0:0:0:
104,248,41318,2,0,L|40:96,2,160,2|2|2,0:0|0:0|0:0,0:0:0:0:
288,160,43360,5,4,0:0:0:0:
113,257,44145,2,0,L|201:257,1,80
397,131,45401,2,0,L|301:131,1,80,0|4,0:0|0:0,0:0:0:0:
262,30,46187,2,0,L|179:167,1,160
184,247,47129,6,0,B|224:279|224:279|272:247|328:279|328:279|384:247|432:279|432:279|472:247,1,320,0|4,0:0|0:0,0:0:0:0:
144,128,53726,6,0,P|232:136|304:176,1,160,2|0,0:0|0:0,0:0:0:0:
336,240,54668,2,0,L|200:344,2,160,2|2|4,0:0|0:0|0:0,0:0:0:0:
176,232,56553,1,2,0:0:0:0:
304,136,57182,2,0,P|384:144|442:213,2,160,0|0|4,0:0|0:0|0:0,0:0:0:0:
344,304,63778,6,0,P|256:296|184:256,1,160,2|0,0:0|0:0,0:0:0:0:
141,201,64721,2,0,L|84:44,2,160,2|2|4,0:0|0:0|0:0,0:0:0:0:
312,200,66606,1,2,0:0:0:0:
170,266,67234,2,0,P|90:258|42:186,2,160,0|0|4,0:0|0:0|0:0,0:0:0:0:
264,144,69119,5,0,0:0:0:0:
176,280,69747,2,0,P|288:304|400:208,1,240,2|0,0:0|0:0,0:0:0:0:
408,160,71004,1,2,0:0:0:0:
272,72,71632,1,0,0:0:0:0:
141,164,72260,6,0,P|147:230|205:308,2,160,2|2|2,0:0|0:0|0:0,0:0:0:0:
300,183,74145,1,0,0:0:0:0:
401,306,74773,2,0,L|233:306,2,160
371,67,76972,6,0,L|315:147,1,80,2|2,0:0|0:0,0:0:0:0:
280,200,77600,2,0,B|200:240|200:240|188:146|102:151,1,240,2|6,0:0|1:2,0:0:0:0:
113,234,78857,1,6,1:2:0:0:
344,304,79799,6,0,P|416:273|412:174,2,160,2|2|2,0:0|0:0|0:0,0:0:0:0:
353,224,81370,1,2,0:0:0:0:
172,65,82312,2,0,L|203:162,1,80,2|0,0:0|0:0,0:0:0:0:
140,199,82941,2,0,L|171:296,1,80,2|0,0:0|0:0,0:0:0:0:
138,350,83569,5,0,0:0:0:0:
427,212,84826,1,0,0:0:0:0:
112,151,86082,1,0,0:0:0:0:
432,112,87339,1,0,0:0:0:0:
362,72,87653,2,0,P|386:178|507:149,1,240,2|4,0:0|0:0,0:0:0:0:
128,168,98648,6,0,P|208:136|288:168,1,160,2|0,0:0|0:0,0:0:0:0:
368,288,99904,2,0,P|288:320|208:288,1,160,2|0,0:0|0:0,0:0:0:0:
328,176,101161,2,0,L|424:40,1,160,2|0,0:0|0:0,0:0:0:0:
264,80,102417,2,0,L|171:210,1,160,2|0,0:0|0:0,0:0:0:0:
88,344,103674,5,2,0:0:0:0:
160,304,103988,2,0,P|248:288|336:304,1,160,2|0,0:0|0:0,0:0:0:0:
392,320,104930,1,2,0:0:0:0:
408,160,105559,2,0,L|304:216,1,80,2|0,0:0|0:0,0:0:0:0:
272,152,106187,2,0,P|168:120|32:192,1,240,6|0,0:0|0:0,0:0:0:0:
120,216,107443,2,0,L|248:336,2,160,4|0|0,0:0|0:0|0:0,0:0:0:0:
432,128,109956,5,2,0:0:0:0:
312,152,110428,2,0,L|248:312,2,160,2|2|2,0:0|0:0|0:0,0:0:0:0:
121,89,112470,1,2,0:0:0:0:
168,200,112941,2,0,L|104:360,2,160,2|2|2,0:0|0:0|0:0,0:0:0:0:
312,144,114826,1,2,0:0:0:0:
400,320,115611,6,0,P|336:336|272:304,1,120
240,256,116396,2,0,L|160:320,1,80
120,200,117182,1,0,0:0:0:0:
184,152,117496,2,0,P|256:136|312:168,1,120,4|4,0:0|0:0,0:0:0:0:
384,288,118595,1,4,0:0:0:0:
440,96,119381,6,0,L|304:208,1,160,0|2,0:0|0:0,0:0:0:0:
200,216,120480,2,0,P|152:160|160:72,2,160,2|2|2,0:0|0:0|0:0,0:0:0:0:
396,254,122522,1,2,0:0:0:0:
280,224,122993,2,0,P|274:150|332:83,2,160,2|2|2,0:0|0:0|0:0,0:0:0:0:
88,296,125035,5,4,0:0:0:0:
240,168,125820,1,0,0:0:0:0:
312,136,126134,2,0,P|392:152|424:192,1,120
424,296,127077,1,0,0:0:0:0:
352,336,127391,2,0,P|328:256|344:216,1,120
400,168,128176,2,0,L|464:120,1,80
400,72,128805,6,0,P|304:80|224:216,1,240
248,264,130061,5,2,0:0:0:0:
345,333,130532,2,0,L|425:173,2,160,2|2|2,0:0|0:0|0:0,0:0:0:0:
192,203,132574,1,2,0:0:0:0:
311,207,133045,2,0,L|391:47,2,160,2|2|2,0:0|0:0|0:0,0:0:0:0:
151,192,134930,5,2,0:0:0:0:
316,305,135716,2,0,P|357:285|382:212,1,120,2|0,0:0|0:0,0:0:0:0:
269,105,136815,2,0,L|301:225,1,120,2|2,0:0|0:0,0:0:0:0:
324,297,137600,5,6,0:0:0:0:
212,251,138072,2,0,P|116:235|60:267,1,160,6|6,0:0|0:0,0:0:0:0:
240,168,139485,6,0,L|400:104,1,160
256,192,140585,12,0,143726,0:0:0:0:
344,304,145140,5,4,0:0:0:0:
168,216,145925,2,0,L|256:216,1,80
464,104,147182,2,0,L|384:104,1,80,0|4,0:0|0:0,0:0:0:0:
280,160,147967,2,0,L|112:160,1,160
80,232,148909,6,0,P|136:320|272:304,1,240
328,264,150166,1,0,0:0:0:0:
256,192,150480,12,0,152993,0:0:0:0:
