osu file format v13

[General]
AudioFilename: xi_halcyon_1_04.mp3
AudioLeadIn: 0
PreviewTime: 27667
Countdown: 0
SampleSet: Soft
StackLeniency: 0.3
Mode: 0
LetterboxInBreaks: 1
WidescreenStoryboard: 1

[Editor]
DistanceSpacing: 0.5
BeatDivisor: 4
GridSize: 4
TimelineZoom: 4.199998

[Metadata]
Title:Halcyon
TitleUnicode:Halcyon
Artist:xi
ArtistUnicode:xi
Creator:judgment light
Version:Another
Source:BMS
Tags:cytus bof2010
BeatmapID:360574
BeatmapSetID:115487

[Difficulty]
HPDrainRate:7
CircleSize:4
OverallDifficulty:7
ApproachRate:9
SliderMultiplier:2
SliderTickRate:1

[Events]
//Background and Video events
0,0,"_halsfile.jpg",0,0
//Break Periods
//Storyboard Layer 0 (Background)
//Storyboard Layer 1 (Fail)
//Storyboard Layer 2 (Pass)
//Storyboard Layer 3 (Foreground)
//Storyboard Sound Samples
//Background Colour Transformations
3,100,163,162,255

[TimingPoints]
27025,314.13612565445,4,1,2,40,1,0
27102,-200,4,3,2,40,0,0
27652,-100,4,1,2,40,0,0
28280,-100,4,1,2,50,0,1
28594,-100,4,1,2,50,0,1
28908,-100,4,1,2,20,0,1
29065,-100,4,1,2,50,0,1
29222,-100,4,1,2,20,0,1
29380,-100,4,1,2,50,0,1
29537,-100,4,1,2,20,0,1
29694,-100,4,1,2,50,0,1
29851,-100,4,1,2,20,0,1
30008,-100,4,1,2,50,0,1
30165,-100,4,1,2,20,0,1
30322,-100,4,1,2,50,0,1
31107,-100,4,1,2,50,0,1
31421,-100,4,1,2,20,0,1
31578,-100,4,1,2,50,0,1
31736,-100,4,1,2,20,0,1
31893,-100,4,1,2,50,0,1
32050,-100,4,1,2,20,0,1
32207,-100,4,1,2,50,0,1
32364,-100,4,1,2,20,0,1
32521,-100,4,1,2,50,0,1
32678,-100,4,1,2,20,0,1
32835,-100,4,1,2,50,0,1
32992,-100,4,1,2,20,0,1
33149,-100,4,1,2,50,0,0
37861,-100,4,1,2,40,0,0
38332,-100,4,1,2,50,0,1
38647,-100,4,1,2,50,0,1
38961,-100,4,1,2,20,0,1
39118,-100,4,1,2,50,0,1
39275,-100,4,1,2,20,0,1
39432,-100,4,1,2,50,0,1
39589,-100,4,1,2,20,0,1
39746,-100,4,1,2,50,0,1
39903,-100,4,1,2,20,0,1
40060,-100,4,1,2,50,0,1
40217,-100,4,1,2,20,0,1
40374,-100,4,1,2,50,0,1
41160,-100,4,1,2,50,0,1
41474,-100,4,1,2,20,0,1
41631,-100,4,1,2,50,0,1
41788,-100,4,1,2,20,0,1
41945,-100,4,1,2,50,0,1
42102,-100,4,1,2,20,0,1
42259,-100,4,1,2,50,0,1
42416,-100,4,1,2,20,0,1
42573,-100,4,1,2,50,0,1
42730,-100,4,1,2,20,0,1
42887,-100,4,1,2,50,0,1
43044,-100,4,1,2,20,0,1
43202,-100,4,1,2,50,0,1
46814,-100,4,1,2,30,0,1
47128,-100,4,1,2,60,0,1
47442,-100,4,1,2,50,0,1
47756,-100,4,1,2,40,0,1
48071,-66.6666666666667,4,1,2,80,0,1
48306,-66.6666666666667,4,1,2,5,0,1
48385,-100,4,1,2,80,0,0
48699,-100,4,1,1,50,0,0
53725,-100,4,1,2,50,0,0
58123,-100,4,1,2,55,0,0
58280,-100,4,1,2,55,0,0
58437,-100,4,1,2,60,0,0
58751,-100,4,1,1,50,0,0
63777,-100,4,1,2,60,0,0
67861,-100,4,1,2,70,0,0
68489,-100,4,1,2,80,0,0
68804,-100,4,1,1,50,0,0
73516,-100,4,1,1,60,0,0
73594,-100,4,1,1,50,0,0
74772,-100,4,1,1,45,0,0
75086,-100,4,1,1,50,0,0
75400,-100,4,1,1,55,0,0
75715,-100,4,1,1,60,0,0
76029,-100,4,1,1,70,0,0
76186,-100,4,1,1,50,0,0
77914,-100,4,1,1,50,0,0
78149,-100,4,1,1,45,0,0
78385,-100,4,1,1,40,0,0
78542,-100,4,1,1,70,0,0
78856,-100,4,1,1,50,0,0
87652,-100,4,1,1,60,0,0
87809,-100,4,1,1,50,0,0
87966,-100,4,1,1,40,0,0
88123,-100,4,1,1,30,0,0
88280,-66.6666666666667,4,1,1,70,0,0
88516,-66.6666666666667,4,1,1,5,0,0
88594,-133.333333333333,4,1,1,60,0,0
90793,-100,4,1,1,60,0,0
90950,-100,4,1,2,60,0,0
91107,-100,4,1,1,60,0,0
91264,-133.333333333333,4,1,1,60,0,0
92992,-100,4,1,1,60,0,0
93463,-133.333333333333,4,1,1,50,0,0
95505,-166.666666666667,4,1,1,50,0,0
96133,-133.333333333333,4,1,1,50,0,0
97076,-100,4,1,1,50,0,0
109641,-66.6666666666667,4,1,1,50,0,0
109955,-100,4,1,2,50,0,1
110270,-100,4,1,2,50,0,1
110584,-100,4,1,2,20,0,1
110741,-100,4,1,2,50,0,1
110898,-100,4,1,2,20,0,1
111055,-100,4,1,2,50,0,1
111212,-100,4,1,2,20,0,1
111369,-100,4,1,2,50,0,1
111526,-100,4,1,2,20,0,1
111683,-100,4,1,2,50,0,1
111840,-100,4,1,2,20,0,1
111997,-100,4,1,2,50,0,1
112783,-100,4,1,2,50,0,1
113097,-100,4,1,2,20,0,1
113254,-100,4,1,2,50,0,1
113411,-100,4,1,2,20,0,1
113568,-100,4,1,2,50,0,1
113725,-100,4,1,2,20,0,1
113882,-100,4,1,2,50,0,1
114039,-100,4,1,2,20,0,1
114196,-100,4,1,2,50,0,1
114353,-100,4,1,2,20,0,1
114510,-100,4,1,2,50,0,1
114667,-100,4,1,2,20,0,1
114825,-100,4,1,2,50,0,0
119380,-100,4,1,2,40,0,0
120008,-100,4,1,2,50,0,1
120322,-100,4,1,2,50,0,1
120636,-100,4,1,2,20,0,1
120793,-100,4,1,2,50,0,1
120950,-100,4,1,2,20,0,1
121107,-100,4,1,2,50,0,1
121264,-100,4,1,2,20,0,1
121421,-100,4,1,2,50,0,1
121578,-100,4,1,2,20,0,1
121736,-100,4,1,2,50,0,1
121893,-100,4,1,2,20,0,1
122050,-100,4,1,2,50,0,1
122835,-100,4,1,2,50,0,1
123149,-100,4,1,2,20,0,1
123306,-100,4,1,2,50,0,1
123463,-100,4,1,2,20,0,1
123620,-100,4,1,2,50,0,1
123777,-100,4,1,2,20,0,1
123934,-100,4,1,2,50,0,1
124092,-100,4,1,2,20,0,1
124249,-100,4,1,2,50,0,1
124406,-100,4,1,2,20,0,1
124563,-100,4,1,2,50,0,1
124720,-100,4,1,2,20,0,1
124877,-100,4,1,2,50,0,1
128529,-100,4,1,2,30,0,1
128804,-100,4,1,2,70,0,0
129118,-100,4,1,2,60,0,0
129432,-100,4,1,2,50,0,0
129746,-66.6666666666667,4,1,2,90,0,0
130060,-100,4,1,2,90,0,1
130217,-100,4,1,2,50,0,1
130374,-100,4,1,2,50,0,1
130688,-100,4,1,2,20,0,1
130845,-100,4,1,2,50,0,1
131003,-100,4,1,2,20,0,1
131160,-100,4,1,2,50,0,1
131317,-100,4,1,2,20,0,1
131474,-100,4,1,2,50,0,1
131631,-100,4,1,2,20,0,1
131788,-100,4,1,2,50,0,1
131945,-100,4,1,2,20,0,1
132102,-100,4,1,2,50,0,1
132887,-100,4,1,2,50,0,1
133202,-100,4,1,2,20,0,1
133359,-100,4,1,2,50,0,1
133516,-100,4,1,2,20,0,1
133673,-100,4,1,2,50,0,1
133830,-100,4,1,2,20,0,1
133987,-100,4,1,2,50,0,1
134144,-100,4,1,2,20,0,1
134301,-100,4,1,2,50,0,1
134458,-100,4,1,2,20,0,1
134615,-100,4,1,2,50,0,1
134772,-100,4,1,2,20,0,1
134929,-100,4,1,2,50,0,1
136421,-100,4,1,2,20,0,1
136500,-100,4,1,2,50,0,1
136736,-100,4,1,2,20,0,1
136814,-100,4,1,2,50,0,1
137835,-100,4,1,2,20,0,1
137914,-100,4,1,2,50,0,1
138306,-100,4,1,2,20,0,1
138385,-100,4,1,2,50,0,1
140113,-100,4,1,2,50,0,1
142311,-100,4,1,2,55,0,1
142626,-100,4,1,2,60,0,1
143725,-100,4,1,2,70,0,1
143961,-100,4,1,2,20,0,1
144039,-100,4,1,2,70,0,1
144275,-100,4,1,2,20,0,1
144353,-100,4,1,2,70,0,1
144589,-100,4,1,2,20,0,1
144667,-100,4,1,2,70,0,1
145139,-100,4,1,3,60,0,1
148633,-100,4,1,3,30,0,1
148908,-100,4,1,2,70,0,0
149222,-100,4,1,2,60,0,0
149537,-100,4,1,2,50,0,0
149851,-66.6666666666667,4,1,2,80,0,0
150165,-66.6666666666667,4,1,2,60,0,0
150479,-100,4,1,2,100,0,1
150558,-100,4,2,2,85,0,0
152992,-100,4,2,2,5,0,0

[Colours]
Combo1 : 255,0,0
Combo2 : 0,128,255
Combo3 : 255,255,0
Combo4 : 0,255,64
Combo5 : 128,0,255

[HitObjects]
155,308,27339,6,0,P|226:312|262:295,1,100,12|0,0:0|0:0,0:0:0:0:
328,176,27810,5,0,0:0:0:0:
314,143,27888,1,0,0:0:0:0:
289,118,27967,1,0,0:0:0:0:
260,98,28045,1,0,0:0:0:0:
226,88,28124,1,0,0:0:0:0:
190,89,28203,1,0,0:0:0:0:
158,103,28281,6,2,L|118:214,1,100,2|2,0:0|0:0,0:0:0:0:
233,185,28595,1,0,0:0:0:0:
346,249,28752,2,0,L|366:360,1,100,2|0,0:0|0:0,0:0:0:0:
471,180,29066,2,0,L|439:85,1,100,2|0,0:0|0:0,0:0:0:0:
256,273,29381,2,0,P|192:264|152:224,1,100,2|0,0:0|0:0,0:0:0:0:
74,86,29695,2,0,L|38:198,1,100,2|0,0:0|0:0,0:0:0:0:
291,122,30009,2,0,P|355:131|395:171,1,100,2|0,0:0|0:0,0:0:0:0:
159,331,30323,2,0,L|141:215,1,100,2|0,0:0|0:0,0:0:0:0:
138,197,30559,1,0,0:0:0:0:
132,162,30637,1,0,0:0:0:0:
127,127,30716,1,0,0:0:0:0:
122,92,30794,6,2,L|232:157,1,100,2|2,0:0|0:0,0:0:0:0:
348,202,31108,1,0,0:0:0:0:
495,166,31265,2,0,L|408:117,1,100,2|0,0:0|0:0,0:0:0:0:
284,28,31579,2,0,P|249:95|250:143,1,100,2|0,0:0|0:0,0:0:0:0:
181,284,31894,2,0,P|244:284|286:261,1,100,2|0,0:0|0:0,0:0:0:0:
435,82,32208,2,0,L|311:109,1,100,2|0,0:0|0:0,0:0:0:0:
136,218,32522,2,0,L|65:118,1,100,2|0,0:0|0:0,0:0:0:0:
396,184,32836,2,0,L|453:265,1,100,2|0,0:0|0:0,0:0:0:0:
259,232,33150,22,2,P|238:130|307:61,1,200,2|0,0:0|0:0,0:0:0:0:
392,176,33621,1,0,0:0:0:0:
321,315,33778,1,2,0:0:0:0:
321,315,33857,1,0,0:0:0:0:
321,315,33935,1,2,0:0:0:0:
184,268,34093,1,0,0:0:0:0:
367,214,34250,1,0,0:0:0:0:
173,165,34407,2,0,L|74:90,1,100,2|0,0:0|0:0,0:0:0:0:
418,147,34721,2,0,L|514:57,1,100,2|0,0:0|0:0,0:0:0:0:
297,92,35035,2,2,P|251:182|302:278,1,200,2|0,0:0|0:0,0:0:0:0:
390,191,35506,1,2,0:0:0:0:
419,66,35663,1,0,0:0:0:0:
483,224,35820,6,0,P|495:296|481:343,1,100,2|0,0:0|0:0,0:0:0:0:
341,181,36134,1,0,0:0:0:0:
208,255,36292,2,0,P|196:327|210:374,1,100,2|0,0:0|0:0,0:0:0:0:
357,207,36606,1,2,0:0:0:0:
501,146,36763,1,0,0:0:0:0:
392,296,36920,2,0,P|346:316|296:319,1,100,2|0,0:0|0:0,0:0:0:0:
44,232,37234,1,0,0:0:0:0:
136,324,37391,2,0,P|199:310|235:274,1,100,2|0,0:0|0:0,0:0:0:0:
324,163,37705,1,2,0:0:0:0:
413,45,37862,21,0,0:0:0:0:
434,72,37941,1,0,0:0:0:0:
449,103,38019,1,2,0:0:0:0:
459,136,38098,1,0,0:0:0:0:
460,170,38176,1,0,0:0:0:0:
454,204,38255,1,0,0:0:0:0:
440,236,38333,22,2,P|357:276|331:275,1,100
318,106,38648,1,0,0:0:0:0:
439,250,38805,2,0,L|513:349,1,100,2|0,0:0|0:0,0:0:0:0:
263,208,39119,2,0,P|209:214|154:248,1,100,2|0,0:0|0:0,0:0:0:0:
335,59,39433,2,0,P|369:112|367:159,1,100,2|0,0:0|0:0,0:0:0:0:
80,319,39747,2,0,P|60:274|59:225,1,100,2|0,0:0|0:0,0:0:0:0:
195,142,40061,2,0,L|312:124,1,100,2|0,0:0|0:0,0:0:0:0:
391,345,40375,1,2,0:0:0:0:
275,317,40532,2,0,L|290:270,1,50,0|0,0:0|0:0,0:0:0:0:
397,233,40689,2,0,L|373:190,1,50
266,161,40846,6,2,L|307:55,1,100
419,106,41161,1,0,0:0:0:0:
326,251,41318,2,0,P|249:240|207:259,1,100,2|0,0:0|0:0,0:0:0:0:
124,293,41632,2,0,P|74:295|26:279,1,100,2|0,0:0|0:0,0:0:0:0:
416,150,41946,2,0,P|460:110|472:66,1,100,2|0,0:0|0:0,0:0:0:0:
131,129,42260,2,0,P|111:205|127:233,1,100,2|0,0:0|0:0,0:0:0:0:
348,251,42574,2,0,P|339:188|306:153,1,100,2|0,0:0|0:0,0:0:0:0:
43,244,42888,2,0,P|83:294|116:299,1,100,2|0,0:0|0:0,0:0:0:0:
327,347,43203,5,2,0:0:0:0:
327,347,43281,1,0,0:0:0:0:
327,347,43360,2,0,P|348:257|310:137,1,200,2|0,0:0|0:0,0:0:0:0:
136,209,43831,2,0,P|182:256|219:267,1,100
287,50,44145,5,2,0:0:0:0:
173,93,44302,1,0,0:0:0:0:
287,50,44459,2,0,P|366:57|479:119,1,200,2|0,0:0|0:0,0:0:0:0:
315,334,44930,2,0,P|305:238|364:129,1,200
461,263,45401,21,2,0:0:0:0:
298,330,45559,1,0,0:0:0:0:
157,226,45716,2,0,P|160:147|288:80,1,200,2|0,0:0|0:0,0:0:0:0:
469,191,46187,2,0,P|466:270|338:337,1,200
217,260,46658,1,0,0:0:0:0:
309,107,46815,6,0,L|341:99,7,25
294,69,47129,5,0,0:0:0:0:
259,49,47208,1,0,0:0:0:0:
219,49,47286,1,0,0:0:0:0:
180,61,47365,1,0,0:0:0:0:
150,80,47443,5,0,0:0:0:0:
133,110,47522,1,0,0:0:0:0:
129,147,47600,1,0,0:0:0:0:
136,182,47679,1,0,0:0:0:0:
151,209,47757,21,0,0:0:0:0:
177,226,47836,1,0,0:0:0:0:
206,231,47915,1,0,0:0:0:0:
233,220,47993,1,0,0:0:0:0:
250,196,48072,54,0,P|357:188|341:327,1,225.000008583069,0|4,0:0|0:0,0:0:0:0:
352,350,48386,1,4,0:0:0:0:
56,140,48700,6,0,P|104:152|156:128,1,100,6|0,0:2|0:0,0:0:0:0:
216,60,49014,1,2,0:0:0:0:
312,32,49171,1,0,0:0:0:0:
400,76,49328,1,2,0:0:0:0:
456,160,49485,2,0,P|444:232|416:252,1,100,2|0,0:0|0:0,0:0:0:0:
212,344,49799,2,0,P|163:289|165:255,1,100,2|0,0:0|0:0,0:0:0:0:
352,112,50114,2,0,L|296:312,1,200,2|0,0:0|0:0,0:0:0:0:
280,220,50585,2,0,P|244:168|184:152,1,100,0|0,0:0|0:0,0:0:0:0:
80,172,50899,1,0,0:0:0:0:
80,172,51213,6,0,P|136:96|200:80,1,150,2|0,0:0|2:0,0:0:0:0:
216,80,51527,1,2,0:0:0:0:
308,120,51684,1,0,0:0:0:0:
348,212,51841,1,2,0:0:0:0:
332,312,51998,2,0,L|220:256,1,100,2|0,0:0|0:0,0:0:0:0:
171,194,52312,1,2,0:0:0:0:
111,98,52470,2,0,P|67:153|70:197,1,100,2|0,0:0|0:0,0:0:0:0:
164,312,52784,5,2,0:0:0:0:
188,320,52862,1,0,0:0:0:0:
212,324,52941,1,0,0:0:0:0:
236,324,53019,1,0,0:0:0:0:
260,320,53098,1,2,0:0:0:0:
284,312,53176,1,0,0:0:0:0:
308,300,53255,1,0,0:0:0:0:
328,288,53333,1,0,0:0:0:0:
348,272,53412,2,0,L|412:172,1,100,6|0,0:0|0:0,0:0:0:0:
380,80,53726,6,0,P|276:68|244:96,1,150,2|0,0:0|2:0,0:0:0:0:
220,160,54040,2,0,L|288:268,1,100,2|0,0:0|0:0,0:0:0:0:
192,368,54354,2,0,L|138:283,1,100,0|2,0:0|0:0,0:0:0:0:
64,140,54668,21,2,0:0:0:0:
79,119,54747,1,0,0:0:0:0:
98,103,54826,1,0,0:0:0:0:
119,91,54904,1,0,0:0:0:0:
143,84,54983,1,2,0:0:0:0:
167,80,55061,1,0,0:0:0:0:
192,81,55140,1,0,0:0:0:0:
216,85,55218,1,0,0:0:0:0:
240,92,55297,1,2,0:0:0:0:
262,103,55375,1,0,0:0:0:0:
283,116,55454,1,0,0:0:0:0:
299,134,55532,1,0,0:0:0:0:
308,157,55611,6,0,L|262:195,1,50,2|0,0:0|0:0,0:0:0:0:
249,311,55768,2,0,L|287:279,1,50,2|0,0:0|0:0,0:0:0:0:
352,232,55925,6,0,B|401:186|401:186|401:142|401:142,1,100,4|2,0:0|0:0,0:0:0:0:
208,164,56239,2,0,L|104:240,1,100,0|2,0:0|0:0,0:0:0:0:
100,245,56475,1,0,0:0:0:0:
74,268,56553,2,0,P|106:312|162:328,1,100,2|0,0:0|0:0,0:0:0:0:
288,336,56867,5,2,0:0:0:0:
312,336,56946,1,0,0:0:0:0:
336,328,57024,1,2,0:0:0:0:
420,228,57182,1,2,0:0:0:0:
300,176,57339,1,0,0:0:0:0:
276,184,57417,1,0,0:0:0:0:
252,184,57496,1,2,0:0:0:0:
156,96,57653,1,0,0:0:0:0:
272,36,57810,1,2,0:0:0:0:
296,34,57888,1,0,0:0:0:0:
321,38,57967,1,2,0:0:0:0:
343,48,58045,1,0,0:0:0:0:
363,61,58124,22,0,L|396:116,1,50,2|0,0:0|0:0,0:0:0:0:
416,268,58281,2,0,L|449:213,1,50,2|0,0:0|0:0,0:0:0:0:
490,116,58438,1,6,0:0:0:0:
264,112,58752,6,0,P|208:124|180:176,1,100,6|0,1:2|2:0,0:0:0:0:
168,256,59066,1,2,0:0:0:0:
228,336,59223,1,0,0:0:0:0:
328,340,59381,1,2,0:0:0:0:
408,276,59538,2,0,L|368:40,2,200,2|2|2,0:0|0:0|0:0,0:0:0:0:
408,276,60480,5,0,0:0:0:0:
336,204,60637,2,0,P|272:168|144:188,1,200,0|2,0:0|0:0,0:0:0:0:
116,280,61108,1,0,0:0:0:0:
208,244,61265,2,0,L|260:92,1,150,2|0,0:0|0:0,0:0:0:0:
284,36,61579,2,0,P|348:20|400:56,1,100,2|0,0:0|0:0,0:0:0:0:
432,124,61894,1,2,0:0:0:0:
468,216,62051,2,0,P|368:200|340:148,1,150,2|0,0:0|0:0,0:0:0:0:
336,96,62365,2,0,L|300:208,1,100,2|0,0:0|0:0,0:0:0:0:
272,328,62679,1,2,0:0:0:0:
148,220,62836,5,2,0:0:0:0:
131,203,62915,1,0,0:0:0:0:
139,181,62993,1,0,0:0:0:0:
118,165,63072,1,0,0:0:0:0:
130,142,63150,1,2,0:0:0:0:
106,130,63229,1,0,0:0:0:0:
122,110,63307,1,0,0:0:0:0:
99,99,63386,1,0,0:0:0:0:
115,79,63464,2,0,P|168:36|256:56,1,150,4|0,0:0|0:0,0:0:0:0:
302,87,63778,22,0,L|462:55,1,150,2|0,0:0|0:0,0:0:0:0:
493,113,64093,1,2,0:0:0:0:
271,159,64250,1,0,0:0:0:0:
405,228,64407,1,2,0:0:0:0:
344,23,64564,1,2,0:0:0:0:
216,80,64721,5,2,0:0:0:0:
208,104,64799,1,0,0:0:0:0:
200,128,64878,1,0,0:0:0:0:
192,152,64956,1,0,0:0:0:0:
188,176,65035,1,2,0:0:0:0:
192,200,65114,1,0,0:0:0:0:
200,223,65192,1,0,0:0:0:0:
209,245,65271,1,0,0:0:0:0:
224,272,65349,1,2,0:0:0:0:
232,248,65428,1,0,0:0:0:0:
240,224,65506,1,0,0:0:0:0:
248,200,65585,1,0,0:0:0:0:
260,176,65663,6,0,L|300:224,1,50,2|0,0:0|0:0,0:0:0:0:
412,252,65820,2,0,L|379:213,1,50,2|0,0:0|0:0,0:0:0:0:
396,92,65977,2,0,L|457:172,1,100,0|2,0:0|0:0,0:0:0:0:
477,316,66292,2,0,P|401:340|361:320,1,100,2|0,0:0|0:0,0:0:0:0:
348,319,66527,1,0,0:0:0:0:
316,294,66606,2,0,L|255:214,1,100,2|0,0:0|0:0,0:0:0:0:
151,187,66920,2,0,L|113:220,1,50,2|0,0:0|0:0,0:0:0:0:
112,108,67077,2,0,L|152:72,1,50,2|0,0:0|0:0,0:0:0:0:
208,28,67234,5,2,0:0:0:0:
232,28,67312,1,0,0:0:0:0:
256,32,67391,1,0,0:0:0:0:
276,44,67470,1,0,0:0:0:0:
296,60,67548,1,2,0:0:0:0:
308,84,67627,1,0,0:0:0:0:
312,108,67705,1,0,0:0:0:0:
312,132,67784,1,0,0:0:0:0:
304,156,67862,6,0,L|244:188,1,50,2|0,0:0|0:0,0:0:0:0:
127,341,68019,2,0,L|187:309,1,50,2|0,0:0|0:0,0:0:0:0:
161,196,68176,2,0,L|129:136,1,50,2|0,0:0|0:0,0:0:0:0:
272,299,68333,2,0,L|304:359,1,50,2|0,0:0|0:0,0:0:0:0:
364,220,68490,6,2,P|396:136|376:28,2,200,2|6|2,0:0|1:2|0:0,0:0:0:0:
274,124,69276,1,2,0:0:0:0:
218,241,69433,1,0,0:0:0:0:
137,139,69590,1,2,0:0:0:0:
100,240,69747,6,0,P|124:308|160:332,1,100,2|0,0:0|2:0,0:0:0:0:
180,340,69983,2,0,P|236:344|284:324,1,100,2|0,0:0|2:0,0:0:0:0:
312,312,70218,2,0,P|360:288|416:288,1,100,2|0,0:0|2:0,0:0:0:0:
444,296,70454,2,0,L|412:196,1,100,2|0,0:0|2:0,0:0:0:0:
406,177,70689,5,2,0:0:0:0:
398,152,70768,1,0,0:0:0:0:
390,128,70846,1,0,0:0:0:0:
382,103,70925,1,0,0:0:0:0:
373,79,71004,2,0,P|317:64|263:79,1,100,2|0,0:0|0:0,0:0:0:0:
287,268,71318,2,0,L|332:179,1,100,2|0,0:0|0:0,0:0:0:0:
178,167,71632,1,2,0:0:0:0:
156,303,71789,2,0,P|196:367|286:369,1,150,0|0,0:0|2:0,0:0:0:0:
329,349,72103,1,2,0:0:0:0:
396,284,72260,5,2,0:0:0:0:
412,268,72339,1,0,0:0:0:0:
428,248,72417,1,2,0:0:0:0:
436,224,72496,1,0,0:0:0:0:
440,200,72574,1,2,0:0:0:0:
440,176,72653,1,0,0:0:0:0:
436,152,72731,1,2,0:0:0:0:
428,128,72810,1,0,0:0:0:0:
412,108,72888,1,2,0:0:0:0:
392,92,72967,1,0,0:0:0:0:
368,84,73045,1,2,0:0:0:0:
344,84,73124,1,0,0:0:0:0:
320,92,73203,2,0,L|224:156,1,100,2|0,0:0|0:0,0:0:0:0:
154,211,73517,22,0,P|94:223|50:147,1,150,2|0,0:0|0:0,0:0:0:0:
65,86,73831,2,0,L|148:30,1,100,2|0,0:0|0:0,0:0:0:0:
300,65,74145,1,2,0:0:0:0:
346,191,74302,2,0,L|218:279,1,150,2|0,0:0|2:0,0:0:0:0:
164,320,74616,1,2,0:0:0:0:
33,315,74773,5,2,0:0:0:0:
20,292,74852,1,0,0:0:0:0:
15,267,74930,1,2,0:0:0:0:
24,243,75009,1,0,0:0:0:0:
36,221,75087,1,2,0:0:0:0:
53,202,75166,1,0,0:0:0:0:
74,190,75244,1,2,0:0:0:0:
98,182,75323,1,0,0:0:0:0:
127,179,75401,5,2,0:0:0:0:
156,184,75480,1,0,0:0:0:0:
185,189,75559,1,2,0:0:0:0:
214,185,75637,1,0,0:0:0:0:
252,173,75716,5,2,0:0:0:0:
281,146,75794,1,0,0:0:0:0:
282,105,75873,1,2,0:0:0:0:
263,69,75951,1,0,0:0:0:0:
229,46,76030,22,0,L|347:69,1,100,2|0,0:0|0:0,0:0:0:0:
409,151,76344,1,0,0:0:0:0:
315,192,76501,1,0,0:0:0:0:
431,274,76658,1,0,0:0:0:0:
230,338,76815,1,0,0:0:0:0:
387,211,76972,1,2,0:0:0:0:
406,194,77051,1,0,0:0:0:0:
425,178,77129,1,0,0:0:0:0:
444,162,77208,1,0,0:0:0:0:
463,146,77286,1,2,0:0:0:0:
285,124,77443,1,0,0:0:0:0:
108,100,77600,5,2,0:0:0:0:
86,87,77679,1,0,0:0:0:0:
64,75,77757,1,2,0:0:0:0:
228,160,77915,5,0,0:0:0:0:
248,144,77993,1,2,0:0:0:0:
124,172,78150,5,0,0:0:0:0:
104,188,78229,1,2,0:0:0:0:
84,326,78386,21,2,0:0:0:0:
210,280,78543,6,0,L|400:204,2,200,2|6|2,0:0|1:2|0:0,0:0:0:0:
44,286,79328,1,2,0:0:0:0:
179,182,79485,1,0,0:0:0:0:
48,166,79642,1,2,0:0:0:0:
140,301,79799,6,0,P|207:302|244:264,1,100,2|0,0:0|2:0,0:0:0:0:
258,261,80035,2,0,P|303:238|357:242,1,100,2|0,0:0|2:0,0:0:0:0:
385,247,80271,2,0,P|423:203|421:147,1,100,2|0,0:0|2:0,0:0:0:0:
405,134,80506,2,0,L|335:59,1,100,2|0,0:0|0:0,0:0:0:0:
322,95,80742,5,2,0:0:0:0:
315,119,80820,1,0,0:0:0:0:
309,143,80899,1,2,0:0:0:0:
302,167,80977,1,0,0:0:0:0:
296,191,81056,2,0,L|194:79,1,150,2|0,0:0|0:0,0:0:0:0:
136,20,81370,2,0,P|105:57|108:112,1,100,2|0,0:0|0:0,0:0:0:0:
175,207,81684,2,0,L|211:258,1,50,2|0,0:0|0:0,0:0:0:0:
320,254,81841,2,0,L|292:209,1,50,2|0,0:0|0:0,0:0:0:0:
318,109,81998,2,0,P|373:42|418:41,1,100,2|0,0:0|0:0,0:0:0:0:
400,184,82312,22,0,L|468:336,1,150,2|0,0:0|0:0,0:0:0:0:
380,308,82627,2,0,L|318:171,1,150,2|0,0:0|0:0,0:0:0:0:
284,96,82941,2,0,L|250:132,1,50,2|0,0:0|0:0,0:0:0:0:
272,273,83098,2,0,L|248:229,1,50,2|0,0:0|0:0,0:0:0:0:
169,185,83255,2,0,L|120:186,1,50,2|0,0:0|0:0,0:0:0:0:
91,275,83412,1,2,0:0:0:0:
28,210,83569,6,0,P|15:110|91:62,1,200,2|2,0:0|0:0,0:0:0:0:
188,100,84040,1,0,0:0:0:0:
284,128,84197,1,2,0:0:0:0:
308,132,84276,1,0,0:0:0:0:
332,132,84354,1,0,0:0:0:0:
356,124,84433,1,0,0:0:0:0:
376,108,84511,1,2,0:0:0:0:
451,47,84668,5,0,0:0:0:0:
434,142,84826,2,0,L|394:246,1,100,2|0,0:0|0:0,0:0:0:0:
264,304,85140,2,0,L|299:210,1,100,2|0,0:0|0:0,0:0:0:0:
260,120,85454,1,2,0:0:0:0:
236,116,85532,1,0,0:0:0:0:
212,116,85611,1,0,0:0:0:0:
188,124,85689,1,0,0:0:0:0:
168,140,85768,2,0,L|140:190,1,50,2|0,0:0|0:0,0:0:0:0:
101,289,85925,2,0,L|159:278,1,50,2|0,0:0|0:0,0:0:0:0:
251,231,86082,5,2,0:0:0:0:
416,274,86239,1,0,0:0:0:0:
294,144,86396,1,2,0:0:0:0:
358,356,86553,1,0,0:0:0:0:
430,219,86710,1,2,0:0:0:0:
415,200,86789,1,0,0:0:0:0:
395,185,86867,1,0,0:0:0:0:
373,172,86946,1,0,0:0:0:0:
349,165,87024,22,0,L|359:131,1,25,2|0,0:0|2:0,0:0:0:0:
324,165,87103,2,0,L|329:125,1,25,0|0,0:0|2:0,0:0:0:0:
300,170,87182,2,0,L|295:131,1,25,0|0,0:0|2:0,0:0:0:0:
278,178,87260,2,0,L|263:147,1,25,0|0,0:0|2:0,0:0:0:0:
265,193,87339,53,2,0:0:0:0:
180,136,87653,21,2,0:0:0:0:
164,160,87731,1,0,0:0:0:0:
160,196,87810,1,0,0:0:0:0:
160,228,87888,1,0,0:0:0:0:
176,256,87967,1,0,0:0:0:0:
200,276,88045,1,0,0:0:0:0:
232,288,88124,1,0,0:0:0:0:
264,296,88203,1,0,0:0:0:0:
300,288,88281,38,0,P|364:164|269:80,1,225.000008583069,0|0,0:0|1:0,0:0:0:0:
260,68,88595,6,0,L|175:48,1,75.0000028610231,4|0,0:0|0:0,0:0:0:0:
73,167,88909,1,8,0:0:0:0:
222,199,89066,1,0,0:0:0:0:
222,199,89145,1,0,0:0:0:0:
222,199,89223,2,0,L|200:278,1,75.0000028610231
369,216,89538,2,0,L|459:204,1,75.0000028610231,8|0,0:0|0:0,0:0:0:0:
395,53,89852,1,0,0:0:0:0:
302,172,90009,1,0,0:0:0:0:
219,31,90166,1,8,0:0:0:0:
156,162,90323,1,0,0:0:0:0:
156,162,90401,1,0,0:0:0:0:
156,162,90480,2,0,L|132:244,1,75.0000028610231
70,361,90794,5,8,0:0:0:0:
209,294,90951,2,0,L|322:322,1,100
421,277,91265,5,0,0:0:0:0:
475,169,91422,2,0,P|484:124|460:80,1,75.0000028610231,8|0,0:0|0:0,0:0:0:0:
474,97,91658,1,0,0:0:0:0:
474,97,91737,1,0,0:0:0:0:
351,153,91894,1,0,0:0:0:0:
230,95,92051,2,0,L|146:115,1,75.0000028610231,8|0,0:0|0:0,0:0:0:0:
32,236,92365,2,0,L|125:215,1,75.0000028610231
220,252,92679,2,0,L|322:226,1,75.0000028610231,8|0,0:0|0:0,0:0:0:0:
308,200,92915,1,0,0:0:0:0:
332,156,92993,6,0,L|495:182,2,150,2|2|2,0:0|0:0|0:0,0:0:0:0:
203,128,93621,22,0,L|159:196,1,75.0000028610231
276,248,93935,1,8,0:0:0:0:
276,248,94093,1,0,0:0:0:0:
140,84,94250,6,0,L|120:180,1,75.0000028610231
276,248,94564,1,8,0:0:0:0:
276,248,94721,1,0,0:0:0:0:
64,73,94878,6,0,L|77:169,1,75.0000028610231
276,248,95192,1,8,0:0:0:0:
302,197,95271,1,0,0:0:0:0:
351,170,95349,1,0,0:0:0:0:
407,170,95428,1,0,0:0:0:0:
458,190,95506,6,0,L|488:290,2,79.9999975585938,2|2|0,0:0|0:0|0:0,0:0:0:0:
405,48,96134,21,2,0:0:0:0:
298,98,96292,1,0,0:0:0:0:
203,29,96449,2,0,L|138:72,1,75.0000028610231,8|0,0:0|0:0,0:0:0:0:
42,155,96763,1,0,0:0:0:0:
64,168,96841,1,0,0:0:0:0:
85,182,96920,1,0,0:0:0:0:
109,192,96998,1,0,0:0:0:0:
139,209,97077,6,0,L|238:150,1,100,8|0,0:0|1:2,0:0:0:0:
351,110,97391,5,0,0:0:0:0:
369,127,97470,1,0,0:0:0:0:
383,147,97548,1,0,0:0:0:0:
391,170,97627,1,0,0:0:0:0:
390,194,97705,1,8,0:0:0:0:
382,217,97784,1,0,0:0:0:0:
368,237,97862,1,0,0:0:0:0:
350,255,97941,1,0,0:0:0:0:
329,268,98019,5,6,1:2:0:0:
148,220,98255,1,6,1:2:0:0:
288,96,98490,1,6,1:2:0:0:
125,147,98648,21,2,0:0:0:0:
211,322,98805,1,0,0:0:0:0:
386,236,98962,1,2,0:0:0:0:
300,61,99119,1,0,0:0:0:0:
256,192,99276,1,2,0:0:0:0:
256,192,99433,1,2,0:0:0:0:
256,192,99747,5,0,0:0:0:0:
304,272,99904,1,2,0:0:0:0:
134,289,100061,1,0,0:0:0:0:
320,240,100218,1,2,0:0:0:0:
158,186,100375,1,0,0:0:0:0:
344,216,100532,1,2,0:0:0:0:
216,97,100689,1,0,0:0:0:0:
216,97,100768,1,2,0:0:0:0:
376,204,100925,1,0,0:0:0:0:
376,204,101004,1,2,0:0:0:0:
294,42,101161,5,2,0:0:0:0:
422,215,101318,1,0,0:0:0:0:
284,160,101475,2,0,P|243:201|224:264,1,100,2|0,0:0|0:0,0:0:0:0:
400,339,101789,1,0,0:0:0:0:
231,335,101946,2,0,P|183:326|139:271,1,100,2|0,0:0|0:0,0:0:0:0:
116,89,102260,1,2,0:0:0:0:
251,173,102417,6,0,L|351:162,1,100,2|0,0:0|2:0,0:0:0:0:
130,261,102731,2,0,L|30:272,1,100,2|0,0:0|2:0,0:0:0:0:
273,339,103045,2,0,P|308:304|324:257,1,100,2|0,0:0|2:0,0:0:0:0:
199,72,103360,2,0,P|152:130|148:171,1,100,2|0,0:0|2:0,0:0:0:0:
362,335,103674,21,2,0:0:0:0:
471,223,103831,1,0,0:0:0:0:
272,55,103988,1,2,0:0:0:0:
320,199,104145,1,0,0:0:0:0:
425,81,104302,1,2,0:0:0:0:
425,81,104459,1,2,0:0:0:0:
425,81,104773,5,0,0:0:0:0:
287,334,104930,1,2,0:0:0:0:
393,219,105087,1,0,0:0:0:0:
199,38,105244,1,2,0:0:0:0:
247,185,105401,1,0,0:0:0:0:
338,125,105559,2,0,L|374:31,1,100,2|0,0:0|2:0,0:0:0:0:
151,244,105873,2,0,L|115:337,1,100,2|0,0:0|2:0,0:0:0:0:
328,132,106187,5,2,0:0:0:0:
176,127,106344,1,0,0:0:0:0:
340,248,106501,1,2,0:0:0:0:
256,40,106658,1,0,0:0:0:0:
256,344,106815,1,2,0:0:0:0:
256,344,106972,1,2,0:0:0:0:
256,344,107286,5,0,0:0:0:0:
236,272,107443,2,0,L|196:228,3,50,2|0|0|0,0:0|0:0|0:0|0:0,0:0:0:0:
276,272,107757,2,0,L|316:228,3,50,2|0|0|0,0:0|0:0|0:0|0:0,0:0:0:0:
256,244,108072,21,2,0:0:0:0:
256,220,108150,1,0,0:0:0:0:
256,196,108229,1,0,0:0:0:0:
256,172,108307,1,0,0:0:0:0:
256,148,108386,1,2,0:0:0:0:
256,124,108464,1,0,0:0:0:0:
256,100,108543,1,2,0:0:0:0:
256,76,108621,1,0,0:0:0:0:
256,52,108700,1,0,0:0:0:0:
256,52,109642,54,0,P|368:52|352:184,1,225.000008583069,0|0,0:0|2:0,0:0:0:0:
328,196,109956,5,2,0:0:0:0:
151,155,110114,1,2,0:0:0:0:
53,306,110271,1,0,0:0:0:0:
166,166,110428,2,0,L|265:242,1,100,2|0,0:0|0:0,0:0:0:0:
454,84,110742,2,0,P|399:63|340:74,1,100,2|0,0:0|0:0,0:0:0:0:
322,331,111056,2,0,P|361:300|376:234,1,100,2|0,0:0|0:0,0:0:0:0:
180,179,111370,2,0,L|79:208,1,100,2|0,0:0|0:0,0:0:0:0:
296,187,111684,2,0,L|416:145,1,100,2|0,0:0|0:0,0:0:0:0:
225,269,111998,1,2,0:0:0:0:
253,97,112155,2,0,L|263:39,1,50
385,97,112312,2,0,L|437:142,1,50
315,202,112470,5,2,0:0:0:0:
148,258,112627,1,2,0:0:0:0:
330,196,112784,1,0,0:0:0:0:
133,263,112941,2,0,L|25:301,1,100,2|0,0:0|0:0,0:0:0:0:
135,91,113255,2,0,P|217:70|265:87,1,100,2|0,0:0|0:0,0:0:0:0:
443,46,113569,2,0,L|379:131,1,100,2|0,0:0|0:0,0:0:0:0:
261,296,113883,2,0,P|323:324|391:317,1,100,2|0,0:0|0:0,0:0:0:0:
244,163,114197,2,0,P|163:167|126:186,1,100,2|0,0:0|0:0,0:0:0:0:
328,38,114511,2,0,L|366:147,1,100,2|0,0:0|0:0,0:0:0:0:
304,328,114826,6,2,P|208:352|144:284,1,200,2|0,0:0|0:0,0:0:0:0:
131,188,115297,1,0,0:0:0:0:
216,132,115454,1,2,0:0:0:0:
216,132,115532,1,0,0:0:0:0:
216,132,115611,2,0,L|244:252,1,100,2|0,0:0|0:0,0:0:0:0:
376,216,115925,1,2,0:0:0:0:
464,112,116082,2,0,P|442:43|372:25,1,150,2|0,0:0|2:0,0:0:0:0:
328,80,116396,2,0,L|224:48,1,100,2|0,0:0|0:0,0:0:0:0:
96,88,116710,6,2,P|56:180|116:260,1,200,2|0,0:0|0:0,0:0:0:0:
224,280,117182,1,2,0:0:0:0:
336,236,117339,1,0,0:0:0:0:
376,124,117496,2,0,L|472:84,1,100,6|0,0:0|0:0,0:0:0:0:
307,42,117810,1,2,0:0:0:0:
192,80,117967,2,0,L|99:118,1,100,2|0,0:0|0:0,0:0:0:0:
40,276,118281,2,0,L|133:238,1,100,2|0,0:0|0:0,0:0:0:0:
246,320,118595,2,0,L|390:264,1,150,6|0,0:0|0:0,0:0:0:0:
459,232,118909,2,0,P|479:170|459:125,1,100,2|0,0:0|0:0,0:0:0:0:
340,173,119223,1,0,0:0:0:0:
223,229,119381,21,6,0:0:0:0:
214,195,119459,1,0,0:0:0:0:
209,160,119538,1,0,0:0:0:0:
214,125,119616,1,0,0:0:0:0:
231,94,119695,1,2,0:0:0:0:
255,68,119773,1,0,0:0:0:0:
284,49,119852,1,0,0:0:0:0:
318,42,119930,1,0,0:0:0:0:
352,46,120009,5,2,0:0:0:0:
354,182,120166,1,2,0:0:0:0:
480,123,120323,1,0,0:0:0:0:
366,190,120480,2,0,L|251:234,1,100,2|0,0:0|0:0,0:0:0:0:
109,173,120794,2,0,L|70:60,1,100,2|0,0:0|0:0,0:0:0:0:
77,352,121108,2,0,P|141:348|181:320,1,100,2|0,0:0|0:0,0:0:0:0:
300,112,121422,2,0,P|349:111|393:133,1,100,2|0,0:0|0:0,0:0:0:0:
184,196,121737,2,0,L|140:96,1,100,2|0,0:0|0:0,0:0:0:0:
41,283,122051,1,2,0:0:0:0:
239,319,122208,1,0,0:0:0:0:
282,309,122286,1,0,0:0:0:0:
321,286,122365,1,0,0:0:0:0:
344,247,122443,1,0,0:0:0:0:
356,203,122522,5,2,0:0:0:0:
233,99,122679,1,2,0:0:0:0:
83,150,122836,1,0,0:0:0:0:
226,71,122993,2,0,L|329:33,1,100,2|0,0:0|0:0,0:0:0:0:
233,205,123307,2,0,L|139:239,1,100,2|0,0:0|0:0,0:0:0:0:
408,356,123621,2,0,P|418:308|396:265,1,100,2|0,0:0|0:0,0:0:0:0:
123,156,123935,2,0,P|114:205|135:250,1,100,2|0,0:0|0:0,0:0:0:0:
384,133,124250,2,0,P|388:84|363:41,1,100,2|0,0:0|0:0,0:0:0:0:
38,233,124564,2,0,P|31:286|55:329,1,100,2|0,0:0|0:0,0:0:0:0:
224,282,124878,5,2,0:0:0:0:
253,264,124956,1,0,0:0:0:0:
286,274,125035,2,0,P|390:276|487:217,1,200,2|0,0:0|0:0,0:0:0:0:
416,34,125506,2,0,L|360:135,1,100
281,249,125820,21,2,0:0:0:0:
145,199,125977,1,0,0:0:0:0:
72,327,126134,2,0,P|145:356|257:319,1,200,2|0,0:0|0:0,0:0:0:0:
309,167,126606,2,0,P|374:133|489:184,1,200
411,320,127077,5,2,0:0:0:0:
272,239,127234,1,0,0:0:0:0:
135,155,127391,2,0,P|87:209|108:329,1,200,2|0,0:0|0:0,0:0:0:0:
362,356,127862,2,0,P|410:302|389:182,1,200
325,106,128333,1,0,0:0:0:0:
232,51,128490,2,0,L|244:18,7,25
192,44,128805,5,0,0:0:0:0:
152,52,128883,1,0,0:0:0:0:
116,72,128962,1,0,0:0:0:0:
92,104,129040,1,0,0:0:0:0:
80,136,129119,5,0,0:0:0:0:
84,172,129197,1,0,0:0:0:0:
96,204,129276,1,0,0:0:0:0:
128,220,129354,1,0,0:0:0:0:
160,224,129433,21,0,0:0:0:0:
188,220,129511,1,0,0:0:0:0:
212,200,129590,1,0,0:0:0:0:
232,176,129668,1,0,0:0:0:0:
240,152,129747,54,0,P|352:124|336:252,1,225.000008583069,0|0,0:0|2:0,0:0:0:0:
355,281,130061,6,0,L|269:359,1,100,6|2,0:0|0:0,0:0:0:0:
141,312,130375,1,0,0:0:0:0:
190,91,130532,2,0,P|249:77|297:101,1,100,2|0,0:0|0:0,0:0:0:0:
441,273,130846,2,0,P|388:321|345:319,1,100,2|0,0:0|0:0,0:0:0:0:
112,200,131161,2,0,L|85:89,1,100,2|0,0:0|0:0,0:0:0:0:
388,212,131475,2,0,L|415:323,1,100,2|0,0:0|0:0,0:0:0:0:
48,144,131789,2,0,L|64:36,1,100,2|0,0:0|0:0,0:0:0:0:
445,276,132103,1,2,0:0:0:0:
232,112,132260,2,0,L|282:83,1,50,2|0,0:0|0:0,0:0:0:0:
269,217,132417,2,0,L|226:241,1,50,2|0,0:0|0:0,0:0:0:0:
115,165,132574,6,2,P|112:107|146:50,1,100,2|2,0:0|0:0,0:0:0:0:
432,160,132888,1,0,0:0:0:0:
362,355,133045,2,0,P|312:329|282:268,1,100,2|0,0:0|0:0,0:0:0:0:
105,54,133360,2,0,L|35:125,1,100,2|0,0:0|0:0,0:0:0:0:
268,90,133674,2,0,P|329:86|399:119,1,100,2|0,0:0|0:0,0:0:0:0:
186,341,133988,2,0,L|164:220,1,100,2|0,0:0|0:0,0:0:0:0:
381,346,134302,2,0,P|427:327|459:289,1,100,2|0,0:0|0:0,0:0:0:0:
144,149,134616,2,0,P|101:173|75:216,1,100,2|0,0:0|0:0,0:0:0:0:
344,276,134930,6,2,P|368:212|272:116,1,200,2|0,0:0|0:0,0:0:0:0:
152,164,135401,1,0,0:0:0:0:
228,76,135559,1,2,0:0:0:0:
228,76,135637,1,0,0:0:0:0:
228,76,135716,2,0,P|271:48|322:47,1,100,2|0,0:0|0:0,0:0:0:0:
256,216,136030,1,2,0:0:0:0:
74,228,136187,6,0,P|103:174|195:161,1,150,2|0,0:0|0:0,0:0:0:0:
256,216,136501,2,0,P|334:219|380:153,1,150,2|0,0:0|0:0,0:0:0:0:
367,73,136815,2,2,P|276:29|205:91,1,200
160,239,137286,1,2,0:0:0:0:
413,332,137600,22,0,L|493:169,1,150,6|0,0:0|0:0,0:0:0:0:
393,211,137915,1,2,0:0:0:0:
228,273,138072,2,0,L|258:116,1,150,6|0,0:0|0:0,0:0:0:0:
176,160,138386,1,2,0:0:0:0:
75,247,138543,1,0,0:0:0:0:
164,76,138700,2,0,P|239:24|348:73,1,200,6|2,0:0|0:0,0:0:0:0:
392,211,139171,1,2,0:0:0:0:
97,45,139485,5,0,0:0:0:0:
28,148,139642,1,0,0:0:0:0:
18,171,139721,1,0,0:0:0:0:
16,195,139799,1,0,0:0:0:0:
23,219,139878,1,0,0:0:0:0:
35,240,139956,1,0,0:0:0:0:
54,256,140035,1,0,0:0:0:0:
77,265,140114,2,2,P|171:243|208:246,1,100,6|0,0:0|0:0,0:0:0:0:
316,204,140428,5,0,0:0:0:0:
323,229,140506,1,0,0:0:0:0:
330,254,140585,1,2,0:0:0:0:
234,181,140742,5,0,0:0:0:0:
241,206,140820,1,0,0:0:0:0:
248,231,140899,1,2,0:0:0:0:
292,119,141056,21,0,0:0:0:0:
299,144,141134,1,0,0:0:0:0:
306,169,141213,1,2,0:0:0:0:
404,236,141370,5,0,0:0:0:0:
411,261,141449,1,0,0:0:0:0:
418,286,141527,1,2,0:0:0:0:
463,175,141684,5,0,0:0:0:0:
470,200,141763,1,0,0:0:0:0:
477,225,141841,1,2,0:0:0:0:
380,154,141998,5,0,0:0:0:0:
387,179,142077,1,0,0:0:0:0:
394,204,142155,1,2,0:0:0:0:
458,31,142312,21,2,0:0:0:0:
467,66,142391,1,0,0:0:0:0:
477,100,142470,1,2,0:0:0:0:
485,135,142548,1,0,0:0:0:0:
496,168,142627,54,0,L|393:121,1,100,6|2,0:0|0:0,0:0:0:0:
395,137,142862,1,0,0:0:0:0:
388,150,142941,2,0,L|336:210,1,50,2|0,0:0|0:0,0:0:0:0:
354,336,143098,2,0,L|314:284,1,50,2|0,0:0|0:0,0:0:0:0:
302,125,143255,2,0,L|250:185,1,50,2|0,0:0|0:0,0:0:0:0:
276,353,143412,2,0,L|236:301,1,50,2|0,0:0|0:0,0:0:0:0:
218,99,143569,2,0,L|166:159,1,50,2|0,0:0|0:0,0:0:0:0:
215,240,143726,22,0,P|218:312|279:353,1,150,2|0,0:0|0:0,0:0:0:0:
399,253,144040,2,0,P|396:181|336:141,1,150,2|0,0:0|0:0,0:0:0:0:
280,248,144354,2,0,P|196:248|144:180,1,150,2|0,0:0|0:0,0:0:0:0:
40,117,144668,2,0,P|16:187|108:300,1,200,2|2,0:0|0:0,0:0:0:0:
117,308,145061,1,0,0:0:0:0:
162,303,145140,2,0,P|238:287|376:329,1,200,2|0,0:0|0:0,0:0:0:0:
459,326,145611,2,0,P|481:262|467:206,1,100,2|0,0:0|0:0,0:0:0:0:
430,55,145925,5,2,0:0:0:0:
346,210,146082,1,0,0:0:0:0:
244,84,146239,2,0,P|161:60|30:104,1,200,2|0,0:0|0:0,0:0:0:0:
169,306,146710,2,0,L|228:206,1,100,2|0,0:0|0:0,0:0:0:0:
288,112,147024,1,2,0:0:0:0:
349,276,147182,5,0,0:0:0:0:
439,141,147339,1,2,0:0:0:0:
205,46,147496,2,0,P|179:119|251:210,1,200,2|0,0:0|0:0,0:0:0:0:
487,264,147967,2,0,P|402:308|320:249,1,200,2|2,0:0|0:0,0:0:0:0:
293,111,148438,1,0,0:0:0:0:
399,123,148595,2,0,L|422:87,7,25,2|0|0|0|0|0|0|0,0:0|0:0|0:0|0:0|0:0|0:0|0:0|0:0,0:0:0:0:
439,132,148909,21,0,0:0:0:0:
469,158,148988,1,0,0:0:0:0:
482,196,149066,1,0,0:0:0:0:
483,237,149145,1,0,0:0:0:0:
475,271,149223,5,0,0:0:0:0:
452,297,149302,1,0,0:0:0:0:
419,313,149381,1,0,0:0:0:0:
383,317,149459,1,0,0:0:0:0:
353,312,149538,5,0,0:0:0:0:
328,293,149616,1,0,0:0:0:0:
314,267,149695,1,0,0:0:0:0:
316,238,149773,1,0,0:0:0:0:
334,215,149852,22,0,P|329:138|164:212,1,300.000011444092
354,312,150480,5,4,0:0:0:0:
256,192,150559,12,2,152993,0:0:0:0:
