osu file format v9

[General]
AudioFilename: xi_halcyon_1_04.mp3
AudioLeadIn: 0
PreviewTime: 27630
Countdown: 0
SampleSet: Normal
StackLeniency: 0.7
Mode: 0
LetterboxInBreaks: 1

[Editor]
Bookmarks: 40195,48677,53703,58415,63755,68467,78535,88587,150850,152970
DistanceSpacing: 1.5
BeatDivisor: 4
GridSize: 8

[Metadata]
Title:Halcyon
Artist:xi
Creator:gowww
Version:Standard
Source:BMS
Tags:yama_ko bof2010 miccoliasms

[Difficulty]
HPDrainRate:3
CircleSize:3
OverallDifficulty:3
ApproachRate:3
SliderMultiplier:0.6
SliderTickRate:1

[Events]
//Background and Video events
Video,-267,"halcyon.avi"
0,0,"_halsfile.jpg"
//Break Periods
2,68682,77095
2,102609,108194
//Storyboard Layer 0 (Background)
//Storyboard Layer 1 (Fail)
//Storyboard Layer 2 (Pass)
//Storyboard Layer 3 (Foreground)
//Storyboard Sound Samples
//Background Colour Transformations
3,100,163,162,255

[TimingPoints]
27017,314.13612565445,4,1,0,80,1,0
28273,-100,4,1,0,80,0,1
38325,-100,4,1,0,80,0,0
48535,-100,4,1,0,70,0,0
78377,-100,4,2,0,70,0,0
88116,-100,4,1,0,70,0,0
110262,-100,4,1,0,80,0,1
120001,-100,4,1,0,80,0,0
130367,-100,4,1,0,80,0,1
143718,-100,4,1,0,80,0,0
151414,-100,4,1,0,60,0,0
152042,-100,4,1,0,40,0,0
152671,-100,4,1,0,20,0,0
152828,-100,4,1,0,0,0,0

[Colours]
Combo1 : 75,67,243
Combo2 : 110,110,110
Combo3 : 219,219,0

[HitObjects]
128,72,27645,2,0,B|88:72,3,30,4|0|0|0
72,72,28273,6,0,B|24:112|32:208,1,120,4|0
48,272,29215,1,8
120,328,29530,2,0,B|168:352|248:336,1,120
328,312,30472,1,8
328,312,30629,1,0
328,312,30786,6,0,B|464:312,1,120
464,224,31729,1,8
464,136,32043,2,0,B|480:96|488:64,3,60,0|8|0|8
392,56,33299,6,0,B|304:32|184:48,1,180,0|8
120,40,34556,2,0,B|64:88|104:136|32:200,1,180,0|8
56,280,35812,2,0,B|136:256|240:296,1,180,0|8
312,336,37069,1,0
400,336,37383,1,0
448,264,37697,1,8
448,264,37854,1,0
448,264,38011,1,8
448,264,38168,1,0
448,264,38325,6,0,B|480:136,1,120,8|0
472,56,39268,1,8
384,56,39582,2,0,B|304:56,2,60,0|8|0
384,144,40524,2,0,B|384:184,2,30,8|0|0
296,144,41153,1,8
296,144,41467,1,0
208,144,41781,1,8
208,144,42095,6,0,B|176:120|128:112,1,60,0|8
88,56,42723,2,0,B|56:56|16:88,2,60,0|8|0
80,144,43666,1,8
72,232,43980,1,0
96,320,44294,2,0,B|48:328|24:352,2,60,8|0|8
160,256,45236,1,0
224,320,45551,2,0,B|256:304|272:272,3,60,8|0|8|0
232,192,46807,1,0
256,104,47121,6,0,B|256:56,6,30,8|0|8|0|8|0|4
80,64,48692,6,0,B|80:256,1,180,4|0
80,336,49948,1,8
168,304,50263,1,0
256,336,50577,1,0
344,304,50891,1,0
432,336,51205,6,0,B|432:144,1,180,8|0
432,64,52462,1,0
344,64,52776,1,8
344,64,52933,1,0
344,64,53090,1,8
344,64,53247,1,0
344,64,53404,1,8
256,64,53718,6,0,B|192:64,2,60,0|0|0
256,152,54660,2,0,B|256:200,1,30,8|0
256,224,54975,2,0,B|224:256,1,30,8|0
192,248,55289,2,0,B|136:248,1,30,8|0
120,248,55603,2,0,B|96:224,1,30,8|0
72,192,55917,6,0,B|32:120,1,60,0|8
72,56,56545,1,0
160,56,56859,2,0,B|200:48,2,30,8|0|0
160,144,57488,1,8
248,144,57802,2,0,B|280:168,4,30,0|0|8|0|0
256,56,58744,6,0,B|336:16|448:48,1,180,4|0
408,128,60001,1,8
344,192,60315,1,0
408,256,60629,1,0
344,320,60943,1,0
256,344,61257,6,0,B|176:384|64:352,1,180,8|0
40,272,62514,1,0
40,184,62828,1,8
40,184,62985,1,0
40,184,63142,1,8
40,184,63299,1,0
40,184,63456,1,8
40,96,63770,6,0,B|72:64|160:32,1,120,0|0
232,40,64713,2,0,B|288:40,1,30,8|0
304,40,65027,2,0,B|352:64,1,30,8|0
368,80,65341,2,0,B|368:128,1,30,8|0
368,152,65655,2,0,B|400:176,1,30,8|0
432,192,65969,6,0,B|464:224|472:312,1,120
384,328,66912,1,0
296,336,67226,2,0,B|240:336,3,30,8|0|8|0
224,336,67854,2,0,B|184:336,4,30,8|0|8|0|12
136,56,78535,6,0,B|96:80|72:152|80:200|96:240,1,180,4|0
144,288,79791,1,2
224,328,80106,2,0,B|256:336|296:336,1,60
376,328,80734,2,0,B|440:304,2,60,0|2|0
320,256,81676,1,0
320,256,81990,1,0
264,184,82304,2,0,B|224:128,3,60,2|0|2|0
168,64,83561,6,0,B|112:96|88:168,1,120,4|0
80,248,84503,1,0
160,296,84818,2,0,B|216:328|288:320,1,120,4|2
360,280,85760,1,0
256,192,86074,12,4,87959
96,192,88587,6,0,B|96:128,2,60
96,280,89530,1,8
184,280,89844,2,0,B|224:304|248:328,3,60,0|0|0|8
320,320,91100,6,0,B|400:320,2,60
320,232,92043,1,8
376,160,92357,2,0,B|400:112|432:96,3,60,0|0|0|8
336,64,93613,6,0,B|248:24|152:64,1,180,0|8
88,120,94870,2,0,B|48:240,1,120
48,320,95812,1,8
136,320,96126,6,0,B|224:360|320:320,1,180,0|8
400,296,97383,2,0,B|464:176,1,120
328,64,98640,6,0,B|248:136|168:48|112:144,3,240,0|8|8|4
440,312,109634,6,0,B|400:304|416:280,1,30
440,312,109948,6,0,B|488:272|480:176,1,120,4|0
464,112,110891,1,8
392,56,111205,2,0,B|344:32|264:48,1,120
184,72,112147,1,8
184,72,112304,1,0
184,72,112462,6,0,B|48:72,1,120
48,160,113404,1,8
48,248,113718,2,0,B|32:288|24:320,3,60,0|8|0|8
120,328,114975,6,0,B|208:352|328:336,1,180,0|8
392,344,116231,2,0,B|448:296|408:248|480:184,1,180,0|8
456,104,117488,2,0,B|376:128|272:88,1,180,0|8
200,48,118744,1,0
112,48,119058,1,0
64,120,119373,1,8
64,120,119530,1,0
64,120,119687,1,8
64,120,119844,1,0
64,120,120001,6,0,B|32:248,1,120,8|0
40,328,120943,1,8
128,328,121257,2,0,B|208:328,2,60,0|8|0
128,240,122200,2,0,B|128:200,2,30,8|0|0
216,240,122828,1,8
216,240,123142,1,0
304,240,123456,1,8
304,240,123770,6,0,B|336:264|384:272,1,60,0|8
424,328,124399,2,0,B|456:328|496:296,2,60,0|8|0
432,240,125341,1,8
440,152,125655,1,0
416,64,125969,2,0,B|464:56|488:32,2,60,8|0|8
352,128,126912,1,0
288,64,127226,2,0,B|256:80|240:112,3,60,8|0|8|0
280,192,128482,1,0
256,280,128797,6,0,B|256:328,6,30,8|0|8|0|8|0|4
344,304,130053,1,0
432,320,130367,6,0,B|432:128,1,180,4|0
432,48,131624,1,8
344,80,131938,1,0
256,48,132252,1,8
256,48,132409,1,0
256,48,132566,6,0,B|112:48,1,120
80,120,133509,1,8
48,208,133823,1,0
72,296,134137,2,0,B|112:360|200:336,1,120,0|8
160,248,135079,6,0,B|136:184|184:176|160:120,1,120
164,131,135865,1,0
164,131,136022,1,8
164,131,136179,6,0,B|160:72|224:32|272:32,1,150
352,40,137278,2,0,B|440:40,2,60,8|0|0
352,128,138221,1,0
352,128,138535,1,8
408,200,138849,2,0,B|432:224|448:264,1,60
360,288,139477,1,8
360,288,139634,1,0
360,288,139791,1,8
360,288,139948,1,0
360,288,140106,6,0,B|320:288,3,30,8|0|8|0
288,280,140734,2,0,B|248:288,3,30,8|0|8|0
216,280,141362,2,0,B|160:264,3,30,8|0|8|0
144,280,141990,2,0,B|96:280,3,30,8|0|8|0
72,256,142619,6,0,B|48:224,1,30,8|0
48,184,142933,2,0,B|48:144,1,30,8|0
64,112,143247,2,0,B|88:80,1,30,8|0
112,56,143561,2,0,B|152:32,1,30,8|0
224,56,144032,5,0
288,120,144346,1,0
352,184,144660,1,0
424,240,144975,1,0
424,240,145132,6,0,B|440:272|424:320|368:344,1,120
288,336,146074,2,0,B|232:336,2,30,8|0|0
288,248,146702,1,0
224,192,147016,1,0
136,184,147331,2,0,B|80:184,2,30,8|0|0
136,96,147959,1,0
136,96,148273,1,0
136,96,148587,1,0
224,104,148901,6,0,B|272:104,1,30,8|0
296,104,149215,2,0,B|352:104,1,30,8|0
368,104,149530,2,0,B|400:104,1,30,8|0
440,104,149844,2,0,B|472:104,1,30,8|12
256,192,150472,12,0,152985
