osu file format v9

[General]
AudioFilename: xi_halcyon_1_04.mp3
AudioLeadIn: 0
PreviewTime: 27630
Countdown: 0
SampleSet: Normal
StackLeniency: 0.7
Mode: 0
LetterboxInBreaks: 1

[Editor]
Bookmarks: 40195,48677,53703,58415,68467,78520,88886,109933,150850,152985
DistanceSpacing: 1.1
BeatDivisor: 4
GridSize: 8

[Metadata]
Title:Halcyon
Artist:xi
Creator:gowww
Version:Hyper
Source:BMS
Tags:yama_ko bof2010 miccoliasms

[Difficulty]
HPDrainRate:4
CircleSize:4
OverallDifficulty:6
ApproachRate:7
SliderMultiplier:1.4
SliderTickRate:1

[Events]
//Background and Video events
Video,-267,"halcyon.avi"
0,0,"_halsfile.jpg"
//Break Periods
2,68682,77635
2,106379,108734
//Storyboard Layer 0 (Background)
//Storyboard Layer 1 (Fail)
//Storyboard Layer 2 (Pass)
//Storyboard Layer 3 (Foreground)
//Storyboard Sound Samples
//Background Colour Transformations
3,100,163,162,255

[TimingPoints]
27017,314.13612565445,4,1,0,80,1,0
28273,-100,4,1,0,80,0,1
38325,-100,4,1,0,80,0,0
48613,-100,4,1,0,70,0,0
78456,-200,4,2,0,70,0,0
88665,-100,4,1,0,70,0,0
109555,-100,4,1,0,90,0,0
109870,-100,4,1,0,80,0,0
110262,-100,4,1,0,80,0,1
119843,-100,4,1,0,80,0,0
130367,-100,4,1,0,80,0,1
143718,-100,4,1,0,90,0,1
143953,-100,4,1,0,80,0,0
151414,-100,4,1,0,60,0,0
152042,-100,4,1,0,40,0,0
152671,-100,4,1,0,20,0,0
152906,-100,4,1,0,0,0,0

[Colours]
Combo1 : 75,67,243
Combo2 : 110,110,110
Combo3 : 219,219,0

[HitObjects]
176,88,27645,2,0,B|136:56,4,35
248,56,28116,1,4
320,32,28273,6,0,B|384:40|424:80|440:120,1,140,0|8
440,184,28744,2,0,B|376:176|336:136|320:96,1,140
256,80,29215,1,8
176,88,29373,6,0,B|120:144,1,70
200,168,29687,2,0,B|256:224,1,70,0|8
176,248,30001,2,0,B|120:304,1,70
200,328,30315,1,0
272,344,30472,1,8
288,336,30551,1,0
304,328,30629,1,0
376,344,30786,6,0,B|464:344|488:240,1,140,0|8
480,192,31257,2,0,B|392:192|368:296,1,140
304,248,31729,1,8
224,248,31886,2,0,B|144:248,1,70
216,208,32200,2,0,B|128:208,1,70,0|8
208,168,32514,2,0,B|128:168,1,70
64,168,32828,1,0
64,168,32985,1,8
48,96,33142,6,0,B|128:16|248:32,1,210,0|8
239,31,33692,1,0
239,31,33770,1,0
320,32,33927,2,0,B|368:32,2,35
320,112,34242,2,0,B|320:160,2,35,8|0|0
240,112,34556,5,0
224,120,34634,1,0
208,128,34713,1,0
192,136,34791,1,0
176,144,34870,2,0,B|24:216,1,140,8|0
48,280,35341,5,0
104,336,35498,1,8
160,280,35655,1,0
216,336,35812,2,0,B|376:336,1,140,0|8
384,264,36284,2,0,B|232:264,1,140
216,192,36755,2,0,B|360:192,1,140,8|0
384,120,37226,2,0,B|240:120,1,140
176,88,37697,5,0
136,152,37854,1,0
128,168,37933,1,0
120,184,38011,1,8
112,200,38090,1,0
104,216,38168,1,0
112,296,38325,6,0,B|32:344,2,70,0|0|8
192,288,38797,2,0,B|192:360,2,70
272,296,39268,2,0,B|352:344,2,70,8|0|0
240,224,39739,1,0
184,168,39896,1,8
184,88,40053,1,0
240,32,40210,1,0
296,88,40367,1,0
296,168,40524,1,8
296,184,40603,1,0
296,200,40681,1,0
296,216,40760,1,0
296,232,40838,6,0,B|296:320,2,70,0|0|8
368,200,41310,2,0,B|464:200,2,70
296,168,41781,2,0,B|296:96,2,70,8|0|0
224,200,42252,5,0
224,280,42409,1,8
168,336,42566,1,0
88,336,42723,1,0
32,280,42880,1,0
32,200,43037,1,8
88,144,43195,1,0
168,144,43352,6,0,B|320:144,1,140,0|8
344,72,43823,2,0,B|192:72,1,140
128,72,44294,2,0,B|128:224,1,140,8|0
200,240,44765,2,0,B|200:96,1,140
272,72,45236,1,0
328,128,45393,1,0
272,192,45551,1,8
328,240,45708,2,0,B|376:336|448:224|488:376,2,210,0|0|0
272,192,46807,1,8
272,192,46964,1,0
216,240,47121,5,8
216,240,47200,1,0
216,240,47278,1,0
192,168,47435,5,8
192,152,47514,1,0
192,136,47592,1,0
192,120,47671,1,0
192,104,47749,1,8
192,88,47828,1,0
192,72,47907,1,0
120,48,48064,5,8
104,48,48142,1,0
88,48,48221,1,0
72,48,48299,1,0
56,48,48378,1,8
48,200,48692,6,0,B|48:280|136:304,1,140,4|0
192,264,49163,2,0,B|296:264,1,70,0|8
232,192,49477,2,0,B|232:120,1,70
160,152,49791,2,0,B|88:152,1,70
120,224,50106,2,0,B|120:312,1,70
192,264,50420,2,0,B|272:264,1,70,0|8
232,192,50734,1,0
232,192,50891,1,0
256,40,51205,6,0,B|344:40|368:128,1,140
296,152,51676,2,0,B|216:152,1,70,0|8
264,224,51990,2,0,B|264:312,1,70
336,256,52304,2,0,B|424:256,1,70
376,184,52619,2,0,B|376:104,1,70
376,114,52854,5,0
376,114,52933,1,0
320,64,53090,1,8
304,64,53168,1,0
288,64,53247,1,0
272,64,53325,1,0
256,64,53404,1,0
104,96,53718,6,0,B|48:136|40:232,1,140
41,216,54111,1,0
41,216,54189,1,0
40,296,54346,1,8
120,296,54503,1,0
200,296,54660,5,8
208,280,54739,1,0
216,264,54818,1,0
280,304,54975,2,0,B|304:256,2,35,8|0|0
360,312,55289,1,8
368,296,55367,1,0
376,280,55446,1,0
384,264,55524,1,0
392,248,55603,1,8
400,232,55681,1,0
408,216,55760,6,0,B|440:144,2,70,0|8|0
344,168,56231,1,8
264,168,56388,2,0,B|184:168,2,70,0|0|0
344,168,56859,1,8
352,88,57016,1,0
280,56,57174,6,0,B|192:56,1,70,8|0
192,56,57409,1,0
176,56,57488,1,0
160,56,57566,1,0
144,56,57645,2,0,B|64:112,1,70,0|8
88,112,57880,1,0
88,128,57959,1,0
88,144,58037,1,0
88,160,58116,1,0
88,176,58195,1,0
88,192,58273,2,0,B|80:272|120:336|208:336,1,210,0|4
352,344,59058,6,0,B|440:344,1,70
352,344,59373,2,0,B|264:344,1,70,8|0
352,344,59687,2,0,B|352:264,1,70
352,200,60001,2,0,B|272:200,1,70
352,200,60315,2,0,B|448:200,1,70
352,200,60629,2,0,B|352:120,1,70,8|0
352,56,60943,2,0,B|264:56,1,70
272,136,61257,6,0,B|272:208,1,70
272,136,61571,2,0,B|184:136,1,70
128,136,61886,2,0,B|32:136,1,70,8|0
56,216,62200,2,0,B|56:296,1,70
136,288,62514,1,0
216,288,62671,1,0
176,224,62828,5,8
176,224,62907,1,0
176,224,62985,1,0
176,224,63064,1,0
176,224,63142,1,8
176,224,63221,1,0
176,224,63299,1,0
176,224,63378,1,0
176,224,63456,1,8
288,328,63770,6,0,B|432:328,2,140,0|0|8
208,320,64556,1,0
192,248,64713,2,0,B|152:208,3,35,8|0|0|0
136,200,65027,2,0,B|120:160,3,35,8|0|0|0
136,128,65341,2,0,B|152:96,3,35,8|0|0|0
184,72,65655,2,0,B|224:56,2,35,8|0|0
216,144,65969,5,0
216,144,66126,1,0
296,144,66284,1,8
296,144,66441,1,0
376,144,66598,2,0,B|448:144,2,70,0|0|8
376,224,67069,1,0
376,304,67226,5,8
376,304,67304,1,0
376,304,67383,1,0
296,304,67540,1,8
296,304,67619,1,0
296,304,67697,1,0
216,304,67854,5,8
216,304,67933,1,0
216,304,68011,1,0
136,304,68168,1,8
136,304,68247,1,0
136,304,68325,1,0
136,304,68404,1,0
136,304,68482,1,0
112,304,78535,6,0,B|192:304,2,70,4|0|0
112,224,79477,1,2
48,176,79791,1,0
48,96,80106,1,0
112,48,80420,1,0
176,96,80734,1,2
176,176,81048,6,0,B|240:224,1,70
232,296,81676,1,0
296,344,81990,1,2
360,296,82304,2,0,B|424:248,1,70
464,192,82933,2,0,B|464:112,1,70,0|2
424,56,83561,6,0,B|280:56,1,140
248,56,84346,2,0,B|208:56,2,35,0|2|0
248,96,84818,2,0,B|248:240,1,140
248,272,85603,2,0,B|248:312,2,35,0|2|0
208,272,86074,2,0,B|136:272,1,70
96,272,86545,1,0
56,272,86702,6,0,B|56:224,1,35
56,200,87016,2,0,B|56:152,1,35,2|0
56,128,87331,1,4
256,192,87645,12,4,88587
256,192,88901,5,0
256,192,89215,1,0
256,192,89530,1,0
112,64,89844,5,0
48,112,90001,1,0
48,192,90158,1,8
112,232,90315,1,0
192,232,90472,1,0
256,192,90629,1,0
256,112,90786,1,8
192,64,90943,1,0
192,64,91100,5,0
192,64,91414,1,0
192,64,91729,1,0
192,64,92043,1,0
336,192,92357,5,0
400,144,92514,1,0
400,64,92671,1,8
336,24,92828,1,0
256,24,92985,1,0
192,64,93142,1,0
192,144,93299,1,8
256,192,93456,1,0
336,192,93613,6,0,B|480:192,1,140
256,192,94242,2,0,B|256:344,1,140,0|8
176,192,94870,2,0,B|32:192,1,140
256,192,95498,2,0,B|256:40,1,140,0|8
104,80,96126,5,0
104,304,96441,1,0
408,304,96755,1,0
408,80,97069,1,8
200,144,97383,5,0
200,240,97697,1,0
304,240,98011,1,0
304,144,98325,1,8
256,192,98640,12,8,99582
256,192,99896,12,8,100838
256,192,101153,12,4,106179
232,64,109634,6,0,B|192:80|160:120,1,70,4|0
232,64,109948,6,0,B|176:112|176:192,1,140,0|8
176,264,110420,1,0
232,320,110577,1,0
312,320,110734,1,0
392,320,110891,1,8
448,264,111048,6,0,B|448:160,1,70
368,192,111362,2,0,B|368:96,1,70,0|8
288,120,111676,2,0,B|288:48,1,70
208,48,111990,2,0,B|128:48,1,70,0|8
120,48,112226,1,0
104,48,112304,1,0
88,48,112383,1,0
72,48,112462,6,0,B|16:104|32:192,1,140,0|8
104,176,112933,2,0,B|176:176,1,70
176,256,113247,2,0,B|176:336,1,70,0|8
256,328,113561,2,0,B|336:328,1,70
320,248,113875,2,0,B|320:160,1,70,0|8
320,104,114189,2,0,B|416:104,1,70
464,104,114503,1,0
464,184,114660,1,8
464,184,114739,1,0
464,184,114818,6,0,B|464:264,2,70
464,104,115289,1,8
408,48,115446,1,0
392,48,115524,1,0
376,48,115603,1,0
296,48,115760,2,0,B|224:48,1,70,0|8
208,48,115996,1,0
192,48,116074,1,0
176,48,116153,1,0
160,48,116231,6,0,B|72:48,2,70,0|0|8
160,128,116702,1,0
160,208,116859,2,0,B|96:264,2,70,0|0|8
240,208,117331,1,0
240,208,117488,2,0,B|240:280,1,70
240,208,117802,2,0,B|320:208,1,70,8|0
240,208,118116,2,0,B|240:128,1,70
240,208,118430,2,0,B|160:208,2,70,8|0|0
320,208,118901,1,0
376,264,119058,1,8
432,208,119215,1,0
376,152,119373,5,8
360,136,119451,1,0
344,120,119530,1,0
328,104,119608,1,0
312,88,119687,1,8
296,72,119765,1,0
280,56,119844,1,0
200,40,120001,6,0,B|56:40,1,140,0|8
32,112,120472,2,0,B|32:264,1,140
112,256,120943,1,8
152,320,121100,1,0
200,256,121257,1,0
248,320,121414,1,0
200,256,121571,1,8
152,320,121729,1,0
200,256,121886,1,0
248,192,122043,2,0,B|320:192,1,70,0|8
336,192,122278,5,0
352,192,122357,1,0
368,192,122435,1,0
384,192,122514,2,0,B|480:192,2,70,0|0|8
408,120,122985,1,0
376,48,123142,1,0
320,104,123299,1,0
272,48,123456,1,8
272,48,123613,6,0,B|176:48,1,70
136,88,123927,2,0,B|240:88,1,70,0|8
272,128,124242,2,0,B|184:128,1,70
136,168,124556,2,0,B|224:168,1,70,0|8
272,208,124870,1,0
288,208,124948,1,0
304,208,125027,2,0,B|384:200|448:264,2,140,0|8|0
312,288,125812,5,0
232,288,125969,1,8
152,288,126126,2,0,B|72:280|64:184,2,140
152,208,126912,5,8
120,136,127069,1,0
120,56,127226,1,8
200,56,127383,2,0,B|416:56,1,210,0|8
416,136,128011,2,0,B|416:224,1,70
344,176,128325,2,0,B|344:264,1,70,0|8
272,224,128640,1,0
208,272,128797,5,8
208,272,128875,1,0
208,272,128954,1,0
208,192,129111,5,8
208,176,129189,1,0
208,160,129268,1,0
208,144,129346,1,0
208,128,129425,1,8
208,112,129503,1,0
208,96,129582,1,0
144,48,129739,5,8
128,48,129818,1,0
112,48,129896,1,0
96,48,129975,1,0
80,48,130053,2,0,B|0:88|40:192,1,140,8|8
104,144,130524,6,0,B|168:208|96:280,1,140
56,208,130996,1,8
107,268,131153,2,0,B|136:312|184:312,1,70
240,312,131467,1,0
320,312,131624,1,8
376,256,131781,1,0
376,176,131938,1,0
312,128,132095,1,0
232,128,132252,5,8
216,128,132331,1,0
200,128,132409,1,0
120,128,132566,2,0,B|32:128,2,70,0|0|8
96,200,133037,1,0
136,264,133195,1,0
184,200,133352,1,0
224,264,133509,1,8
272,200,133666,6,0,B|336:120,1,70
392,152,133980,2,0,B|464:152,1,70,0|8
464,232,134294,2,0,B|464:304,1,70
384,304,134608,2,0,B|328:352,1,70,0|8
256,344,134922,6,0,B|40:344,1,210,0|8
48,264,135551,1,0
48,264,135629,1,0
48,264,135708,1,0
48,184,135865,2,0,B|48:136,2,35,0|0|8
128,176,136179,5,0
208,176,136336,1,8
288,176,136493,1,0
368,176,136650,1,8
448,176,136807,1,0
368,176,136964,1,8
288,176,137121,1,0
208,176,137278,1,8
128,176,137435,1,0
48,176,137592,6,0,B|48:80|96:40,1,140,0|8
144,96,138064,1,0
224,96,138221,1,0
184,32,138378,1,0
144,96,138535,1,8
184,160,138692,1,0
224,224,138849,1,0
304,224,139006,1,0
344,160,139163,1,8
264,160,139320,1,0
304,224,139477,5,8
312,240,139556,1,0
320,256,139634,1,0
328,272,139713,1,0
336,288,139791,1,8
344,304,139870,1,0
352,320,139948,1,0
432,320,140106,6,0,B|424:152,1,140,0|8
424,104,140577,2,0,B|376:56,3,35,0|0|8|0
360,72,140891,2,0,B|312:72,3,35,0|0|8|0
288,72,141205,2,0,B|248:40,3,35,0|0|8|0
224,48,141519,2,0,B|176:48,3,35,0|0|8|0
160,72,141833,2,0,B|112:72,3,35,0|0|8|0
88,72,142147,2,0,B|48:104|24:144,1,70,0|8
40,136,142383,1,0
40,152,142462,1,0
40,168,142540,1,0
40,184,142619,6,0,B|48:248,3,35,8|0|0|0
72,248,142933,2,0,B|104:272,3,35,8|0|0|0
136,272,143247,2,0,B|184:272,3,35,8|0|0|0
208,272,143561,2,0,B|264:304,2,35,8|0|0
352,224,144032,5,0
256,104,144346,1,0
104,88,144660,1,0
88,240,144975,2,0,B|56:208,1,35
32,184,145132,6,0,B|144:56|360:96,1,350
360,168,146074,1,8
280,168,146231,2,0,B|272:232|232:312|128:336,2,210
248,96,147331,1,8
168,104,147488,2,0,B|88:128|64:192,2,140
200,176,148273,1,8
200,176,148430,1,0
208,256,148587,1,8
208,256,148744,1,0
288,256,148901,21,8
304,256,148980,1,0
320,256,149058,1,0
400,256,149215,1,8
408,240,149294,1,0
416,224,149373,1,0
424,208,149451,1,0
432,192,149530,1,8
440,176,149608,1,0
448,160,149687,1,0
456,144,149765,1,0
464,128,149844,1,8
472,112,149922,1,0
480,96,150001,1,12
256,192,150472,12,0,152985
