osu file format v9

[General]
AudioFilename: xi_halcyon_1_04.mp3
AudioLeadIn: 0
PreviewTime: 27630
Countdown: 0
SampleSet: Normal
StackLeniency: 0.7
Mode: 0
LetterboxInBreaks: 1

[Editor]
Bookmarks: 40195,48692,53718,58744,63755,68482,78520,88587,109948,150850,152970
DistanceSpacing: 1
BeatDivisor: 4
GridSize: 8

[Metadata]
Title:Halcyon
Artist:xi
Creator:gowww
Version:Beginner
Source:BMS
Tags:yama_ko bof2010 miccoliasms

[Difficulty]
HPDrainRate:1
CircleSize:3
OverallDifficulty:1
ApproachRate:1
SliderMultiplier:0.400000005960464
SliderTickRate:0.5

[Events]
//Background and Video events
Video,-267,"halcyon.avi"
0,0,"_halsfile.jpg"
//Break Periods
2,68682,76855
2,102609,107954
//Storyboard Layer 0 (Background)
//Storyboard Layer 1 (Fail)
//Storyboard Layer 2 (Pass)
//Storyboard Layer 3 (Foreground)
//Storyboard Sound Samples
//Background Colour Transformations
3,100,163,162,255

[TimingPoints]
27017,314.13612565445,4,1,0,80,1,0
28273,-100,4,1,0,80,0,1
38325,-100,4,1,0,80,0,0
48692,-100,4,1,0,70,0,0
78377,-100,4,2,0,70,0,0
88116,-100,4,1,0,70,0,0
110262,-100,4,1,0,80,0,1
120001,-100,4,1,0,80,0,0
130367,-100,4,1,0,80,0,1
143718,-100,4,1,0,80,0,0
151414,-100,4,1,0,60,0,0
152042,-100,4,1,0,40,0,0
152671,-100,4,1,0,20,0,0
152828,-100,4,1,0,0,0,0

[Colours]
Combo1 : 75,67,243
Combo2 : 110,110,110
Combo3 : 219,219,0

[HitObjects]
128,88,27645,2,0,B|88:88,2,40.0000005960464,4|0|0
192,40,28901,6,0,B|368:40,1,160.000002384186,8|8
392,40,30472,2,0,B|440:40,2,40.0000005960464
392,80,31414,1,8
392,120,31729,2,0,B|392:200,2,80.0000011920928
392,80,33299,1,0
312,80,33927,6,0,B|312:160,1,80.0000011920928,8|0
312,240,35184,2,0,B|224:240,1,80.0000011920928,8|0
232,160,36441,2,0,B|136:160,1,80.0000011920928,8|0
72,160,37697,2,0,B|72:208,2,40.0000005960464,8|0|0
152,160,38954,6,0,B|152:256,1,80.0000011920928,8|0
152,320,40210,1,8
192,320,40524,1,0
232,320,40838,2,0,B|232:224,1,80.0000011920928,0|8
232,160,42095,2,0,B|328:160,2,80.0000011920928,0|8|0
232,80,43980,6,0,B|192:80,2,40.0000005960464,8|0|0
312,80,45236,1,8
312,80,45551,2,0,B|488:80,1,160.000002384186
472,120,47121,2,0,B|472:176,3,40.0000005960464,8|0|0|0
392,168,48692,6,0,B|392:336,1,160.000002384186,4|0
392,328,50263,1,8
312,328,50891,2,0,B|136:328,1,160.000002384186,0|0
72,328,52776,2,0,B|16:328,2,40.0000005960464,8|0|0
80,248,54032,5,8
80,168,54660,2,0,B|24:168,2,40.0000005960464,0|0|8
120,168,55603,1,0
160,168,55917,2,0,B|160:80,1,80.0000011920928,0|8
160,48,56859,1,0
200,48,57174,2,0,B|288:48,2,80.0000011920928,0|8|0
200,88,58744,5,4
200,128,59058,2,0,B|368:128,1,160.000002384186,8|8
440,128,60943,2,0,B|440:216,1,80.0000011920928,0|8
440,288,62200,1,0
400,288,62514,1,0
360,288,62828,2,0,B|304:288,2,40.0000005960464,8|0|0
360,248,63770,6,0,B|360:152,1,80.0000011920928
360,128,64713,2,0,B|360:80,3,40.0000005960464,8|0|8|0
320,88,65969,2,0,B|272:88,1,40.0000005960464,8|0
240,88,66598,2,0,B|192:88,1,40.0000005960464,8|0
160,88,67226,2,0,B|104:88,3,40.0000005960464,8|0|8|0
160,88,68482,1,4
56,224,78535,5,4
56,264,78849,2,0,B|224:264,1,160.000002384186
296,264,80734,1,0
336,264,81048,2,0,B|432:264,3,80.0000011920928,0|2|0|2
416,184,83561,6,0,B|416:104,1,80.0000011920928,0|2
360,48,84818,2,0,B|272:48,1,80.0000011920928,0|2
240,48,85760,1,0
256,192,86074,12,4,87959
368,264,88587,6,0,B|312:264,1,40.0000005960464,0|0
288,264,89215,2,0,B|240:264,1,40.0000005960464,8|0
208,264,89844,2,0,B|152:264,3,40.0000005960464,0|0|8|0
128,264,91100,6,0,B|128:216,1,40.0000005960464
128,184,91729,2,0,B|184:184,1,40.0000005960464,8|0
208,184,92357,2,0,B|256:184,3,40.0000005960464,0|0|8|0
288,184,93613,6,0,B|344:184,1,40.0000005960464
368,184,94242,2,0,B|424:184,1,40.0000005960464,8|0
448,184,94870,2,0,B|448:128,3,40.0000005960464,0|0|8|0
448,104,96126,6,0,B|400:104,1,40.0000005960464
368,104,96755,2,0,B|320:104,1,40.0000005960464,8|0
288,104,97383,2,0,B|192:104,1,80.0000011920928,0|8
128,104,98640,6,0,B|128:272,3,160.000002384186,0|8|8|4
440,344,109634,6,0,B|392:344,1,40.0000005960464,4|4
320,344,110577,6,0,B|144:344,1,160.000002384186,8|8
120,344,112147,2,0,B|72:344,2,40.0000005960464
120,304,113090,1,8
120,264,113404,2,0,B|120:184,2,80.0000011920928
120,304,114975,1,0
200,304,115603,6,0,B|200:224,1,80.0000011920928,8|0
200,144,116859,2,0,B|296:144,1,80.0000011920928,8|0
280,224,118116,2,0,B|368:224,1,80.0000011920928,8|0
440,224,119373,2,0,B|440:176,2,40.0000005960464,8|0|0
360,224,120629,6,0,B|360:128,1,80.0000011920928,8|0
360,64,121886,1,8
320,64,122200,1,0
280,64,122514,2,0,B|280:160,1,80.0000011920928,0|8
280,224,123770,2,0,B|184:224,2,80.0000011920928,0|8|0
360,224,125655,6,0,B|416:224,2,40.0000005960464,8|0|0
360,304,126912,1,8
360,304,127226,2,0,B|184:304,1,160.000002384186
160,304,128797,1,0
120,304,129111,1,0
80,304,129425,1,0
40,304,129739,1,0
40,264,130053,6,0,B|40:184,1,80.0000011920928,0|8
40,104,131310,2,0,B|136:104,1,80.0000011920928,0|8
200,104,132566,2,0,B|200:192,1,80.0000011920928,0|8
120,192,133823,2,0,B|120:272,1,80.0000011920928,0|8
120,352,135079,6,0,B|200:352,1,80.0000011920928,0|8
240,352,136022,1,0
280,352,136336,2,0,B|360:352,1,80.0000011920928,0|8
400,352,137278,1,0
440,352,137592,2,0,B|440:256,1,80.0000011920928,0|8
440,232,138535,1,0
440,192,138849,2,0,B|440:136,1,40.0000005960464,8|0
440,112,139477,2,0,B|440:64,2,40.0000005960464,8|0|0
400,112,140420,6,0,B|352:112,3,40.0000005960464,0|8|0|8
320,112,141676,2,0,B|272:112,3,40.0000005960464,0|8|0|8
240,112,142933,2,0,B|192:112,2,40.0000005960464,0|8|0
256,192,143718,12,4,148273
256,192,148901,6,0,B|256:160,7,20.0000002980232,8|0|0|0|8|0|0|4
256,192,150472,12,0,152985
