osu file format v9

[General]
AudioFilename: xi_halcyon_1_04.mp3
AudioLeadIn: 0
PreviewTime: 27630
Countdown: 0
SampleSet: Normal
StackLeniency: 0.7
Mode: 0
LetterboxInBreaks: 1

[Editor]
Bookmarks: 40195,48677,53703,63755,68467,78520,109933,150850,152970
DistanceSpacing: 1
BeatDivisor: 4
GridSize: 8

[Metadata]
Title:Halcyon
Artist:xi
Creator:gowww
Version:Another
Source:BMS
Tags:yama_ko bof2010 miccoliasms

[Difficulty]
HPDrainRate:8
CircleSize:4
OverallDifficulty:8
ApproachRate:8
SliderMultiplier:1.8
SliderTickRate:1

[Events]
//Background and Video events
Video,-300,"halcyon.avi"
0,0,"_halsfile.jpg"
//Break Periods
2,68682,77785
//Storyboard Layer 0 (Background)
//Storyboard Layer 1 (Fail)
//Storyboard Layer 2 (Pass)
//Storyboard Layer 3 (Foreground)
//Storyboard Sound Samples
//Background Colour Transformations
3,100,163,162,255

[TimingPoints]
27017,314.13612565445,4,1,0,80,1,0
28273,-100,4,1,0,80,0,1
38325,-100,4,1,0,80,0,0
48613,-100,4,1,0,70,0,0
78456,-200,4,2,0,60,0,0
88665,-100,4,1,0,70,0,0
93849,-100,4,1,0,65,0,0
98561,-100,4,1,0,80,0,0
102330,-100,4,1,0,70,0,0
102959,-100,4,1,0,60,0,0
103587,-100,4,1,0,65,0,0
103901,-100,4,1,0,70,0,0
104215,-100,4,1,0,80,0,0
104529,-100,4,1,0,90,0,0
104843,-100,4,1,0,85,0,0
105472,-100,4,1,0,65,0,0
105629,-100,4,1,0,70,0,0
105786,-100,4,1,0,75,0,0
105943,-100,4,1,0,80,0,0
106100,-100,4,1,0,90,0,0
106336,-100,4,1,0,80,0,0
106493,-100,4,1,0,70,0,0
106650,-100,4,1,0,60,0,0
106807,-100,4,1,0,50,0,0
106964,-100,4,1,0,40,0,0
107121,-100,4,1,0,30,0,0
107357,-100,4,1,0,70,0,0
107749,-100,4,1,0,60,0,0
108063,-100,4,1,0,50,0,0
108377,-100,4,1,0,40,0,0
108692,-100,4,1,0,30,0,0
109006,-100,4,1,0,20,0,0
109241,-100,4,2,0,50,0,0
109398,-100,4,1,0,90,0,0
109634,-50,4,1,0,90,0,0
109791,-100,4,1,0,90,0,0
109870,-100,4,1,0,80,0,0
110262,-100,4,1,0,80,0,1
120001,-100,4,1,0,80,0,0
130367,-100,4,1,0,80,0,1
140105,-100,4,1,0,90,0,1
143639,-100,4,1,0,80,0,1
143718,-100,4,1,0,80,0,0
151414,-100,4,1,0,60,0,0
152042,-100,4,1,0,40,0,0
152671,-100,4,1,0,20,0,0
152906,-100,4,1,0,0,0,0

[Colours]
Combo1 : 75,67,243
Combo2 : 110,110,110
Combo3 : 219,219,0

[HitObjects]
256,72,27645,5,0
216,88,27723,1,0
176,112,27802,1,0
144,144,27880,1,0
120,184,27959,1,0
88,272,28116,1,4
152,336,28273,6,0,B|216:352|256:344,1,90,0|8
208,264,28587,1,0
248,184,28744,2,0,B|296:208|304:264,1,90
320,136,29058,1,0
320,136,29215,1,8
320,136,29373,1,0
408,136,29530,2,0,B|448:112|456:64,2,90,0|0|8
368,56,30001,1,0
280,64,30158,2,0,B|216:32|192:96|72:56,1,180,0|8
72,96,30551,5,0
48,136,30629,1,0
48,184,30708,1,0
64,224,30786,2,0,B|96:264|144:288,1,90
168,200,31100,1,8
256,184,31257,2,0,B|248:128|192:112,2,90
256,232,31650,1,0
256,280,31729,2,0,B|264:336|320:352,1,90,8|0
344,264,32043,2,0,B|400:256|416:208,1,90
168,200,32357,2,0,B|112:208|96:256,2,90,8|0|0
256,184,32828,1,0
344,80,32985,1,8
216,104,33142,5,0
232,144,33221,1,0
256,184,33299,2,0,B|240:232|336:200|368:320,1,180,0|8
288,352,33770,1,0
240,352,33849,1,0
192,352,33927,1,0
104,328,34085,1,0
64,304,34163,1,0
30,280,34242,1,0
120,280,34399,6,0,B|16:280,1,90
232,240,34713,2,0,B|136:240,1,90,0|8
128,152,35027,2,0,B|24:152,1,90
240,112,35341,2,0,B|144:112,1,90,0|8
352,72,35655,2,0,B|256:72,1,90
464,112,35969,2,0,B|368:112,2,90,0|8|0
432,200,36441,5,0
384,280,36598,1,0
472,280,36755,1,8
432,200,36912,1,0
344,200,37069,1,0
296,280,37226,2,0,B|248:312|208:312,1,90,0|8
96,240,37540,2,0,B|144:208|184:208,1,90
264,176,37854,5,0
296,144,37933,1,0
328,112,38011,1,0
360,80,38090,1,0
392,48,38168,1,4
392,136,38325,5,0
264,88,38482,1,0
344,200,38640,1,8
264,88,38797,1,0
176,112,38954,1,0
200,248,39111,1,0
240,168,39268,5,8
120,224,39425,1,0
120,312,39582,1,0
208,328,39739,1,0
288,296,39896,2,0,B|336:288|384:272,1,90,8|0
224,88,40210,2,0,B|176:96|128:112,1,90
56,152,40524,5,8
40,192,40603,1,0
56,232,40681,1,0
136,192,40838,2,0,B|232:192,1,90
226,192,41074,1,0
224,192,41153,1,8
304,144,41310,2,0,B|336:184|304:248,1,90
328,144,41624,2,0,B|360:184|328:248,1,90,0|8
360,144,41938,6,0,B|392:184|360:248,1,90
152,240,42252,2,0,B|120:200|152:136,1,90,0|8
240,56,42566,1,0
224,192,42723,1,0
176,120,42880,1,0
240,56,43037,1,8
288,136,43195,5,0
288,136,43273,1,0
288,136,43352,2,0,B|392:152|320:232|432:240,2,180,0|8|0
240,56,44137,1,0
112,104,44294,1,0
96,240,44451,1,0
216,304,44608,2,0,B|288:336|376:328|408:320,2,180,0|8|0
208,168,45393,5,0
296,64,45551,1,0
392,160,45708,2,0,B|440:232|344:344|240:344,1,270,0|8
252,343,46336,1,0
248,256,46493,5,0
168,304,46650,1,0
80,288,46807,2,0,B|32:288,2,45,8|0|0
64,200,47121,5,8
72,152,47200,1,0
80,104,47278,1,0
136,32,47435,5,8
184,40,47514,1,0
224,56,47592,1,0
264,80,47671,1,0
304,104,47749,1,8
344,128,47828,1,0
376,152,47907,1,0
416,232,48064,5,8
392,272,48142,1,0
352,296,48221,1,0
312,304,48299,1,0
264,304,48378,1,8
72,48,48692,6,0,B|104:96|40:128|72:232,1,180,4|0
152,280,49163,1,0
152,192,49320,1,8
152,280,49477,2,0,B|152:376,1,90
240,280,49791,2,0,B|320:344,1,90
240,192,50106,2,0,B|344:192,1,90
240,104,50420,2,0,B|328:16,1,90,0|8
152,104,50734,2,0,B|152:0,1,90
424,32,51205,5,8
408,208,51519,1,0
408,208,51676,1,0
352,280,51833,1,8
280,336,51990,1,0
192,336,52147,2,0,B|80:336,2,90,0|0|8
192,248,52619,1,0
192,160,52776,5,8
192,160,52854,1,0
192,160,52933,1,0
272,208,53090,1,8
272,208,53168,1,0
272,208,53247,1,0
272,208,53325,1,0
272,208,53404,1,8
248,40,53718,6,0,B|56:40,1,180,8|8
56,88,54111,1,0
72,128,54189,1,0
56,168,54268,1,0
72,208,54346,1,8
56,248,54425,1,0
72,288,54503,1,0
160,304,54660,5,8
176,264,54739,1,0
192,224,54818,1,0
248,296,54975,5,8
264,256,55053,1,0
280,216,55132,1,0
344,280,55289,5,8
360,240,55367,1,0
376,200,55446,1,0
392,160,55524,1,0
408,120,55603,2,0,B|456:8,1,90,8|0
352,48,55917,5,0
264,48,56074,1,0
296,128,56231,1,8
208,128,56388,1,0
192,216,56545,2,0,B|168:304,1,90
192,216,56859,2,0,B|104:264,2,90,8|0|0
192,216,57252,1,0
192,216,57331,1,0
232,136,57488,6,0,B|272:168|288:216,1,90,0|0
240,288,57802,2,0,B|184:312|120:272,1,90
112,264,58037,1,0
80,240,58116,1,8
56,200,58195,1,0
40,160,58273,2,0,B|16:112|24:72,2,90
104,96,58744,6,0,B|144:56|232:32|280:32,1,180,4|0
288,120,59215,1,0
368,80,59373,2,0,B|472:80,2,90,8|0|0
288,120,59844,1,0
208,160,60001,2,0,B|128:208,1,90
216,184,60315,2,0,B|136:232,1,90
224,208,60629,2,0,B|144:256,1,90,8|0
232,232,60943,2,0,B|152:280,1,90
240,256,61257,6,0,B|248:304|280:336,1,90
328,264,61571,2,0,B|376:280|416:256,2,90,0|0|8
368,184,62043,1,0
288,144,62200,1,0
288,144,62278,1,0
288,144,62357,1,0
208,96,62514,2,0,B|152:96,2,45
136,40,62828,5,8
104,72,62907,1,0
80,112,62985,1,0
64,152,63064,1,0
56,200,63142,1,8
64,240,63221,1,0
80,280,63299,1,0
104,320,63378,1,0
144,344,63456,1,4
256,56,63770,6,0,B|440:56,1,180,8|8
456,88,64163,1,0
440,128,64242,1,0
456,168,64320,1,0
440,208,64399,1,8
456,248,64477,1,0
440,288,64556,1,0
352,312,64713,6,0,B|288:296,3,45,8|0|0|0
264,296,65027,2,0,B|208:296,3,45,8|0|0|0
176,296,65341,2,0,B|104:264,3,45,8|0|0|0
104,248,65655,1,8
88,208,65734,1,0
80,168,65812,1,0
80,120,65891,1,0
88,72,65969,5,8
176,56,66126,1,0
168,144,66284,1,8
256,120,66441,1,0
264,208,66598,1,0
352,200,66755,1,0
312,280,66912,6,0,B|360:328,3,45,8|0|0|0
384,328,67226,2,0,B|448:312,3,45,8|0|0|0
448,272,67540,5,8
456,232,67619,1,0
456,184,67697,1,0
440,144,67776,1,0
416,112,67854,2,0,B|376:56,3,45,8|0|0|0
344,64,68168,5,8
304,48,68247,1,0
256,48,68325,1,0
208,48,68404,1,0
168,64,68482,1,12
216,304,78535,6,0,B|120:304,1,90,4|2
48,136,79163,1,0
200,40,79477,1,2
216,216,79791,1,0
136,168,80106,5,2
128,96,80420,1,0
200,128,80734,1,2
296,304,81048,6,0,B|392:304,1,90,4|2
440,232,81676,2,0,B|344:232,1,90,0|2
296,160,82304,2,0,B|400:160,1,90,0|2
432,88,82933,2,0,B|328:88,1,90,0|2
256,56,83561,6,0,B|176:48|184:128|88:144,1,180,0|0
256,192,84503,5,2
256,328,84818,6,0,B|336:336|328:256|424:240,1,180,0|0
352,176,85760,6,0,B|352:136,3,22.5,2|0|0|0
352,128,86074,2,0,B|352:32,1,90,0|2
264,40,86702,6,0,B|264:144,1,90,0|2
264,152,87095,2,0,B|264:208,1,45
264,216,87331,1,4
256,192,87645,12,4,88587
256,192,88901,5,0
256,192,89215,1,0
256,192,89530,1,8
120,120,89844,5,0
32,120,90001,1,0
120,208,90158,1,0
208,120,90315,1,0
120,32,90472,1,0
120,336,90786,1,8
120,32,91100,1,0
256,192,91414,5,0
256,192,91729,1,0
256,192,92043,1,8
392,264,92357,5,0
480,264,92514,1,0
392,176,92671,1,0
304,264,92828,1,0
392,352,92985,1,0
392,40,93299,1,8
392,352,93613,1,0
256,56,93927,6,0,B|256:152,1,90
376,192,94242,2,0,B|272:192,1,90
256,328,94556,2,0,B|256:224,1,90,8|0
136,192,94870,2,0,B|232:192,1,90
440,56,95184,6,0,B|352:104,1,90
72,56,95498,2,0,B|160:104,1,90
72,328,95812,2,0,B|160:280,1,90,8|0
440,328,96126,2,0,B|352:280,1,90
256,352,96441,5,0
32,192,96755,1,0
256,32,97069,1,8
480,192,97383,1,0
256,192,97697,5,0
256,192,98011,1,0
256,192,98325,1,4
48,56,98640,6,0,B|48:160,1,90
128,104,98954,2,0,B|208:168,1,90,8|0
224,72,99268,2,0,B|328:72,1,90
464,328,99582,6,0,B|464:224,1,90,8|0
384,280,99896,2,0,B|304:216,1,90
288,312,100210,2,0,B|184:312,1,90,8|0
464,56,100524,6,0,B|464:160,1,90
384,104,100838,2,0,B|304:168,1,90,8|0
288,72,101153,2,0,B|184:72,1,90
48,328,101467,6,0,B|48:224,1,90,8|0
128,280,101781,2,0,B|208:216,1,90
224,312,102095,2,0,B|328:312,1,90,8|0
400,312,102409,6,0,B|480:312,2,45
368,184,102723,2,0,B|400:136,2,45,8|0|0
256,104,103037,2,0,B|256:48,2,45
144,184,103352,2,0,B|112:136,2,45,8|0|0
112,312,103666,6,0,B|32:312,2,45
80,80,103980,2,0,B|32:24,2,45,8|0|0
256,280,104294,2,0,B|256:336,2,45
432,80,104608,2,0,B|480:24,2,45,8|0|0
256,40,104922,6,0,B|184:104,1,90
256,40,105236,2,0,B|328:104,1,90
384,216,105551,5,0
328,336,105708,1,0
192,336,105865,1,0
128,216,106022,1,0
256,160,106179,5,8
256,160,106257,1,0
256,160,106336,1,0
256,160,106414,1,0
256,160,106493,1,0
256,160,106571,1,0
256,160,106650,1,0
256,160,106729,1,0
256,160,106807,1,0
256,160,106886,1,0
256,160,106964,1,0
256,160,107043,1,0
256,160,107121,1,4
256,192,107435,12,0,109320
256,72,109634,22,0,B|160:120|272:232|328:96,1,180,4|0
256,72,109948,6,0,B|200:72|120:112|96:144,1,180,0|8
80,280,110420,1,0
208,328,110577,1,0
296,224,110734,1,0
160,168,110891,1,8
88,224,111048,5,0
56,256,111126,1,0
24,288,111205,1,0
112,312,111362,2,0,B|160:352,2,45,0|0|8
176,248,111676,2,0,B|184:184|216:136,1,90
312,88,111990,2,0,B|304:152|272:200,1,90,0|8
264,208,112226,5,0
248,256,112304,1,0
264,296,112383,1,0
304,312,112462,2,0,B|368:304|456:208,1,180,0|8
424,128,112933,1,0
336,120,113090,2,0,B|336:56|416:40,2,90,0|0|8
248,128,113561,5,0
128,200,113718,1,0
264,208,113875,1,0
160,120,114032,1,8
192,248,114189,1,0
248,128,114346,5,0
176,16,114503,1,0
40,16,114660,1,8
104,136,114818,1,0
112,272,114975,6,0,B|16:272,1,90
224,320,115289,2,0,B|128:320,1,90,8|0
328,272,115603,2,0,B|232:272,1,90
432,320,115917,2,0,B|328:320,1,90,8|0
400,248,116231,2,0,B|400:144,1,90
472,248,116545,2,0,B|472:360,2,90,8|0|0
488,160,117016,1,0
384,72,117174,1,8
264,128,117331,1,0
384,72,117488,6,0,B|320:40|248:40|208:40,1,180,0|8
160,120,117959,1,0
72,120,118116,2,0,B|72:64|136:40,2,90,0|0|8
152,208,118587,2,0,B|96:208|72:144,2,90
152,208,118980,1,0
152,208,119058,1,8
152,296,119215,1,0
240,264,119373,1,0
320,216,119530,5,0
360,192,119608,1,0
400,168,119687,1,0
440,144,119765,1,0
480,120,119844,1,4
456,208,120001,5,0
344,128,120158,1,0
376,256,120315,1,8
264,184,120472,1,0
192,136,120629,1,0
144,208,120786,1,0
216,256,120943,1,8
264,184,121100,5,0
272,136,121179,1,0
280,88,121257,1,0
192,136,121414,1,0
144,128,121493,1,0
96,120,121571,1,8
144,208,121729,2,0,B|80:272,1,90
80,271,121964,1,0
80,271,122043,1,0
144,336,122200,5,8
184,352,122278,1,0
232,344,122357,1,0
312,312,122514,2,0,B|384:248,2,90,0|0|8
312,312,122907,1,0
312,312,122985,1,0
240,256,123142,2,0,B|240:200|304:176,1,90
208,240,123456,6,0,B|208:184|272:160,2,90,8|0|0
136,184,123927,1,0
48,176,124085,2,0,B|48:120|112:96,2,90,8|0|0
136,184,124556,1,0
184,104,124713,1,8
256,48,124870,5,0
256,48,124948,1,0
256,48,125027,2,0,B|352:72|296:184|416:160,2,180,0|8|0
128,104,125812,1,0
96,232,125969,1,0
192,320,126126,2,0,B|240:336|376:312,2,180,0|0|0
200,184,126912,1,8
288,80,127069,1,0
392,168,127226,1,0
296,264,127383,2,0,B|296:168|192:80|120:72,1,270,0|8
129,73,128011,1,0
40,64,128168,5,0
72,144,128325,1,0
64,232,128482,2,0,B|16:232,2,45,8|0|0
120,304,128797,5,8
160,320,128875,1,0
200,328,128954,1,0
288,328,129111,5,8
328,304,129189,1,0
352,264,129268,1,0
360,224,129346,1,0
368,176,129425,1,8
368,128,129503,1,0
360,88,129582,1,0
280,48,129739,5,8
256,88,129818,1,0
240,128,129896,1,0
232,168,129975,1,0
224,216,130053,1,12
120,304,130210,1,0
48,192,130367,5,8
48,104,130524,2,0,B|88:56|144:112|216:32,1,180
256,40,130917,1,0
296,56,130996,2,0,B|352:80|384:136,1,90,8|0
360,152,131231,1,0
376,192,131310,2,0,B|408:240|384:320|352:328|304:360,1,180,0|8
192,328,131781,5,0
80,256,131938,1,0
144,136,132095,1,0
280,128,132252,1,8
304,168,132331,1,0
320,208,132409,1,0
320,256,132488,1,0
312,304,132566,1,0
256,232,132723,5,0
256,232,132880,1,8
376,160,133037,1,0
376,160,133195,1,0
320,40,133352,2,0,B|264:24|200:32,1,90,0|8
96,56,133666,5,0
224,104,133823,1,0
88,128,133980,1,0
216,176,134137,1,8
136,224,134294,1,0
136,312,134451,1,0
216,344,134608,1,0
296,312,134765,1,8
296,224,134922,6,0,B|296:144|400:160|400:80,2,180
256,248,135629,1,0
216,240,135708,1,8
184,208,135786,1,0
176,160,135865,1,0
128,80,136022,1,8
88,96,136100,1,0
56,128,136179,1,0
32,216,136336,5,0
80,344,136493,1,8
120,216,136650,1,0
168,344,136807,1,0
208,216,136964,1,8
256,344,137121,1,0
296,216,137278,1,8
344,88,137435,1,8
384,216,137592,6,0,B|424:176|472:176,2,90,0|0|8
448,280,138064,1,0
360,304,138221,2,0,B|304:288|304:224,1,90
272,104,138535,1,8
144,48,138692,1,0
64,168,138849,5,8
64,168,138927,1,0
64,168,139006,1,0
64,168,139085,1,0
64,168,139163,1,8
64,168,139242,1,0
64,168,139320,1,4
64,80,139477,5,8
104,104,139556,1,0
144,128,139634,1,0
168,168,139713,1,0
208,192,139791,1,8
232,232,139870,1,0
272,248,139948,1,0
304,280,140027,1,0
344,296,140106,5,8
344,296,140263,1,0
432,192,140420,1,8
432,192,140577,1,0
368,64,140734,1,8
368,64,140891,1,0
272,160,141048,1,8
272,160,141205,1,0
176,64,141362,5,8
176,64,141519,1,0
56,128,141676,1,8
56,128,141833,1,0
48,264,141990,2,0,B|80:328|184:344|232:328,1,180,8|8
248,328,142383,1,0
288,320,142462,1,0
328,304,142540,1,0
368,288,142619,1,4
416,208,142776,5,0
416,208,142854,1,0
416,208,142933,1,8
344,88,143090,1,0
344,88,143168,1,0
344,88,143247,1,8
280,208,143404,1,0
280,208,143482,1,0
280,208,143561,1,8
208,264,143718,5,0
176,232,143797,1,0
144,200,143875,1,8
56,168,144032,1,0
64,120,144111,1,0
72,72,144189,1,8
152,40,144346,1,0
192,64,144425,1,0
232,88,144503,1,8
272,112,144582,1,0
312,136,144660,2,0,B|424:192,2,90,0|8|0
224,168,145132,6,0,B|264:112|320:80|400:88,2,180,0|8|0
88,168,145917,1,0
40,288,146074,1,0
168,336,146231,2,0,B|288:360|352:328,2,180
112,216,147016,1,8
160,88,147174,5,0
296,80,147331,1,0
392,176,147488,2,0,B|352:224|448:240|400:352,2,180
360,48,148273,1,8
224,24,148430,1,0
96,64,148587,1,8
48,192,148744,1,0
120,304,148901,5,8
120,304,148980,1,0
120,304,149058,1,0
152,224,149215,1,8
168,184,149294,1,0
192,144,149373,1,0
224,112,149451,1,0
264,88,149530,1,8
312,96,149608,1,0
344,128,149687,1,0
368,168,149765,1,0
384,208,149844,1,8
384,208,150001,1,4
256,192,150472,12,0,152985
