osu file format v14

[General]
AudioFilename: Halcyon.mp3
AudioLeadIn: 0
PreviewTime: 27658
Countdown: 0
SampleSet: Soft
StackLeniency: 1
Mode: 3
LetterboxInBreaks: 0
SpecialStyle: 0
WidescreenStoryboard: 1

[Editor]
DistanceSpacing: 2
BeatDivisor: 4
GridSize: 16
TimelineZoom: 1.9

[Metadata]
Title:Halcyon
TitleUnicode:Halcyon
Artist:xi
ArtistUnicode:xi
Creator:Zan -
Version:Beliung
Source:BMS
Tags:cytus
BeatmapID:824443
BeatmapSetID:367849

[Difficulty]
HPDrainRate:8
CircleSize:7
OverallDifficulty:8
ApproachRate:10
SliderMultiplier:1.4
SliderTickRate:1

[Events]
//Background and Video events
0,0,"HL-Cytus.jpg",0,0
//Break Periods
2,103879,108570
//Storyboard Layer 0 (Background)
//Storyboard Layer 1 (Fail)
//Storyboard Layer 2 (Pass)
//Storyboard Layer 3 (Foreground)
//Storyboard Sound Samples

[TimingPoints]
5041,314.13612565445,4,2,0,0,1,0
28287,-100,4,2,0,0,0,1
47135,-100,4,2,0,0,0,0
109962,-100,4,2,0,0,0,1
128810,-100,4,2,0,0,0,0
130067,-100,4,2,0,0,0,1
148915,-100,4,2,0,0,0,0

[HitObjects]
256,192,27344,5,0,0:0:0:0:
36,192,27658,1,0,0:0:0:0:
475,192,27658,1,0,0:0:0:0:
109,192,27815,1,0,0:0:0:0:
402,192,27815,1,0,0:0:0:0:
182,192,27894,1,0,0:0:0:0:
475,192,27972,1,0,0:0:0:0:
256,192,27972,1,0,0:0:0:0:
36,192,27972,1,0,0:0:0:0:
329,192,28051,1,0,0:0:0:0:
402,192,28130,1,0,0:0:0:0:
109,192,28130,1,0,0:0:0:0:
182,192,28208,1,0,0:0:0:0:
256,192,28287,1,0,0:0:0:0:
329,192,28287,1,0,0:0:0:0:
36,192,28287,1,0,0:0:0:0:
475,192,28287,1,0,0:0:0:0:
475,192,28444,1,0,0:0:0:0:
36,192,28444,1,0,0:0:0:0:
402,192,28601,1,0,0:0:0:0:
36,192,28601,128,0,28915:0:0:0:0:
182,192,28601,128,0,28758:0:0:0:0:
329,192,28758,128,0,28915:0:0:0:0:
475,192,28758,1,0,0:0:0:0:
182,192,28915,1,0,0:0:0:0:
329,192,29072,128,0,29229:0:0:0:0:
475,192,29072,128,0,29229:0:0:0:0:
109,192,29229,1,0,0:0:0:0:
402,192,29386,1,0,0:0:0:0:
36,192,29386,128,0,29543:0:0:0:0:
182,192,29386,128,0,29543:0:0:0:0:
329,192,29543,1,0,0:0:0:0:
109,192,29700,128,0,29857:0:0:0:0:
402,192,29700,128,0,29857:0:0:0:0:
256,192,29857,1,0,0:0:0:0:
36,192,29857,1,0,0:0:0:0:
475,192,29857,1,0,0:0:0:0:
182,192,30014,128,0,30171:0:0:0:0:
329,192,30014,128,0,30171:0:0:0:0:
256,192,30171,1,0,0:0:0:0:
36,192,30328,128,0,30486:0:0:0:0:
475,192,30328,128,0,30486:0:0:0:0:
109,192,30486,1,0,0:0:0:0:
402,192,30486,1,0,0:0:0:0:
329,192,30564,1,0,0:0:0:0:
256,192,30643,1,0,0:0:0:0:
182,192,30721,1,0,0:0:0:0:
109,192,30800,1,0,0:0:0:0:
402,192,30800,1,0,0:0:0:0:
109,192,30957,1,0,0:0:0:0:
402,192,30957,1,0,0:0:0:0:
402,192,31114,1,0,0:0:0:0:
109,192,31114,128,0,31428:0:0:0:0:
256,192,31114,128,0,31271:0:0:0:0:
329,192,31271,128,0,31428:0:0:0:0:
475,192,31271,1,0,0:0:0:0:
182,192,31428,1,0,0:0:0:0:
36,192,31585,128,0,31742:0:0:0:0:
402,192,31585,128,0,31742:0:0:0:0:
256,192,31742,1,0,0:0:0:0:
329,192,31899,1,0,0:0:0:0:
109,192,31899,128,0,32056:0:0:0:0:
475,192,31899,128,0,32056:0:0:0:0:
182,192,32056,1,0,0:0:0:0:
36,192,32213,128,0,32370:0:0:0:0:
402,192,32213,128,0,32370:0:0:0:0:
182,192,32370,1,0,0:0:0:0:
256,192,32370,1,0,0:0:0:0:
329,192,32370,1,0,0:0:0:0:
475,192,32527,128,0,32684:0:0:0:0:
109,192,32527,128,0,32684:0:0:0:0:
329,192,32684,1,0,0:0:0:0:
182,192,32842,128,0,32999:0:0:0:0:
36,192,32842,128,0,32999:0:0:0:0:
329,192,32999,1,0,0:0:0:0:
402,192,32999,1,0,0:0:0:0:
475,192,32999,1,0,0:0:0:0:
256,192,33156,1,0,0:0:0:0:
36,192,33156,128,0,33627:0:0:0:0:
475,192,33313,1,0,0:0:0:0:
109,192,33313,1,0,0:0:0:0:
402,192,33470,1,0,0:0:0:0:
182,192,33470,1,0,0:0:0:0:
109,192,33627,1,0,0:0:0:0:
475,192,33627,1,0,0:0:0:0:
256,192,33627,1,0,0:0:0:0:
329,192,33627,1,0,0:0:0:0:
36,192,33784,1,0,0:0:0:0:
182,192,33862,1,0,0:0:0:0:
329,192,33941,1,0,0:0:0:0:
475,192,33941,1,0,0:0:0:0:
402,192,34098,1,0,0:0:0:0:
256,192,34098,1,0,0:0:0:0:
329,192,34255,1,0,0:0:0:0:
182,192,34255,1,0,0:0:0:0:
109,192,34412,1,0,0:0:0:0:
256,192,34412,1,0,0:0:0:0:
475,192,34412,1,0,0:0:0:0:
329,192,34569,1,0,0:0:0:0:
402,192,34569,1,0,0:0:0:0:
475,192,34569,1,0,0:0:0:0:
36,192,34569,1,0,0:0:0:0:
182,192,34726,1,0,0:0:0:0:
329,192,34883,1,0,0:0:0:0:
475,192,34883,1,0,0:0:0:0:
402,192,34883,1,0,0:0:0:0:
256,192,35040,1,0,0:0:0:0:
36,192,35198,1,0,0:0:0:0:
109,192,35198,1,0,0:0:0:0:
182,192,35198,1,0,0:0:0:0:
475,192,35198,1,0,0:0:0:0:
329,192,35355,1,0,0:0:0:0:
475,192,35512,1,0,0:0:0:0:
182,192,35512,1,0,0:0:0:0:
402,192,35669,1,0,0:0:0:0:
109,192,35669,1,0,0:0:0:0:
329,192,35826,1,0,0:0:0:0:
182,192,35826,1,0,0:0:0:0:
256,192,35826,1,0,0:0:0:0:
36,192,35826,128,0,36611:0:0:0:0:
475,192,35983,1,0,0:0:0:0:
329,192,36140,1,0,0:0:0:0:
109,192,36140,1,0,0:0:0:0:
182,192,36297,1,0,0:0:0:0:
475,192,36297,1,0,0:0:0:0:
329,192,36454,1,0,0:0:0:0:
256,192,36611,1,0,0:0:0:0:
475,192,36611,1,0,0:0:0:0:
402,192,36768,1,0,0:0:0:0:
182,192,36768,1,0,0:0:0:0:
329,192,36925,1,0,0:0:0:0:
109,192,36925,1,0,0:0:0:0:
256,192,36925,1,0,0:0:0:0:
36,192,36925,128,0,37711:0:0:0:0:
402,192,37082,1,0,0:0:0:0:
182,192,37239,1,0,0:0:0:0:
475,192,37239,1,0,0:0:0:0:
256,192,37397,1,0,0:0:0:0:
402,192,37397,1,0,0:0:0:0:
329,192,37554,1,0,0:0:0:0:
182,192,37711,1,0,0:0:0:0:
329,192,37711,1,0,0:0:0:0:
475,192,37711,1,0,0:0:0:0:
36,192,37868,1,0,0:0:0:0:
402,192,37868,1,0,0:0:0:0:
109,192,37946,1,0,0:0:0:0:
182,192,38025,1,0,0:0:0:0:
256,192,38103,1,0,0:0:0:0:
329,192,38182,1,0,0:0:0:0:
402,192,38260,1,0,0:0:0:0:
36,192,38339,1,0,0:0:0:0:
109,192,38339,1,0,0:0:0:0:
182,192,38339,1,0,0:0:0:0:
475,192,38339,1,0,0:0:0:0:
182,192,38496,1,0,0:0:0:0:
475,192,38496,1,0,0:0:0:0:
402,192,38653,1,0,0:0:0:0:
36,192,38653,128,0,38967:0:0:0:0:
182,192,38653,128,0,38810:0:0:0:0:
256,192,38810,128,0,38967:0:0:0:0:
475,192,38810,1,0,0:0:0:0:
402,192,38967,1,0,0:0:0:0:
329,192,39124,128,0,39281:0:0:0:0:
475,192,39124,128,0,39281:0:0:0:0:
109,192,39281,1,0,0:0:0:0:
402,192,39438,128,0,39595:0:0:0:0:
182,192,39438,128,0,39595:0:0:0:0:
36,192,39438,1,0,0:0:0:0:
329,192,39595,1,0,0:0:0:0:
475,192,39753,128,0,39910:0:0:0:0:
36,192,39753,128,0,39910:0:0:0:0:
182,192,39910,1,0,0:0:0:0:
256,192,39910,1,0,0:0:0:0:
329,192,39910,1,0,0:0:0:0:
109,192,40067,128,0,40224:0:0:0:0:
402,192,40067,128,0,40224:0:0:0:0:
256,192,40224,1,0,0:0:0:0:
182,192,40381,128,0,40538:0:0:0:0:
329,192,40381,128,0,40538:0:0:0:0:
36,192,40538,1,0,0:0:0:0:
256,192,40538,1,0,0:0:0:0:
475,192,40538,1,0,0:0:0:0:
402,192,40616,1,0,0:0:0:0:
329,192,40695,1,0,0:0:0:0:
256,192,40773,1,0,0:0:0:0:
182,192,40852,1,0,0:0:0:0:
109,192,40852,1,0,0:0:0:0:
36,192,40852,1,0,0:0:0:0:
475,192,40852,1,0,0:0:0:0:
36,192,41009,1,0,0:0:0:0:
475,192,41009,1,0,0:0:0:0:
36,192,41166,128,0,41480:0:0:0:0:
402,192,41166,1,0,0:0:0:0:
182,192,41166,128,0,41323:0:0:0:0:
475,192,41323,1,0,0:0:0:0:
256,192,41323,128,0,41480:0:0:0:0:
329,192,41480,1,0,0:0:0:0:
182,192,41637,128,0,41794:0:0:0:0:
402,192,41637,128,0,41794:0:0:0:0:
256,192,41794,1,0,0:0:0:0:
109,192,41951,128,0,42109:0:0:0:0:
475,192,41951,128,0,42109:0:0:0:0:
329,192,41951,1,0,0:0:0:0:
402,192,42109,1,0,0:0:0:0:
36,192,42266,128,0,42423:0:0:0:0:
256,192,42266,128,0,42423:0:0:0:0:
329,192,42423,1,0,0:0:0:0:
182,192,42423,1,0,0:0:0:0:
475,192,42423,1,0,0:0:0:0:
109,192,42580,128,0,42737:0:0:0:0:
402,192,42580,128,0,42737:0:0:0:0:
256,192,42737,1,0,0:0:0:0:
182,192,42894,128,0,43051:0:0:0:0:
329,192,42894,128,0,43051:0:0:0:0:
36,192,43051,1,0,0:0:0:0:
256,192,43051,1,0,0:0:0:0:
475,192,43051,1,0,0:0:0:0:
402,192,43208,1,0,0:0:0:0:
109,192,43208,1,0,0:0:0:0:
329,192,43287,1,0,0:0:0:0:
182,192,43287,1,0,0:0:0:0:
109,192,43365,1,0,0:0:0:0:
475,192,43365,1,0,0:0:0:0:
256,192,43365,1,0,0:0:0:0:
36,192,43365,128,0,44150:0:0:0:0:
329,192,43522,1,0,0:0:0:0:
182,192,43679,1,0,0:0:0:0:
475,192,43679,1,0,0:0:0:0:
402,192,43836,1,0,0:0:0:0:
329,192,43993,1,0,0:0:0:0:
109,192,44150,1,0,0:0:0:0:
475,192,44150,1,0,0:0:0:0:
182,192,44308,1,0,0:0:0:0:
402,192,44308,1,0,0:0:0:0:
256,192,44465,128,0,45407:0:0:0:0:
36,192,44465,1,0,0:0:0:0:
475,192,44465,1,0,0:0:0:0:
109,192,44622,1,0,0:0:0:0:
182,192,44779,1,0,0:0:0:0:
402,192,44779,1,0,0:0:0:0:
109,192,44936,1,0,0:0:0:0:
329,192,44936,1,0,0:0:0:0:
402,192,45093,1,0,0:0:0:0:
475,192,45250,1,0,0:0:0:0:
36,192,45250,1,0,0:0:0:0:
109,192,45407,1,0,0:0:0:0:
402,192,45407,1,0,0:0:0:0:
182,192,45564,1,0,0:0:0:0:
256,192,45564,1,0,0:0:0:0:
329,192,45564,1,0,0:0:0:0:
475,192,45721,128,0,46821:0:0:0:0:
36,192,45721,1,0,0:0:0:0:
109,192,45721,1,0,0:0:0:0:
402,192,45721,1,0,0:0:0:0:
329,192,45878,1,0,0:0:0:0:
256,192,46035,1,0,0:0:0:0:
36,192,46035,1,0,0:0:0:0:
109,192,46192,1,0,0:0:0:0:
329,192,46192,1,0,0:0:0:0:
182,192,46349,1,0,0:0:0:0:
402,192,46349,1,0,0:0:0:0:
256,192,46506,1,0,0:0:0:0:
329,192,46664,1,0,0:0:0:0:
256,192,46821,1,0,0:0:0:0:
182,192,46860,1,0,0:0:0:0:
109,192,46899,1,0,0:0:0:0:
36,192,46938,1,0,0:0:0:0:
475,192,46978,1,0,0:0:0:0:
402,192,47017,1,0,0:0:0:0:
329,192,47056,1,0,0:0:0:0:
256,192,47095,1,0,0:0:0:0:
182,192,47135,1,0,0:0:0:0:
109,192,47135,1,0,0:0:0:0:
36,192,47135,1,0,0:0:0:0:
256,192,47213,1,0,0:0:0:0:
329,192,47292,1,0,0:0:0:0:
402,192,47370,1,0,0:0:0:0:
475,192,47449,1,0,0:0:0:0:
36,192,47449,1,0,0:0:0:0:
109,192,47527,1,0,0:0:0:0:
182,192,47606,1,0,0:0:0:0:
256,192,47684,1,0,0:0:0:0:
329,192,47763,1,0,0:0:0:0:
475,192,47763,1,0,0:0:0:0:
256,192,47842,1,0,0:0:0:0:
182,192,47920,1,0,0:0:0:0:
109,192,47999,1,0,0:0:0:0:
36,192,48077,1,0,0:0:0:0:
475,192,48077,1,0,0:0:0:0:
402,192,48156,1,0,0:0:0:0:
329,192,48234,1,0,0:0:0:0:
256,192,48313,1,0,0:0:0:0:
475,192,48391,1,0,0:0:0:0:
36,192,48391,1,0,0:0:0:0:
182,192,48391,1,0,0:0:0:0:
109,192,48391,1,0,0:0:0:0:
36,192,48705,1,0,0:0:0:0:
329,192,48705,1,0,0:0:0:0:
182,192,48705,1,0,0:0:0:0:
475,192,48705,1,0,0:0:0:0:
109,192,49020,1,0,0:0:0:0:
475,192,49020,1,0,0:0:0:0:
329,192,49177,1,0,0:0:0:0:
182,192,49334,1,0,0:0:0:0:
36,192,49491,1,0,0:0:0:0:
329,192,49491,1,0,0:0:0:0:
402,192,49491,128,0,50590:0:0:0:0:
182,192,49648,1,0,0:0:0:0:
475,192,49805,128,0,50590:0:0:0:0:
329,192,49805,1,0,0:0:0:0:
36,192,49962,1,0,0:0:0:0:
109,192,49962,1,0,0:0:0:0:
182,192,49962,1,0,0:0:0:0:
329,192,50119,128,0,50590:0:0:0:0:
256,192,50119,1,0,0:0:0:0:
182,192,50276,1,0,0:0:0:0:
109,192,50276,1,0,0:0:0:0:
182,192,50433,1,0,0:0:0:0:
109,192,50433,1,0,0:0:0:0:
36,192,50590,1,0,0:0:0:0:
109,192,50590,1,0,0:0:0:0:
256,192,50590,1,0,0:0:0:0:
402,192,50747,1,0,0:0:0:0:
182,192,50904,1,0,0:0:0:0:
36,192,50904,1,0,0:0:0:0:
329,192,51061,1,0,0:0:0:0:
109,192,51219,1,0,0:0:0:0:
256,192,51219,1,0,0:0:0:0:
475,192,51219,128,0,51533:0:0:0:0:
182,192,51376,1,0,0:0:0:0:
36,192,51533,1,0,0:0:0:0:
329,192,51533,1,0,0:0:0:0:
402,192,51690,1,0,0:0:0:0:
109,192,51690,1,0,0:0:0:0:
329,192,51847,1,0,0:0:0:0:
182,192,51847,1,0,0:0:0:0:
256,192,52004,1,0,0:0:0:0:
36,192,52004,1,0,0:0:0:0:
475,192,52004,1,0,0:0:0:0:
329,192,52161,1,0,0:0:0:0:
109,192,52161,1,0,0:0:0:0:
256,192,52318,1,0,0:0:0:0:
475,192,52318,1,0,0:0:0:0:
36,192,52475,1,0,0:0:0:0:
182,192,52475,1,0,0:0:0:0:
402,192,52475,1,0,0:0:0:0:
109,192,52632,1,0,0:0:0:0:
182,192,52789,1,0,0:0:0:0:
475,192,52789,1,0,0:0:0:0:
402,192,52868,1,0,0:0:0:0:
329,192,52946,1,0,0:0:0:0:
36,192,52946,1,0,0:0:0:0:
256,192,53025,1,0,0:0:0:0:
182,192,53103,1,0,0:0:0:0:
475,192,53103,1,0,0:0:0:0:
36,192,53182,1,0,0:0:0:0:
109,192,53260,1,0,0:0:0:0:
182,192,53339,1,0,0:0:0:0:
36,192,53417,1,0,0:0:0:0:
256,192,53417,1,0,0:0:0:0:
402,192,53417,1,0,0:0:0:0:
475,192,53417,1,0,0:0:0:0:
182,192,53575,1,0,0:0:0:0:
109,192,53732,1,0,0:0:0:0:
402,192,53732,1,0,0:0:0:0:
36,192,53732,128,0,54046:0:0:0:0:
329,192,53732,128,0,54046:0:0:0:0:
182,192,53889,1,0,0:0:0:0:
256,192,54046,1,0,0:0:0:0:
475,192,54046,1,0,0:0:0:0:
402,192,54203,1,0,0:0:0:0:
182,192,54203,1,0,0:0:0:0:
329,192,54360,1,0,0:0:0:0:
109,192,54360,1,0,0:0:0:0:
182,192,54517,1,0,0:0:0:0:
475,192,54517,1,0,0:0:0:0:
36,192,54517,1,0,0:0:0:0:
402,192,54674,1,0,0:0:0:0:
109,192,54674,1,0,0:0:0:0:
329,192,54753,1,0,0:0:0:0:
256,192,54831,1,0,0:0:0:0:
36,192,54831,1,0,0:0:0:0:
109,192,54910,1,0,0:0:0:0:
182,192,54988,1,0,0:0:0:0:
475,192,54988,1,0,0:0:0:0:
402,192,55067,1,0,0:0:0:0:
329,192,55145,1,0,0:0:0:0:
256,192,55224,1,0,0:0:0:0:
475,192,55302,1,0,0:0:0:0:
182,192,55302,1,0,0:0:0:0:
402,192,55381,1,0,0:0:0:0:
109,192,55459,1,0,0:0:0:0:
329,192,55459,1,0,0:0:0:0:
36,192,55538,1,0,0:0:0:0:
182,192,55616,1,0,0:0:0:0:
475,192,55616,1,0,0:0:0:0:
402,192,55695,1,0,0:0:0:0:
329,192,55773,1,0,0:0:0:0:
256,192,55852,1,0,0:0:0:0:
402,192,55931,1,0,0:0:0:0:
36,192,55931,1,0,0:0:0:0:
475,192,55931,1,0,0:0:0:0:
182,192,55931,128,0,56088:0:0:0:0:
329,192,56088,128,0,56245:0:0:0:0:
109,192,56245,128,0,56402:0:0:0:0:
256,192,56245,1,0,0:0:0:0:
475,192,56245,1,0,0:0:0:0:
402,192,56402,128,0,56559:0:0:0:0:
36,192,56402,1,0,0:0:0:0:
182,192,56559,1,0,0:0:0:0:
329,192,56559,1,0,0:0:0:0:
475,192,56716,1,0,0:0:0:0:
36,192,56716,1,0,0:0:0:0:
109,192,56873,1,0,0:0:0:0:
402,192,56873,1,0,0:0:0:0:
182,192,56951,1,0,0:0:0:0:
256,192,57030,1,0,0:0:0:0:
36,192,57030,1,0,0:0:0:0:
475,192,57030,1,0,0:0:0:0:
182,192,57187,1,0,0:0:0:0:
329,192,57187,1,0,0:0:0:0:
109,192,57344,1,0,0:0:0:0:
402,192,57344,1,0,0:0:0:0:
475,192,57501,1,0,0:0:0:0:
256,192,57501,1,0,0:0:0:0:
36,192,57501,1,0,0:0:0:0:
182,192,57658,1,0,0:0:0:0:
402,192,57658,1,0,0:0:0:0:
329,192,57815,1,0,0:0:0:0:
475,192,57815,1,0,0:0:0:0:
256,192,57894,1,0,0:0:0:0:
182,192,57972,1,0,0:0:0:0:
109,192,58051,1,0,0:0:0:0:
36,192,58130,1,0,0:0:0:0:
475,192,58130,1,0,0:0:0:0:
402,192,58208,1,0,0:0:0:0:
329,192,58287,1,0,0:0:0:0:
256,192,58365,1,0,0:0:0:0:
475,192,58444,1,0,0:0:0:0:
36,192,58444,128,0,58679:0:0:0:0:
182,192,58444,1,0,0:0:0:0:
109,192,58444,128,0,58679:0:0:0:0:
36,192,58758,128,0,59072:0:0:0:0:
182,192,58758,128,0,59072:0:0:0:0:
329,192,58758,128,0,59072:0:0:0:0:
475,192,58758,128,0,59072:0:0:0:0:
109,192,59072,1,0,0:0:0:0:
402,192,59072,1,0,0:0:0:0:
182,192,59229,1,0,0:0:0:0:
329,192,59229,1,0,0:0:0:0:
256,192,59386,1,0,0:0:0:0:
36,192,59543,1,0,0:0:0:0:
329,192,59543,1,0,0:0:0:0:
475,192,59543,1,0,0:0:0:0:
256,192,59700,1,0,0:0:0:0:
36,192,59857,1,0,0:0:0:0:
182,192,59857,1,0,0:0:0:0:
109,192,60014,1,0,0:0:0:0:
329,192,60014,1,0,0:0:0:0:
475,192,60014,1,0,0:0:0:0:
182,192,60171,1,0,0:0:0:0:
36,192,60328,1,0,0:0:0:0:
256,192,60328,1,0,0:0:0:0:
109,192,60486,1,0,0:0:0:0:
329,192,60486,1,0,0:0:0:0:
475,192,60643,1,0,0:0:0:0:
402,192,60643,1,0,0:0:0:0:
182,192,60643,1,0,0:0:0:0:
329,192,60800,1,0,0:0:0:0:
256,192,60957,1,0,0:0:0:0:
36,192,60957,1,0,0:0:0:0:
182,192,61114,1,0,0:0:0:0:
109,192,61271,1,0,0:0:0:0:
329,192,61271,1,0,0:0:0:0:
475,192,61271,1,0,0:0:0:0:
402,192,61428,1,0,0:0:0:0:
329,192,61585,1,0,0:0:0:0:
36,192,61585,1,0,0:0:0:0:
109,192,61742,1,0,0:0:0:0:
475,192,61742,1,0,0:0:0:0:
329,192,61821,1,0,0:0:0:0:
182,192,61899,1,0,0:0:0:0:
402,192,61899,1,0,0:0:0:0:
329,192,62056,1,0,0:0:0:0:
109,192,62056,1,0,0:0:0:0:
36,192,62056,1,0,0:0:0:0:
182,192,62213,1,0,0:0:0:0:
256,192,62370,1,0,0:0:0:0:
475,192,62370,1,0,0:0:0:0:
329,192,62527,1,0,0:0:0:0:
182,192,62527,1,0,0:0:0:0:
36,192,62527,1,0,0:0:0:0:
402,192,62684,1,0,0:0:0:0:
109,192,62684,1,0,0:0:0:0:
182,192,62842,1,0,0:0:0:0:
475,192,62842,1,0,0:0:0:0:
256,192,62920,1,0,0:0:0:0:
329,192,62999,1,0,0:0:0:0:
36,192,62999,1,0,0:0:0:0:
109,192,63077,1,0,0:0:0:0:
475,192,63156,1,0,0:0:0:0:
402,192,63156,1,0,0:0:0:0:
182,192,63156,1,0,0:0:0:0:
36,192,63234,1,0,0:0:0:0:
109,192,63313,1,0,0:0:0:0:
182,192,63391,1,0,0:0:0:0:
256,192,63470,1,0,0:0:0:0:
329,192,63470,1,0,0:0:0:0:
402,192,63470,1,0,0:0:0:0:
475,192,63470,1,0,0:0:0:0:
182,192,63627,1,0,0:0:0:0:
36,192,63784,1,0,0:0:0:0:
402,192,63784,1,0,0:0:0:0:
475,192,63784,128,0,64098:0:0:0:0:
329,192,63784,128,0,64098:0:0:0:0:
109,192,63941,1,0,0:0:0:0:
182,192,64098,128,0,64255:0:0:0:0:
256,192,64098,1,0,0:0:0:0:
36,192,64255,128,0,64412:0:0:0:0:
475,192,64255,1,0,0:0:0:0:
329,192,64412,128,0,64569:0:0:0:0:
182,192,64412,1,0,0:0:0:0:
475,192,64569,128,0,64726:0:0:0:0:
36,192,64569,1,0,0:0:0:0:
109,192,64569,1,0,0:0:0:0:
329,192,64726,128,0,64805:0:0:0:0:
402,192,64726,1,0,0:0:0:0:
256,192,64805,128,0,64883:0:0:0:0:
182,192,64883,128,0,64962:0:0:0:0:
475,192,64883,1,0,0:0:0:0:
109,192,64962,128,0,65040:0:0:0:0:
402,192,65040,128,0,65119:0:0:0:0:
36,192,65040,1,0,0:0:0:0:
182,192,65040,1,0,0:0:0:0:
329,192,65119,128,0,65198:0:0:0:0:
256,192,65198,128,0,65276:0:0:0:0:
182,192,65276,128,0,65355:0:0:0:0:
475,192,65355,128,0,65433:0:0:0:0:
109,192,65355,1,0,0:0:0:0:
402,192,65433,128,0,65512:0:0:0:0:
329,192,65512,128,0,65590:0:0:0:0:
36,192,65512,1,0,0:0:0:0:
256,192,65590,128,0,65669:0:0:0:0:
109,192,65669,128,0,65747:0:0:0:0:
402,192,65669,1,0,0:0:0:0:
475,192,65669,1,0,0:0:0:0:
329,192,65747,128,0,65826:0:0:0:0:
182,192,65826,128,0,65904:0:0:0:0:
36,192,65826,1,0,0:0:0:0:
402,192,65904,128,0,65983:0:0:0:0:
36,192,65983,1,0,0:0:0:0:
109,192,65983,1,0,0:0:0:0:
256,192,65983,1,0,0:0:0:0:
329,192,65983,1,0,0:0:0:0:
182,192,66140,128,0,66297:0:0:0:0:
402,192,66140,128,0,66297:0:0:0:0:
256,192,66297,128,0,66611:0:0:0:0:
475,192,66297,128,0,66611:0:0:0:0:
36,192,66297,1,0,0:0:0:0:
109,192,66454,1,0,0:0:0:0:
182,192,66611,1,0,0:0:0:0:
402,192,66611,1,0,0:0:0:0:
329,192,66768,1,0,0:0:0:0:
109,192,66768,1,0,0:0:0:0:
36,192,66925,1,0,0:0:0:0:
475,192,66925,1,0,0:0:0:0:
256,192,66925,1,0,0:0:0:0:
182,192,67004,1,0,0:0:0:0:
329,192,67082,1,0,0:0:0:0:
182,192,67161,1,0,0:0:0:0:
475,192,67239,1,0,0:0:0:0:
36,192,67239,1,0,0:0:0:0:
329,192,67239,1,0,0:0:0:0:
256,192,67318,1,0,0:0:0:0:
182,192,67397,1,0,0:0:0:0:
329,192,67475,1,0,0:0:0:0:
36,192,67554,1,0,0:0:0:0:
182,192,67554,1,0,0:0:0:0:
475,192,67554,1,0,0:0:0:0:
329,192,67632,1,0,0:0:0:0:
256,192,67711,1,0,0:0:0:0:
182,192,67789,1,0,0:0:0:0:
36,192,67868,1,0,0:0:0:0:
329,192,67868,1,0,0:0:0:0:
475,192,67868,1,0,0:0:0:0:
109,192,67946,1,0,0:0:0:0:
182,192,68025,1,0,0:0:0:0:
402,192,68025,1,0,0:0:0:0:
329,192,68103,1,0,0:0:0:0:
36,192,68182,1,0,0:0:0:0:
256,192,68182,1,0,0:0:0:0:
329,192,68260,1,0,0:0:0:0:
109,192,68339,1,0,0:0:0:0:
402,192,68339,1,0,0:0:0:0:
182,192,68417,1,0,0:0:0:0:
36,192,68496,128,0,69124:0:0:0:0:
256,192,68496,128,0,68810:0:0:0:0:
475,192,68496,128,0,69124:0:0:0:0:
329,192,68810,1,0,0:0:0:0:
109,192,68810,128,0,69124:0:0:0:0:
182,192,68810,1,0,0:0:0:0:
402,192,68810,128,0,69124:0:0:0:0:
182,192,69281,1,0,0:0:0:0:
329,192,69281,1,0,0:0:0:0:
109,192,69438,1,0,0:0:0:0:
402,192,69438,1,0,0:0:0:0:
36,192,69595,1,0,0:0:0:0:
475,192,69595,1,0,0:0:0:0:
256,192,69595,1,0,0:0:0:0:
109,192,69753,1,0,0:0:0:0:
329,192,69753,1,0,0:0:0:0:
475,192,69910,1,0,0:0:0:0:
402,192,69988,1,0,0:0:0:0:
36,192,70067,1,0,0:0:0:0:
329,192,70067,1,0,0:0:0:0:
256,192,70145,1,0,0:0:0:0:
182,192,70224,1,0,0:0:0:0:
475,192,70224,1,0,0:0:0:0:
109,192,70302,1,0,0:0:0:0:
36,192,70381,1,0,0:0:0:0:
329,192,70381,1,0,0:0:0:0:
109,192,70459,1,0,0:0:0:0:
402,192,70459,1,0,0:0:0:0:
182,192,70538,1,0,0:0:0:0:
475,192,70538,1,0,0:0:0:0:
36,192,70695,1,0,0:0:0:0:
256,192,70695,1,0,0:0:0:0:
402,192,70695,1,0,0:0:0:0:
109,192,70773,1,0,0:0:0:0:
182,192,70852,1,0,0:0:0:0:
256,192,70891,1,0,0:0:0:0:
329,192,70931,1,0,0:0:0:0:
402,192,70970,1,0,0:0:0:0:
475,192,71009,1,0,0:0:0:0:
36,192,71009,1,0,0:0:0:0:
109,192,71166,1,0,0:0:0:0:
329,192,71166,1,0,0:0:0:0:
36,192,71323,1,0,0:0:0:0:
182,192,71323,1,0,0:0:0:0:
475,192,71323,1,0,0:0:0:0:
329,192,71480,1,0,0:0:0:0:
402,192,71480,1,0,0:0:0:0:
109,192,71637,1,0,0:0:0:0:
329,192,71794,1,0,0:0:0:0:
475,192,71794,1,0,0:0:0:0:
182,192,71873,1,0,0:0:0:0:
36,192,71873,1,0,0:0:0:0:
402,192,71951,1,0,0:0:0:0:
36,192,72109,1,0,0:0:0:0:
182,192,72109,1,0,0:0:0:0:
329,192,72109,1,0,0:0:0:0:
109,192,72266,1,0,0:0:0:0:
402,192,72266,1,0,0:0:0:0:
182,192,72423,1,0,0:0:0:0:
475,192,72423,1,0,0:0:0:0:
402,192,72580,1,0,0:0:0:0:
109,192,72580,1,0,0:0:0:0:
36,192,72580,1,0,0:0:0:0:
329,192,72658,1,0,0:0:0:0:
256,192,72737,1,0,0:0:0:0:
182,192,72815,1,0,0:0:0:0:
475,192,72894,1,0,0:0:0:0:
109,192,72894,1,0,0:0:0:0:
402,192,72972,1,0,0:0:0:0:
329,192,73051,1,0,0:0:0:0:
36,192,73051,1,0,0:0:0:0:
109,192,73130,1,0,0:0:0:0:
475,192,73208,1,0,0:0:0:0:
182,192,73208,1,0,0:0:0:0:
402,192,73287,1,0,0:0:0:0:
329,192,73365,1,0,0:0:0:0:
256,192,73444,1,0,0:0:0:0:
36,192,73522,1,0,0:0:0:0:
182,192,73522,1,0,0:0:0:0:
475,192,73679,1,0,0:0:0:0:
329,192,73679,1,0,0:0:0:0:
109,192,73836,1,0,0:0:0:0:
256,192,73836,1,0,0:0:0:0:
402,192,73836,1,0,0:0:0:0:
329,192,73993,1,0,0:0:0:0:
36,192,73993,1,0,0:0:0:0:
182,192,74150,1,0,0:0:0:0:
329,192,74308,1,0,0:0:0:0:
475,192,74308,1,0,0:0:0:0:
182,192,74386,1,0,0:0:0:0:
36,192,74386,1,0,0:0:0:0:
329,192,74465,1,0,0:0:0:0:
109,192,74622,1,0,0:0:0:0:
256,192,74622,1,0,0:0:0:0:
402,192,74622,1,0,0:0:0:0:
182,192,74779,1,0,0:0:0:0:
329,192,74936,1,0,0:0:0:0:
475,192,74936,1,0,0:0:0:0:
36,192,75093,1,0,0:0:0:0:
182,192,75093,1,0,0:0:0:0:
402,192,75093,1,0,0:0:0:0:
109,192,75250,1,0,0:0:0:0:
182,192,75328,1,0,0:0:0:0:
256,192,75407,1,0,0:0:0:0:
475,192,75407,1,0,0:0:0:0:
36,192,75564,1,0,0:0:0:0:
329,192,75564,1,0,0:0:0:0:
402,192,75643,1,0,0:0:0:0:
182,192,75721,1,0,0:0:0:0:
475,192,75721,1,0,0:0:0:0:
109,192,75800,1,0,0:0:0:0:
36,192,75878,1,0,0:0:0:0:
256,192,75878,1,0,0:0:0:0:
329,192,75957,1,0,0:0:0:0:
109,192,76035,1,0,0:0:0:0:
402,192,76035,1,0,0:0:0:0:
329,192,76192,1,0,0:0:0:0:
182,192,76192,1,0,0:0:0:0:
36,192,76349,1,0,0:0:0:0:
256,192,76349,1,0,0:0:0:0:
475,192,76349,1,0,0:0:0:0:
182,192,76506,1,0,0:0:0:0:
329,192,76506,1,0,0:0:0:0:
109,192,76585,1,0,0:0:0:0:
402,192,76585,1,0,0:0:0:0:
36,192,76664,1,0,0:0:0:0:
182,192,76821,1,0,0:0:0:0:
475,192,76821,1,0,0:0:0:0:
329,192,76899,1,0,0:0:0:0:
36,192,76899,1,0,0:0:0:0:
182,192,76978,1,0,0:0:0:0:
109,192,77135,1,0,0:0:0:0:
329,192,77135,1,0,0:0:0:0:
475,192,77135,1,0,0:0:0:0:
402,192,77292,1,0,0:0:0:0:
36,192,77292,1,0,0:0:0:0:
109,192,77449,1,0,0:0:0:0:
329,192,77449,1,0,0:0:0:0:
36,192,77606,1,0,0:0:0:0:
402,192,77606,1,0,0:0:0:0:
475,192,77606,1,0,0:0:0:0:
109,192,77684,1,0,0:0:0:0:
182,192,77763,1,0,0:0:0:0:
256,192,77842,1,0,0:0:0:0:
475,192,77920,1,0,0:0:0:0:
329,192,77999,1,0,0:0:0:0:
182,192,77999,1,0,0:0:0:0:
36,192,78077,1,0,0:0:0:0:
109,192,78156,1,0,0:0:0:0:
182,192,78234,1,0,0:0:0:0:
475,192,78234,1,0,0:0:0:0:
402,192,78313,1,0,0:0:0:0:
329,192,78391,1,0,0:0:0:0:
256,192,78470,1,0,0:0:0:0:
182,192,78548,128,0,78862:0:0:0:0:
475,192,78548,128,0,78862:0:0:0:0:
36,192,78548,1,0,0:0:0:0:
36,192,78862,128,0,79177:0:0:0:0:
109,192,78862,128,0,79177:0:0:0:0:
402,192,78862,128,0,79177:0:0:0:0:
256,192,78862,128,0,79177:0:0:0:0:
109,192,79334,1,0,0:0:0:0:
256,192,79334,1,0,0:0:0:0:
182,192,79491,1,0,0:0:0:0:
329,192,79491,1,0,0:0:0:0:
256,192,79648,1,0,0:0:0:0:
402,192,79648,1,0,0:0:0:0:
36,192,79648,1,0,0:0:0:0:
475,192,79805,1,0,0:0:0:0:
182,192,79805,1,0,0:0:0:0:
109,192,79962,1,0,0:0:0:0:
329,192,79962,1,0,0:0:0:0:
402,192,80040,1,0,0:0:0:0:
182,192,80040,1,0,0:0:0:0:
36,192,80198,1,0,0:0:0:0:
256,192,80198,1,0,0:0:0:0:
109,192,80276,1,0,0:0:0:0:
329,192,80276,1,0,0:0:0:0:
182,192,80433,1,0,0:0:0:0:
402,192,80433,1,0,0:0:0:0:
256,192,80512,1,0,0:0:0:0:
475,192,80512,1,0,0:0:0:0:
329,192,80747,1,0,0:0:0:0:
36,192,80747,1,0,0:0:0:0:
182,192,80747,1,0,0:0:0:0:
475,192,80904,1,0,0:0:0:0:
256,192,80904,1,0,0:0:0:0:
182,192,80983,1,0,0:0:0:0:
402,192,80983,1,0,0:0:0:0:
329,192,81061,1,0,0:0:0:0:
109,192,81061,1,0,0:0:0:0:
182,192,81219,1,0,0:0:0:0:
256,192,81376,1,0,0:0:0:0:
475,192,81376,1,0,0:0:0:0:
36,192,81376,1,0,0:0:0:0:
109,192,81533,1,0,0:0:0:0:
402,192,81611,1,0,0:0:0:0:
402,192,81847,1,0,0:0:0:0:
109,192,81847,1,0,0:0:0:0:
329,192,81925,1,0,0:0:0:0:
36,192,81925,1,0,0:0:0:0:
475,192,82004,1,0,0:0:0:0:
182,192,82004,1,0,0:0:0:0:
109,192,82161,1,0,0:0:0:0:
402,192,82161,1,0,0:0:0:0:
329,192,82239,1,0,0:0:0:0:
256,192,82318,1,0,0:0:0:0:
36,192,82318,1,0,0:0:0:0:
402,192,82475,1,0,0:0:0:0:
109,192,82475,1,0,0:0:0:0:
256,192,82632,1,0,0:0:0:0:
475,192,82632,1,0,0:0:0:0:
36,192,82632,1,0,0:0:0:0:
402,192,82789,1,0,0:0:0:0:
182,192,82789,1,0,0:0:0:0:
329,192,82868,1,0,0:0:0:0:
109,192,82868,1,0,0:0:0:0:
256,192,83025,1,0,0:0:0:0:
475,192,83025,1,0,0:0:0:0:
182,192,83103,1,0,0:0:0:0:
402,192,83103,1,0,0:0:0:0:
109,192,83260,1,0,0:0:0:0:
329,192,83260,1,0,0:0:0:0:
256,192,83339,1,0,0:0:0:0:
36,192,83339,1,0,0:0:0:0:
182,192,83496,1,0,0:0:0:0:
329,192,83496,1,0,0:0:0:0:
109,192,83575,1,0,0:0:0:0:
402,192,83575,1,0,0:0:0:0:
182,192,83732,1,0,0:0:0:0:
329,192,83732,1,0,0:0:0:0:
256,192,83889,1,0,0:0:0:0:
475,192,83889,1,0,0:0:0:0:
36,192,83889,1,0,0:0:0:0:
402,192,84046,1,0,0:0:0:0:
329,192,84203,1,0,0:0:0:0:
36,192,84203,1,0,0:0:0:0:
109,192,84281,1,0,0:0:0:0:
182,192,84360,1,0,0:0:0:0:
256,192,84438,1,0,0:0:0:0:
329,192,84517,1,0,0:0:0:0:
475,192,84517,1,0,0:0:0:0:
36,192,84674,1,0,0:0:0:0:
182,192,84674,1,0,0:0:0:0:
402,192,84674,1,0,0:0:0:0:
109,192,84831,1,0,0:0:0:0:
329,192,84831,1,0,0:0:0:0:
182,192,84988,1,0,0:0:0:0:
402,192,84988,1,0,0:0:0:0:
475,192,85145,1,0,0:0:0:0:
256,192,85145,1,0,0:0:0:0:
36,192,85145,1,0,0:0:0:0:
182,192,85302,1,0,0:0:0:0:
329,192,85302,1,0,0:0:0:0:
402,192,85459,1,0,0:0:0:0:
109,192,85459,1,0,0:0:0:0:
256,192,85616,1,0,0:0:0:0:
329,192,85695,1,0,0:0:0:0:
36,192,85773,1,0,0:0:0:0:
182,192,85773,1,0,0:0:0:0:
475,192,85773,1,0,0:0:0:0:
402,192,85852,1,0,0:0:0:0:
329,192,85931,1,0,0:0:0:0:
109,192,85931,1,0,0:0:0:0:
182,192,86009,1,0,0:0:0:0:
256,192,86088,1,0,0:0:0:0:
475,192,86088,1,0,0:0:0:0:
402,192,86245,1,0,0:0:0:0:
182,192,86245,1,0,0:0:0:0:
475,192,86402,1,0,0:0:0:0:
109,192,86402,1,0,0:0:0:0:
36,192,86402,1,0,0:0:0:0:
402,192,86480,1,0,0:0:0:0:
329,192,86559,1,0,0:0:0:0:
256,192,86637,1,0,0:0:0:0:
475,192,86716,1,0,0:0:0:0:
36,192,86716,1,0,0:0:0:0:
182,192,86794,1,0,0:0:0:0:
329,192,86794,1,0,0:0:0:0:
475,192,86873,1,0,0:0:0:0:
36,192,86873,1,0,0:0:0:0:
182,192,86951,1,0,0:0:0:0:
329,192,86951,1,0,0:0:0:0:
256,192,87030,128,0,87344:0:0:0:0:
109,192,87030,128,0,87344:0:0:0:0:
402,192,87030,128,0,87344:0:0:0:0:
182,192,87344,1,0,0:0:0:0:
329,192,87344,1,0,0:0:0:0:
36,192,87658,128,0,88601:0:0:0:0:
475,192,87658,128,0,88601:0:0:0:0:
109,192,87658,128,0,88287:0:0:0:0:
402,192,87658,128,0,88287:0:0:0:0:
182,192,88287,1,0,0:0:0:0:
329,192,88287,1,0,0:0:0:0:
256,192,88287,128,0,88601:0:0:0:0:
109,192,88601,1,0,0:0:0:0:
402,192,88601,1,0,0:0:0:0:
182,192,88601,1,0,0:0:0:0:
329,192,88601,1,0,0:0:0:0:
256,192,88758,1,0,0:0:0:0:
109,192,88915,1,0,0:0:0:0:
475,192,88915,1,0,0:0:0:0:
329,192,89072,1,0,0:0:0:0:
402,192,89229,1,0,0:0:0:0:
109,192,89229,1,0,0:0:0:0:
182,192,89386,1,0,0:0:0:0:
36,192,89543,1,0,0:0:0:0:
329,192,89543,1,0,0:0:0:0:
475,192,89700,1,0,0:0:0:0:
109,192,89857,1,0,0:0:0:0:
256,192,89857,1,0,0:0:0:0:
402,192,90014,1,0,0:0:0:0:
182,192,90171,1,0,0:0:0:0:
36,192,90171,1,0,0:0:0:0:
329,192,90328,1,0,0:0:0:0:
109,192,90486,1,0,0:0:0:0:
475,192,90486,1,0,0:0:0:0:
256,192,90643,1,0,0:0:0:0:
402,192,90800,1,0,0:0:0:0:
36,192,90800,1,0,0:0:0:0:
109,192,90957,1,0,0:0:0:0:
475,192,90957,1,0,0:0:0:0:
256,192,90957,1,0,0:0:0:0:
182,192,91114,1,0,0:0:0:0:
329,192,91114,1,0,0:0:0:0:
402,192,91271,1,0,0:0:0:0:
475,192,91428,1,0,0:0:0:0:
109,192,91428,1,0,0:0:0:0:
182,192,91585,1,0,0:0:0:0:
256,192,91742,1,0,0:0:0:0:
36,192,91742,1,0,0:0:0:0:
402,192,91899,1,0,0:0:0:0:
329,192,92056,1,0,0:0:0:0:
109,192,92056,1,0,0:0:0:0:
256,192,92213,1,0,0:0:0:0:
182,192,92370,1,0,0:0:0:0:
475,192,92370,1,0,0:0:0:0:
329,192,92527,1,0,0:0:0:0:
182,192,92684,1,0,0:0:0:0:
36,192,92684,1,0,0:0:0:0:
256,192,92763,1,0,0:0:0:0:
329,192,92842,1,0,0:0:0:0:
402,192,92920,1,0,0:0:0:0:
475,192,92999,1,0,0:0:0:0:
36,192,92999,1,0,0:0:0:0:
109,192,93077,1,0,0:0:0:0:
182,192,93156,1,0,0:0:0:0:
256,192,93234,1,0,0:0:0:0:
475,192,93234,1,0,0:0:0:0:
402,192,93313,1,0,0:0:0:0:
329,192,93365,1,0,0:0:0:0:
256,192,93417,1,0,0:0:0:0:
182,192,93470,1,0,0:0:0:0:
109,192,93522,1,0,0:0:0:0:
36,192,93575,1,0,0:0:0:0:
256,192,93627,1,0,0:0:0:0:
329,192,93627,1,0,0:0:0:0:
402,192,93627,128,0,94569:0:0:0:0:
182,192,93784,1,0,0:0:0:0:
36,192,93941,1,0,0:0:0:0:
329,192,93941,1,0,0:0:0:0:
182,192,94098,1,0,0:0:0:0:
109,192,94255,1,0,0:0:0:0:
256,192,94255,1,0,0:0:0:0:
182,192,94412,1,0,0:0:0:0:
329,192,94569,1,0,0:0:0:0:
36,192,94569,1,0,0:0:0:0:
256,192,94726,1,0,0:0:0:0:
109,192,94883,1,0,0:0:0:0:
475,192,94883,1,0,0:0:0:0:
402,192,94962,1,0,0:0:0:0:
329,192,95040,1,0,0:0:0:0:
256,192,95119,1,0,0:0:0:0:
182,192,95198,1,0,0:0:0:0:
36,192,95198,1,0,0:0:0:0:
256,192,95276,1,0,0:0:0:0:
329,192,95355,1,0,0:0:0:0:
402,192,95407,1,0,0:0:0:0:
475,192,95459,1,0,0:0:0:0:
36,192,95512,1,0,0:0:0:0:
256,192,95512,1,0,0:0:0:0:
109,192,95721,1,0,0:0:0:0:
402,192,95721,1,0,0:0:0:0:
329,192,95931,1,0,0:0:0:0:
475,192,95931,1,0,0:0:0:0:
182,192,95983,1,0,0:0:0:0:
36,192,95983,1,0,0:0:0:0:
109,192,95983,1,0,0:0:0:0:
256,192,96140,1,0,0:0:0:0:
475,192,96140,128,0,98025:0:0:0:0:
109,192,96297,1,0,0:0:0:0:
36,192,96454,1,0,0:0:0:0:
329,192,96454,1,0,0:0:0:0:
109,192,96533,1,0,0:0:0:0:
182,192,96611,1,0,0:0:0:0:
256,192,96690,1,0,0:0:0:0:
329,192,96768,1,0,0:0:0:0:
36,192,96768,1,0,0:0:0:0:
109,192,96847,1,0,0:0:0:0:
182,192,96925,1,0,0:0:0:0:
402,192,96925,1,0,0:0:0:0:
329,192,97004,1,0,0:0:0:0:
256,192,97082,1,0,0:0:0:0:
36,192,97082,1,0,0:0:0:0:
109,192,97161,1,0,0:0:0:0:
182,192,97239,1,0,0:0:0:0:
329,192,97239,1,0,0:0:0:0:
402,192,97239,1,0,0:0:0:0:
256,192,97318,1,0,0:0:0:0:
182,192,97397,1,0,0:0:0:0:
36,192,97397,1,0,0:0:0:0:
402,192,97554,1,0,0:0:0:0:
329,192,97632,1,0,0:0:0:0:
256,192,97711,1,0,0:0:0:0:
36,192,97711,1,0,0:0:0:0:
402,192,97789,1,0,0:0:0:0:
329,192,97868,1,0,0:0:0:0:
256,192,97946,1,0,0:0:0:0:
182,192,98025,1,0,0:0:0:0:
36,192,98025,1,0,0:0:0:0:
402,192,98025,1,0,0:0:0:0:
109,192,98260,1,0,0:0:0:0:
256,192,98260,1,0,0:0:0:0:
475,192,98260,1,0,0:0:0:0:
182,192,98496,1,0,0:0:0:0:
402,192,98496,1,0,0:0:0:0:
36,192,98496,1,0,0:0:0:0:
109,192,98653,1,0,0:0:0:0:
256,192,98653,1,0,0:0:0:0:
475,192,98653,1,0,0:0:0:0:
402,192,98732,1,0,0:0:0:0:
329,192,98810,1,0,0:0:0:0:
256,192,98889,1,0,0:0:0:0:
182,192,98967,1,0,0:0:0:0:
36,192,98967,1,0,0:0:0:0:
475,192,99046,1,0,0:0:0:0:
402,192,99124,1,0,0:0:0:0:
329,192,99203,1,0,0:0:0:0:
256,192,99281,1,0,0:0:0:0:
36,192,99281,1,0,0:0:0:0:
109,192,99438,1,0,0:0:0:0:
329,192,99438,1,0,0:0:0:0:
182,192,99595,1,0,0:0:0:0:
256,192,99595,1,0,0:0:0:0:
109,192,99753,1,0,0:0:0:0:
475,192,99753,1,0,0:0:0:0:
402,192,99910,1,0,0:0:0:0:
182,192,99910,1,0,0:0:0:0:
329,192,100067,1,0,0:0:0:0:
36,192,100224,1,0,0:0:0:0:
402,192,100224,1,0,0:0:0:0:
182,192,100302,1,0,0:0:0:0:
109,192,100381,1,0,0:0:0:0:
329,192,100459,1,0,0:0:0:0:
475,192,100538,1,0,0:0:0:0:
36,192,100538,1,0,0:0:0:0:
402,192,100616,1,0,0:0:0:0:
182,192,100695,1,0,0:0:0:0:
329,192,100773,1,0,0:0:0:0:
256,192,100852,1,0,0:0:0:0:
475,192,100852,1,0,0:0:0:0:
36,192,100931,1,0,0:0:0:0:
182,192,101009,1,0,0:0:0:0:
109,192,101088,1,0,0:0:0:0:
329,192,101166,1,0,0:0:0:0:
475,192,101166,1,0,0:0:0:0:
256,192,101245,1,0,0:0:0:0:
182,192,101323,1,0,0:0:0:0:
109,192,101402,1,0,0:0:0:0:
329,192,101480,1,0,0:0:0:0:
36,192,101480,1,0,0:0:0:0:
109,192,101637,1,0,0:0:0:0:
402,192,101637,1,0,0:0:0:0:
182,192,101794,1,0,0:0:0:0:
475,192,101794,1,0,0:0:0:0:
109,192,101873,1,0,0:0:0:0:
36,192,101951,1,0,0:0:0:0:
109,192,102109,1,0,0:0:0:0:
475,192,102109,1,0,0:0:0:0:
182,192,102161,1,0,0:0:0:0:
256,192,102213,1,0,0:0:0:0:
329,192,102266,1,0,0:0:0:0:
402,192,102318,1,0,0:0:0:0:
475,192,102370,1,0,0:0:0:0:
36,192,102423,1,0,0:0:0:0:
109,192,102423,1,0,0:0:0:0:
182,192,102580,1,0,0:0:0:0:
256,192,102737,1,0,0:0:0:0:
475,192,102737,1,0,0:0:0:0:
329,192,102894,1,0,0:0:0:0:
256,192,102972,1,0,0:0:0:0:
475,192,103051,1,0,0:0:0:0:
182,192,103051,1,0,0:0:0:0:
36,192,103051,1,0,0:0:0:0:
402,192,103130,1,0,0:0:0:0:
329,192,103208,1,0,0:0:0:0:
36,192,103287,1,0,0:0:0:0:
256,192,103287,1,0,0:0:0:0:
475,192,103287,1,0,0:0:0:0:
109,192,103365,1,0,0:0:0:0:
182,192,103444,1,0,0:0:0:0:
36,192,103522,1,0,0:0:0:0:
256,192,103522,1,0,0:0:0:0:
402,192,103522,1,0,0:0:0:0:
109,192,103601,1,0,0:0:0:0:
182,192,103679,1,0,0:0:0:0:
402,192,103679,1,0,0:0:0:0:
329,192,103679,1,0,0:0:0:0:
475,192,103679,1,0,0:0:0:0:
256,192,109020,132,0,109177:0:0:0:0:
36,192,109177,1,0,0:0:0:0:
109,192,109255,1,0,0:0:0:0:
182,192,109334,1,0,0:0:0:0:
475,192,109412,1,0,0:0:0:0:
402,192,109491,1,0,0:0:0:0:
329,192,109569,1,0,0:0:0:0:
256,192,109648,1,0,0:0:0:0:
109,192,109648,1,0,0:0:0:0:
36,192,109648,128,0,109962:0:0:0:0:
329,192,109962,1,0,0:0:0:0:
182,192,109962,1,0,0:0:0:0:
475,192,109962,1,0,0:0:0:0:
475,192,110119,1,0,0:0:0:0:
182,192,110119,1,0,0:0:0:0:
182,192,110276,128,0,110590:0:0:0:0:
329,192,110276,128,0,110433:0:0:0:0:
36,192,110276,1,0,0:0:0:0:
109,192,110433,1,0,0:0:0:0:
475,192,110433,128,0,110590:0:0:0:0:
402,192,110433,1,0,0:0:0:0:
109,192,110747,128,0,110904:0:0:0:0:
475,192,110747,128,0,110904:0:0:0:0:
329,192,110904,1,0,0:0:0:0:
402,192,111061,128,0,111219:0:0:0:0:
36,192,111061,128,0,111219:0:0:0:0:
182,192,111061,1,0,0:0:0:0:
329,192,111219,1,0,0:0:0:0:
109,192,111376,128,0,111533:0:0:0:0:
256,192,111376,128,0,111533:0:0:0:0:
182,192,111533,1,0,0:0:0:0:
36,192,111533,1,0,0:0:0:0:
402,192,111533,1,0,0:0:0:0:
475,192,111690,128,0,111847:0:0:0:0:
329,192,111690,128,0,111847:0:0:0:0:
109,192,111847,1,0,0:0:0:0:
36,192,112004,128,0,112161:0:0:0:0:
182,192,112004,128,0,112161:0:0:0:0:
475,192,112161,1,0,0:0:0:0:
402,192,112161,1,0,0:0:0:0:
109,192,112161,1,0,0:0:0:0:
329,192,112239,1,0,0:0:0:0:
256,192,112318,1,0,0:0:0:0:
182,192,112397,1,0,0:0:0:0:
109,192,112475,1,0,0:0:0:0:
402,192,112475,1,0,0:0:0:0:
109,192,112632,1,0,0:0:0:0:
402,192,112632,1,0,0:0:0:0:
36,192,112789,128,0,113103:0:0:0:0:
402,192,112789,128,0,112946:0:0:0:0:
256,192,112789,1,0,0:0:0:0:
475,192,112946,128,0,113103:0:0:0:0:
182,192,112946,1,0,0:0:0:0:
402,192,113260,128,0,113417:0:0:0:0:
182,192,113260,128,0,113417:0:0:0:0:
329,192,113575,128,0,113732:0:0:0:0:
109,192,113575,128,0,113732:0:0:0:0:
475,192,113575,1,0,0:0:0:0:
256,192,113889,128,0,114046:0:0:0:0:
36,192,113889,128,0,114046:0:0:0:0:
182,192,114046,1,0,0:0:0:0:
329,192,114046,1,0,0:0:0:0:
475,192,114046,1,0,0:0:0:0:
402,192,114203,128,0,114360:0:0:0:0:
109,192,114203,128,0,114360:0:0:0:0:
256,192,114360,1,0,0:0:0:0:
182,192,114517,128,0,114674:0:0:0:0:
329,192,114517,128,0,114674:0:0:0:0:
36,192,114674,1,0,0:0:0:0:
256,192,114674,1,0,0:0:0:0:
475,192,114674,1,0,0:0:0:0:
182,192,114831,1,0,0:0:0:0:
329,192,114831,1,0,0:0:0:0:
256,192,114910,1,0,0:0:0:0:
109,192,114988,1,0,0:0:0:0:
402,192,114988,1,0,0:0:0:0:
256,192,115067,1,0,0:0:0:0:
36,192,115145,1,0,0:0:0:0:
475,192,115145,1,0,0:0:0:0:
256,192,115224,1,0,0:0:0:0:
36,192,115302,1,0,0:0:0:0:
109,192,115302,1,0,0:0:0:0:
402,192,115302,1,0,0:0:0:0:
475,192,115302,1,0,0:0:0:0:
182,192,115459,1,0,0:0:0:0:
329,192,115459,1,0,0:0:0:0:
402,192,115538,1,0,0:0:0:0:
109,192,115538,1,0,0:0:0:0:
36,192,115616,1,0,0:0:0:0:
475,192,115616,1,0,0:0:0:0:
109,192,115773,1,0,0:0:0:0:
329,192,115773,1,0,0:0:0:0:
182,192,115931,1,0,0:0:0:0:
402,192,115931,1,0,0:0:0:0:
475,192,116088,1,0,0:0:0:0:
256,192,116088,1,0,0:0:0:0:
36,192,116088,128,0,116402:0:0:0:0:
329,192,116245,1,0,0:0:0:0:
402,192,116402,1,0,0:0:0:0:
475,192,116402,1,0,0:0:0:0:
36,192,116559,1,0,0:0:0:0:
182,192,116559,1,0,0:0:0:0:
329,192,116559,1,0,0:0:0:0:
109,192,116716,128,0,117030:0:0:0:0:
402,192,116716,1,0,0:0:0:0:
182,192,116873,1,0,0:0:0:0:
329,192,116873,1,0,0:0:0:0:
256,192,117030,1,0,0:0:0:0:
402,192,117030,1,0,0:0:0:0:
36,192,117187,1,0,0:0:0:0:
475,192,117187,1,0,0:0:0:0:
182,192,117187,128,0,117344:0:0:0:0:
329,192,117344,128,0,117501:0:0:0:0:
109,192,117344,1,0,0:0:0:0:
475,192,117501,128,0,118287:0:0:0:0:
182,192,117501,1,0,0:0:0:0:
36,192,117501,1,0,0:0:0:0:
256,192,117658,1,0,0:0:0:0:
36,192,117815,1,0,0:0:0:0:
182,192,117815,1,0,0:0:0:0:
402,192,117815,1,0,0:0:0:0:
329,192,117972,1,0,0:0:0:0:
109,192,117972,1,0,0:0:0:0:
256,192,118130,1,0,0:0:0:0:
36,192,118287,1,0,0:0:0:0:
402,192,118287,128,0,118444:0:0:0:0:
109,192,118444,1,0,0:0:0:0:
329,192,118444,128,0,118601:0:0:0:0:
182,192,118601,1,0,0:0:0:0:
256,192,118601,1,0,0:0:0:0:
475,192,118601,1,0,0:0:0:0:
36,192,118601,128,0,119543:0:0:0:0:
402,192,118758,1,0,0:0:0:0:
329,192,118915,1,0,0:0:0:0:
475,192,118915,1,0,0:0:0:0:
109,192,118915,1,0,0:0:0:0:
182,192,119072,1,0,0:0:0:0:
256,192,119072,1,0,0:0:0:0:
329,192,119229,1,0,0:0:0:0:
475,192,119386,1,0,0:0:0:0:
402,192,119386,1,0,0:0:0:0:
256,192,119386,1,0,0:0:0:0:
182,192,119386,1,0,0:0:0:0:
329,192,119543,1,0,0:0:0:0:
109,192,119543,1,0,0:0:0:0:
109,192,119543,1,0,0:0:0:0:
256,192,119622,1,0,0:0:0:0:
475,192,119700,1,0,0:0:0:0:
182,192,119700,1,0,0:0:0:0:
402,192,119779,1,0,0:0:0:0:
36,192,119857,1,0,0:0:0:0:
329,192,119857,1,0,0:0:0:0:
256,192,119936,1,0,0:0:0:0:
475,192,120014,1,0,0:0:0:0:
182,192,120014,1,0,0:0:0:0:
109,192,120014,1,0,0:0:0:0:
402,192,120014,1,0,0:0:0:0:
109,192,120171,1,0,0:0:0:0:
402,192,120171,1,0,0:0:0:0:
475,192,120328,1,0,0:0:0:0:
329,192,120328,128,0,120486:0:0:0:0:
109,192,120328,128,0,120643:0:0:0:0:
402,192,120486,128,0,120643:0:0:0:0:
256,192,120486,1,0,0:0:0:0:
182,192,120643,1,0,0:0:0:0:
36,192,120800,128,0,120957:0:0:0:0:
475,192,120800,128,0,120957:0:0:0:0:
329,192,120957,1,0,0:0:0:0:
475,192,121114,128,0,121271:0:0:0:0:
182,192,121114,128,0,121271:0:0:0:0:
36,192,121114,1,0,0:0:0:0:
329,192,121271,1,0,0:0:0:0:
402,192,121428,128,0,121585:0:0:0:0:
109,192,121428,128,0,121585:0:0:0:0:
256,192,121585,1,0,0:0:0:0:
475,192,121585,1,0,0:0:0:0:
182,192,121585,1,0,0:0:0:0:
36,192,121742,128,0,121899:0:0:0:0:
329,192,121742,128,0,121899:0:0:0:0:
402,192,121899,1,0,0:0:0:0:
36,192,122056,128,0,122213:0:0:0:0:
182,192,122056,128,0,122213:0:0:0:0:
109,192,122213,1,0,0:0:0:0:
475,192,122213,1,0,0:0:0:0:
256,192,122213,1,0,0:0:0:0:
402,192,122292,1,0,0:0:0:0:
329,192,122370,1,0,0:0:0:0:
256,192,122449,1,0,0:0:0:0:
36,192,122527,1,0,0:0:0:0:
402,192,122527,1,0,0:0:0:0:
182,192,122527,1,0,0:0:0:0:
475,192,122527,1,0,0:0:0:0:
182,192,122684,1,0,0:0:0:0:
475,192,122684,1,0,0:0:0:0:
475,192,122842,128,0,123156:0:0:0:0:
256,192,122842,128,0,122999:0:0:0:0:
36,192,122842,1,0,0:0:0:0:
109,192,122999,128,0,123156:0:0:0:0:
329,192,122999,1,0,0:0:0:0:
256,192,123156,1,0,0:0:0:0:
402,192,123313,128,0,123470:0:0:0:0:
36,192,123313,128,0,123470:0:0:0:0:
182,192,123470,1,0,0:0:0:0:
329,192,123627,1,0,0:0:0:0:
109,192,123627,128,0,123784:0:0:0:0:
475,192,123627,128,0,123784:0:0:0:0:
256,192,123784,1,0,0:0:0:0:
182,192,123941,128,0,124098:0:0:0:0:
402,192,123941,128,0,124098:0:0:0:0:
36,192,124098,1,0,0:0:0:0:
256,192,124098,1,0,0:0:0:0:
475,192,124098,1,0,0:0:0:0:
109,192,124255,128,0,124412:0:0:0:0:
329,192,124255,128,0,124412:0:0:0:0:
182,192,124412,1,0,0:0:0:0:
256,192,124569,128,0,124726:0:0:0:0:
36,192,124569,128,0,124726:0:0:0:0:
109,192,124726,1,0,0:0:0:0:
329,192,124726,1,0,0:0:0:0:
475,192,124726,1,0,0:0:0:0:
402,192,124883,1,0,0:0:0:0:
182,192,124883,1,0,0:0:0:0:
329,192,124962,1,0,0:0:0:0:
109,192,124962,1,0,0:0:0:0:
256,192,125040,1,0,0:0:0:0:
475,192,125040,1,0,0:0:0:0:
182,192,125040,1,0,0:0:0:0:
36,192,125040,128,0,125826:0:0:0:0:
329,192,125198,1,0,0:0:0:0:
109,192,125355,1,0,0:0:0:0:
182,192,125355,1,0,0:0:0:0:
402,192,125355,1,0,0:0:0:0:
256,192,125512,1,0,0:0:0:0:
475,192,125669,1,0,0:0:0:0:
329,192,125826,1,0,0:0:0:0:
109,192,125826,128,0,125983:0:0:0:0:
182,192,125983,128,0,126140:0:0:0:0:
402,192,125983,1,0,0:0:0:0:
475,192,126140,1,0,0:0:0:0:
36,192,126140,1,0,0:0:0:0:
256,192,126140,128,0,127082:0:0:0:0:
329,192,126297,1,0,0:0:0:0:
109,192,126454,1,0,0:0:0:0:
402,192,126454,1,0,0:0:0:0:
475,192,126611,1,0,0:0:0:0:
182,192,126611,1,0,0:0:0:0:
36,192,126611,1,0,0:0:0:0:
329,192,126768,1,0,0:0:0:0:
109,192,126925,1,0,0:0:0:0:
402,192,126925,1,0,0:0:0:0:
329,192,127082,128,0,127239:0:0:0:0:
36,192,127082,1,0,0:0:0:0:
402,192,127239,128,0,127397:0:0:0:0:
109,192,127239,1,0,0:0:0:0:
475,192,127397,128,0,128496:0:0:0:0:
182,192,127397,1,0,0:0:0:0:
36,192,127397,1,0,0:0:0:0:
256,192,127397,1,0,0:0:0:0:
109,192,127554,1,0,0:0:0:0:
329,192,127554,1,0,0:0:0:0:
182,192,127711,1,0,0:0:0:0:
402,192,127711,1,0,0:0:0:0:
36,192,127868,1,0,0:0:0:0:
109,192,127868,1,0,0:0:0:0:
329,192,127868,1,0,0:0:0:0:
256,192,128025,1,0,0:0:0:0:
109,192,128182,1,0,0:0:0:0:
182,192,128339,1,0,0:0:0:0:
329,192,128496,1,0,0:0:0:0:
256,192,128535,1,0,0:0:0:0:
182,192,128575,1,0,0:0:0:0:
109,192,128614,1,0,0:0:0:0:
36,192,128653,1,0,0:0:0:0:
475,192,128692,1,0,0:0:0:0:
402,192,128732,1,0,0:0:0:0:
329,192,128771,1,0,0:0:0:0:
256,192,128810,1,0,0:0:0:0:
36,192,128810,1,0,0:0:0:0:
109,192,128810,1,0,0:0:0:0:
182,192,128810,1,0,0:0:0:0:
475,192,128889,1,0,0:0:0:0:
402,192,128967,1,0,0:0:0:0:
329,192,129046,1,0,0:0:0:0:
182,192,129124,128,0,129281:0:0:0:0:
109,192,129203,128,0,129360:0:0:0:0:
36,192,129281,128,0,129438:0:0:0:0:
475,192,129360,128,0,129517:0:0:0:0:
402,192,129438,128,0,129595:0:0:0:0:
329,192,129517,128,0,129674:0:0:0:0:
182,192,129595,1,0,0:0:0:0:
109,192,129674,1,0,0:0:0:0:
36,192,129753,1,0,0:0:0:0:
329,192,129753,1,0,0:0:0:0:
402,192,129753,1,0,0:0:0:0:
475,192,129753,1,0,0:0:0:0:
109,192,129805,1,0,0:0:0:0:
182,192,129857,1,0,0:0:0:0:
256,192,129910,1,0,0:0:0:0:
329,192,129962,1,0,0:0:0:0:
402,192,130014,1,0,0:0:0:0:
475,192,130067,1,0,0:0:0:0:
109,192,130067,1,0,0:0:0:0:
182,192,130067,1,0,0:0:0:0:
36,192,130067,1,0,0:0:0:0:
182,192,130224,1,0,0:0:0:0:
475,192,130224,1,0,0:0:0:0:
256,192,130381,1,0,0:0:0:0:
402,192,130381,1,0,0:0:0:0:
475,192,130381,128,0,130695:0:0:0:0:
36,192,130381,128,0,130538:0:0:0:0:
182,192,130538,128,0,130695:0:0:0:0:
329,192,130538,1,0,0:0:0:0:
36,192,130695,1,0,0:0:0:0:
109,192,130852,128,0,131009:0:0:0:0:
475,192,130852,128,0,131009:0:0:0:0:
256,192,131009,1,0,0:0:0:0:
36,192,131166,128,0,131323:0:0:0:0:
329,192,131166,128,0,131323:0:0:0:0:
182,192,131166,1,0,0:0:0:0:
109,192,131323,1,0,0:0:0:0:
182,192,131480,128,0,131637:0:0:0:0:
475,192,131480,128,0,131637:0:0:0:0:
256,192,131637,1,0,0:0:0:0:
36,192,131637,1,0,0:0:0:0:
402,192,131637,1,0,0:0:0:0:
109,192,131794,128,0,131951:0:0:0:0:
329,192,131794,128,0,131951:0:0:0:0:
256,192,131951,1,0,0:0:0:0:
36,192,132109,128,0,132266:0:0:0:0:
182,192,132109,128,0,132266:0:0:0:0:
109,192,132266,1,0,0:0:0:0:
329,192,132266,1,0,0:0:0:0:
475,192,132266,1,0,0:0:0:0:
182,192,132344,1,0,0:0:0:0:
256,192,132423,1,0,0:0:0:0:
329,192,132501,1,0,0:0:0:0:
402,192,132580,1,0,0:0:0:0:
36,192,132580,1,0,0:0:0:0:
36,192,132737,1,0,0:0:0:0:
402,192,132737,1,0,0:0:0:0:
256,192,132894,1,0,0:0:0:0:
402,192,132894,128,0,133208:0:0:0:0:
109,192,132894,128,0,133051:0:0:0:0:
36,192,133051,128,0,133208:0:0:0:0:
329,192,133051,1,0,0:0:0:0:
182,192,133208,1,0,0:0:0:0:
329,192,133365,128,0,133522:0:0:0:0:
475,192,133365,128,0,133522:0:0:0:0:
109,192,133522,1,0,0:0:0:0:
182,192,133679,128,0,133836:0:0:0:0:
402,192,133679,128,0,133836:0:0:0:0:
36,192,133679,1,0,0:0:0:0:
329,192,133836,1,0,0:0:0:0:
109,192,133993,128,0,134150:0:0:0:0:
256,192,133993,128,0,134150:0:0:0:0:
36,192,134150,1,0,0:0:0:0:
329,192,134150,1,0,0:0:0:0:
402,192,134150,1,0,0:0:0:0:
182,192,134308,128,0,134465:0:0:0:0:
475,192,134308,128,0,134465:0:0:0:0:
256,192,134465,1,0,0:0:0:0:
329,192,134622,128,0,134779:0:0:0:0:
36,192,134622,128,0,134779:0:0:0:0:
256,192,134779,1,0,0:0:0:0:
475,192,134779,1,0,0:0:0:0:
109,192,134779,1,0,0:0:0:0:
182,192,134936,1,0,0:0:0:0:
402,192,134936,1,0,0:0:0:0:
36,192,135093,1,0,0:0:0:0:
329,192,135093,1,0,0:0:0:0:
256,192,135171,1,0,0:0:0:0:
109,192,135250,1,0,0:0:0:0:
402,192,135250,1,0,0:0:0:0:
329,192,135328,1,0,0:0:0:0:
182,192,135407,1,0,0:0:0:0:
475,192,135407,1,0,0:0:0:0:
36,192,135407,1,0,0:0:0:0:
256,192,135407,1,0,0:0:0:0:
109,192,135564,1,0,0:0:0:0:
329,192,135564,1,0,0:0:0:0:
182,192,135643,1,0,0:0:0:0:
402,192,135643,1,0,0:0:0:0:
