osu file format v14

[General]
AudioFilename: 17 - Halcyon -Long Version-.mp3
AudioLeadIn: 0
PreviewTime: 150096
Countdown: 0
SampleSet: Soft
StackLeniency: 0.7
Mode: 0
LetterboxInBreaks: 1
WidescreenStoryboard: 0

[Editor]
DistanceSpacing: 1
BeatDivisor: 4
GridSize: 8
TimelineZoom: 2.1

[Metadata]
Title:Halcyon (Long Ver.)
TitleUnicode:Halcyon (Long Ver.)
Artist:xi
ArtistUnicode:xi
Creator:Gus
Version:Heaven
Source:BMS
Tags:Cytus parousia renaissance hardcore four dimensions piano
BeatmapID:1042251
BeatmapSetID:488936

[Difficulty]
HPDrainRate:6.5
CircleSize:4
OverallDifficulty:9
ApproachRate:9.5
SliderMultiplier:1.8
SliderTickRate:1

[Events]
//Background and Video events
0,0,"n6553Ql.jpg",0,0
//Break Periods
//Storyboard Layer 0 (Background)
//Storyboard Layer 1 (Fail)
//Storyboard Layer 2 (Pass)
//Storyboard Layer 3 (Foreground)
//Storyboard Sound Samples

[TimingPoints]
-339,628.272251308901,4,2,1,10,1,0
9713,638.297872340426,4,2,1,10,1,0
10351,645.161290322581,4,2,1,10,1,0
10996,670.391061452514,4,2,1,10,1,0
11666,697.674418604651,4,2,1,10,1,0
12363,628.272251308901,4,2,1,10,1,0
17389,666.666666666667,4,2,1,10,1,0
20055,727.272727272727,4,2,1,10,1,0
22964,681.818181818182,4,2,1,10,1,0
25350,-200,4,2,1,10,0,0
25601,-100,4,2,1,10,0,0
25691,645.161290322581,4,2,1,10,1,0
26336,628.272251308901,4,2,1,10,1,0
26336,-100,4,2,1,10,0,0
32313,-100,4,2,1,10,0,0
35131,-100,4,2,1,10,0,0
37350,-100,4,2,1,10,0,0
37644,-100,4,2,1,10,0,0
45213,-200,4,2,1,10,0,0
45528,-100,4,2,1,10,0,0
45843,-100,4,2,1,10,0,0
57093,-100,4,2,1,10,0,0
57250,-200,4,2,1,10,0,0
57749,-100,4,2,1,10,0,0
62775,750,4,2,1,10,1,0
63775,-200,4,2,1,10,0,0
64275,805.369127516779,4,2,1,10,1,0
65080,857.142857142857,4,2,1,5,1,0
65937,1025.64102564103,4,2,1,5,1,0
66962,1463.41463414634,4,2,1,5,1,0
68738,314.13612565445,4,2,1,45,1,0
68738,-66.6666666666667,4,2,1,45,0,0
69052,-100,4,2,1,45,0,0
69680,314.13612565445,4,2,1,45,1,0
89470,-50,4,2,1,45,0,0
89784,-66.6666666666667,4,2,1,45,0,0
90412,-100,4,2,1,45,0,0
99837,-80,4,2,1,45,0,0
108161,-100,4,2,1,45,0,0
150096,-100,4,2,1,45,0,0
151355,-100,4,2,1,45,0,1
171145,-66.6666666666667,4,2,1,45,0,0
177114,-100,4,2,1,45,0,0
180884,-100,4,2,1,45,0,1
192505,-66.6666666666667,4,2,1,45,0,1
192821,628.272251308901,4,2,1,45,1,0
192821,-50,4,2,1,45,0,0
194077,628.272251308901,4,2,1,45,1,0
194077,-50,4,2,1,45,0,0
195332,-66.6666666666667,4,2,1,45,0,0
196903,628.272251308901,4,2,1,45,1,0
196903,-100,4,2,1,45,0,0
200044,314.13612565445,4,2,1,45,1,0
200044,-181.818181818181,4,2,1,45,0,0
203264,-200,4,2,1,45,0,0
203499,628.272251308901,4,2,1,45,1,0
204912,-100,4,2,1,5,0,0
205423,-100,4,2,1,25,0,0
213395,-200,4,2,1,5,0,0
213551,-50,4,2,1,35,0,0
233029,314.13612565445,4,2,1,35,1,0
234286,314.13612565445,4,2,1,45,1,0
234443,-100,4,2,1,45,0,0
244416,-100,4,2,1,45,0,1
254390,-100,4,2,1,45,0,0
256589,-50,4,2,1,45,0,0
256903,-100,4,2,1,45,0,1
257689,-100,4,2,1,45,0,0
275751,-100,4,2,1,45,0,1
284233,-100,4,2,1,45,0,0
287375,-100,4,2,1,45,0,1
299940,314.13612565445,4,2,1,45,1,0
300253,-50,4,2,1,45,0,0
303630,-100,4,2,1,5,0,0
2053423,-100,4,2,1,45,0,0

[Colours]
Combo1 : 24,81,232
Combo2 : 255,255,255
Combo3 : 18,124,255
Combo4 : 37,91,40

[HitObjects]
92,67,918,6,0,P|99:155|106:169,1,90
145,255,1388,2,0,L|184:291,2,45
219,204,1859,2,0,L|300:174,1,45
213,111,2174,2,0,P|242:59|286:39,1,90
406,84,2802,2,0,P|388:124|353:151,1,90
200,54,3744,2,0,L|111:72,2,90
148,191,4687,2,0,B|105:173|51:190,1,90
142,328,5315,2,0,B|189:348|230:331,1,90
247,198,5944,2,0,B|288:181|335:201,1,90
437,326,6572,5,0,0:0:0:0:
447,330,6729,2,0,L|463:268,1,60
479,168,7200,6,0,P|471:110|438:73,1,90
335,40,7828,2,0,P|276:50|250:66,1,90
194,236,8457,2,0,P|155:239|94:214,2,90
301,309,9399,1,0,0:0:0:0:
302,130,9713,2,0,L|302:229,2,90
301,309,10996,5,0,0:0:0:0:
301,309,11331,2,0,P|345:310|392:288,1,90
461,169,12014,6,0,P|445:142|422:121,1,45
368,66,12363,1,0,0:0:0:0:
237,133,12677,1,0,0:0:0:0:
237,133,12991,2,0,P|216:175|220:235,1,90
384,218,13933,6,0,P|428:255|440:298,1,90
311,358,14561,2,0,P|329:317|368:289,1,90
455,203,15190,1,0,0:0:0:0:
455,203,15504,2,0,P|452:130|447:112,1,90
200,58,16446,6,0,P|155:52|113:67,1,90
174,145,17075,2,0,P|222:151|273:132,1,90
376,87,17722,1,0,0:0:0:0:
386,88,18055,2,0,P|421:131|429:177,1,90
51,340,19055,6,0,P|109:332|148:308,1,90
235,232,19722,1,0,0:0:0:0:
235,232,20055,2,0,L|252:213,2,15
314,86,21509,5,0,0:0:0:0:
256,192,21600,12,0,25350,0:0:0:0:
81,48,25691,6,0,L|48:86,1,45
119,140,26013,2,0,L|163:192,1,45
111,259,26336,6,0,B|160:340|160:340|227:320|305:273|138:179|311:184|103:95|217:-31|402:-46|453:44|488:151|421:201|421:201|414:209,1,720
334,143,29163,2,0,L|334:201,1,45
278,251,29477,6,0,P|236:234|213:217,2,67.5
362,282,30105,2,0,P|419:252|423:200,1,90
305,98,30733,2,0,P|312:134|345:186,1,90
208,304,31362,2,0,B|119:311|77:211,1,135
107,47,32304,2,0,B|171:44|171:44|98:116|85:377|295:240|320:249|256:115|290:32|422:89|480:215|450:300|450:300|384:272|337:322,1,810,0|0,0:0|0:0,0:0:0:0:
279,316,35445,6,0,P|246:308|160:330,1,90
102,295,35917,1,0,0:0:0:0:
99,205,36074,1,0,0:0:0:0:
141,125,36231,1,0,0:0:0:0:
220,82,36388,2,0,B|379:113|379:113|394:187|394:187|372:248|372:248|348:272,1,315
301,322,37644,6,0,B|160:313|131:128|131:128|44:125|44:125,1,360
250,57,39215,2,0,P|337:38|426:49,1,180
389,131,40000,2,0,L|354:153,2,22.5
468,173,40315,2,0,L|487:161,2,22.5
413,244,40629,2,0,L|378:266,2,22.5
276,331,41100,1,0,0:0:0:0:
96,329,41414,1,0,0:0:0:0:
372,99,42042,1,0,0:0:0:0:
466,25,42356,2,0,B|421:39|421:39|469:77|470:132|467:245|345:186|315:209|297:176|272:150|305:96|316:72|284:48|195:54|155:71|108:100|82:141|148:181|40:211|91:257|111:283|161:303|193:287|238:229|238:229|232:253,1,810
90,342,45498,5,0,0:0:0:0:
90,342,45812,2,0,P|69:322|56:283,1,45
100,226,46126,2,0,P|91:205|87:183,1,45
124,101,46440,1,0,0:0:0:0:
243,90,46754,6,0,P|306:72|349:74,1,90
451,205,47383,2,0,L|452:280,1,45
364,321,47697,2,0,B|330:342|283:339,2,45
304,253,48168,2,0,P|273:196|277:185,1,45
94,228,48639,1,0,0:0:0:0:
275,30,48953,2,0,L|337:133,2,90
419,63,49896,2,0,L|457:18,2,45
419,152,50367,1,0,0:0:0:0:
417,241,50524,2,0,P|331:242|311:234,1,90
245,81,51152,1,0,0:0:0:0:
406,27,51466,5,0,0:0:0:0:
406,27,51781,1,0,0:0:0:0:
406,27,52095,2,0,P|438:68|433:121,1,90
394,278,52723,5,0,0:0:0:0:
507,138,53037,1,0,0:0:0:0:
317,119,53351,2,0,P|328:162|357:196,1,90
463,344,53979,1,0,0:0:0:0:
358,197,54294,1,0,0:0:0:0:
440,36,54608,1,0,0:0:0:0:
223,235,54922,2,0,L|195:271,1,45
125,213,55236,2,0,L|66:276,1,45
100,126,55550,2,0,P|136:72|171:56,1,90
241,30,56021,2,0,L|242:105,2,45
329,31,56493,6,0,P|337:133|315:226,1,180
58,234,57749,6,0,P|197:230|188:39,1,360,0|0,0:0|0:0,0:0:0:0:
198,46,59634,2,0,P|284:29|382:37,1,180,0|0,0:0|0:0,0:0:0:0:
435,38,60890,2,0,P|462:26|491:23,1,45
480,114,61205,2,0,P|453:125|424:129,1,45
349,143,61519,5,0,0:0:0:0:
28,306,62147,1,0,0:0:0:0:
227,6,62775,1,0,0:0:0:0:
256,176,63525,5,0,0:0:0:0:
256,176,63775,2,0,L|256:211,1,30
257,342,64275,1,0,0:0:0:0:
256,192,64677,12,0,68303,0:0:0:0:
446,138,68738,6,0,P|463:89|350:55,1,202.500007724762,4|0,0:0|0:0,0:0:0:0:
312,135,69052,6,0,P|321:178|352:207,1,45,2|0,0:0|0:0,0:0:0:0:
392,292,69209,1,2,0:0:0:0:
346,320,69287,1,0,0:0:0:0:
291,325,69366,1,2,0:0:0:0:
242,302,69444,1,0,0:0:0:0:
201,265,69523,1,2,0:0:0:0:
149,248,69601,1,0,0:0:0:0:
96,261,69680,6,0,P|80:194|84:154,1,90,2|0,0:0|0:0,0:0:0:0:
145,34,69994,1,0,0:0:0:0:
201,176,70151,2,0,P|207:236|193:286,1,90,2|0,0:0|0:0,0:0:0:0:
283,158,70465,2,0,P|309:212|313:264,1,90,2|0,0:0|0:0,0:0:0:0:
377,122,70779,2,0,P|420:164|441:211,1,90,2|0,0:0|0:0,0:0:0:0:
450,323,71093,6,0,L|349:324,1,90,2|0,0:0|0:0,0:0:0:0:
472,248,71407,2,0,P|414:223|383:175,1,90,2|0,0:0|0:0,0:0:0:0:
377,122,71721,2,0,L|318:103,1,45,2|0,0:0|0:0,0:0:0:0:
220,57,71878,1,2,0:0:0:0:
181,95,71957,1,0,0:0:0:0:
134,123,72036,1,2,0:0:0:0:
80,129,72114,1,0,0:0:0:0:
25,131,72193,6,0,P|32:186|75:220,1,90,2|0,0:0|0:0,0:0:0:0:
164,267,72507,1,2,0:0:0:0:
164,267,72585,1,0,0:0:0:0:
164,267,72664,2,0,P|202:210|233:194,1,90,2|0,0:0|0:0,0:0:0:0:
302,141,72978,2,0,P|338:169|366:203,1,90,2|0,0:0|0:0,0:0:0:0:
259,286,73293,6,0,P|283:324|297:366,1,90,2|0,0:0|0:0,0:0:0:0:
119,361,73606,1,2,0:0:0:0:
81,180,73763,1,0,0:0:0:0:
81,180,73842,1,0,0:0:0:0:
81,180,73920,2,0,P|90:127|128:90,1,90,2|0,0:0|0:0,0:0:0:0:
254,57,74234,2,0,P|281:93|286:138,1,90,2|0,0:0|0:0,0:0:0:0:
283,261,74549,6,0,P|354:216|426:120,1,180,2|0,0:0|0:0,0:0:0:0:
277,176,75020,2,0,P|288:110|283:92,1,45
308,44,75177,1,2,0:0:0:0:
254,57,75255,1,2,0:0:0:0:
202,41,75334,1,2,0:0:0:0:
60,132,75491,1,2,0:0:0:0:
97,307,75648,1,2,0:0:0:0:
241,200,75805,1,2,0:0:0:0:
198,345,75962,6,0,L|258:343,1,45
334,254,76119,2,2,P|331:322|353:371,1,90
412,178,76433,2,0,P|437:241|478:276,1,90,2|0,0:0|0:0,0:0:0:0:
477,77,76748,1,2,0:0:0:0:
297,84,76905,2,0,P|225:89|190:107,1,90,2|0,0:0|0:0,0:0:0:0:
60,132,77219,6,0,L|220:214,1,180,2|0,0:0|0:0,0:0:0:0:
272,288,77611,1,0,0:0:0:0:
272,288,77690,2,0,P|304:232|304:176,1,90,2|0,0:0|0:0,0:0:0:0:
302,20,78004,1,2,0:0:0:0:
302,20,78161,1,2,0:0:0:0:
302,20,78318,6,0,P|371:45|402:78,1,90,2|0,0:0|0:0,0:0:0:0:
406,82,78554,1,0,0:0:0:0:
420,114,78632,1,0,0:0:0:0:
426,221,78789,2,0,L|377:220,1,45
296,219,78947,1,0,0:0:0:0:
442,312,79104,6,0,L|391:309,1,45,2|0,0:0|0:0,0:0:0:0:
306,317,79261,1,2,0:0:0:0:
247,325,79340,1,0,0:0:0:0:
188,302,79418,1,2,0:0:0:0:
153,243,79497,1,0,0:0:0:0:
136,173,79575,1,2,0:0:0:0:
144,96,79654,1,0,0:0:0:0:
158,16,79732,6,0,P|231:53|256:91,1,90,2|0,0:0|0:0,0:0:0:0:
306,317,80046,1,2,0:0:0:0:
306,317,80125,1,0,0:0:0:0:
306,317,80204,2,0,P|383:289|409:262,1,90,2|0,0:0|0:0,0:0:0:0:
218,205,80518,2,0,P|174:195|135:172,1,90,2|0,0:0|0:0,0:0:0:0:
309,130,80832,2,0,P|386:102|412:75,1,90,2|0,0:0|0:0,0:0:0:0:
217,56,81145,6,0,P|173:46|134:23,1,90,2|0,0:0|0:0,0:0:0:0:
84,155,81460,2,0,P|118:219|153:261,1,90,2|0,0:0|0:0,0:0:0:0:
235,349,81774,2,0,L|258:286,1,45,0|0,0:0|0:0,0:0:0:0:
289,219,81931,1,2,0:0:0:0:
339,248,82009,1,0,0:0:0:0:
386,282,82088,1,2,0:0:0:0:
430,319,82166,1,0,0:0:0:0:
473,358,82245,6,0,P|482:291|472:241,1,90,2|0,0:0|0:0,0:0:0:0:
382,127,82559,2,2,L|431:188,1,45
304,142,82716,2,0,B|245:56,1,90,2|0,0:0|0:0,0:0:0:0:
158,243,83030,2,0,L|212:332,1,90,2|0,0:0|0:0,0:0:0:0:
382,127,83344,2,0,L|324:37,1,90,2|0,0:0|0:0,0:0:0:0:
46,267,83659,2,0,L|97:361,1,90,2|0,0:0|0:0,0:0:0:0:
357,334,83973,6,0,P|418:264|422:232,1,90,2|0,0:0|0:0,0:0:0:0:
374,99,84287,2,0,P|313:169|309:201,1,90,2|0,0:0|0:0,0:0:0:0:
202,303,84601,1,6,0:0:0:0:
202,303,84679,1,6,0:0:0:0:
202,303,84758,2,0,L|204:121,2,180,6|0|0,0:0|0:0|0:0,0:0:0:0:
87,164,85543,1,6,0:0:0:0:
203,26,85700,1,6,0:0:0:0:
377,72,85858,2,2,P|426:161|386:196,1,135,6|2,0:0|0:0,0:0:0:0:
363,260,86172,5,6,0:0:0:0:
363,260,86329,2,2,P|284:264|232:166,1,180,6|2,0:0|0:0,0:0:0:0:
244,338,86800,1,4,0:0:0:0:
322,176,86957,1,4,0:0:0:0:
417,326,87114,2,0,P|462:285|444:219,1,135,4|0,0:0|0:0,0:0:0:0:
391,141,87428,5,4,0:0:0:0:
225,70,87585,1,2,0:0:0:0:
195,103,87664,1,0,0:0:0:0:
181,145,87742,1,2,0:0:0:0:
224,223,87899,1,2,0:0:0:0:
261,197,87978,1,0,0:0:0:0:
277,150,88056,1,2,0:0:0:0:
387,38,88214,1,2,0:0:0:0:
387,38,88292,1,0,0:0:0:0:
387,38,88371,2,0,L|412:88,1,45,2|0,0:0|0:0,0:0:0:0:
500,231,88528,5,2,0:0:0:0:
483,273,88607,1,0,0:0:0:0:
444,295,88685,1,2,0:0:0:0:
398,292,88764,1,0,0:0:0:0:
356,276,88842,1,2,0:0:0:0:
317,252,88921,1,0,0:0:0:0:
284,282,88999,5,2,0:0:0:0:
238,286,89078,1,0,0:0:0:0:
196,268,89156,1,2,0:0:0:0:
158,242,89235,1,0,0:0:0:0:
125,209,89314,1,2,0:0:0:0:
108,167,89392,1,0,0:0:0:0:
95,124,89470,2,0,P|192:116|353:201,1,270,2|0,0:0|0:0,0:0:0:0:
398,292,89784,2,0,P|305:332|205:341,1,202.500007724762,2|0,0:0|0:0,0:0:0:0:
94,322,90098,6,0,P|77:227|94:124,1,202.500007724762,2|0,0:0|0:0,0:0:0:0:
321,75,90412,2,0,P|381:115|398:155,1,90,2|0,0:0|0:0,0:0:0:0:
398,292,90727,1,0,0:0:0:0:
202,282,90884,2,0,P|157:243|146:204,1,90,2|0,0:0|0:0,0:0:0:0:
218,50,91198,2,0,P|258:93|262:136,1,90,2|0,0:0|0:0,0:0:0:0:
291,336,91512,5,2,0:0:0:0:
181,120,91669,1,2,0:0:0:0:
291,336,91827,1,2,0:0:0:0:
198,337,91984,2,0,P|239:257|346:265,1,180
465,282,92455,5,0,0:0:0:0:
457,156,92612,2,0,P|431:116|382:86,1,90,2|0,0:0|0:0,0:0:0:0:
295,19,92926,1,2,0:0:0:0:
183,53,93083,1,2,0:0:0:0:
108,143,93240,1,2,0:0:0:0:
108,143,93397,2,0,P|183:171|218:160,1,90,2|0,0:0|0:0,0:0:0:0:
423,52,93711,6,0,P|412:131|395:168,1,90,0|2,0:0|0:0,0:0:0:0:
356,255,94025,1,2,0:0:0:0:
250,325,94183,1,2,0:0:0:0:
216,338,94261,1,0,0:0:0:0:
180,342,94340,1,0,0:0:0:0:
145,333,94418,1,0,0:0:0:0:
116,310,94497,5,2,0:0:0:0:
147,261,94575,1,0,0:0:0:0:
180,212,94654,1,0,0:0:0:0:
196,156,94732,1,0,0:0:0:0:
198,97,94811,6,0,P|281:62|344:73,1,135,2|0,0:0|0:0,0:0:0:0:
321,87,95125,2,4,B|315:151|327:198|327:199,1,90,0|0,0:0|0:0,0:0:0:0:
327,266,95439,1,4,0:0:0:0:
173,171,95596,1,4,0:0:0:0:
352,170,95753,1,4,0:0:0:0:
208,278,95910,1,4,0:0:0:0:
273,110,96067,5,2,0:0:0:0:
279,98,96145,1,0,0:0:0:0:
286,86,96224,1,2,0:0:0:0:
292,74,96302,1,0,0:0:0:0:
297,61,96381,5,2,0:0:0:0:
338,44,96460,1,0,0:0:0:0:
381,55,96538,1,2,0:0:0:0:
409,90,96617,1,0,0:0:0:0:
433,127,96695,5,2,0:0:0:0:
389,115,96774,1,0,0:0:0:0:
344,115,96852,1,2,0:0:0:0:
304,137,96931,1,0,0:0:0:0:
303,181,97009,5,2,0:0:0:0:
291,224,97088,1,0,0:0:0:0:
273,265,97166,1,2,0:0:0:0:
240,296,97245,1,0,0:0:0:0:
197,308,97323,6,0,P|183:257|211:211,1,90,4|0,0:0|0:0,0:0:0:0:
254,144,97559,1,0,0:0:0:0:
254,144,97638,2,0,P|289:208|288:255,1,90,2|0,0:0|0:0,0:0:0:0:
345,347,97952,2,0,L|344:285,1,45
349,211,98109,1,0,0:0:0:0:
214,269,98266,1,0,0:0:0:0:
223,312,98344,1,0,0:0:0:0:
258,346,98423,1,0,0:0:0:0:
301,354,98501,1,0,0:0:0:0:
345,347,98580,6,0,P|365:309|365:279,1,45,4|0,0:0|0:0,0:0:0:0:
380,218,98737,1,0,0:0:0:0:
341,194,98816,1,0,0:0:0:0:
297,202,98894,1,0,0:0:0:0:
215,241,99051,1,0,0:0:0:0:
136,106,99208,1,0,0:0:0:0:
171,77,99287,1,0,0:0:0:0:
212,59,99365,1,0,0:0:0:0:
256,50,99444,1,0,0:0:0:0:
300,47,99522,1,0,0:0:0:0:
336,74,99601,1,0,0:0:0:0:
377,90,99679,1,0,0:0:0:0:
421,82,99758,1,0,0:0:0:0:
456,54,99837,6,0,L|456:241,1,168.75,2|0,0:0|0:0,0:0:0:0:
452,335,100151,2,0,P|353:328|297:286,1,168.75,2|0,0:0|0:0,0:0:0:0:
224,202,100465,1,0,0:0:0:0:
421,82,100622,1,0,0:0:0:0:
230,79,100779,1,0,0:0:0:0:
272,299,100936,5,2,0:0:0:0:
47,304,101093,1,0,0:0:0:0:
158,108,101250,1,2,0:0:0:0:
297,284,101407,5,0,0:0:0:0:
75,322,101564,1,2,0:0:0:0:
185,126,101721,1,0,0:0:0:0:
301,318,101878,5,0,0:0:0:0:
76,288,102036,1,0,0:0:0:0:
191,94,102193,1,0,0:0:0:0:
329,271,102350,6,0,P|357:210|361:157,1,112.5
247,41,102664,1,2,0:0:0:0:
247,209,102821,1,0,0:0:0:0:
78,201,102978,2,2,P|100:139|145:100,1,112.5
247,41,103292,1,2,0:0:0:0:
247,209,103449,2,0,P|225:271|180:310,1,112.5,2|0,0:0|0:0,0:0:0:0:
32,355,103763,5,0,0:0:0:0:
32,220,103920,1,0,0:0:0:0:
32,85,104077,6,0,L|111:110,1,56.25,0|0,0:0|0:0,0:0:0:0:
187,131,104234,1,0,0:0:0:0:
243,138,104313,1,0,0:0:0:0:
298,125,104392,1,0,0:0:0:0:
345,95,104470,1,0,0:0:0:0:
387,57,104549,1,0,0:0:0:0:
431,23,104627,1,0,0:0:0:0:
487,29,104706,1,0,0:0:0:0:
505,81,104784,1,0,0:0:0:0:
502,137,104863,6,0,P|426:180|325:176,1,168.75,2|0,0:0|0:0,0:0:0:0:
243,138,105177,2,0,P|236:231|252:312,1,168.75,2|0,0:0|0:0,0:0:0:0:
343,367,105491,2,2,B|350:276|345:235,1,112.5
340,142,105805,1,2,0:0:0:0:
260,51,105962,1,2,0:0:0:0:
195,143,106119,5,2,0:0:0:0:
147,174,106198,1,0,0:0:0:0:
138,229,106276,1,2,0:0:0:0:
175,271,106355,1,0,0:0:0:0:
230,267,106433,1,2,0:0:0:0:
258,217,106512,1,0,0:0:0:0:
243,163,106590,1,2,0:0:0:0:
195,143,106669,5,0,0:0:0:0:
196,165,106747,1,2,0:0:0:0:
197,187,106826,1,0,0:0:0:0:
198,209,106904,1,2,0:0:0:0:
199,231,106983,1,0,0:0:0:0:
200,253,107062,1,2,0:0:0:0:
201,275,107140,1,0,0:0:0:0:
202,297,107219,1,2,0:0:0:0:
203,319,107297,1,0,0:0:0:0:
203,341,107376,6,0,P|294:330|328:296,1,112.5,2|0,0:0|0:0,0:0:0:0:
358,100,107690,2,0,P|267:111|233:145,1,112.5,2|0,0:0|0:0,0:0:0:0:
72,256,108004,1,2,0:0:0:0:
163,339,108162,1,2,0:0:0:0:
242,246,108319,5,2,0:0:0:0:
283,219,108397,1,0,0:0:0:0:
330,204,108476,1,2,0:0:0:0:
377,191,108554,1,0,0:0:0:0:
426,183,108633,6,0,L|421:131,1,45,2|0,0:0|0:0,0:0:0:0:
335,110,108790,2,0,L|340:165,1,45,2|0,0:0|0:0,0:0:0:0:
253,184,108947,6,0,L|248:132,1,45,2|0,0:0|0:0,0:0:0:0:
163,108,109104,2,0,L|168:163,1,45,2|0,0:0|0:0,0:0:0:0:
170,241,109261,1,2,0:0:0:0:
201,301,109340,1,2,0:0:0:0:
256,338,109418,1,2,0:0:0:0:
320,358,109497,1,2,0:0:0:0:
386,362,109575,1,2,0:0:0:0:
439,300,109654,1,2,0:0:0:0:
470,226,109732,1,2,0:0:0:0:
482,145,109811,1,2,0:0:0:0:
467,65,109889,6,0,P|394:113|382:135,1,90,2|0,0:0|0:0,0:0:0:0:
314,211,110203,1,0,0:0:0:0:
188,158,110361,1,0,0:0:0:0:
398,305,110518,1,0,0:0:0:0:
107,171,110675,6,2,P|117:115|174:82,1,90,0|0,0:0|0:0,0:0:0:0:
249,18,110989,1,2,0:0:0:0:
420,71,111146,6,0,P|428:159|417:195,1,90,2|0,0:0|0:0,0:0:0:0:
394,319,111382,2,0,P|396:274|386:230,1,90,2|0,0:0|0:0,0:0:0:0:
310,67,111617,2,0,P|318:155|307:191,1,90,2|0,0:0|0:0,0:0:0:0:
284,315,111853,2,0,P|286:270|276:226,1,90,2|0,0:0|0:0,0:0:0:0:
249,141,112088,1,2,0:0:0:0:
212,94,112167,1,0,0:0:0:0:
167,56,112245,1,2,0:0:0:0:
110,40,112324,1,0,0:0:0:0:
53,27,112402,6,0,P|49:102|71:141,1,90,2|0,0:0|0:0,0:0:0:0:
99,222,112717,2,0,P|150:264|189:275,1,90
276,312,113031,1,0,0:0:0:0:
342,215,113188,1,0,0:0:0:0:
248,144,113345,1,0,0:0:0:0:
335,66,113502,1,0,0:0:0:0:
335,66,113659,6,0,P|405:105|430:147,1,90,2|0,0:0|0:0,0:0:0:0:
450,154,113895,1,0,0:0:0:0:
478,204,113973,1,2,0:0:0:0:
473,262,114052,1,0,0:0:0:0:
441,310,114130,1,2,0:0:0:0:
387,333,114209,1,0,0:0:0:0:
332,340,114287,6,0,L|307:269,1,45,2|0,0:0|0:0,0:0:0:0:
379,231,114444,1,2,0:0:0:0:
381,186,114522,1,0,0:0:0:0:
382,140,114601,1,2,0:0:0:0:
378,94,114680,1,0,0:0:0:0:
370,49,114758,2,0,P|348:86|345:149,1,90,2|0,0:0|0:0,0:0:0:0:
287,204,115073,6,0,L|239:185,1,45
161,151,115230,2,0,P|147:223|164:276,1,90,2|0,0:0|0:0,0:0:0:0:
274,367,115544,2,0,P|294:327|296:282,1,90,2|0,0:0|0:0,0:0:0:0:
294,102,115858,1,2,0:0:0:0:
114,97,116015,1,2,0:0:0:0:
55,267,116172,5,2,0:0:0:0:
79,304,116250,1,0,0:0:0:0:
118,325,116329,1,2,0:0:0:0:
162,332,116407,1,0,0:0:0:0:
207,332,116486,1,2,0:0:0:0:
246,311,116564,1,0,0:0:0:0:
280,281,116643,1,2,0:0:0:0:
318,257,116721,1,0,0:0:0:0:
361,245,116800,1,2,0:0:0:0:
405,248,116878,1,0,0:0:0:0:
448,260,116957,1,2,0:0:0:0:
484,286,117036,5,0,0:0:0:0:
484,218,117114,1,2,0:0:0:0:
484,150,117193,1,0,0:0:0:0:
484,82,117271,1,2,0:0:0:0:
482,14,117350,1,0,0:0:0:0:
423,47,117428,6,0,B|392:96|328:86,1,90,2|0,0:0|0:0,0:0:0:0:
213,99,117742,2,0,L|212:164,1,45,2|0,0:0|0:0,0:0:0:0:
208,234,117899,2,0,P|192:238|107:122,1,180,2|0,0:0|0:0,0:0:0:0:
247,25,118371,1,2,0:0:0:0:
263,112,118449,1,2,0:0:0:0:
240,199,118528,1,2,0:0:0:0:
272,282,118606,1,2,0:0:0:0:
240,367,118685,6,0,P|192:353|151:312,1,90,2|0,0:0|0:0,0:0:0:0:
108,203,118999,1,2,0:0:0:0:
120,184,119077,1,0,0:0:0:0:
132,165,119156,1,2,0:0:0:0:
144,146,119234,1,0,0:0:0:0:
156,126,119313,1,2,0:0:0:0:
173,157,119392,1,0,0:0:0:0:
190,188,119470,1,2,0:0:0:0:
206,220,119549,1,0,0:0:0:0:
220,252,119627,1,2,0:0:0:0:
248,216,119706,1,0,0:0:0:0:
273,179,119784,1,2,0:0:0:0:
297,140,119863,1,0,0:0:0:0:
322,103,119941,6,0,B|380:171|377:269|376:271,1,180,2|0,0:0|0:0,0:0:0:0:
375,360,120412,2,0,P|446:317|473:218,1,180
467,83,120884,1,0,0:0:0:0:
395,207,121041,1,0,0:0:0:0:
248,216,121198,6,0,P|220:180|203:139,1,90,2|0,0:0|0:0,0:0:0:0:
203,139,121434,2,0,P|186:180|158:215,1,90,2|0,0:0|0:0,0:0:0:0:
157,215,121669,2,0,P|114:143|109:100,1,90,2|0,0:0|0:0,0:0:0:0:
112,138,121905,2,0,P|95:179|67:214,1,90,2|0,0:0|0:0,0:0:0:0:
53,257,122141,5,2,0:0:0:0:
71,297,122219,1,0,0:0:0:0:
105,326,122298,1,2,0:0:0:0:
146,343,122376,1,0,0:0:0:0:
190,352,122455,6,0,P|220:306|229:251,1,90,2|0,0:0|0:0,0:0:0:0:
398,257,122769,2,0,P|382:204|345:162,1,90,2|0,0:0|0:0,0:0:0:0:
488,62,123083,2,0,P|437:40|381:41,1,90,2|0,0:0|0:0,0:0:0:0:
193,154,123397,1,0,0:0:0:0:
119,29,123554,1,2,0:0:0:0:
119,29,123632,1,0,0:0:0:0:
119,29,123711,6,0,P|94:99|105:135,1,90,2|0,0:0|0:0,0:0:0:0:
110,210,124025,1,2,0:0:0:0:
193,154,124183,2,0,P|243:117|281:107,1,90,2|0,0:0|0:0,0:0:0:0:
358,65,124497,1,2,0:0:0:0:
410,149,124653,6,0,P|430:209|421:252,1,90,2|0,0:0|0:0,0:0:0:0:
412,276,124889,1,0,0:0:0:0:
384,311,124968,1,0,0:0:0:0:
343,330,125046,1,0,0:0:0:0:
297,333,125125,1,0,0:0:0:0:
257,311,125203,1,0,0:0:0:0:
227,276,125282,2,0,P|271:252|339:256,1,90
492,176,125596,2,0,P|453:153|409:149,1,90,2|0,0:0|0:0,0:0:0:0:
274,92,125832,1,0,0:0:0:0:
274,92,125910,2,0,P|318:68|386:72,1,90,2|0,0:0|0:0,0:0:0:0:
446,56,126224,5,2,0:0:0:0:
492,176,126381,1,0,0:0:0:0:
458,298,126539,1,2,0:0:0:0:
337,335,126696,1,0,0:0:0:0:
228,270,126853,1,2,0:0:0:0:
102,268,127010,1,0,0:0:0:0:
36,161,127166,5,2,0:0:0:0:
36,161,127245,1,0,0:0:0:0:
36,161,127324,1,2,0:0:0:0:
36,161,127402,1,0,0:0:0:0:
36,161,127481,6,0,P|17:106|28:48,1,90,2|0,0:0|0:0,0:0:0:0:
198,88,127795,1,2,0:0:0:0:
198,88,127873,1,0,0:0:0:0:
198,88,127952,1,2,0:0:0:0:
198,88,128030,1,0,0:0:0:0:
198,88,128109,2,0,P|198:133|174:181,1,90,2|0,0:0|0:0,0:0:0:0:
336,262,128423,1,2,0:0:0:0:
336,262,128501,1,0,0:0:0:0:
336,262,128580,1,2,0:0:0:0:
336,262,128659,1,0,0:0:0:0:
336,262,128737,6,0,P|290:196|287:153,1,90,2|0,0:0|0:0,0:0:0:0:
198,88,129052,2,0,L|198:54,11,30
198,88,129680,6,0,P|191:150|212:211,1,90
266,335,129994,5,0,0:0:0:0:
356,179,130151,1,0,0:0:0:0:
353,358,130308,1,0,0:0:0:0:
276,195,130465,1,0,0:0:0:0:
417,306,130622,1,0,0:0:0:0:
241,264,130779,1,0,0:0:0:0:
417,227,130936,1,0,0:0:0:0:
290,97,131094,1,0,0:0:0:0:
241,264,131251,1,0,0:0:0:0:
68,242,131408,5,0,0:0:0:0:
94,73,131565,1,0,0:0:0:0:
152,233,131722,5,0,0:0:0:0:
183,65,131879,1,0,0:0:0:0:
235,227,132036,5,0,0:0:0:0:
263,58,132193,1,0,0:0:0:0:
315,220,132350,2,0,L|328:239,2,22.5
396,192,132507,2,0,P|385:145|320:116,1,90
70,72,132821,1,0,0:0:0:0:
72,242,132978,1,0,0:0:0:0:
242,242,133135,1,0,0:0:0:0:
242,71,133292,1,0,0:0:0:0:
242,71,133449,2,0,P|316:74|354:90,1,90
315,220,133763,6,0,P|357:266|359:331,1,90
249,340,134078,1,0,0:0:0:0:
182,212,134235,1,0,0:0:0:0:
315,220,134392,6,0,P|367:186|384:150,1,90
302,137,134628,2,0,P|311:80|339:51,1,90
411,56,134863,2,0,P|440:85|450:118,1,45
461,134,135020,2,0,P|462:188|424:239,1,90
133,335,135334,6,0,P|65:301|46:264,1,90
43,112,135648,1,0,0:0:0:0:
141,94,135806,1,0,0:0:0:0:
110,188,135963,1,0,0:0:0:0:
203,221,136120,5,0,0:0:0:0:
256,304,136277,1,0,0:0:0:0:
312,222,136434,1,0,0:0:0:0:
308,123,136591,5,0,0:0:0:0:
389,66,136748,1,0,0:0:0:0:
141,94,136905,2,0,P|138:138|150:192,1,90
191,363,137219,2,0,P|234:314|280:297,1,90
308,123,137533,2,0,P|368:146|400:184,1,90
433,308,137847,1,0,0:0:0:0:
409,328,137926,1,0,0:0:0:0:
378,336,138004,1,0,0:0:0:0:
346,336,138083,1,0,0:0:0:0:
307,324,138161,5,0,0:0:0:0:
274,299,138240,1,0,0:0:0:0:
248,268,138318,1,0,0:0:0:0:
230,231,138397,1,0,0:0:0:0:
213,180,138475,5,0,0:0:0:0:
183,134,138554,1,0,0:0:0:0:
143,97,138632,1,0,0:0:0:0:
90,82,138711,1,0,0:0:0:0:
36,82,138789,5,0,0:0:0:0:
62,112,138868,1,0,0:0:0:0:
102,115,138947,1,0,0:0:0:0:
141,106,139025,1,0,0:0:0:0:
172,100,139104,5,0,0:0:0:0:
200,87,139182,1,0,0:0:0:0:
227,71,139261,1,0,0:0:0:0:
253,54,139339,1,0,0:0:0:0:
272,43,139418,5,0,0:0:0:0:
293,36,139496,1,0,0:0:0:0:
315,33,139575,1,0,0:0:0:0:
337,35,139653,1,0,0:0:0:0:
349,40,139732,5,0,0:0:0:0:
361,45,139810,1,0,0:0:0:0:
372,51,139889,1,0,0:0:0:0:
383,57,139967,1,0,0:0:0:0:
418,85,140046,5,0,0:0:0:0:
439,124,140124,1,0,0:0:0:0:
443,168,140203,1,0,0:0:0:0:
429,211,140281,1,0,0:0:0:0:
401,245,140360,1,0,0:0:0:0:
361,265,140438,1,0,0:0:0:0:
316,268,140517,1,0,0:0:0:0:
274,254,140595,1,0,0:0:0:0:
235,232,140674,6,0,P|192:217|125:222,1,90
381,160,140988,1,0,0:0:0:0:
345,336,141145,1,0,0:0:0:0:
381,160,141303,6,0,P|345:122|294:118,1,90,0|0,0:0|0:0,0:0:0:0:
219,106,141617,1,0,0:0:0:0:
183,133,141695,1,0,0:0:0:0:
138,139,141774,1,0,0:0:0:0:
93,132,141852,1,0,0:0:0:0:
51,112,141931,6,0,L|12:68,1,45
48,201,142088,1,0,0:0:0:0:
48,201,142166,1,0,0:0:0:0:
48,201,142245,6,0,L|114:237,1,45
47,303,142402,1,0,0:0:0:0:
47,303,142481,1,0,0:0:0:0:
47,303,142559,6,0,L|115:332,1,45
177,337,142716,2,0,L|226:307,1,45
285,358,142873,2,0,P|329:351|361:321,1,90
364,62,143186,1,0,0:0:0:0:
364,62,143265,1,0,0:0:0:0:
364,62,143344,6,0,P|427:35|478:47,1,90
489,112,143659,2,0,L|451:162,1,45
380,255,143816,1,0,0:0:0:0:
216,179,143973,1,0,0:0:0:0:
53,255,144130,2,0,P|76:335|101:352,1,90
255,303,144444,1,0,0:0:0:0:
286,328,144522,1,0,0:0:0:0:
323,344,144601,1,0,0:0:0:0:
363,347,144679,1,0,0:0:0:0:
402,338,144758,1,0,0:0:0:0:
437,318,144836,1,0,0:0:0:0:
464,288,144915,1,0,0:0:0:0:
481,251,144993,1,0,0:0:0:0:
470,185,145072,5,2,0:0:0:0:
405,206,145151,1,0,0:0:0:0:
342,182,145229,1,2,0:0:0:0:
290,137,145308,1,0,0:0:0:0:
231,103,145386,1,2,0:0:0:0:
166,81,145465,1,0,0:0:0:0:
99,71,145543,1,2,0:0:0:0:
34,92,145622,1,0,0:0:0:0:
33,159,145701,6,0,P|47:237|80:270,1,90,2|0,0:0|0:0,0:0:0:0:
181,204,146015,2,0,P|212:274|218:321,1,90,2|0,0:0|0:0,0:0:0:0:
348,306,146329,5,2,0:0:0:0:
405,206,146486,1,2,0:0:0:0:
405,206,146643,1,2,0:0:0:0:
290,137,146800,1,2,0:0:0:0:
420,13,146957,5,2,0:0:0:0:
442,19,147036,1,0,0:0:0:0:
459,33,147114,1,2,0:0:0:0:
471,52,147193,1,0,0:0:0:0:
477,73,147272,2,0,P|427:96|374:85,1,90,2|0,0:0|0:0,0:0:0:0:
155,37,147586,5,2,0:0:0:0:
125,97,147664,1,0,0:0:0:0:
102,159,147742,1,2,0:0:0:0:
94,226,147821,1,0,0:0:0:0:
120,287,147900,6,2,L|158:324,3,45
265,330,148214,2,2,L|222:343,3,45
335,312,148528,1,2,0:0:0:0:
381,257,148606,1,0,0:0:0:0:
412,191,148685,1,2,0:0:0:0:
424,120,148763,1,0,0:0:0:0:
412,48,148842,6,2,L|388:4,3,45
334,67,149156,2,2,L|260:65,3,45
221,65,149470,1,2,0:0:0:0:
175,120,149548,1,0,0:0:0:0:
144,186,149627,1,2,0:0:0:0:
132,257,149705,1,0,0:0:0:0:
161,318,149784,2,2,L|219:382,3,45
265,330,150098,5,2,0:0:0:0:
412,287,150255,2,0,P|460:258|458:195,1,90
498,119,150570,1,0,0:0:0:0:
423,132,150648,1,0,0:0:0:0:
351,104,150727,1,0,0:0:0:0:
278,125,150805,1,0,0:0:0:0:
200,106,150884,1,0,0:0:0:0:
129,133,150962,1,0,0:0:0:0:
55,111,151041,2,0,P|68:175|139:239,1,135
200,106,151355,6,0,P|233:59|277:34,1,90,2|0,0:0|0:0,0:0:0:0:
298,141,151669,1,2,0:0:0:0:
298,141,151826,2,0,P|350:116|400:117,1,90,2|0,0:0|0:0,0:0:0:0:
217,187,152140,2,0,P|177:245|166:292,1,90,2|0,0:0|0:0,0:0:0:0:
200,106,152454,2,0,P|129:113|86:134,1,90,2|0,0:0|0:0,0:0:0:0:
282,83,152769,2,0,P|231:34|187:15,1,90,2|0,0:3|0:3,0:3:0:0:
382,90,153083,2,0,P|363:22|334:-16,1,90,2|0,0:3|0:3,0:3:0:0:
290,174,153397,2,0,P|252:224|249:237,1,45,2|0,0:0|0:0,0:0:0:0:
141,208,153554,2,0,P|179:158|182:145,1,45,2|0,0:0|0:0,0:0:0:0:
76,113,153711,1,2,0:0:0:0:
76,113,153790,1,0,0:0:0:0:
76,113,153868,6,0,P|139:97|175:105,1,90,2|0,0:0|0:0,0:0:0:0:
290,174,154182,2,0,L|340:240,1,45,2|0,0:0|0:0,0:0:0:0:
373,279,154339,2,0,P|412:256|439:220,1,90,2|0,0:0|0:0,0:0:0:0:
243,257,154575,1,0,0:0:0:0:
243,257,154653,2,0,P|188:298|172:330,1,90,2|0,0:0|0:0,0:0:0:0:
357,323,154967,6,0,P|417:288|438:262,1,90,2|0,0:0|0:0,0:0:0:0:
437,92,155282,1,2,0:0:0:0:
269,77,155439,2,0,P|230:67|208:49,1,45
170,121,155596,2,0,P|116:76|108:37,1,90,2|0,0:0|0:0,0:0:0:0:
391,283,155910,2,0,P|445:328|453:367,1,90,2|0,0:0|0:0,0:0:0:0:
272,321,156224,1,0,0:0:0:0:
92,321,156381,1,0,0:0:0:0:
92,141,156538,1,0,0:0:0:0:
271,141,156695,1,0,0:0:0:0:
360,19,156853,5,2,0:0:0:0:
382,46,156931,1,0,0:0:0:0:
399,77,157010,1,2,0:0:0:0:
411,110,157088,1,0,0:0:0:0:
418,145,157167,2,0,P|361:188|320:192,1,90,2|2,0:0|0:0,0:0:0:0:
473,317,157481,1,2,0:0:0:0:
344,191,157638,6,2,P|321:133|289:108,1,90
135,45,157952,1,2,0:0:0:0:
58,187,158109,1,2,0:0:0:0:
189,305,158266,2,0,P|228:326|298:308,1,90
300,152,158580,2,0,P|335:90|376:50,1,90,2|0,0:0|0:0,0:0:0:0:
511,24,158895,5,2,0:0:0:0:
486,147,159051,2,0,P|465:213|438:250,1,90
409,322,159287,1,0,0:0:0:0:
409,322,159365,1,2,0:0:0:0:
409,322,159444,1,0,0:0:0:0:
409,322,159522,2,0,P|344:348|299:351,1,90
161,342,159837,6,0,L|163:283,1,45
163,220,159994,1,0,0:0:0:0:
288,307,160151,6,0,L|290:248,1,45
289,185,160308,1,0,0:0:0:0:
399,290,160465,6,0,L|401:231,1,45
401,168,160622,1,0,0:0:0:0:
489,244,160779,6,0,L|489:171,1,45
470,94,160936,1,0,0:0:0:0:
418,123,161015,1,0,0:0:0:0:
359,126,161094,1,0,0:0:0:0:
305,104,161172,1,0,0:0:0:0:
257,69,161251,1,0,0:0:0:0:
205,43,161329,1,0,0:0:0:0:
148,28,161408,6,0,P|123:78|158:130,1,90,2|0,0:0|0:0,0:0:0:0:
134,197,161721,2,0,L|188:250,1,45,2|0,0:0|0:0,0:0:0:0:
241,279,161878,2,0,L|321:338,1,90,2|0,0:0|0:0,0:0:0:0:
324,154,162193,1,2,0:0:0:0:
324,154,162350,2,0,P|348:137|367:107,1,45,2|0,0:0|0:0,0:0:0:0:
422,59,162507,6,0,P|371:44|314:52,1,90,2|0,0:0|0:0,0:0:0:0:
392,210,162821,2,0,P|355:171|313:149,1,90,2|0,0:0|0:0,0:0:0:0:
241,279,163135,2,0,P|228:227|240:171,1,90,2|0,0:0|0:0,0:0:0:0:
262,48,163450,1,0,0:0:0:0:
89,99,163607,5,2,0:0:0:0:
89,143,163685,1,0,0:0:0:0:
90,188,163764,1,2,0:0:0:0:
92,232,163842,1,0,0:0:0:0:
96,277,163921,6,0,P|151:208|152:171,1,90,2|0,0:0|0:0,0:0:0:0:
149,30,164234,2,0,L|207:28,1,45
375,31,164392,2,0,L|470:28,1,90,2|0,0:0|0:0,0:0:0:0:
311,122,164627,1,0,0:0:0:0:
311,122,164706,2,0,L|406:119,1,90,2|0,0:0|0:0,0:0:0:0:
160,256,165020,6,0,P|164:210|189:168,1,90,2|0,0:0|0:0,0:0:0:0:
100,78,165255,1,0,0:0:0:0:
100,78,165334,2,0,P|137:51|186:43,1,90,2|0,0:0|0:0,0:0:0:0:
352,256,165648,6,0,P|348:210|323:168,1,90,2|0,0:0|0:0,0:0:0:0:
412,78,165883,1,0,0:0:0:0:
412,78,165962,2,0,P|375:51|326:43,1,90,2|0,0:0|0:0,0:0:0:0:
251,203,166276,1,2,0:0:0:0:
251,230,166355,1,0,0:0:0:0:
251,252,166433,6,0,L|252:348,1,90,2|0,0:0|0:0,0:0:0:0:
251,77,166748,2,0,L|414:188,1,180,2|0,0:0|0:0,0:0:0:0:
251,77,167219,2,0,L|187:146,1,90,2|0,0:0|0:0,0:0:0:0:
68,275,167533,1,2,0:0:0:0:
237,335,167690,6,0,P|292:305|303:282,1,90
473,343,168005,2,0,P|473:288|456:243,1,90,2|0,0:0|0:0,0:0:0:0:
436,77,168319,1,2,0:0:0:0:
489,148,168475,1,2,0:0:0:0:
416,225,168632,1,2,0:0:0:0:
416,225,168711,1,0,0:0:0:0:
416,225,168790,6,0,P|40:282|43:293,1,630,2|0,0:0|0:0,0:0:0:0:
218,301,170203,1,0,0:0:0:0:
181,274,170281,1,0,0:0:0:0:
157,237,170360,1,0,0:0:0:0:
149,193,170438,1,0,0:0:0:0:
159,149,170517,1,0,0:0:0:0:
184,112,170595,1,0,0:0:0:0:
221,87,170674,1,0,0:0:0:0:
265,78,170752,1,0,0:0:0:0:
309,86,170831,1,0,0:0:0:0:
346,110,170909,1,0,0:0:0:0:
372,147,170988,1,0,0:0:0:0:
382,190,171066,1,0,0:0:0:0:
387,234,171145,6,0,P|311:319|221:291,1,202.500007724762,8|0,0:0|0:0,0:0:0:0:
244,166,171460,1,0,0:0:0:0:
415,57,171617,2,0,P|466:126|482:190,1,135.000005149842
389,342,171931,1,0,0:0:0:0:
186,342,172088,1,0,0:0:0:0:
184,150,172245,6,0,L|182:-17,1,135.000005149842,0|0,0:0|0:0,0:0:0:0:
264,178,172559,2,0,L|262:11,1,135.000005149842,0|0,0:0|0:0,0:0:0:0:
343,150,172873,2,0,L|341:-17,1,135.000005149842,0|0,0:0|0:0,0:0:0:0:
348,230,173187,6,0,L|210:293,1,135.000005149842,0|0,0:0|0:0,0:0:0:0:
17,343,173501,1,0,0:0:0:0:
79,134,173659,1,0,0:0:0:0:
121,114,173737,1,0,0:0:0:0:
166,99,173816,1,0,0:0:0:0:
211,86,173895,1,0,0:0:0:0:
257,77,173973,6,0,P|256:121|221:225,1,135.000005149842,8|0,0:0|0:0,0:0:0:0:
190,292,174287,1,0,0:0:0:0:
190,292,174444,2,0,P|236:302|332:253,1,135.000005149842,0|0,0:0|0:0,0:0:0:0:
345,181,174758,2,0,P|404:203|451:263,1,135.000005149842,0|0,0:0|0:0,0:0:0:0:
357,232,175072,2,0,P|377:291|364:370,1,135.000005149842,0|0,0:0|0:0,0:0:0:0:
326,276,175386,2,0,P|293:330|215:364,1,135.000005149842
274,278,175700,2,0,P|211:288|136:268,1,135.000005149842,0|0,0:0|0:0,0:0:0:0:
230,235,176015,2,0,P|182:193|135:117,1,135.000005149842,0|0,0:0|0:0,0:0:0:0:
78,223,176329,6,0,P|118:294|299:332,1,270,0|0,0:0|0:0,0:0:0:0:
404,346,176721,2,0,L|456:293,1,67.5000025749208
374,267,176957,1,0,0:0:0:0:
414,231,177036,1,0,0:0:0:0:
438,183,177114,2,0,P|450:122|445:78,1,90
377,13,177429,1,0,0:0:0:0:
335,112,177586,2,0,B|324:189|291:221,1,90
271,298,177900,5,0,0:0:0:0:
271,298,178057,2,0,P|178:291|167:276,1,90
119,214,178371,1,0,0:0:0:0:
203,182,178528,1,0,0:0:0:0:
292,179,178685,1,0,0:0:0:0:
372,220,178842,1,0,0:0:0:0:
439,285,178999,6,0,P|376:315|249:282,1,180,8|0,0:0|0:0,0:0:0:0:
187,263,179470,2,0,L|164:219,1,45
100,85,179627,6,0,P|162:59|201:54,2,90
12,147,180098,1,0,0:0:0:0:
12,147,180256,6,0,P|61:184|99:195,1,90
195,181,180570,2,0,B|245:150|277:119|277:119|276:119,1,90
352,61,180884,2,0,P|412:30|472:23,1,90
496,23,181120,1,0,0:0:0:0:
491,54,181199,1,0,0:0:0:0:
475,81,181277,1,0,0:0:0:0:
459,108,181356,1,0,0:0:0:0:
440,133,181434,1,0,0:0:0:0:
420,157,181512,6,0,P|356:165|335:186,1,90
233,251,181827,5,0,0:0:0:0:
195,295,181905,1,0,0:0:0:0:
138,311,181984,1,0,0:0:0:0:
13,294,182141,5,0,0:0:0:0:
51,250,182219,1,0,0:0:0:0:
108,234,182298,1,0,0:0:0:0:
184,169,182455,5,0,0:0:0:0:
127,153,182534,1,0,0:0:0:0:
89,109,182612,1,0,0:0:0:0:
210,74,182769,5,8,0:0:0:0:
267,90,182848,1,0,0:0:0:0:
305,134,182926,1,0,0:0:0:0:
220,227,183083,2,0,L|165:227,2,45
345,190,183397,2,0,L|390:190,2,45
241,297,183711,5,0,0:0:0:0:
264,318,183790,1,0,0:0:0:0:
292,330,183868,1,0,0:0:0:0:
323,332,183947,1,0,0:0:0:0:
353,323,184025,5,0,0:0:0:0:
395,306,184104,1,0,0:0:0:0:
435,286,184183,1,0,0:0:0:0:
467,255,184261,1,0,0:0:0:0:
485,213,184340,5,0,0:0:0:0:
491,155,184418,1,0,0:0:0:0:
472,99,184497,1,0,0:0:0:0:
439,51,184575,1,0,0:0:0:0:
388,20,184654,5,0,0:0:0:0:
318,51,184732,1,0,0:0:0:0:
254,95,184811,1,0,0:0:0:0:
189,134,184889,1,0,0:0:0:0:
121,171,184968,1,0,0:0:0:0:
62,219,185046,1,0,0:0:0:0:
8,274,185125,6,8,P|100:320|177:281,1,180,8|0,0:0|0:0,0:0:0:0:
386,101,185753,2,0,P|337:74|203:64,1,180
195,240,186224,2,0,L|170:196,1,45
101,103,186381,1,0,0:0:0:0:
71,174,186460,1,0,0:0:0:0:
83,249,186539,6,0,P|122:298|243:351,1,180
387,342,187010,5,0,0:0:0:0:
479,209,187167,1,0,0:0:0:0:
432,53,187324,1,0,0:0:0:0:
432,53,187481,1,0,0:0:0:0:
432,53,187638,2,0,P|388:114|340:117,1,90
245,210,187952,6,0,P|312:217|357:205,1,90
479,209,188266,2,0,P|495:285|492:336,1,90
387,342,188580,2,0,P|313:330|285:304,1,90
146,222,188895,5,0,0:0:0:0:
136,60,189052,1,0,0:0:0:0:
292,101,189209,1,0,0:0:0:0:
292,101,189366,6,0,P|321:165|330:206,1,90
471,321,189680,1,0,0:0:0:0:
471,321,189837,2,0,P|458:279|438:239,2,90
386,350,190308,5,0,0:0:0:0:
377,346,190387,1,0,0:0:0:0:
368,342,190465,1,0,0:0:0:0:
359,337,190544,1,0,0:0:0:0:
350,333,190622,5,0,0:0:0:0:
327,318,190701,1,0,0:0:0:0:
318,292,190779,1,0,0:0:0:0:
327,266,190858,1,0,0:0:0:0:
342,244,190936,5,0,0:0:0:0:
366,206,191015,1,0,0:0:0:0:
383,164,191094,1,0,0:0:0:0:
386,119,191172,1,0,0:0:0:0:
374,75,191251,5,0,0:0:0:0:
329,104,191329,1,0,0:0:0:0:
279,126,191408,1,0,0:0:0:0:
225,121,191486,1,0,0:0:0:0:
202,71,191565,5,0,0:0:0:0:
244,58,191643,1,0,0:0:0:0:
289,62,191722,1,0,0:0:0:0:
328,81,191800,1,0,0:0:0:0:
356,116,191879,5,0,0:0:0:0:
366,168,191957,1,0,0:0:0:0:
340,216,192036,1,0,0:0:0:0:
301,252,192114,1,0,0:0:0:0:
247,286,192193,5,0,0:0:0:0:
176,245,192272,1,0,0:0:0:0:
132,177,192350,1,0,0:0:0:0:
116,97,192429,1,0,0:0:0:0:
96,19,192507,2,0,B|19:41|38:135|38:135|38:200,1,202.500007724762
45,282,192821,1,0,0:0:0:0:
421,314,193449,6,0,L|287:329,1,120
288,228,193802,2,0,P|234:201|205:154,1,90
155,248,194077,2,0,P|324:135|320:168,1,540,0|0,0:0|0:0,0:0:0:0:
322,156,195333,2,0,P|369:260|521:283,2,270.000010299683
77,251,196904,6,0,P|183:238|339:137,1,270
419,154,198159,1,0,0:0:0:0:
335,85,198473,2,0,L|269:40,1,45
222,109,198787,2,0,L|156:64,1,45
104,123,199101,2,0,B|134:195|218:233,1,135
367,326,200044,6,0,B|452:301|474:261|459:237|452:204|452:176|446:139|269:213|247:200|278:261|214:355|141:369|82:352|41:305|37:254|35:236|34:208|37:180|46:116|148:46|249:172,1,891.000027191163,0|0,0:0|0:0,0:0:0:0:
455,43,203185,1,0,0:0:0:0:
446,222,203499,2,0,L|413:179,1,45
329,199,203813,2,0,L|297:159,1,45
257,104,204127,6,0,P|136:182|124:272,1,225
191,321,205423,2,0,P|350:313|324:156,1,360
442,269,207033,6,0,P|427:176|365:101,1,180
261,49,207818,2,0,L|229:31,2,22.5
192,82,208132,2,0,L|160:64,2,22.5
127,124,208446,2,0,L|97:103,1,22.5
70,111,208603,2,0,P|63:212|65:216,1,90
139,304,209153,1,0,0:0:0:0:
256,192,209624,12,0,213394,0:0:0:0:
301,287,213551,6,0,P|348:263|373:215,1,90
397,193,213787,1,0,0:0:0:0:
413,146,213865,1,0,0:0:0:0:
393,100,213944,1,0,0:0:0:0:
353,71,214022,1,0,0:0:0:0:
305,56,214101,1,0,0:0:0:0:
257,71,214180,6,0,B|284:130|327:162|327:162|326:163,1,90
377,214,214494,1,0,0:0:0:0:
383,262,214572,1,0,0:0:0:0:
364,308,214651,1,0,0:0:0:0:
326,339,214729,1,0,0:0:0:0:
277,351,214808,2,0,P|211:297|198:263,1,90
151,214,215122,2,0,P|144:133|227:121,1,180
319,150,215594,6,0,P|378:127|391:74,1,90
391,7,215907,1,0,0:0:0:0:
349,34,215985,1,0,0:0:0:0:
308,62,216064,1,0,0:0:0:0:
265,88,216142,2,0,P|222:49|177:35,1,90
144,30,216378,1,0,0:0:0:0:
97,47,216457,1,0,0:0:0:0:
76,92,216535,1,0,0:0:0:0:
73,141,216614,1,0,0:0:0:0:
102,181,216692,6,0,P|138:202|231:230,1,135
334,181,217060,2,0,P|273:148|253:123,1,90
389,88,217374,2,0,P|436:120|454:163,1,90
463,247,217688,2,0,B|450:306|403:337,1,90
333,356,217949,5,0,0:0:0:0:
251,230,218264,1,0,0:0:0:0:
91,147,218578,1,0,0:0:0:0:
243,50,218892,1,0,0:0:0:0:
243,50,218970,1,0,0:0:0:0:
243,50,219048,1,0,0:0:0:0:
323,124,219205,6,0,L|357:86,2,45
331,213,219519,2,0,L|300:246,2,45
416,183,219834,2,0,L|450:145,2,45
423,272,220148,2,0,L|392:305,2,45
416,183,220462,2,0,L|444:155,4,22.5
333,260,220776,5,0,0:0:0:0:
291,244,220854,1,0,0:0:0:0:
263,208,220933,1,0,0:0:0:0:
254,164,221011,1,0,0:0:0:0:
266,120,221090,2,0,P|334:127|364:355,1,337.5
329,352,221757,5,0,0:0:0:0:
311,310,221835,1,0,0:0:0:0:
281,275,221914,1,0,0:0:0:0:
247,245,221992,1,0,0:0:0:0:
217,210,222071,1,0,0:0:0:0:
199,168,222150,1,0,0:0:0:0:
194,123,222228,1,0,0:0:0:0:
191,77,222307,1,0,0:0:0:0:
206,34,222386,6,0,B|299:11|364:64,1,135
370,76,222700,1,0,0:0:0:0:
395,112,222778,1,0,0:0:0:0:
416,151,222857,2,0,L|442:217,5,45
430,238,223328,1,0,0:0:0:0:
411,279,223407,1,0,0:0:0:0:
386,316,223485,1,0,0:0:0:0:
348,341,223564,1,0,0:0:0:0:
304,352,223642,6,0,P|277:297|277:255,1,90
264,224,223878,1,0,0:0:0:0:
247,182,223956,1,0,0:0:0:0:
230,139,224035,2,0,P|213:101|158:42,1,90
85,203,224547,2,0,P|121:265|130:269,5,45
122,283,225017,1,0,0:0:0:0:
157,311,225096,1,0,0:0:0:0:
195,334,225174,1,0,0:0:0:0:
237,349,225253,1,0,0:0:0:0:
281,345,225331,5,0,0:0:0:0:
315,316,225410,1,0,0:0:0:0:
334,276,225488,1,0,0:0:0:0:
342,231,225567,1,0,0:0:0:0:
326,189,225645,1,0,0:0:0:0:
313,145,225724,1,0,0:0:0:0:
303,99,225803,6,0,P|337:65|346:61,3,45
372,42,226116,1,0,0:0:0:0:
416,44,226194,1,0,0:0:0:0:
455,65,226274,1,0,0:0:0:0:
472,106,226352,1,0,0:0:0:0:
466,150,226431,1,0,0:0:0:0:
439,186,226509,1,0,0:0:0:0:
395,197,226588,6,0,L|330:184,1,45
275,172,226745,2,0,L|259:209,7,22.5
207,159,227059,1,0,0:0:0:0:
204,69,227216,1,0,0:0:0:0:
121,103,227373,1,0,0:0:0:0:
115,192,227530,1,0,0:0:0:0:
109,281,227688,2,0,P|187:277|207:268,1,90
281,241,228002,6,0,P|323:287|344:329,1,90
426,311,228315,1,0,0:0:0:0:
409,269,228393,1,0,0:0:0:0:
389,228,228472,1,0,0:0:0:0:
365,190,228550,1,0,0:0:0:0:
338,155,228629,1,0,0:0:0:0:
307,122,228707,1,0,0:0:0:0:
273,92,228786,1,0,0:0:0:0:
121,159,228944,2,0,P|205:184|234:210,1,90
239,214,229179,1,0,0:0:0:0:
266,249,229258,2,0,P|336:199|360:110,1,180
317,31,229886,5,0,0:0:0:0:
308,75,229965,1,0,0:0:0:0:
291,116,230043,1,0,0:0:0:0:
264,152,230122,1,0,0:0:0:0:
232,183,230200,1,0,0:0:0:0:
196,211,230279,1,0,0:0:0:0:
157,235,230358,2,0,P|185:280|232:313,1,90
393,299,230828,6,0,L|361:348,4,45
419,263,231220,1,0,0:0:0:0:
439,222,231299,1,0,0:0:0:0:
456,180,231377,1,0,0:0:0:0:
465,135,231456,1,0,0:0:0:0:
459,89,231535,1,0,0:0:0:0:
446,46,231613,2,0,P|389:47|359:76,1,90
351,95,231849,2,0,L|329:120,30,22.5
329,272,233186,1,0,0:0:0:0:
181,249,233343,2,0,B|144:257|144:257,23,22.5
181,249,234286,6,0,L|166:142,1,90,2|0,0:0|0:0,0:0:0:0:
286,24,234600,2,0,L|301:131,1,90,2|0,0:0|0:0,0:0:0:0:
207,268,234914,6,0,L|194:178,1,90,2|0,0:0|0:0,0:0:0:0:
327,58,235228,2,2,L|339:147,1,90
237,295,235542,6,0,L|224:205,1,90,0|2,0:0|0:0,0:0:0:0:
357,85,235856,2,0,L|369:174,1,90,2|0,0:0|0:0,0:0:0:0:
275,328,236171,6,0,L|262:238,1,90,2|0,0:0|0:0,0:0:0:0:
390,112,236485,1,2,0:0:0:0:
477,269,236642,2,0,L|415:311|415:311,1,45
370,235,236799,2,0,P|343:299|347:361,1,90,2|0,0:0|0:0,0:0:0:0:
207,198,237113,2,0,P|169:256|162:318,1,90,2|0,0:0|0:0,0:0:0:0:
105,105,237427,2,2,P|57:155|40:215,1,90,2|0,0:0|0:0,0:0:0:0:
38,353,237741,1,2,0:0:0:0:
49,173,237898,1,2,0:0:0:0:
149,322,238055,6,0,B|202:276|216:243|216:243,1,90,2|0,0:0|0:0,0:0:0:0:
379,317,238370,2,0,B|390:247|379:213|379:213,1,90,2|0,0:0|0:0,0:0:0:0:
438,56,238684,1,0,0:0:0:0:
438,56,238762,2,0,L|385:56,1,45
309,90,238919,1,0,0:0:0:0:
309,90,238998,2,0,P|300:137|309:191,1,90,0|0,0:0|0:0,0:0:0:0:
300,322,239312,2,2,P|247:289|215:253,1,90,2|0,0:0|0:0,0:0:0:0:
118,40,239626,2,0,P|157:62|191:93,1,90,2|0,0:0|0:0,0:0:0:0:
374,90,239940,2,0,P|341:120|301:142,1,90,2|0,0:0|0:0,0:0:0:0:
151,242,240254,2,0,P|184:212|223:189,1,90,2|0,0:0|0:0,0:0:0:0:
404,187,240569,5,0,0:0:0:0:
406,204,240647,1,0,0:0:0:0:
406,222,240726,1,0,0:0:0:0:
406,239,240804,1,0,0:0:0:0:
401,261,240883,1,0,0:0:0:0:
390,275,240961,1,0,0:0:0:0:
375,286,241040,2,0,L|406:323,3,30,0|0|0|0,0:0|0:0|0:0|0:0,0:0:0:0:
143,117,241354,1,0,0:0:0:0:
143,117,241511,2,0,P|192:171|201:213,1,90,0|0,0:0|0:0,0:0:0:0:
333,0,241825,5,0,0:0:0:0:
333,0,241982,2,0,P|317:36|317:81,1,90,2|2,0:0|0:0,0:0:0:0:
322,108,242217,5,0,0:0:0:0:
329,129,242297,1,2,0:0:0:0:
337,149,242375,1,0,0:0:0:0:
345,169,242454,5,2,0:0:0:0:
359,201,242532,1,0,0:0:0:0:
383,227,242611,1,2,0:0:0:0:
410,249,242689,1,0,0:0:0:0:
440,268,242768,2,0,P|492:265|493:265,3,45,2|0|2|0,0:0|0:0|0:0|0:0,0:0:0:0:
390,270,243082,5,2,0:0:0:0:
342,253,243161,1,0,0:0:0:0:
302,224,243239,1,2,0:0:0:0:
266,189,243318,1,0,0:0:0:0:
233,152,243396,5,2,0:0:0:0:
205,198,243475,1,0,0:0:0:0:
170,238,243553,1,2,0:0:0:0:
138,281,243632,1,0,0:0:0:0:
87,299,243710,2,2,L|24:279,1,45
163,174,243867,2,2,L|120:122,1,45
311,138,244024,2,2,L|290:81,1,45
461,171,244182,6,0,P|515:258|519:284,1,90,0|2,0:0|0:0,0:0:0:0:
509,320,244417,1,0,0:0:0:0:
433,336,244496,1,2,0:0:0:0:
357,325,244574,1,0,0:0:0:0:
291,284,244653,1,2,0:0:0:0:
237,229,244731,1,0,0:0:0:0:
218,154,244810,1,2,0:0:0:0:
232,79,244888,1,0,0:0:0:0:
278,17,244967,2,0,P|321:59|345:116,1,90,2|0,0:0|0:0,0:0:0:0:
330,264,245281,2,0,L|383:242,1,45
449,200,245438,1,0,0:0:0:0:
381,33,245595,5,2,0:0:0:0:
341,143,245752,1,2,0:0:0:0:
285,245,245909,1,2,0:0:0:0:
284,213,245987,1,0,0:0:0:0:
284,181,246066,1,2,0:0:0:0:
284,149,246144,1,0,0:0:0:0:
284,117,246223,5,2,0:0:0:0:
253,144,246302,1,0,0:0:0:0:
224,172,246380,1,2,0:0:0:0:
196,202,246459,1,0,0:0:0:0:
170,233,246537,5,2,0:0:0:0:
172,183,246616,1,0,0:0:0:0:
175,133,246694,1,2,0:0:0:0:
175,83,246773,1,0,0:0:0:0:
177,33,246851,5,2,0:0:0:0:
135,68,246930,1,0,0:0:0:0:
96,105,247008,1,2,0:0:0:0:
59,145,247087,1,0,0:0:0:0:
26,188,247166,2,2,L|57:219,1,45
206,164,247322,2,2,L|174:132,1,45
113,306,247480,2,2,L|146:337,1,45
318,210,247637,2,2,L|283:180,1,45
288,325,247794,2,2,L|328:345,3,45
367,283,248108,6,2,L|407:303,3,45
448,322,248422,5,0,0:0:0:0:
485,296,248501,1,0,0:0:0:0:
502,255,248579,1,0,0:0:0:0:
504,209,248658,1,0,0:0:0:0:
500,164,248736,5,0,0:0:0:0:
460,114,248815,1,0,0:0:0:0:
400,85,248894,1,0,0:0:0:0:
337,80,248972,1,0,0:0:0:0:
273,82,249051,5,0,0:0:0:0:
197,108,249129,1,0,0:0:0:0:
141,167,249208,1,0,0:0:0:0:
105,239,249286,1,0,0:0:0:0:
73,314,249365,6,2,L|51:364,7,45
144,343,249993,1,0,0:0:0:0:
255,201,250150,1,0,0:0:0:0:
372,337,250307,2,0,L|392:283,1,45,0|0,0:0|0:0,0:0:0:0:
478,295,250464,2,0,P|432:223|410:202,1,90,0|0,0:0|0:0,0:0:0:0:
375,148,250699,5,0,0:0:0:0:
375,148,250778,2,0,P|325:159|283:180,1,90,0|0,0:0|0:0,0:0:0:0:
275,174,251014,2,0,L|209:146,1,45,0|0,0:0|0:0,0:0:0:0:
143,144,251171,1,0,0:0:0:0:
143,144,251249,2,0,L|144:219,1,45,0|0,0:0|0:0,0:0:0:0:
59,156,251406,2,0,L|58:81,1,45,0|0,0:0|0:0,0:0:0:0:
59,20,251563,5,0,0:0:0:0:
68,40,251642,1,0,0:0:0:0:
83,55,251720,1,0,0:0:0:0:
103,64,251799,1,0,0:0:0:0:
125,64,251877,5,2,0:0:0:0:
158,93,251956,1,0,0:0:0:0:
199,109,252034,1,2,0:0:0:0:
244,104,252113,1,0,0:0:0:0:
284,85,252191,5,2,0:0:0:0:
323,107,252270,1,0,0:0:0:0:
351,141,252348,1,2,0:0:0:0:
365,183,252427,1,0,0:0:0:0:
362,228,252506,5,2,0:0:0:0:
343,268,252584,1,0,0:0:0:0:
311,300,252663,1,2,0:0:0:0:
268,312,252741,1,0,0:0:0:0:
222,311,252820,5,2,0:0:0:0:
183,287,252898,1,0,0:0:0:0:
157,249,252977,1,2,0:0:0:0:
148,205,253055,1,0,0:0:0:0:
188,183,253134,5,2,0:0:0:0:
221,236,253213,1,2,0:0:0:0:
212,297,253291,1,2,0:0:0:0:
180,352,253370,1,2,0:0:0:0:
122,375,253448,5,0,0:0:0:0:
58,376,253527,1,2,0:0:0:0:
10,335,253605,1,2,0:0:0:0:
12,271,253684,1,2,0:0:0:0:
54,225,253762,6,2,L|50:163,1,45
136,99,253919,1,2,0:0:0:0:
136,99,253998,1,2,0:0:0:0:
136,99,254076,2,2,L|198:138,3,45
256,192,254391,12,0,255569,0:0:0:0:
456,131,255647,6,0,P|447:66|375:63,1,135
320,94,255961,2,0,L|255:63,1,45
214,34,256118,1,0,0:0:0:0:
156,78,256197,1,0,0:0:0:0:
151,149,256275,1,0,0:0:0:0:
178,216,256354,1,0,0:0:0:0:
211,279,256432,1,0,0:0:0:0:
223,350,256511,1,0,0:0:0:0:
155,373,256589,2,0,P|79:261|59:117,1,270,4|0,0:0|0:0,0:0:0:0:
85,42,256904,6,0,B|175:82|248:179,1,180,2|0,0:0|0:0,0:0:0:0:
366,227,257375,2,0,B|350:165|317:118,1,90,2|0,0:0|0:0,0:0:0:0:
276,72,257689,1,2,0:0:0:0:
98,50,257846,2,0,L|100:109,1,45
103,185,258003,1,2,0:0:0:0:
222,50,258160,6,0,L|224:109,1,45
227,185,258317,1,2,0:0:0:0:
346,50,258474,6,0,L|348:109,1,45
351,185,258631,1,2,0:0:0:0:
463,44,258788,2,0,L|465:103,1,45
468,179,258946,2,0,B|468:241|468:241,1,45,2|0,0:0|0:0,0:0:0:0:
466,314,259103,5,2,0:0:0:0:
423,298,259182,1,2,0:0:0:0:
379,288,259260,1,2,0:0:0:0:
336,304,259339,1,2,0:0:0:0:
297,326,259417,6,0,P|232:285|184:175,1,180,2|0,0:0|0:0,0:0:0:0:
156,110,259888,1,2,0:0:0:0:
425,112,260045,1,0,0:0:0:0:
196,254,260202,1,2,0:0:0:0:
288,0,260359,1,0,0:0:0:0:
387,251,260516,2,0,L|436:338,1,90,2|0,0:0|0:0,0:0:0:0:
305,281,260830,2,0,L|321:379,1,90,2|0,0:0|0:0,0:0:0:0:
215,283,261144,2,0,L|213:382,1,90,2|0,0:0|0:0,0:0:0:0:
120,275,261458,2,0,L|101:373,1,90,2|0,0:0|0:0,0:0:0:0:
140,186,261772,6,0,P|165:125|315:212,1,270,2|0,0:0|0:0,0:0:0:0:
334,265,262401,2,0,L|333:341,1,45,2|0,0:0|0:0,0:0:0:0:
421,289,262558,2,0,P|484:275|509:238,2,90,2|2|2,0:0|0:0|0:0,0:0:0:0:
241,285,263029,1,2,0:0:0:0:
180,164,263186,5,0,0:0:0:0:
178,29,263343,2,0,B|123:30|123:30|121:30,1,45,0|0,0:0|0:0,0:0:0:0:
97,108,263500,1,2,0:0:0:0:
97,108,263579,1,0,0:0:0:0:
97,108,263658,2,0,B|114:182|65:225,1,90,2|0,0:0|0:0,0:0:0:0:
35,319,263972,1,2,0:0:0:0:
185,238,264129,1,2,0:0:0:0:
341,307,264286,1,2,0:0:0:0:
498,240,264443,6,0,B|451:152|408:116|408:116,1,135,2|0,0:0|0:0,0:0:0:0:
344,91,264757,2,0,L|317:172,1,45
242,109,264914,2,0,B|228:153|228:153|241:198,1,90,2|0,0:0|0:0,0:0:0:0:
284,322,265228,1,2,0:0:0:0:
149,322,265385,1,2,0:0:0:0:
112,192,265542,1,2,0:0:0:0:
86,59,265699,6,0,L|74:14|74:14,2,45
219,92,266014,2,0,L|206:48|206:48,2,45
353,118,266328,2,0,L|341:75|341:75,1,45,2|0,0:0|0:0,0:0:0:0:
422,233,266485,5,2,0:0:0:0:
378,291,266564,1,0,0:0:0:0:
308,307,266642,1,2,0:0:0:0:
239,284,266721,1,0,0:0:0:0:
198,227,266799,1,2,0:0:0:0:
201,154,266878,1,0,0:0:0:0:
227,87,266956,6,0,P|281:111|313:172,1,90,2|0,0:0|0:0,0:0:0:0:
373,258,267271,1,0,0:0:0:0:
231,282,267428,2,0,P|164:248|116:249,1,90,2|0,0:0|0:0,0:0:0:0:
15,195,267742,1,2,0:0:0:0:
97,76,267899,1,2,0:0:0:0:
230,21,268056,6,0,P|297:26|352:53,1,90,2|0,0:0|0:0,0:0:0:0:
419,135,268370,2,0,P|375:147|330:147,1,90,2|0,0:0|0:0,0:0:0:0:
218,57,268684,2,0,P|285:62|340:89,1,90,2|0,0:0|0:0,0:0:0:0:
407,171,268998,2,0,P|363:183|318:183,1,90,2|0,0:0|0:0,0:0:0:0:
269,143,269234,1,0,0:0:0:0:
217,107,269312,1,2,0:0:0:0:
155,92,269391,1,0,0:0:0:0:
92,90,269469,6,0,P|105:159|141:202,1,90,2|0,0:0|0:0,0:0:0:0:
162,292,269784,2,0,P|219:247|273:251,1,90,2|0,0:0|0:0,0:0:0:0:
310,231,270098,5,2,0:0:0:0:
360,346,270255,1,0,0:0:0:0:
320,30,270412,5,2,0:0:0:0:
358,150,270569,6,0,P|266:165|197:231,1,180,2|0,0:0|0:0,0:0:0:0:
135,337,271040,2,0,L|199:357,1,45
240,296,271197,2,0,P|308:238|396:226,1,180,2|0,0:0|0:0,0:0:0:0:
427,94,271668,2,0,L|454:143,1,45
389,202,271825,1,2,0:0:0:0:
389,202,271904,1,0,0:0:0:0:
389,202,271983,6,0,P|406:101|382:19,1,180,2|0,0:0|0:0,0:0:0:0:
216,84,272453,1,2,0:0:0:0:
142,248,272610,1,0,0:0:0:0:
304,168,272768,1,2,0:0:0:0:
124,159,272925,1,2,0:0:0:0:
271,261,273082,2,0,L|316:307,1,45,2|0,0:0|0:0,0:0:0:0:
370,352,273239,5,0,0:0:0:0:
370,352,273396,2,0,P|408:292|413:257,1,90,0|0,0:0|0:0,0:0:0:0:
449,98,273710,2,0,P|371:66|342:63,1,90,0|0,0:0|0:0,0:0:0:0:
38,215,274024,1,2,0:0:0:0:
397,208,274181,1,2,0:0:0:0:
70,57,274338,1,2,0:0:0:0:
279,343,274495,5,0,0:0:0:0:
303,164,274652,2,0,L|294:214,1,45,0|0,0:0|0:0,0:0:0:0:
279,343,274810,1,0,0:0:0:0:
189,254,274967,1,0,0:0:0:0:
152,133,275124,2,0,P|175:59|197:46,1,90,0|0,0:0|0:0,0:0:0:0:
270,143,275438,2,0,P|247:217|225:230,1,90,0|0,0:0|0:0,0:0:0:0:
180,289,275752,5,2,0:0:0:0:
136,280,275830,1,0,0:0:0:0:
100,251,275909,1,2,0:0:0:0:
81,210,275987,1,0,0:0:0:0:
73,165,276066,5,2,0:0:0:0:
88,123,276144,1,0,0:0:0:0:
111,84,276223,1,2,0:0:0:0:
146,55,276302,1,0,0:0:0:0:
188,42,276380,5,2,0:0:0:0:
189,73,276459,1,0,0:0:0:0:
190,104,276537,1,2,0:0:0:0:
189,135,276616,1,0,0:0:0:0:
189,166,276695,6,2,L|188:244,1,45
276,166,276851,2,2,L|276:121,1,45
354,146,277009,1,2,0:0:0:0:
262,254,277166,1,2,0:0:0:0:
137,242,277322,2,0,L|103:299,1,45,0|0,0:0|0:0,0:0:0:0:
54,233,277480,2,0,P|46:160|65:121,1,90,2|0,0:0|0:0,0:0:0:0:
111,76,277794,2,0,P|162:53|207:63,1,90,2|0,0:0|0:0,0:0:0:0:
329,52,278107,1,2,0:0:0:0:
455,98,278265,5,0,0:0:0:0:
351,184,278422,1,2,0:0:0:0:
449,275,278579,2,0,P|409:333|379:348,1,90,2|0,0:0|0:0,0:0:0:0:
277,326,278894,1,2,0:0:0:0:
178,280,279050,2,0,L|223:224,1,45,2|0,0:0|0:0,0:0:0:0:
112,194,279208,5,2,0:0:0:0:
119,140,279286,1,0,0:0:0:0:
150,95,279365,1,2,0:0:0:0:
191,61,279443,1,0,0:0:0:0:
238,34,279522,6,0,P|279:74|305:120,1,90,2|0,0:0|0:0,0:0:0:0:
339,200,279836,1,0,0:0:0:0:
403,113,279993,1,0,0:0:0:0:
453,208,280150,1,0,0:0:0:0:
275,179,280307,1,0,0:0:0:0:
412,63,280464,1,0,0:0:0:0:
413,242,280621,1,2,0:0:0:0:
303,319,280883,6,2,P|230:320|156:295,1,135
69,51,281302,1,2,0:0:0:0:
339,60,281524,1,2,0:0:0:0:
184,153,281721,5,2,0:0:0:0:
184,153,281877,2,2,P|232:190|264:195,1,90
438,215,282192,1,2,0:0:0:0:
292,321,282349,2,2,P|211:322|169:305,1,90
144,285,282585,1,2,0:0:0:0:
103,231,282663,2,2,P|158:211|223:234,1,90
320,238,282977,1,2,0:0:0:0:
381,118,283134,1,2,0:0:0:0:
381,118,283291,6,2,P|327:88|285:85,1,90
320,238,283606,1,2,0:0:0:0:
320,238,283763,2,2,P|374:268|416:271,1,90
273,314,284077,1,2,0:0:0:0:
273,314,284234,2,2,P|224:290|178:237,1,90
97,141,284548,2,2,L|35:58|35:58,1,90
145,58,284862,5,2,0:0:0:0:
145,58,285019,2,2,P|198:79|259:77,1,90
356,76,285333,2,2,P|381:132|377:162,1,90
336,278,285647,2,2,P|293:325|261:335,1,90
152,265,285962,1,2,0:0:0:0:
81,166,286118,1,2,0:0:0:0:
81,166,286276,2,2,P|135:143|190:142,1,90
152,265,286590,5,2,0:0:0:0:
214,264,286668,1,0,0:0:0:0:
271,227,286747,1,2,0:0:0:0:
313,180,286826,1,0,0:0:0:0:
342,124,286904,1,2,0:0:0:0:
366,65,286983,1,0,0:0:0:0:
384,5,287061,6,0,B|436:35|457:81,1,90,2|0,0:0|0:0,0:0:0:0:
475,188,287375,5,2,0:0:0:0:
459,215,287454,1,0,0:0:0:0:
436,236,287532,1,2,0:0:0:0:
407,250,287611,1,0,0:0:0:0:
376,254,287689,5,2,0:0:0:0:
341,218,287768,1,0,0:0:0:0:
298,192,287846,1,2,0:0:0:0:
250,176,287925,1,0,0:0:0:0:
200,176,288004,5,2,0:0:0:0:
134,205,288082,1,0,0:0:0:0:
93,265,288161,1,2,0:0:0:0:
107,334,288239,1,0,0:0:0:0:
172,364,288318,2,0,P|219:318|226:304,5,45,2|0|2|0|2|0,0:0|0:0|0:0|0:0|0:0|0:0,0:0:0:0:
248,293,288789,5,2,0:0:0:0:
282,246,288867,1,0,0:0:0:0:
306,192,288946,1,2,0:0:0:0:
324,136,289024,1,0,0:0:0:0:
343,80,289103,5,2,0:0:0:0:
413,65,289182,1,0,0:0:0:0:
466,112,289260,1,2,0:0:0:0:
475,183,289339,1,0,0:0:0:0:
441,246,289417,1,2,0:0:0:0:
389,296,289496,1,0,0:0:0:0:
321,319,289574,2,0,P|248:304|215:276,1,90,2|0,0:0|0:0,0:0:0:0:
171,264,289810,5,0,0:0:0:0:
124,209,289888,1,2,0:0:0:0:
113,137,289967,1,0,0:0:0:0:
145,73,290045,1,2,0:0:0:0:
205,32,290124,6,0,L|253:57,3,45,0|2|0|2,0:0|0:0|0:0|0:0,0:0:0:0:
316,108,290438,1,0,0:0:0:0:
384,167,290517,1,2,0:0:0:0:
444,232,290595,1,0,0:0:0:0:
493,307,290674,1,2,0:0:0:0:
189,115,290988,5,0,0:0:0:0:
193,331,291302,1,0,0:0:0:0:
193,331,291616,2,0,P|263:298|340:222,1,180
360,198,292009,1,2,0:0:0:0:
383,165,292087,2,2,P|318:136|268:143,1,90
191,86,292401,5,2,0:0:0:0:
191,86,292558,2,2,P|138:122|109:170,1,90
83,233,292873,1,2,0:0:0:0:
181,228,293030,1,2,0:0:0:0:
181,228,293187,2,2,P|234:192|263:144,1,90
283,78,293501,2,2,P|322:119|341:153,1,90
356,245,293815,2,2,P|351:302|327:338,1,90
265,258,294129,5,2,0:0:0:0:
254,245,294285,1,2,0:0:0:0:
243,230,294443,2,2,B|285:104|423:59,1,225
420,56,294915,2,0,B|466:31|466:31|466:30,4,45,2|0|2|0|2,0:0|0:0|0:0|0:0|0:0,0:0:0:0:
391,68,295307,1,0,0:0:0:0:
364,84,295386,1,2,0:0:0:0:
340,104,295464,1,0,0:0:0:0:
317,126,295543,5,2,0:0:0:0:
299,162,295621,1,0,0:0:0:0:
297,202,295699,1,2,0:0:0:0:
304,241,295778,1,0,0:0:0:0:
319,278,295857,5,2,0:0:0:0:
352,307,295935,1,0,0:0:0:0:
394,323,296014,1,2,0:0:0:0:
438,323,296092,1,0,0:0:0:0:
480,308,296171,2,2,L|541:275,3,45
441,332,296485,5,2,0:0:0:0:
396,339,296564,1,2,0:0:0:0:
351,340,296642,1,2,0:0:0:0:
306,332,296721,1,2,0:0:0:0:
266,311,296799,5,2,0:0:0:0:
242,247,296878,1,2,0:0:0:0:
238,180,296956,1,2,0:0:0:0:
262,116,297035,1,2,0:0:0:0:
301,61,297113,6,2,L|347:25,4,45
229,100,297506,1,2,0:0:0:0:
176,156,297585,1,2,0:0:0:0:
140,222,297663,1,2,0:0:0:0:
98,292,297741,6,2,L|70:348,3,45
141,214,298055,5,2,0:0:0:0:
215,162,298134,1,2,0:0:0:0:
281,102,298212,1,2,0:0:0:0:
358,55,298291,1,2,0:0:0:0:
441,20,298370,2,2,L|486:3|486:3,3,45
421,70,298684,5,2,0:0:0:0:
386,137,298762,1,2,0:0:0:0:
353,206,298841,1,2,0:0:0:0:
331,278,298919,1,2,0:0:0:0:
307,351,298998,1,4,0:0:0:0:
272,342,299076,1,4,0:0:0:0:
235,340,299155,1,4,0:0:0:0:
199,340,299233,1,4,0:0:0:0:
163,344,299312,2,4,P|116:262|134:161,1,180
144,93,299940,5,6,0:0:0:0:
256,192,300254,12,0,303709,0:0:0:0:
