osu file format v14

[General]
AudioFilename: xi - Garyo Tensei.mp3
AudioLeadIn: 0
PreviewTime: 42569
Countdown: 0
SampleSet: Soft
StackLeniency: 0.7
Mode: 3
LetterboxInBreaks: 0
SpecialStyle: 0
WidescreenStoryboard: 0

[Editor]
DistanceSpacing: 1.2
BeatDivisor: 4
GridSize: 8
TimelineZoom: 3.099999

[Metadata]
Title:Garyou Tensei
TitleUnicode:画竜点睛
Artist:xi
ArtistUnicode:xi
Creator:LNP-
Version:Million's 7K MX
Source:
Tags:puxtu ExUsagi Remillion Cross
BeatmapID:530559
BeatmapSetID:210610

[Difficulty]
HPDrainRate:8
CircleSize:7
OverallDifficulty:8
ApproachRate:5
SliderMultiplier:1.4
SliderTickRate:1

[Events]
//Background and Video events
0,0,"BG.png",0,0
//Break Periods
//Storyboard Layer 0 (Background)
//Storyboard Layer 1 (Fail)
//Storyboard Layer 2 (Pass)
//Storyboard Layer 3 (Foreground)
//Storyboard Sound Samples

[TimingPoints]
14071,300,4,2,0,30,1,0
23671,-100,4,2,0,30,0,1
33271,-100,4,2,0,30,0,0
62071,-100,4,2,0,30,0,1
71671,-133.333333333333,4,2,0,30,0,0
81271,-125,4,2,0,30,0,0
86071,-117.647058823529,4,2,0,30,0,0
89671,-111.111111111111,4,2,0,30,0,0
90271,-105.263157894737,4,2,0,30,0,0
90871,-100,4,2,0,30,0,0
100771,300,4,2,0,30,1,1
119971,-100,4,2,0,30,0,0
121471,-133.333333333333,4,2,0,30,0,0
122671,-200,4,2,0,30,0,0

[HitObjects]
36,192,14071,5,0,0:0:0:40:bassdrum.wav
329,192,14071,1,0,0:0:0:0:
475,192,14071,1,4,0:0:0:0:
329,192,14221,1,0,0:0:0:0:
182,192,14296,1,0,0:0:0:0:
36,192,14371,1,0,0:0:0:0:
182,192,14521,1,0,0:0:0:0:
475,192,14521,1,0,0:0:0:0:
109,192,14671,1,0,0:0:0:0:
402,192,14671,1,0,0:0:0:0:
182,192,14821,1,0,0:0:0:0:
329,192,14896,1,0,0:0:0:0:
475,192,14971,1,0,0:0:0:0:
329,192,15121,1,0,0:0:0:0:
109,192,15121,1,0,0:0:0:0:
182,192,15271,1,4,0:0:0:0:
475,192,15271,128,0,16471:0:0:0:40:bassdrum.wav
402,192,15271,1,0,0:0:0:0:
109,192,15421,1,0,0:0:0:0:
182,192,15571,1,0,0:0:0:0:
256,192,15721,1,0,0:0:0:0:
36,192,15871,1,0,0:0:0:40:bassdrum.wav
256,192,16021,1,0,0:0:0:0:
182,192,16171,1,4,0:0:0:0:
402,192,16171,1,0,0:0:0:40:bassdrum.wav
36,192,16171,1,0,0:0:0:0:
109,192,16321,1,0,0:0:0:0:
182,192,16471,128,0,16771:0:0:0:0:
36,192,16471,1,4,0:0:0:0:
402,192,16471,1,0,0:0:0:40:bassdrum.wav
475,192,16771,128,0,17071:0:0:0:0:
182,192,17071,128,0,17671:0:0:0:0:
36,192,17071,1,4,0:0:0:0:
402,192,17071,1,0,0:0:0:40:bassdrum.wav
329,192,17221,1,0,0:0:0:0:
402,192,17296,1,0,0:0:0:0:
475,192,17371,1,0,0:0:0:0:
402,192,17521,1,0,0:0:0:0:
36,192,17671,1,0,0:0:0:40:bassdrum.wav
475,192,17671,1,4,0:0:0:0:
329,192,17671,1,0,0:0:0:0:
402,192,17821,1,0,0:0:0:0:
329,192,17896,1,0,0:0:0:0:
256,192,17971,1,0,0:0:0:0:
109,192,18121,1,0,0:0:0:0:
256,192,18271,1,4,0:0:0:0:
36,192,18271,1,0,0:0:0:0:
475,192,18271,1,0,0:0:0:0:
475,192,18571,1,0,0:0:0:40:bassdrum.wav
36,192,18571,1,4,0:0:0:0:
256,192,18571,1,0,0:0:0:0:
475,192,18721,1,0,0:0:0:40:bassdrum.wav
36,192,18721,1,0,0:0:0:0:
36,192,18871,1,4,0:0:0:0:
475,192,18871,1,0,0:0:0:40:bassdrum.wav
256,192,18871,1,0,0:0:0:0:
329,192,19021,1,0,0:0:0:0:
182,192,19096,1,0,0:0:0:0:
36,192,19171,1,0,0:0:0:0:
109,192,19321,1,0,0:0:0:0:
329,192,19321,1,0,0:0:0:0:
182,192,19471,1,0,0:0:0:0:
402,192,19471,1,0,0:0:0:0:
182,192,19621,1,0,0:0:0:0:
329,192,19696,1,0,0:0:0:0:
475,192,19771,1,0,0:0:0:0:
329,192,19921,1,0,0:0:0:0:
109,192,19921,1,0,0:0:0:0:
36,192,20071,1,4,0:0:0:0:
256,192,20071,1,0,0:0:0:40:bassdrum.wav
475,192,20071,1,0,0:0:0:0:
109,192,20221,1,0,0:0:0:0:
182,192,20371,1,0,0:0:0:0:
256,192,20521,1,0,0:0:0:0:
36,192,20671,1,0,0:0:0:40:bassdrum.wav
256,192,20821,1,0,0:0:0:0:
182,192,20971,1,0,0:0:0:40:bassdrum.wav
475,192,20971,1,4,0:0:0:0:
402,192,20971,1,0,0:0:0:0:
109,192,21121,1,0,0:0:0:0:
36,192,21271,1,0,0:0:0:40:bassdrum.wav
475,192,21271,1,4,0:0:0:0:
256,192,21271,128,0,21571:0:0:0:0:
402,192,21271,1,0,0:0:0:0:
475,192,21571,128,0,21871:0:0:0:0:
182,192,21871,128,0,22471:0:0:0:0:
36,192,21871,1,4,0:0:0:0:
402,192,21871,1,0,0:0:0:40:bassdrum.wav
329,192,22021,1,0,0:0:0:0:
402,192,22096,1,0,0:0:0:0:
475,192,22171,1,0,0:0:0:0:
256,192,22321,1,0,0:0:0:0:
402,192,22471,1,0,0:0:0:40:bassdrum.wav
36,192,22471,1,4,0:0:0:0:
475,192,22471,1,0,0:0:0:0:
256,192,22621,128,0,22771:0:0:0:0:
36,192,22771,1,4,0:0:0:0:
475,192,22771,1,0,0:0:0:40:bassdrum.wav
109,192,22771,1,0,0:0:0:0:
402,192,22921,128,0,23071:0:0:0:0:
36,192,23071,1,0,0:0:0:20:normal-hitclap19.wav
109,192,23071,1,0,0:0:0:0:
256,192,23146,1,0,0:0:0:20:normal-hitclap19.wav
329,192,23146,1,0,0:0:0:0:
109,192,23221,1,0,0:0:0:20:normal-hitclap19.wav
182,192,23221,1,0,0:0:0:0:
329,192,23296,1,0,0:0:0:20:normal-hitclap19.wav
402,192,23296,1,0,0:0:0:0:
182,192,23371,1,0,0:0:0:20:normal-hitclap19.wav
256,192,23371,1,0,0:0:0:20:normal-hitclap19.wav
402,192,23446,1,0,0:0:0:20:normal-hitclap19.wav
475,192,23446,1,0,0:0:0:20:normal-hitclap19.wav
182,192,23521,1,0,0:0:0:20:normal-hitclap19.wav
109,192,23521,1,0,0:0:0:20:normal-hitclap19.wav
329,192,23596,1,0,0:0:0:20:normal-hitclap19.wav
402,192,23596,1,0,0:0:0:20:normal-hitclap19.wav
36,192,23671,1,4,0:0:0:0:
475,192,23671,1,0,0:0:0:40:bassdrum.wav
256,192,23671,1,0,0:0:0:0:
182,192,23821,1,0,0:0:0:0:
109,192,23896,1,0,0:0:0:0:
36,192,23971,1,0,0:0:0:0:
182,192,24121,1,0,0:0:0:0:
475,192,24121,1,0,0:0:0:0:
402,192,24271,1,0,0:0:0:40:bassdrum.wav
109,192,24271,1,0,0:0:0:0:
329,192,24421,1,0,0:0:0:0:
402,192,24496,1,0,0:0:0:0:
475,192,24571,1,0,0:0:0:0:
109,192,24721,1,0,0:0:0:0:
256,192,24721,1,0,0:0:0:0:
182,192,24871,128,0,25021:0:0:0:0:
475,192,24871,1,0,0:0:0:40:bassdrum.wav
329,192,24871,1,0,0:0:0:0:
36,192,25021,128,0,25171:0:0:0:0:
402,192,25021,1,0,0:0:0:0:
329,192,25171,128,0,25321:0:0:0:0:
109,192,25171,1,0,0:0:0:40:bassdrum.wav
256,192,25171,1,0,0:0:0:0:
475,192,25321,128,0,25471:0:0:0:0:
182,192,25321,1,0,0:0:0:0:
402,192,25471,128,0,25621:0:0:0:0:
36,192,25471,1,0,0:0:0:40:bassdrum.wav
256,192,25471,1,0,0:0:0:0:
329,192,25621,128,0,25771:0:0:0:0:
109,192,25621,1,0,0:0:0:0:
182,192,25771,128,0,25921:0:0:0:0:
475,192,25771,1,0,0:0:0:0:
36,192,25771,1,0,0:0:0:40:bassdrum.wav
109,192,25921,128,0,26071:0:0:0:0:
329,192,25921,1,0,0:0:0:0:
402,192,26071,128,0,26371:0:0:0:0:
36,192,26071,1,0,0:0:0:40:bassdrum.wav
475,192,26071,1,0,0:0:0:0:
329,192,26221,1,0,0:0:0:0:
256,192,26371,128,0,26671:0:0:0:0:
182,192,26371,1,0,0:0:0:0:
36,192,26371,1,0,0:0:0:40:bassdrum.wav
475,192,26521,1,0,0:0:0:0:
109,192,26671,128,0,26971:0:0:0:0:
36,192,26671,1,0,0:0:0:0:
402,192,26671,1,0,0:0:0:40:bassdrum.wav
256,192,26821,1,0,0:0:0:0:
329,192,26896,1,0,0:0:0:0:
402,192,26971,1,0,0:0:0:40:bassdrum.wav
36,192,26971,1,0,0:0:0:0:
182,192,27121,1,0,0:0:0:0:
36,192,27271,1,0,0:0:0:0:
475,192,27271,1,0,0:0:0:40:bassdrum.wav
329,192,27421,1,0,0:0:0:0:
182,192,27496,1,0,0:0:0:0:
36,192,27571,1,0,0:0:0:0:
475,192,27571,1,0,0:0:0:40:bassdrum.wav
256,192,27721,1,0,0:0:0:0:
109,192,27871,1,0,0:0:0:0:
402,192,27871,1,0,0:0:0:40:bassdrum.wav
329,192,27871,128,0,28171:0:0:0:0:
182,192,28171,128,0,28471:0:0:0:0:
475,192,28171,1,0,0:0:0:40:bassdrum.wav
36,192,28171,1,0,0:0:0:0:
475,192,28321,1,0,0:0:0:40:bassdrum.wav
36,192,28321,1,0,0:0:0:0:
475,192,28471,1,0,0:0:0:40:bassdrum.wav
36,192,28471,1,0,0:0:0:0:
256,192,28621,1,0,0:0:0:0:
182,192,28696,1,0,0:0:0:0:
109,192,28771,1,0,0:0:0:0:
402,192,28921,1,0,0:0:0:40:bassdrum.wav
256,192,28921,1,0,0:0:0:0:
36,192,29071,1,0,0:0:0:0:
182,192,29071,1,0,0:0:0:40:bassdrum.wav
329,192,29221,1,0,0:0:0:0:
402,192,29296,1,0,0:0:0:0:
475,192,29371,1,0,0:0:0:40:bassdrum.wav
182,192,29521,1,0,0:0:0:0:
329,192,29521,1,0,0:0:0:0:
109,192,29671,128,0,29821:0:0:0:0:
329,192,29671,1,0,0:0:0:40:bassdrum.wav
182,192,29671,1,0,0:0:0:0:
36,192,29821,128,0,29971:0:0:0:0:
402,192,29821,1,0,0:0:0:0:
256,192,29971,128,0,30121:0:0:0:0:
475,192,29971,1,0,0:0:0:40:bassdrum.wav
182,192,29971,1,0,0:0:0:0:
475,192,30121,1,0,0:0:0:0:
329,192,30121,128,0,30271:0:0:0:0:
475,192,30271,128,0,30421:0:0:0:0:
182,192,30271,1,0,0:0:0:0:
36,192,30271,1,0,0:0:0:40:bassdrum.wav
329,192,30421,128,0,30571:0:0:0:0:
36,192,30421,1,0,0:0:0:0:
182,192,30571,128,0,30721:0:0:0:0:
402,192,30571,1,0,0:0:0:0:
109,192,30571,1,0,0:0:0:40:bassdrum.wav
36,192,30721,128,0,30871:0:0:0:0:
402,192,30721,1,0,0:0:0:0:
329,192,30871,128,0,31171:0:0:0:0:
182,192,30871,1,0,0:0:0:0:
475,192,30871,1,0,0:0:0:40:bassdrum.wav
109,192,31021,1,0,0:0:0:0:
182,192,31171,128,0,31471:0:0:0:0:
36,192,31171,1,0,0:0:0:0:
475,192,31171,1,0,0:0:0:40:bassdrum.wav
256,192,31321,1,0,0:0:0:0:
475,192,31471,128,0,32071:0:0:0:0:
36,192,31471,1,0,0:0:0:0:
402,192,31471,1,0,0:0:0:40:bassdrum.wav
109,192,31621,1,0,0:0:0:0:
256,192,31696,1,0,0:0:0:0:
402,192,31771,1,0,0:0:0:40:bassdrum.wav
36,192,31921,1,0,0:0:0:0:
256,192,32071,1,0,0:0:0:0:
402,192,32071,1,0,0:0:0:40:normal-hitclap19.wav
109,192,32071,1,0,0:0:0:0:
256,192,32296,1,0,0:0:0:0:
402,192,32296,1,0,0:0:0:40:normal-hitclap19.wav
109,192,32296,1,0,0:0:0:0:
256,192,32521,1,0,0:0:0:0:
475,192,32521,1,0,0:0:0:40:normal-hitclap19.wav
36,192,32521,1,0,0:0:0:0:
36,192,32671,1,0,0:0:0:20:normal-hitclap19.wav
109,192,32671,1,0,0:0:0:0:
475,192,32746,1,0,0:0:0:0:
402,192,32746,1,0,0:0:0:20:normal-hitclap19.wav
182,192,32821,1,0,0:0:0:0:
109,192,32821,1,0,0:0:0:20:normal-hitclap19.wav
329,192,32896,1,0,0:0:0:20:normal-hitclap19.wav
402,192,32896,1,0,0:0:0:0:
36,192,32971,1,0,0:0:0:20:normal-hitclap19.wav
109,192,32971,1,0,0:0:0:20:normal-hitclap19.wav
475,192,33046,1,0,0:0:0:20:normal-hitclap19.wav
402,192,33046,1,0,0:0:0:20:normal-hitclap19.wav
182,192,33121,1,0,0:0:0:20:normal-hitclap19.wav
109,192,33121,1,0,0:0:0:20:normal-hitclap19.wav
402,192,33196,1,0,0:0:0:20:normal-hitclap19.wav
329,192,33196,1,0,0:0:0:20:normal-hitclap19.wav
36,192,33271,1,4,0:0:0:0:
256,192,33271,1,0,0:0:0:0:
475,192,33271,1,0,0:0:0:40:bassdrum.wav
329,192,33421,1,0,0:0:0:0:
182,192,33421,1,0,0:0:0:0:
36,192,33571,1,0,0:0:0:40:bassdrum.wav
109,192,33571,1,0,0:0:0:0:
182,192,33721,1,0,0:0:0:0:
329,192,33721,1,0,0:0:0:0:
402,192,33871,1,0,0:0:0:0:
475,192,33871,1,0,0:0:0:40:bassdrum.wav
182,192,34021,1,0,0:0:0:0:
109,192,34096,1,0,0:0:0:0:
475,192,34171,1,0,0:0:0:40:bassdrum.wav
36,192,34171,1,0,0:0:0:0:
329,192,34246,1,0,0:0:0:0:
256,192,34321,1,0,0:0:0:0:
182,192,34396,1,0,0:0:0:0:
109,192,34471,1,0,0:0:0:0:
475,192,34471,1,0,0:0:0:40:bassdrum.wav
329,192,34621,128,0,34771:0:0:0:0:
36,192,34771,1,0,0:0:0:40:bassdrum.wav
182,192,34771,1,0,0:0:0:0:
402,192,34921,128,0,35071:0:0:0:0:
109,192,35071,1,0,0:0:0:40:bassdrum.wav
256,192,35071,1,0,0:0:0:0:
475,192,35221,128,0,35371:0:0:0:0:
182,192,35371,1,0,0:0:0:0:
329,192,35371,1,0,0:0:0:40:bassdrum.wav
475,192,35521,1,0,0:0:0:0:
36,192,35521,1,0,0:0:0:0:
109,192,35671,1,0,0:0:0:0:
402,192,35671,1,0,0:0:0:40:bassdrum.wav
256,192,35746,1,0,0:0:0:0:
182,192,35821,1,0,0:0:0:0:
36,192,35821,1,0,0:0:0:0:
329,192,35896,1,0,0:0:0:0:
256,192,35971,1,0,0:0:0:0:
475,192,35971,1,0,0:0:0:40:bassdrum.wav
36,192,36121,1,0,0:0:0:0:
109,192,36121,1,0,0:0:0:0:
402,192,36271,1,0,0:0:0:0:
475,192,36271,1,0,0:0:0:40:bassdrum.wav
256,192,36346,1,0,0:0:0:0:
109,192,36421,1,0,0:0:0:0:
36,192,36421,1,0,0:0:0:0:
256,192,36496,1,0,0:0:0:0:
402,192,36571,1,0,0:0:0:40:bassdrum.wav
475,192,36571,1,0,0:0:0:0:
109,192,36721,128,0,36796:0:0:0:0:
329,192,36721,1,0,0:0:0:0:
182,192,36796,128,0,36871:0:0:0:0:
256,192,36871,128,0,36946:0:0:0:0:
475,192,36871,1,0,0:0:0:40:bassdrum.wav
329,192,36946,128,0,37021:0:0:0:0:
36,192,37021,128,0,37096:0:0:0:0:
402,192,37021,1,0,0:0:0:0:
109,192,37096,128,0,37171:0:0:0:0:
182,192,37171,128,0,37246:0:0:0:0:
475,192,37171,1,0,0:0:0:40:bassdrum.wav
256,192,37246,128,0,37321:0:0:0:0:
329,192,37321,128,0,37396:0:0:0:0:
109,192,37321,1,0,0:0:0:0:
402,192,37396,128,0,37471:0:0:0:0:
475,192,37471,128,0,37546:0:0:0:0:
36,192,37471,1,0,0:0:0:40:bassdrum.wav
256,192,37546,128,0,37621:0:0:0:0:
402,192,37621,128,0,37696:0:0:0:0:
109,192,37621,1,0,0:0:0:0:
182,192,37696,128,0,37771:0:0:0:0:
36,192,37771,1,0,0:0:0:40:bassdrum.wav
329,192,37771,128,0,37921:0:0:0:0:
475,192,37921,1,0,0:0:0:40:bassdrum.wav
256,192,37921,1,0,0:0:0:0:
256,192,38071,1,0,0:0:0:0:
36,192,38071,1,0,0:0:0:40:bassdrum.wav
109,192,38221,1,0,0:0:0:0:
256,192,38296,1,0,0:0:0:0:
402,192,38371,1,0,0:0:0:0:
475,192,38371,1,0,0:0:0:40:bassdrum.wav
182,192,38446,1,0,0:0:0:0:
36,192,38521,1,0,0:0:0:0:
329,192,38596,1,0,0:0:0:0:
256,192,38671,1,0,0:0:0:0:
475,192,38671,128,0,38746:0:0:0:0:
36,192,38671,1,0,0:0:0:40:bassdrum.wav
402,192,38746,128,0,38821:0:0:0:0:
109,192,38821,1,0,0:0:0:0:
329,192,38821,128,0,38896:0:0:0:0:
256,192,38896,128,0,38971:0:0:0:0:
475,192,38971,1,0,0:0:0:40:bassdrum.wav
182,192,38971,1,0,0:0:0:0:
475,192,39121,1,0,0:0:0:40:bassdrum.wav
109,192,39121,1,0,0:0:0:0:
109,192,39271,1,0,0:0:0:0:
475,192,39271,1,0,0:0:0:40:bassdrum.wav
182,192,39421,1,0,0:0:0:0:
329,192,39421,1,0,0:0:0:0:
109,192,39496,1,0,0:0:0:0:
36,192,39571,1,0,0:0:0:0:
475,192,39571,1,0,0:0:0:40:bassdrum.wav
109,192,39646,1,0,0:0:0:0:
182,192,39721,1,0,0:0:0:0:
402,192,39721,1,0,0:0:0:0:
256,192,39796,1,0,0:0:0:0:
36,192,39871,1,0,0:0:0:40:bassdrum.wav
329,192,39871,128,0,39946:0:0:0:0:
475,192,39946,128,0,40021:0:0:0:0:
109,192,40021,1,0,0:0:0:0:
256,192,40021,128,0,40096:0:0:0:0:
402,192,40096,128,0,40171:0:0:0:0:
36,192,40171,1,0,0:0:0:40:bassdrum.wav
182,192,40171,1,0,0:0:0:0:
329,192,40246,1,0,0:0:0:0:
109,192,40321,1,0,0:0:0:0:
475,192,40321,1,0,0:0:0:0:
256,192,40396,1,0,0:0:0:0:
36,192,40471,1,0,0:0:0:40:bassdrum.wav
475,192,40471,128,0,40546:0:0:0:0:
402,192,40546,128,0,40621:0:0:0:0:
109,192,40621,1,0,0:0:0:0:
329,192,40621,128,0,40696:0:0:0:0:
256,192,40696,128,0,40771:0:0:0:0:
182,192,40771,1,0,0:0:0:0:
36,192,40771,1,0,0:0:0:40:bassdrum.wav
402,192,40921,1,0,0:0:0:0:
109,192,40921,1,0,0:0:0:40:bassdrum.wav
329,192,41071,128,0,41146:0:0:0:0:
36,192,41071,1,0,0:0:0:40:bassdrum.wav
182,192,41071,1,0,0:0:0:0:
402,192,41146,128,0,41221:0:0:0:0:
475,192,41221,128,0,41296:0:0:0:0:
109,192,41221,1,0,0:0:0:0:
329,192,41296,128,0,41371:0:0:0:0:
182,192,41371,1,0,0:0:0:40:bassdrum.wav
36,192,41371,128,0,41446:0:0:0:0:
402,192,41371,1,0,0:0:0:0:
109,192,41446,128,0,41521:0:0:0:0:
256,192,41521,128,0,41596:0:0:0:0:
402,192,41521,1,0,0:0:0:0:
182,192,41596,128,0,41671:0:0:0:0:
475,192,41671,1,0,0:0:0:0:
402,192,41671,128,0,41746:0:0:0:0:
36,192,41671,1,0,0:0:0:40:bassdrum.wav
329,192,41746,128,0,41821:0:0:0:0:
109,192,41821,1,0,0:0:0:0:
256,192,41821,128,0,41896:0:0:0:0:
182,192,41896,128,0,41971:0:0:0:0:
329,192,41971,1,0,0:0:0:0:
36,192,41971,1,0,0:0:0:40:bassdrum.wav
109,192,42121,128,0,42271:0:0:0:0:
475,192,42271,1,0,0:0:0:40:bassdrum.wav
329,192,42271,1,0,0:0:0:0:
402,192,42421,128,0,42571:0:0:0:0:
36,192,42571,1,0,0:0:0:40:bassdrum.wav
182,192,42571,1,0,0:0:0:0:
329,192,42646,1,0,0:0:0:40:bassdrum.wav
475,192,42646,1,0,0:0:0:0:
36,192,42721,1,0,0:0:0:40:bassdrum.wav
182,192,42721,1,0,0:0:0:0:
329,192,42796,1,0,0:0:0:40:bassdrum.wav
475,192,42796,1,0,0:0:0:0:
36,192,42871,1,0,0:0:0:40:bassdrum.wav
182,192,42871,1,0,0:0:0:0:
402,192,42871,1,0,0:0:0:0:
182,192,43021,1,0,0:0:0:0:
475,192,43021,1,0,0:0:0:0:
109,192,43096,1,0,0:0:0:0:
36,192,43171,1,0,0:0:0:40:bassdrum.wav
402,192,43171,1,0,0:0:0:0:
329,192,43246,1,0,0:0:0:0:
256,192,43321,1,0,0:0:0:0:
475,192,43321,1,0,0:0:0:0:
182,192,43396,1,0,0:0:0:0:
402,192,43471,1,0,0:0:0:0:
36,192,43471,1,0,0:0:0:40:bassdrum.wav
182,192,43546,1,0,0:0:0:0:
256,192,43621,1,0,0:0:0:0:
475,192,43621,1,0,0:0:0:0:
329,192,43696,1,0,0:0:0:0:
109,192,43771,1,0,0:0:0:0:
402,192,43771,1,0,0:0:0:40:bassdrum.wav
256,192,43846,1,0,0:0:0:0:
329,192,43921,1,0,0:0:0:0:
36,192,43921,1,0,0:0:0:0:
402,192,43996,1,0,0:0:0:0:
475,192,44071,1,0,0:0:0:0:
36,192,44071,1,0,0:0:0:40:bassdrum.wav
109,192,44146,1,0,0:0:0:0:
256,192,44221,1,0,0:0:0:0:
402,192,44221,1,0,0:0:0:0:
182,192,44296,1,0,0:0:0:0:
475,192,44371,1,0,0:0:0:0:
36,192,44371,1,0,0:0:0:40:bassdrum.wav
402,192,44446,1,0,0:0:0:0:
256,192,44521,1,0,0:0:0:0:
109,192,44521,1,0,0:0:0:0:
329,192,44596,1,0,0:0:0:0:
36,192,44671,1,0,0:0:0:40:bassdrum.wav
475,192,44671,1,0,0:0:0:0:
256,192,44746,1,0,0:0:0:0:
182,192,44821,1,0,0:0:0:0:
402,192,44821,1,0,0:0:0:0:
36,192,44896,1,0,0:0:0:0:
109,192,44971,1,0,0:0:0:40:bassdrum.wav
402,192,44971,1,0,0:0:0:0:
256,192,45046,1,0,0:0:0:0:
329,192,45121,1,0,0:0:0:0:
36,192,45121,1,0,0:0:0:0:
475,192,45196,1,0,0:0:0:0:
182,192,45196,1,0,0:0:0:0:
329,192,45271,1,0,0:0:0:0:
36,192,45271,1,0,0:0:0:40:bassdrum.wav
109,192,45346,1,0,0:0:0:0:
182,192,45421,1,0,0:0:0:0:
402,192,45421,1,0,0:0:0:0:
256,192,45496,1,0,0:0:0:0:
329,192,45571,1,0,0:0:0:0:
109,192,45571,1,0,0:0:0:0:
475,192,45571,1,0,0:0:0:40:bassdrum.wav
182,192,45646,1,0,0:0:0:0:
256,192,45721,1,0,0:0:0:0:
475,192,45721,1,0,0:0:0:0:
329,192,45796,1,0,0:0:0:0:
36,192,45871,1,0,0:0:0:40:bassdrum.wav
402,192,45871,1,0,0:0:0:0:
182,192,45871,1,0,0:0:0:0:
256,192,45946,1,0,0:0:0:0:
329,192,46021,1,0,0:0:0:0:
109,192,46021,1,0,0:0:0:0:
402,192,46096,1,0,0:0:0:0:
36,192,46171,1,0,0:0:0:40:bassdrum.wav
475,192,46171,1,0,0:0:0:0:
402,192,46246,1,0,0:0:0:0:
329,192,46321,1,0,0:0:0:0:
109,192,46321,1,0,0:0:0:0:
256,192,46396,1,0,0:0:0:0:
109,192,46471,128,0,46771:0:0:0:0:
475,192,46471,1,0,0:0:0:40:bassdrum.wav
402,192,46546,1,0,0:0:0:0:
329,192,46621,1,0,0:0:0:0:
36,192,46621,1,0,0:0:0:0:
256,192,46696,1,0,0:0:0:0:
475,192,46771,1,0,0:0:0:40:bassdrum.wav
182,192,46771,128,0,47071:0:0:0:0:
402,192,46846,1,0,0:0:0:0:
329,192,46921,1,0,0:0:0:0:
109,192,46921,1,0,0:0:0:0:
256,192,46996,1,0,0:0:0:0:
36,192,47071,1,0,0:0:0:40:bassdrum.wav
402,192,47071,128,0,47371:0:0:0:0:
475,192,47221,1,0,0:0:0:0:
256,192,47221,1,0,0:0:0:0:
109,192,47296,1,0,0:0:0:0:
36,192,47371,1,0,0:0:0:40:bassdrum.wav
256,192,47371,1,0,0:0:0:0:
36,192,47521,1,0,0:0:0:40:bassdrum.wav
256,192,47521,1,0,0:0:0:0:
36,192,47671,1,0,0:0:0:40:bassdrum.wav
256,192,47671,1,0,0:0:0:0:
109,192,47746,1,0,0:0:0:0:
329,192,47821,1,0,0:0:0:0:
182,192,47821,1,0,0:0:0:0:
402,192,47896,1,0,0:0:0:0:
36,192,47971,1,0,0:0:0:40:bassdrum.wav
109,192,47971,1,0,0:0:0:0:
182,192,48046,1,0,0:0:0:0:
402,192,48121,1,0,0:0:0:0:
256,192,48121,1,0,0:0:0:0:
475,192,48196,1,0,0:0:0:0:
256,192,48271,1,0,0:0:0:0:
36,192,48271,1,0,0:0:0:40:bassdrum.wav
109,192,48346,1,0,0:0:0:0:
329,192,48421,1,0,0:0:0:0:
182,192,48421,1,0,0:0:0:0:
402,192,48496,1,0,0:0:0:0:
109,192,48571,1,0,0:0:0:0:
36,192,48571,1,0,0:0:0:40:bassdrum.wav
182,192,48646,1,0,0:0:0:0:
402,192,48721,1,0,0:0:0:0:
256,192,48721,1,0,0:0:0:0:
475,192,48796,1,0,0:0:0:0:
256,192,48871,1,0,0:0:0:0:
36,192,48871,1,0,0:0:0:40:bassdrum.wav
182,192,48946,1,0,0:0:0:0:
109,192,49021,1,0,0:0:0:0:
402,192,49021,1,0,0:0:0:0:
36,192,49096,1,0,0:0:0:0:
256,192,49171,1,0,0:0:0:0:
475,192,49171,1,0,0:0:0:40:bassdrum.wav
182,192,49246,1,0,0:0:0:0:
109,192,49321,1,0,0:0:0:0:
402,192,49321,1,0,0:0:0:0:
36,192,49396,1,0,0:0:0:0:
256,192,49471,1,0,0:0:0:0:
475,192,49471,1,0,0:0:0:40:bassdrum.wav
329,192,49546,1,0,0:0:0:0:
402,192,49621,1,0,0:0:0:0:
109,192,49621,1,0,0:0:0:0:
475,192,49696,1,0,0:0:0:0:
256,192,49771,1,0,0:0:0:0:
36,192,49771,1,0,0:0:0:40:bassdrum.wav
182,192,49771,128,0,50071:0:0:0:0:
329,192,49846,1,0,0:0:0:0:
402,192,49921,1,0,0:0:0:0:
109,192,49921,1,0,0:0:0:0:
475,192,49996,1,0,0:0:0:0:
36,192,50071,128,0,50371:0:0:0:40:bassdrum.wav
329,192,50071,1,0,0:0:0:0:
256,192,50146,1,0,0:0:0:0:
402,192,50221,1,0,0:0:0:0:
109,192,50221,1,0,0:0:0:0:
329,192,50296,1,0,0:0:0:0:
182,192,50371,128,0,50671:0:0:0:40:bassdrum.wav
475,192,50371,1,0,0:0:0:0:
402,192,50446,1,0,0:0:0:0:
329,192,50521,1,0,0:0:0:0:
109,192,50521,1,0,0:0:0:0:
36,192,50596,1,0,0:0:0:0:
329,192,50671,128,0,50971:0:0:0:0:
109,192,50671,1,0,0:0:0:40:bassdrum.wav
256,192,50746,1,0,0:0:0:0:
182,192,50821,1,0,0:0:0:0:
475,192,50821,1,0,0:0:0:0:
109,192,50896,1,0,0:0:0:0:
402,192,50971,128,0,51271:0:0:0:0:
36,192,50971,1,0,0:0:0:40:bassdrum.wav
256,192,51046,1,0,0:0:0:0:
182,192,51121,1,0,0:0:0:0:
475,192,51121,1,0,0:0:0:0:
109,192,51196,1,0,0:0:0:0:
475,192,51271,128,0,51571:0:0:0:0:
256,192,51271,1,0,0:0:0:40:bassdrum.wav
182,192,51346,1,0,0:0:0:0:
109,192,51421,1,0,0:0:0:0:
402,192,51421,1,0,0:0:0:0:
36,192,51496,1,0,0:0:0:0:
329,192,51571,128,0,51871:0:0:0:0:
256,192,51571,1,0,0:0:0:40:bassdrum.wav
182,192,51646,1,0,0:0:0:0:
109,192,51721,1,0,0:0:0:0:
475,192,51721,1,0,0:0:0:0:
36,192,51796,1,0,0:0:0:0:
475,192,51871,1,0,0:0:0:0:
256,192,51871,1,0,0:0:0:40:bassdrum.wav
36,192,52021,1,0,0:0:0:0:
256,192,52021,1,0,0:0:0:40:bassdrum.wav
475,192,52171,1,0,0:0:0:0:
402,192,52171,1,0,0:0:0:40:normal-hitclap19.wav
109,192,52246,1,0,0:0:0:40:normal-hitclap19.wav
36,192,52246,1,0,0:0:0:0:
329,192,52321,1,0,0:0:0:40:normal-hitclap19.wav
402,192,52321,1,0,0:0:0:0:
109,192,52396,1,0,0:0:0:0:
182,192,52396,1,0,0:0:0:40:normal-hitclap19.wav
36,192,52471,1,0,0:0:0:40:bassdrum.wav
475,192,52471,1,4,0:0:0:0:
256,192,52471,1,0,0:0:0:0:
109,192,52546,1,0,0:0:0:0:
329,192,52621,1,0,0:0:0:0:
402,192,52621,1,0,0:0:0:0:
182,192,52696,1,0,0:0:0:0:
36,192,52771,1,0,0:0:0:0:
475,192,52771,1,0,0:0:0:40:bassdrum.wav
109,192,52846,1,0,0:0:0:0:
256,192,52921,1,0,0:0:0:0:
402,192,52921,1,0,0:0:0:0:
182,192,52996,1,0,0:0:0:0:
36,192,53071,1,0,0:0:0:0:
475,192,53071,1,0,0:0:0:40:bassdrum.wav
109,192,53146,1,0,0:0:0:0:
182,192,53221,1,0,0:0:0:0:
402,192,53221,1,0,0:0:0:0:
256,192,53296,1,0,0:0:0:0:
109,192,53371,1,0,0:0:0:0:
475,192,53371,1,0,0:0:0:40:bassdrum.wav
182,192,53446,1,0,0:0:0:0:
256,192,53521,1,0,0:0:0:0:
36,192,53521,1,0,0:0:0:0:
329,192,53596,1,0,0:0:0:0:
36,192,53671,1,0,0:0:0:0:
475,192,53671,1,0,0:0:0:40:bassdrum.wav
182,192,53746,1,0,0:0:0:0:
329,192,53821,1,0,0:0:0:0:
109,192,53821,1,0,0:0:0:0:
475,192,53896,1,0,0:0:0:0:
36,192,53971,1,0,0:0:0:40:bassdrum.wav
256,192,53971,1,0,0:0:0:0:
182,192,54046,1,0,0:0:0:0:
329,192,54121,1,0,0:0:0:0:
109,192,54121,1,0,0:0:0:0:
475,192,54196,1,0,0:0:0:0:
36,192,54271,1,0,0:0:0:40:bassdrum.wav
182,192,54271,1,0,0:0:0:0:
329,192,54346,1,0,0:0:0:0:
256,192,54421,1,0,0:0:0:0:
475,192,54421,1,0,0:0:0:0:
182,192,54496,1,0,0:0:0:0:
36,192,54571,1,0,0:0:0:40:bassdrum.wav
402,192,54571,1,0,0:0:0:0:
256,192,54646,1,0,0:0:0:0:
182,192,54721,1,0,0:0:0:0:
475,192,54721,1,0,0:0:0:0:
109,192,54796,1,0,0:0:0:0:
402,192,54796,1,0,0:0:0:0:
329,192,54871,1,0,0:0:0:0:
36,192,54871,1,0,0:0:0:40:bassdrum.wav
109,192,54946,1,0,0:0:0:0:
475,192,55021,1,0,0:0:0:0:
182,192,55021,1,0,0:0:0:0:
402,192,55096,1,0,0:0:0:0:
36,192,55171,1,0,0:0:0:40:bassdrum.wav
329,192,55171,1,0,0:0:0:0:
109,192,55246,1,0,0:0:0:0:
475,192,55321,1,0,0:0:0:0:
182,192,55321,1,0,0:0:0:0:
402,192,55396,1,0,0:0:0:0:
36,192,55471,1,0,0:0:0:40:bassdrum.wav
329,192,55471,1,0,0:0:0:0:
109,192,55546,1,0,0:0:0:0:
182,192,55621,1,0,0:0:0:0:
475,192,55621,1,0,0:0:0:0:
402,192,55696,1,0,0:0:0:0:
329,192,55771,1,0,0:0:0:0:
36,192,55771,1,0,0:0:0:40:bassdrum.wav
182,192,55846,1,0,0:0:0:0:
109,192,55921,1,0,0:0:0:0:
475,192,55921,1,0,0:0:0:0:
402,192,55996,1,0,0:0:0:0:
36,192,56071,128,0,56371:0:0:0:40:bassdrum.wav
329,192,56071,1,0,0:0:0:0:
475,192,56146,1,0,0:0:0:0:
402,192,56221,1,0,0:0:0:0:
109,192,56221,1,0,0:0:0:0:
256,192,56296,1,0,0:0:0:0:
182,192,56371,128,0,56671:0:0:0:40:bassdrum.wav
402,192,56371,1,0,0:0:0:0:
329,192,56446,1,0,0:0:0:0:
475,192,56521,1,0,0:0:0:0:
109,192,56521,1,0,0:0:0:0:
402,192,56596,1,0,0:0:0:0:
329,192,56671,1,0,0:0:0:0:
36,192,56671,128,0,56896:0:0:0:40:bassdrum.wav
475,192,56821,1,0,0:0:0:0:
182,192,56821,1,0,0:0:0:0:
329,192,56896,1,0,0:0:0:0:
256,192,56896,128,0,57121:0:0:0:0:
402,192,56971,1,0,0:0:0:0:
109,192,56971,1,0,0:0:0:40:bassdrum.wav
109,192,57121,1,0,0:0:0:40:bassdrum.wav
475,192,57121,128,0,57271:0:0:0:0:
402,192,57121,1,0,0:0:0:0:
109,192,57271,1,0,0:0:0:40:bassdrum.wav
402,192,57271,1,0,0:0:0:0:
36,192,57346,1,0,0:0:0:0:
256,192,57421,1,0,0:0:0:0:
329,192,57421,1,0,0:0:0:0:
109,192,57496,1,0,0:0:0:0:
182,192,57571,1,0,0:0:0:40:bassdrum.wav
402,192,57571,1,0,0:0:0:0:
36,192,57646,1,0,0:0:0:0:
256,192,57721,1,0,0:0:0:0:
475,192,57721,1,0,0:0:0:0:
109,192,57796,1,0,0:0:0:0:
329,192,57871,1,0,0:0:0:0:
36,192,57871,1,0,0:0:0:40:bassdrum.wav
475,192,57946,1,0,0:0:0:0:
256,192,58021,1,0,0:0:0:0:
109,192,58021,1,0,0:0:0:0:
329,192,58096,1,0,0:0:0:0:
475,192,58171,1,0,0:0:0:0:
36,192,58171,1,0,0:0:0:40:bassdrum.wav
475,192,58321,1,0,0:0:0:40:bassdrum.wav
36,192,58321,1,0,0:0:0:0:
475,192,58471,1,0,0:0:0:0:
36,192,58471,1,0,0:0:0:40:bassdrum.wav
109,192,58546,1,0,0:0:0:0:
182,192,58621,1,0,0:0:0:0:
402,192,58621,1,0,0:0:0:0:
256,192,58696,1,0,0:0:0:0:
475,192,58771,1,0,0:0:0:40:bassdrum.wav
329,192,58771,1,0,0:0:0:0:
109,192,58771,1,0,0:0:0:0:
182,192,58846,1,0,0:0:0:0:
256,192,58921,1,0,0:0:0:0:
36,192,58921,1,0,0:0:0:0:
329,192,58996,1,0,0:0:0:0:
36,192,59071,1,0,0:0:0:40:bassdrum.wav
182,192,59071,1,0,0:0:0:0:
256,192,59146,1,0,0:0:0:0:
329,192,59221,1,0,0:0:0:0:
109,192,59221,1,0,0:0:0:0:
402,192,59296,1,0,0:0:0:0:
36,192,59371,1,0,0:0:0:40:bassdrum.wav
475,192,59371,1,0,0:0:0:0:
36,192,59521,1,0,0:0:0:40:bassdrum.wav
475,192,59521,1,0,0:0:0:0:
475,192,59671,1,0,0:0:0:40:bassdrum.wav
36,192,59671,1,0,0:0:0:0:
182,192,59821,1,0,0:0:0:0:
329,192,59821,1,0,0:0:0:0:
36,192,59971,1,0,0:0:0:0:
475,192,59971,1,0,0:0:0:40:bassdrum.wav
36,192,60121,1,0,0:0:0:40:bassdrum.wav
475,192,60121,1,0,0:0:0:0:
36,192,60271,1,0,0:0:0:0:
475,192,60271,1,0,0:0:0:40:bassdrum.wav
182,192,60346,1,0,0:0:0:0:
329,192,60421,1,0,0:0:0:0:
402,192,60421,1,0,0:0:0:0:
182,192,60496,1,0,0:0:0:0:
36,192,60571,5,0,0:0:0:0:
329,192,60571,1,0,0:0:0:40:bassdrum.wav
36,192,60721,1,0,0:0:0:0:
329,192,60721,1,0,0:0:0:0:
109,192,60796,1,0,0:0:0:0:
402,192,60796,1,0,0:0:0:0:
182,192,60871,1,4,0:0:0:0:
475,192,60871,1,0,0:0:0:40:bassdrum.wav
256,192,60871,1,0,0:0:0:0:
182,192,61096,1,0,0:0:0:0:
109,192,61096,1,4,0:0:0:0:
402,192,61096,1,0,0:0:0:40:bassdrum.wav
36,192,61321,1,4,0:0:0:0:
109,192,61321,1,0,0:0:0:0:
329,192,61321,1,0,0:0:0:40:bassdrum.wav
36,192,61471,1,0,0:0:0:40:bassdrum.wav
256,192,61471,1,0,0:0:0:0:
329,192,61471,1,4,0:0:0:0:
329,192,61696,1,0,0:0:0:0:
402,192,61696,1,4,0:0:0:0:
109,192,61696,1,0,0:0:0:40:bassdrum.wav
475,192,61921,1,4,0:0:0:0:
402,192,61921,1,0,0:0:0:0:
182,192,61921,1,0,0:0:0:40:bassdrum.wav
36,192,62071,1,4,0:0:0:0:
256,192,62071,1,0,0:0:0:0:
475,192,62071,1,0,0:0:0:40:bassdrum.wav
36,192,62221,1,0,0:0:0:0:
182,192,62296,1,0,0:0:0:0:
329,192,62371,1,0,0:0:0:0:
182,192,62521,1,0,0:0:0:0:
36,192,62521,1,0,0:0:0:0:
329,192,62671,1,0,0:0:0:0:
475,192,62671,1,0,0:0:0:40:bassdrum.wav
475,192,62821,1,0,0:0:0:0:
329,192,62896,1,0,0:0:0:0:
182,192,62971,1,0,0:0:0:0:
36,192,63121,1,0,0:0:0:0:
256,192,63121,1,0,0:0:0:0:
109,192,63271,1,0,0:0:0:40:bassdrum.wav
329,192,63271,1,0,0:0:0:0:
256,192,63421,1,0,0:0:0:0:
475,192,63421,1,0,0:0:0:0:
182,192,63571,1,0,0:0:0:40:bassdrum.wav
402,192,63571,1,0,0:0:0:0:
36,192,63721,1,0,0:0:0:0:
109,192,63721,1,0,0:0:0:0:
109,192,63871,1,0,0:0:0:40:bassdrum.wav
182,192,63871,1,0,0:0:0:0:
475,192,64021,1,0,0:0:0:0:
402,192,64021,1,0,0:0:0:0:
329,192,64171,1,0,0:0:0:0:
402,192,64171,1,0,0:0:0:40:bassdrum.wav
109,192,64321,1,0,0:0:0:0:
402,192,64321,1,0,0:0:0:0:
36,192,64471,128,0,64771:0:0:0:0:
402,192,64471,1,0,0:0:0:40:bassdrum.wav
109,192,64471,1,0,0:0:0:0:
329,192,64621,1,0,0:0:0:0:
182,192,64771,128,0,65071:0:0:0:0:
475,192,64771,1,0,0:0:0:40:bassdrum.wav
402,192,64921,1,0,0:0:0:0:
329,192,65071,128,0,65371:0:0:0:0:
475,192,65071,1,0,0:0:0:40:bassdrum.wav
36,192,65221,1,0,0:0:0:0:
109,192,65296,1,0,0:0:0:0:
182,192,65371,1,0,0:0:0:0:
475,192,65371,1,0,0:0:0:40:bassdrum.wav
36,192,65521,1,0,0:0:0:0:
475,192,65521,1,0,0:0:0:0:
475,192,65671,128,0,65821:0:0:0:40:bassdrum.wav
36,192,65671,128,0,65821:0:0:0:0:
109,192,65821,1,0,0:0:0:0:
256,192,65896,1,0,0:0:0:0:
402,192,65971,1,0,0:0:0:40:bassdrum.wav
36,192,66121,1,0,0:0:0:0:
329,192,66121,1,0,0:0:0:0:
109,192,66271,128,0,66571:0:0:0:0:
402,192,66271,1,0,0:0:0:40:bassdrum.wav
36,192,66571,1,0,0:0:0:0:
475,192,66571,1,0,0:0:0:40:bassdrum.wav
36,192,66721,1,0,0:0:0:0:
475,192,66721,1,0,0:0:0:40:bassdrum.wav
475,192,66871,1,0,0:0:0:40:bassdrum.wav
36,192,66871,1,0,0:0:0:0:
109,192,67021,1,0,0:0:0:0:
182,192,67096,1,0,0:0:0:0:
256,192,67171,1,0,0:0:0:40:bassdrum.wav
109,192,67321,1,0,0:0:0:0:
402,192,67321,1,0,0:0:0:0:
402,192,67471,1,0,0:0:0:40:bassdrum.wav
109,192,67471,1,0,0:0:0:0:
475,192,67621,1,0,0:0:0:0:
402,192,67696,1,0,0:0:0:0:
329,192,67771,1,0,0:0:0:0:
109,192,67921,1,0,0:0:0:0:
402,192,67921,1,0,0:0:0:0:
36,192,68071,1,0,0:0:0:40:bassdrum.wav
182,192,68071,1,0,0:0:0:0:
109,192,68221,1,0,0:0:0:0:
182,192,68221,1,0,0:0:0:0:
329,192,68371,1,0,0:0:0:0:
475,192,68371,1,0,0:0:0:40:bassdrum.wav
402,192,68521,1,0,0:0:0:0:
329,192,68521,1,0,0:0:0:0:
109,192,68671,1,0,0:0:0:40:bassdrum.wav
256,192,68671,1,0,0:0:0:0:
109,192,68821,1,0,0:0:0:0:
256,192,68821,1,0,0:0:0:0:
329,192,68971,1,0,0:0:0:0:
475,192,68971,1,0,0:0:0:40:bassdrum.wav
329,192,69121,1,0,0:0:0:0:
475,192,69121,1,0,0:0:0:0:
36,192,69271,1,0,0:0:0:40:bassdrum.wav
182,192,69271,128,0,69571:0:0:0:0:
402,192,69421,1,0,0:0:0:0:
329,192,69571,128,0,69871:0:0:0:0:
475,192,69571,1,0,0:0:0:40:bassdrum.wav
36,192,69721,1,0,0:0:0:0:
475,192,69871,1,0,0:0:0:40:bassdrum.wav
36,192,70021,1,0,0:0:0:0:
109,192,70096,1,0,0:0:0:0:
182,192,70171,1,0,0:0:0:0:
475,192,70171,1,0,0:0:0:40:bassdrum.wav
256,192,70321,1,0,0:0:0:0:
109,192,70471,1,0,0:0:0:0:
256,192,70471,1,0,0:0:0:0:
402,192,70471,1,0,0:0:0:40:normal-hitclap19.wav
402,192,70696,1,0,0:0:0:40:normal-hitclap19.wav
109,192,70696,1,0,0:0:0:0:
256,192,70696,1,0,0:0:0:0:
109,192,70921,1,0,0:0:0:0:
256,192,70921,1,0,0:0:0:0:
402,192,70921,1,0,0:0:0:40:normal-hitclap19.wav
36,192,71071,1,0,0:0:0:0:
182,192,71071,1,0,0:0:0:40:bassdrum.wav
182,192,71221,1,0,0:0:0:40:bassdrum.wav
329,192,71221,1,0,0:0:0:0:
329,192,71371,5,0,0:0:0:40:normal-hitclap19.wav
475,192,71371,1,0,0:0:0:0:
182,192,71446,1,0,0:0:0:40:normal-hitclap19.wav
36,192,71446,1,0,0:0:0:0:
329,192,71521,1,0,0:0:0:40:normal-hitclap19.wav
475,192,71521,1,0,0:0:0:0:
36,192,71596,1,0,0:0:0:0:
182,192,71596,1,0,0:0:0:40:normal-hitclap19.wav
329,192,71671,128,0,72871:0:0:0:0:
109,192,71671,1,0,0:0:0:40:bassdrum.wav
402,192,71671,1,4,0:0:0:0:
256,192,71671,1,0,0:0:0:0:
475,192,72871,128,0,73471:0:0:0:0:
36,192,72871,1,0,0:0:0:20:normal-hitfinish19.wav
402,192,73471,128,0,74071:0:0:0:0:
256,192,74071,1,0,0:0:0:20:bassdrum.wav
182,192,74071,128,0,74146:0:0:0:0:
109,192,74146,128,0,74221:0:0:0:0:
36,192,74221,128,0,74971:0:0:0:0:
182,192,74971,128,0,75271:0:0:0:0:
402,192,75271,128,0,75421:0:0:0:20:normal-hitfinish19.wav
36,192,75271,1,0,0:0:0:20:bassdrum.wav
329,192,75421,128,0,75571:0:0:0:0:
256,192,75571,128,0,75721:0:0:0:0:
329,192,75721,128,0,75871:0:0:0:0:
109,192,75871,1,0,0:0:0:0:
182,192,75946,1,0,0:0:0:0:
256,192,76021,128,0,76171:0:0:0:0:
182,192,76171,128,0,76321:0:0:0:0:
109,192,76321,128,0,76471:0:0:0:0:
36,192,76471,128,0,77071:0:0:0:0:
475,192,76471,1,0,0:0:0:20:bassdrum.wav
182,192,77071,128,0,80671:0:0:0:0:
475,192,77671,1,0,0:0:0:20:normal-hitfinish19.wav
475,192,78721,1,0,0:0:0:20:bassdrum.wav
329,192,78796,1,0,0:0:0:20:bassdrum.wav
475,192,78871,1,0,0:0:0:20:bassdrum.wav
475,192,80071,1,0,0:0:0:20:normal-hitfinish19.wav
475,192,80671,128,0,80746:0:0:0:0:
36,192,80671,1,0,0:0:0:40:bassdrum.wav
402,192,80746,128,0,80821:0:0:0:0:
256,192,80821,128,0,80871:0:0:0:0:
329,192,80871,128,0,80921:0:0:0:0:
402,192,80921,128,0,80971:0:0:0:0:
475,192,80971,1,0,0:0:0:40:bassdrum.wav
36,192,80971,128,0,81046:0:0:0:0:
256,192,81046,128,0,81121:0:0:0:0:
475,192,81121,1,0,0:0:0:40:bassdrum.wav
182,192,81121,128,0,81196:0:0:0:0:
109,192,81196,128,0,81271:0:0:0:0:
329,192,81271,128,0,82471:0:0:0:0:
475,192,81271,1,0,0:0:0:40:bassdrum.wav
36,192,81271,1,4,0:0:0:0:
475,192,82471,128,0,83071:0:0:0:0:
109,192,82471,1,0,0:0:0:20:bassdrum.wav
36,192,82471,1,0,0:0:0:20:normal-hitfinish19.wav
402,192,83071,128,0,83671:0:0:0:0:
256,192,83671,1,0,0:0:0:20:bassdrum.wav
182,192,83671,128,0,83746:0:0:0:0:
109,192,83746,128,0,83821:0:0:0:0:
36,192,83821,128,0,84571:0:0:0:0:
182,192,84571,128,0,84871:0:0:0:0:
402,192,84871,128,0,85021:0:0:0:0:
36,192,84871,1,0,0:0:0:20:normal-hitfinish19.wav
329,192,85021,128,0,85171:0:0:0:0:
182,192,85171,128,0,85321:0:0:0:0:
109,192,85321,128,0,85471:0:0:0:0:
36,192,85471,128,0,85621:0:0:0:0:
329,192,85621,128,0,85771:0:0:0:0:
182,192,85771,128,0,85921:0:0:0:0:
36,192,85771,1,0,0:0:0:0:
475,192,85846,1,0,0:0:0:0:
256,192,85921,128,0,86071:0:0:0:0:
36,192,85921,1,0,0:0:0:20:bassdrum.wav
475,192,85996,1,0,0:0:0:20:bassdrum.wav
402,192,86071,128,0,88471:0:0:0:0:
36,192,86071,1,0,0:0:0:20:bassdrum.wav
109,192,86296,1,0,0:0:0:0:
182,192,86521,1,0,0:0:0:0:
256,192,86746,1,0,0:0:0:0:
36,192,86971,1,0,0:0:0:0:
109,192,87121,1,0,0:0:0:0:
182,192,87271,1,0,0:0:0:20:normal-hitfinish19.wav
109,192,87496,1,0,0:0:0:0:
36,192,87721,1,0,0:0:0:0:
36,192,87946,1,0,0:0:0:0:
182,192,88171,1,0,0:0:0:0:
256,192,88246,1,0,0:0:0:0:
329,192,88321,1,0,0:0:0:0:
109,192,88396,1,0,0:0:0:0:
182,192,88471,128,0,89671:0:0:0:0:
36,192,88471,1,0,0:0:0:20:bassdrum.wav
329,192,88696,1,0,0:0:0:0:
475,192,88921,1,0,0:0:0:0:
256,192,89146,1,0,0:0:0:0:
329,192,89371,1,0,0:0:0:0:
475,192,89446,1,0,0:0:0:0:
329,192,89521,1,0,0:0:0:0:
475,192,89596,1,0,0:0:0:0:
36,192,89671,5,0,0:0:0:0:
329,192,89671,1,0,0:0:0:0:
109,192,89746,1,0,0:0:0:0:
182,192,89821,1,0,0:0:0:0:
256,192,89896,1,0,0:0:0:0:
109,192,89971,1,0,0:0:0:0:
182,192,90046,1,0,0:0:0:0:
256,192,90121,1,0,0:0:0:0:
329,192,90196,1,0,0:0:0:0:
475,192,90271,1,0,0:0:0:0:
402,192,90346,1,0,0:0:0:0:
329,192,90421,1,0,0:0:0:0:
256,192,90496,1,0,0:0:0:0:
182,192,90571,128,0,90871:0:0:0:0:
329,192,90571,128,0,90871:0:0:0:0:
36,192,90871,128,0,90946:0:0:0:40:bassdrum.wav
109,192,90871,1,0,0:0:0:0:
475,192,90871,1,0,0:0:0:0:
402,192,90871,1,0,0:0:0:0:
256,192,90946,128,0,91021:0:0:0:0:
109,192,91021,128,0,91096:0:0:0:0:
475,192,91021,1,0,0:0:0:0:
329,192,91096,128,0,91171:0:0:0:0:
36,192,91171,1,0,0:0:0:40:bassdrum.wav
182,192,91171,128,0,91246:0:0:0:0:
402,192,91246,128,0,91321:0:0:0:0:
36,192,91321,128,0,91396:0:0:0:0:
329,192,91321,1,0,0:0:0:0:
182,192,91396,128,0,91471:0:0:0:0:
475,192,91471,128,0,91546:0:0:0:0:
329,192,91471,1,0,0:0:0:40:bassdrum.wav
256,192,91546,128,0,91621:0:0:0:0:
402,192,91621,128,0,91696:0:0:0:0:
36,192,91621,1,0,0:0:0:0:
182,192,91696,128,0,91771:0:0:0:0:
329,192,91771,128,0,91846:0:0:0:0:
109,192,91771,1,0,0:0:0:40:bassdrum.wav
182,192,91846,128,0,91921:0:0:0:0:
475,192,91921,128,0,91996:0:0:0:0:
36,192,91921,1,0,0:0:0:0:
329,192,91996,128,0,92071:0:0:0:0:
256,192,92071,1,0,0:0:0:0:
36,192,92071,1,0,0:0:0:40:bassdrum.wav
182,192,92146,1,0,0:0:0:0:
329,192,92221,1,0,0:0:0:0:
256,192,92296,1,0,0:0:0:0:
36,192,92371,1,0,0:0:0:40:bassdrum.wav
402,192,92371,1,0,0:0:0:0:
475,192,92446,1,0,0:0:0:0:
329,192,92521,1,0,0:0:0:0:
109,192,92521,1,0,0:0:0:0:
402,192,92596,1,0,0:0:0:0:
182,192,92671,1,0,0:0:0:0:
256,192,92671,1,0,0:0:0:0:
402,192,92746,1,0,0:0:0:0:
36,192,92821,1,0,0:0:0:0:
329,192,92821,1,0,0:0:0:0:
475,192,92896,1,0,0:0:0:0:
182,192,92971,1,0,0:0:0:40:bassdrum.wav
256,192,92971,1,0,0:0:0:0:
402,192,93046,1,0,0:0:0:0:
109,192,93121,1,0,0:0:0:0:
36,192,93121,1,0,0:0:0:0:
329,192,93196,1,0,0:0:0:0:
475,192,93271,1,0,0:0:0:40:bassdrum.wav
182,192,93271,128,0,93346:0:0:0:0:
329,192,93346,128,0,93421:0:0:0:0:
109,192,93421,128,0,93496:0:0:0:0:
475,192,93421,1,0,0:0:0:0:
402,192,93496,128,0,93571:0:0:0:0:
36,192,93571,128,0,93646:0:0:0:0:
256,192,93571,1,0,0:0:0:40:bassdrum.wav
475,192,93646,128,0,93721:0:0:0:0:
109,192,93721,128,0,93796:0:0:0:0:
256,192,93721,1,0,0:0:0:0:
402,192,93796,128,0,93871:0:0:0:0:
36,192,93871,128,0,93946:0:0:0:0:
329,192,93871,1,0,0:0:0:40:bassdrum.wav
109,192,93946,128,0,94021:0:0:0:0:
402,192,94021,1,0,0:0:0:0:
182,192,94021,128,0,94096:0:0:0:0:
256,192,94096,128,0,94171:0:0:0:0:
475,192,94171,128,0,94246:0:0:0:0:
36,192,94171,1,0,0:0:0:40:bassdrum.wav
402,192,94246,128,0,94321:0:0:0:0:
109,192,94321,1,0,0:0:0:0:
329,192,94321,128,0,94396:0:0:0:0:
256,192,94396,128,0,94471:0:0:0:0:
475,192,94471,1,0,0:0:0:40:bassdrum.wav
36,192,94471,128,0,94621:0:0:0:0:
182,192,94546,1,0,0:0:0:0:
109,192,94621,128,0,94771:0:0:0:0:
402,192,94621,1,0,0:0:0:0:
256,192,94696,1,0,0:0:0:0:
182,192,94771,128,0,94921:0:0:0:0:
475,192,94771,1,0,0:0:0:40:bassdrum.wav
36,192,94771,1,0,0:0:0:0:
329,192,94846,1,0,0:0:0:0:
256,192,94921,128,0,95071:0:0:0:0:
475,192,94921,1,0,0:0:0:0:
402,192,94996,1,0,0:0:0:0:
475,192,95071,128,0,95221:0:0:0:0:
36,192,95071,1,0,0:0:0:40:bassdrum.wav
329,192,95146,1,0,0:0:0:0:
402,192,95221,128,0,95371:0:0:0:0:
109,192,95221,1,0,0:0:0:0:
256,192,95296,1,0,0:0:0:0:
329,192,95371,128,0,95521:0:0:0:0:
36,192,95371,1,0,0:0:0:40:bassdrum.wav
182,192,95371,1,0,0:0:0:0:
256,192,95521,128,0,95671:0:0:0:0:
36,192,95521,1,0,0:0:0:40:bassdrum.wav
182,192,95521,1,0,0:0:0:0:
475,192,95671,128,0,95971:0:0:0:0:
182,192,95671,1,0,0:0:0:0:
36,192,95671,1,0,0:0:0:40:bassdrum.wav
329,192,95746,1,0,0:0:0:0:
36,192,95821,1,0,0:0:0:0:
109,192,95896,1,0,0:0:0:0:
329,192,95971,128,0,96271:0:0:0:0:
182,192,95971,1,0,0:0:0:40:bassdrum.wav
256,192,95971,1,0,0:0:0:0:
402,192,96046,1,0,0:0:0:0:
36,192,96121,1,0,0:0:0:0:
109,192,96196,1,0,0:0:0:0:
182,192,96271,128,0,96571:0:0:0:0:
256,192,96271,1,0,0:0:0:0:
402,192,96271,1,0,0:0:0:40:bassdrum.wav
36,192,96346,1,0,0:0:0:0:
475,192,96421,1,0,0:0:0:0:
402,192,96496,1,0,0:0:0:0:
36,192,96571,128,0,96871:0:0:0:0:
256,192,96571,1,0,0:0:0:0:
329,192,96571,1,0,0:0:0:40:bassdrum.wav
109,192,96646,1,0,0:0:0:0:
475,192,96721,1,0,0:0:0:0:
182,192,96796,1,0,0:0:0:0:
475,192,96871,128,0,97171:0:0:0:0:
256,192,96871,1,0,0:0:0:0:
329,192,96871,1,0,0:0:0:40:bassdrum.wav
402,192,96946,1,0,0:0:0:0:
182,192,97021,1,0,0:0:0:0:
36,192,97096,1,0,0:0:0:0:
329,192,97171,128,0,97471:0:0:0:0:
109,192,97171,1,0,0:0:0:40:bassdrum.wav
402,192,97171,1,0,0:0:0:0:
256,192,97246,1,0,0:0:0:0:
36,192,97321,1,0,0:0:0:0:
402,192,97396,1,0,0:0:0:0:
182,192,97471,128,0,97771:0:0:0:0:
475,192,97471,1,0,0:0:0:0:
109,192,97471,1,0,0:0:0:40:bassdrum.wav
256,192,97546,1,0,0:0:0:0:
402,192,97621,1,0,0:0:0:0:
109,192,97696,1,0,0:0:0:0:
36,192,97771,128,0,98071:0:0:0:0:
329,192,97771,1,0,0:0:0:40:bassdrum.wav
475,192,97771,1,0,0:0:0:0:
475,192,97921,1,0,0:0:0:0:
256,192,97921,1,0,0:0:0:40:bassdrum.wav
182,192,98071,1,0,0:0:0:40:bassdrum.wav
402,192,98071,1,0,0:0:0:0:
182,192,98221,1,0,0:0:0:40:bassdrum.wav
402,192,98221,1,0,0:0:0:0:
109,192,98371,1,0,0:0:0:40:bassdrum.wav
329,192,98371,1,0,0:0:0:0:
329,192,98521,1,0,0:0:0:0:
109,192,98521,1,0,0:0:0:40:bassdrum.wav
256,192,98671,1,0,0:0:0:0:
36,192,98671,1,0,0:0:0:40:bassdrum.wav
36,192,98821,1,0,0:0:0:40:bassdrum.wav
256,192,98821,1,0,0:0:0:0:
109,192,98971,1,0,0:0:0:40:bassdrum.wav
402,192,98971,1,0,0:0:0:0:
109,192,99121,1,0,0:0:0:20:normal-hitclap19.wav
402,192,99121,1,0,0:0:0:0:
36,192,99196,1,0,0:0:0:20:normal-hitclap19.wav
329,192,99196,1,0,0:0:0:0:
109,192,99271,1,0,0:0:0:20:normal-hitclap19.wav
402,192,99271,1,0,0:0:0:0:
36,192,99421,1,0,0:0:0:40:bassdrum.wav
475,192,99421,1,0,0:0:0:0:
36,192,99571,1,0,0:0:0:40:bassdrum.wav
475,192,99571,1,0,0:0:0:0:
36,192,99721,1,0,0:0:0:40:bassdrum.wav
475,192,99721,1,0,0:0:0:0:
402,192,99871,1,0,0:0:0:40:bassdrum.wav
182,192,99871,1,0,0:0:0:20:normal-hitclap19.wav
256,192,99946,1,0,0:0:0:40:normal-hitclap19.wav
475,192,100021,1,0,0:0:0:0:
329,192,100021,1,0,0:0:0:40:normal-hitclap19.wav
36,192,100171,1,0,0:0:0:0:
182,192,100171,1,0,0:0:0:40:bassdrum.wav
475,192,100246,1,0,0:0:0:40:bassdrum.wav
329,192,100246,1,0,0:0:0:0:
36,192,100321,1,0,0:0:0:0:
182,192,100321,1,0,0:0:0:40:bassdrum.wav
329,192,100396,1,0,0:0:0:40:bassdrum.wav
475,192,100396,1,0,0:0:0:0:
402,192,100471,1,0,0:0:0:40:bassdrum.wav
109,192,100471,1,4,0:0:0:0:
256,192,100471,1,0,0:0:0:0:
36,192,100771,1,0,0:0:0:40:bassdrum.wav
475,192,100771,1,4,0:0:0:0:
256,192,100771,1,0,0:0:0:0:
109,192,100921,1,0,0:0:0:0:
256,192,100996,1,0,0:0:0:0:
402,192,101071,1,0,0:0:0:0:
182,192,101221,1,0,0:0:0:0:
475,192,101221,1,0,0:0:0:0:
36,192,101371,1,0,0:0:0:40:bassdrum.wav
329,192,101371,1,0,0:0:0:0:
402,192,101521,1,0,0:0:0:0:
256,192,101596,1,0,0:0:0:0:
109,192,101671,1,0,0:0:0:0:
256,192,101821,1,0,0:0:0:0:
402,192,101821,1,0,0:0:0:0:
475,192,101971,128,0,102121:0:0:0:0:
36,192,101971,1,0,0:0:0:40:bassdrum.wav
182,192,101971,1,0,0:0:0:0:
329,192,102121,128,0,102271:0:0:0:0:
109,192,102121,1,0,0:0:0:0:
402,192,102271,128,0,102421:0:0:0:0:
182,192,102271,1,0,0:0:0:40:bassdrum.wav
475,192,102271,1,0,0:0:0:0:
256,192,102421,128,0,102571:0:0:0:0:
36,192,102421,1,0,0:0:0:0:
329,192,102571,128,0,102721:0:0:0:0:
109,192,102571,1,0,0:0:0:40:bassdrum.wav
475,192,102571,1,0,0:0:0:0:
182,192,102721,128,0,102871:0:0:0:0:
36,192,102721,1,0,0:0:0:0:
329,192,102871,128,0,103021:0:0:0:0:
402,192,102871,1,0,0:0:0:0:
109,192,102871,1,0,0:0:0:40:bassdrum.wav
475,192,103021,128,0,103171:0:0:0:0:
36,192,103021,1,0,0:0:0:0:
256,192,103171,1,0,0:0:0:40:bassdrum.wav
109,192,103171,128,0,103771:0:0:0:0:
402,192,103321,1,0,0:0:0:0:
329,192,103471,1,0,0:0:0:40:bassdrum.wav
182,192,103471,1,0,0:0:0:0:
475,192,103621,1,0,0:0:0:0:
256,192,103771,128,0,104371:0:0:0:0:
36,192,103771,1,0,0:0:0:40:bassdrum.wav
329,192,103921,1,0,0:0:0:0:
402,192,103996,1,0,0:0:0:0:
475,192,104071,1,0,0:0:0:0:
109,192,104221,1,0,0:0:0:0:
475,192,104371,1,0,0:0:0:40:bassdrum.wav
329,192,104371,1,0,0:0:0:0:
182,192,104521,1,0,0:0:0:0:
109,192,104596,1,0,0:0:0:0:
36,192,104671,1,0,0:0:0:0:
475,192,104821,1,0,0:0:0:40:bassdrum.wav
256,192,104821,1,0,0:0:0:0:
36,192,104971,128,0,105271:0:0:0:0:
402,192,104971,1,0,0:0:0:40:bassdrum.wav
182,192,104971,1,0,0:0:0:0:
182,192,105271,128,0,105571:0:0:0:0:
475,192,105271,1,0,0:0:0:40:bassdrum.wav
475,192,105421,1,0,0:0:0:40:bassdrum.wav
36,192,105421,1,0,0:0:0:0:
475,192,105571,1,0,0:0:0:40:bassdrum.wav
36,192,105571,1,0,0:0:0:0:
256,192,105721,1,0,0:0:0:0:
329,192,105796,1,0,0:0:0:0:
402,192,105871,1,0,0:0:0:0:
109,192,106021,1,0,0:0:0:0:
475,192,106021,1,0,0:0:0:0:
402,192,106171,1,0,0:0:0:0:
36,192,106171,1,0,0:0:0:40:bassdrum.wav
256,192,106321,1,0,0:0:0:0:
182,192,106396,1,0,0:0:0:0:
109,192,106471,1,0,0:0:0:0:
329,192,106621,1,0,0:0:0:0:
475,192,106621,1,0,0:0:0:0:
36,192,106771,1,0,0:0:0:40:bassdrum.wav
329,192,106771,128,0,106921:0:0:0:0:
182,192,106771,1,0,0:0:0:0:
475,192,106921,128,0,107071:0:0:0:0:
109,192,106921,1,0,0:0:0:0:
256,192,107071,128,0,107221:0:0:0:0:
182,192,107071,1,0,0:0:0:40:bassdrum.wav
329,192,107071,1,0,0:0:0:0:
402,192,107221,128,0,107371:0:0:0:0:
36,192,107221,1,0,0:0:0:0:
182,192,107371,128,0,107521:0:0:0:0:
109,192,107371,1,0,0:0:0:0:
475,192,107371,1,0,0:0:0:40:bassdrum.wav
329,192,107521,128,0,107671:0:0:0:0:
36,192,107521,1,0,0:0:0:0:
402,192,107671,1,0,0:0:0:0:
109,192,107671,128,0,107821:0:0:0:0:
475,192,107671,1,0,0:0:0:40:bassdrum.wav
256,192,107821,128,0,107971:0:0:0:0:
182,192,107821,1,0,0:0:0:0:
36,192,107971,128,0,108496:0:0:0:0:
475,192,107971,1,0,0:0:0:40:bassdrum.wav
329,192,107971,1,0,0:0:0:0:
182,192,108121,1,0,0:0:0:0:
475,192,108271,128,0,108571:0:0:0:0:
329,192,108271,1,0,0:0:0:40:bassdrum.wav
182,192,108421,1,0,0:0:0:0:
36,192,108571,128,0,109171:0:0:0:0:
329,192,108571,1,0,0:0:0:40:bassdrum.wav
182,192,108721,1,0,0:0:0:0:
256,192,108796,1,0,0:0:0:0:
475,192,108871,128,0,109171:0:0:0:0:
329,192,108871,1,0,0:0:0:40:bassdrum.wav
402,192,109021,1,0,0:0:0:40:bassdrum.wav
109,192,109021,1,0,0:0:0:0:
329,192,109171,1,0,0:0:0:0:
182,192,109171,1,0,0:0:0:0:
256,192,109171,1,0,0:0:0:40:normal-hitclap19.wav
109,192,109396,1,0,0:0:0:0:
256,192,109396,1,0,0:0:0:40:normal-hitclap19.wav
402,192,109396,1,0,0:0:0:0:
36,192,109621,1,0,0:0:0:0:
256,192,109621,1,0,0:0:0:40:normal-hitclap19.wav
475,192,109621,1,0,0:0:0:0:
182,192,109771,1,0,0:0:0:0:
36,192,109771,1,0,0:0:0:40:bassdrum.wav
256,192,109846,1,0,0:0:0:0:
329,192,109921,1,0,0:0:0:0:
475,192,109921,1,0,0:0:0:40:bassdrum.wav
256,192,109996,1,0,0:0:0:0:
36,192,110071,1,0,0:0:0:0:
182,192,110071,1,0,0:0:0:40:normal-hitclap19.wav
329,192,110146,1,0,0:0:0:40:normal-hitclap19.wav
475,192,110146,1,0,0:0:0:0:
36,192,110221,1,0,0:0:0:0:
182,192,110221,1,0,0:0:0:40:normal-hitclap19.wav
329,192,110296,1,0,0:0:0:40:normal-hitclap19.wav
475,192,110296,1,0,0:0:0:0:
109,192,110371,1,4,0:0:0:0:
256,192,110371,1,0,0:0:0:0:
402,192,110371,1,0,0:0:0:40:normal-hitclap19.wav
182,192,110521,1,0,0:0:0:0:
109,192,110596,1,0,0:0:0:0:
402,192,110671,128,0,110821:0:0:0:0:
36,192,110671,1,0,0:0:0:0:
329,192,110671,1,0,0:0:0:40:bassdrum.wav
256,192,110821,128,0,110971:0:0:0:0:
475,192,110821,1,0,0:0:0:0:
109,192,110971,128,0,111121:0:0:0:0:
36,192,110971,1,0,0:0:0:40:bassdrum.wav
329,192,110971,1,0,0:0:0:0:
329,192,111121,1,0,0:0:0:0:
402,192,111196,1,0,0:0:0:0:
109,192,111271,128,0,111421:0:0:0:0:
475,192,111271,1,0,0:0:0:0:
182,192,111271,1,0,0:0:0:40:bassdrum.wav
256,192,111421,128,0,111571:0:0:0:0:
36,192,111421,1,0,0:0:0:0:
402,192,111571,128,0,111721:0:0:0:0:
475,192,111571,1,0,0:0:0:40:bassdrum.wav
109,192,111571,1,0,0:0:0:0:
36,192,111721,128,0,111871:0:0:0:0:
182,192,111721,1,0,0:0:0:0:
256,192,111871,128,0,112021:0:0:0:0:
475,192,111871,1,0,0:0:0:40:bassdrum.wav
402,192,111871,1,0,0:0:0:0:
109,192,112021,128,0,112171:0:0:0:0:
329,192,112021,1,0,0:0:0:0:
475,192,112171,128,0,112321:0:0:0:0:
182,192,112171,1,0,0:0:0:0:
402,192,112171,1,0,0:0:0:40:bassdrum.wav
329,192,112321,128,0,112471:0:0:0:0:
36,192,112321,1,0,0:0:0:0:
182,192,112471,128,0,112621:0:0:0:0:
475,192,112471,1,0,0:0:0:40:bassdrum.wav
109,192,112471,1,0,0:0:0:0:
36,192,112621,128,0,112771:0:0:0:0:
402,192,112621,1,0,0:0:0:0:
256,192,112771,1,0,0:0:0:0:
329,192,112771,1,0,0:0:0:40:bassdrum.wav
475,192,112771,128,0,113071:0:0:0:0:
36,192,112921,1,0,0:0:0:0:
182,192,113071,1,0,0:0:0:40:bassdrum.wav
329,192,113071,128,0,113371:0:0:0:0:
109,192,113221,1,0,0:0:0:0:
475,192,113371,1,0,0:0:0:40:bassdrum.wav
182,192,113371,128,0,113671:0:0:0:0:
329,192,113521,1,0,0:0:0:0:
402,192,113596,1,0,0:0:0:0:
36,192,113671,128,0,113821:0:0:0:0:
475,192,113671,1,0,0:0:0:40:bassdrum.wav
475,192,113821,128,0,113971:0:0:0:0:
256,192,113821,1,0,0:0:0:0:
329,192,113971,128,0,114121:0:0:0:0:
109,192,113971,1,0,0:0:0:40:bassdrum.wav
182,192,114121,1,0,0:0:0:0:
109,192,114196,1,0,0:0:0:0:
402,192,114271,128,0,114421:0:0:0:0:
36,192,114271,1,0,0:0:0:40:bassdrum.wav
182,192,114421,128,0,114571:0:0:0:0:
36,192,114421,1,0,0:0:0:0:
329,192,114571,128,0,114871:0:0:0:0:
475,192,114571,1,0,0:0:0:40:bassdrum.wav
109,192,114721,1,0,0:0:0:0:
475,192,114871,1,0,0:0:0:40:bassdrum.wav
36,192,114871,1,0,0:0:0:0:
475,192,115021,1,0,0:0:0:40:bassdrum.wav
36,192,115021,1,0,0:0:0:0:
475,192,115171,1,0,0:0:0:40:bassdrum.wav
36,192,115171,1,0,0:0:0:0:
402,192,115171,128,0,116521:0:0:0:0:
256,192,115321,1,0,0:0:0:0:
182,192,115396,1,0,0:0:0:0:
109,192,115471,1,0,0:0:0:0:
256,192,115621,1,0,0:0:0:0:
329,192,115621,1,0,0:0:0:0:
109,192,115771,1,0,0:0:0:40:bassdrum.wav
182,192,115771,1,0,0:0:0:0:
329,192,115921,1,0,0:0:0:0:
256,192,115996,1,0,0:0:0:0:
182,192,116071,1,0,0:0:0:0:
329,192,116221,1,0,0:0:0:0:
36,192,116221,1,0,0:0:0:0:
36,192,116371,1,0,0:0:0:40:bassdrum.wav
329,192,116371,1,0,0:0:0:0:
182,192,116521,128,0,116671:0:0:0:0:
256,192,116521,1,0,0:0:0:0:
402,192,116671,128,0,116971:0:0:0:0:
109,192,116671,128,0,116821:0:0:0:0:
329,192,116671,1,0,0:0:0:40:bassdrum.wav
475,192,116671,1,0,0:0:0:0:
256,192,116821,128,0,116971:0:0:0:0:
36,192,116821,1,0,0:0:0:0:
182,192,116971,128,0,117121:0:0:0:0:
475,192,116971,1,0,0:0:0:0:
36,192,116971,1,0,0:0:0:40:bassdrum.wav
109,192,117121,128,0,117271:0:0:0:0:
402,192,117121,1,0,0:0:0:0:
329,192,117271,1,0,0:0:0:40:bassdrum.wav
256,192,117271,128,0,117421:0:0:0:0:
475,192,117271,1,0,0:0:0:0:
36,192,117421,128,0,117571:0:0:0:0:
402,192,117421,1,0,0:0:0:0:
402,192,117571,128,0,117871:0:0:0:0:
109,192,117571,128,0,117871:0:0:0:0:
256,192,117571,1,0,0:0:0:40:bassdrum.wav
329,192,117721,1,0,0:0:0:0:
182,192,117871,128,0,118171:0:0:0:0:
475,192,117871,128,0,118171:0:0:0:0:
256,192,117871,1,0,0:0:0:40:bassdrum.wav
109,192,118021,1,0,0:0:0:0:
36,192,118171,128,0,118471:0:0:0:0:
329,192,118171,128,0,118471:0:0:0:0:
256,192,118171,1,0,0:0:0:40:bassdrum.wav
109,192,118321,1,0,0:0:0:0:
256,192,118396,1,0,0:0:0:0:
475,192,118471,128,0,118771:0:0:0:0:
402,192,118471,1,0,0:0:0:40:bassdrum.wav
36,192,118621,128,0,118771:0:0:0:0:
256,192,118621,1,0,0:0:0:0:
109,192,118771,1,0,0:0:0:0:
256,192,118771,1,0,0:0:0:0:
402,192,118771,1,0,0:0:0:40:normal-hitclap19.wav
36,192,118996,1,0,0:0:0:0:
256,192,118996,1,0,0:0:0:40:normal-hitclap19.wav
475,192,118996,1,0,0:0:0:0:
36,192,119221,1,0,0:0:0:0:
256,192,119221,1,0,0:0:0:40:normal-hitclap19.wav
475,192,119221,1,0,0:0:0:0:
182,192,119371,1,0,0:0:0:0:
109,192,119371,1,0,0:0:0:40:bassdrum.wav
475,192,119446,1,0,0:0:0:0:
402,192,119446,1,0,0:0:0:40:bassdrum.wav
182,192,119521,1,0,0:0:0:40:bassdrum.wav
256,192,119521,1,0,0:0:0:0:
402,192,119596,1,0,0:0:0:0:
329,192,119596,1,0,0:0:0:40:bassdrum.wav
36,192,119671,1,0,0:0:0:40:normal-hitclap19.wav
109,192,119671,1,0,0:0:0:0:
329,192,119746,1,0,0:0:0:0:
256,192,119746,1,0,0:0:0:40:normal-hitclap19.wav
36,192,119821,1,0,0:0:0:40:normal-hitclap19.wav
109,192,119821,1,0,0:0:0:0:
256,192,119896,1,0,0:0:0:0:
182,192,119896,1,0,0:0:0:40:normal-hitclap19.wav
36,192,119971,1,0,0:0:0:40:bassdrum.wav
109,192,119971,1,0,0:0:0:0:
329,192,119971,1,0,0:0:0:0:
475,192,119971,1,4,0:0:0:0:
109,192,120121,1,0,0:0:0:40:normal-hitclap19.wav
182,192,120196,1,0,0:0:0:40:normal-hitclap19.wav
256,192,120271,1,0,0:0:0:40:normal-hitclap19.wav
36,192,120421,1,4,0:0:0:0:
182,192,120421,1,0,0:0:0:0:
329,192,120421,1,0,0:0:0:0:
475,192,120421,1,0,0:0:0:40:bassdrum.wav
256,192,120571,1,0,0:0:0:40:normal-hitclap19.wav
182,192,120646,1,0,0:0:0:40:normal-hitclap19.wav
109,192,120721,1,0,0:0:0:40:normal-hitclap19.wav
36,192,120871,1,0,0:0:0:0:
182,192,120871,1,0,0:0:0:0:
329,192,120871,1,0,0:0:0:0:
475,192,120871,1,0,0:0:0:40:bassdrum.wav
256,192,120946,1,0,0:0:0:0:
402,192,120946,1,0,0:0:0:40:bassdrum.wav
109,192,120946,1,0,0:0:0:0:
182,192,121021,1,0,0:0:0:0:
329,192,121021,1,0,0:0:0:0:
475,192,121021,1,0,0:0:0:40:bassdrum.wav
182,192,121471,128,0,122671:0:0:0:0:
329,192,121471,128,0,122671:0:0:0:0:
36,192,121471,1,4,0:0:0:0:
475,192,121471,1,0,0:0:0:40:bassdrum.wav
36,192,122671,1,4,0:0:0:0:
475,192,122671,1,4,0:0:0:0:
109,192,122671,128,0,125071:0:0:0:0:
402,192,122671,128,0,125071:0:0:0:40:bassdrum.wav
