osu file format v14

[General]
AudioFilename: xi - Garyo Tensei.mp3
AudioLeadIn: 0
PreviewTime: 42569
Countdown: 0
SampleSet: Soft
StackLeniency: 0.7
Mode: 3
LetterboxInBreaks: 0
SpecialStyle: 0
WidescreenStoryboard: 0

[Editor]
DistanceSpacing: 1.2
BeatDivisor: 2
GridSize: 8
TimelineZoom: 2.2

[Metadata]
Title:Garyou Tensei
TitleUnicode:画竜点睛
Artist:xi
ArtistUnicode:xi
Creator:LNP-
Version:7K NM
Source:
Tags:puxtu ExUsagi Remillion Cross
BeatmapID:530546
BeatmapSetID:210610

[Difficulty]
HPDrainRate:7.3
CircleSize:7
OverallDifficulty:7
ApproachRate:5
SliderMultiplier:1.4
SliderTickRate:1

[Events]
//Background and Video events
0,0,"BG.png",0,0
//Break Periods
//Storyboard Layer 0 (Background)
//Storyboard Layer 1 (Fail)
//Storyboard Layer 2 (Pass)
//Storyboard Layer 3 (Foreground)
//Storyboard Sound Samples

[TimingPoints]
14071,300,4,2,0,30,1,0
23671,-100,4,2,0,30,0,1
33271,-100,4,2,0,30,0,0
62071,-100,4,2,0,30,0,1
71671,-100,4,2,0,30,0,0
100771,300,4,2,0,30,1,1
119971,-100,4,2,0,30,0,0

[HitObjects]
475,192,14071,5,0,0:0:0:40:bassdrum.wav
36,192,14071,1,4,0:0:0:0:
402,192,14221,1,0,0:0:0:0:
256,192,14371,1,0,0:0:0:0:
109,192,14521,1,0,0:0:0:0:
475,192,14671,1,0,0:0:0:0:
402,192,14821,1,0,0:0:0:0:
256,192,14971,1,0,0:0:0:0:
109,192,15121,1,0,0:0:0:0:
475,192,15271,1,0,0:0:0:40:bassdrum.wav
36,192,15271,1,4,0:0:0:0:
329,192,15421,1,0,0:0:0:0:
109,192,15571,1,0,0:0:0:0:
402,192,15721,1,0,0:0:0:0:
182,192,15871,1,0,0:0:0:40:bassdrum.wav
329,192,16021,1,0,0:0:0:0:
36,192,16171,1,4,0:0:0:0:
256,192,16171,1,0,0:0:0:40:bassdrum.wav
402,192,16321,1,0,0:0:0:0:
475,192,16471,1,0,0:0:0:40:bassdrum.wav
182,192,16471,128,4,16771:0:0:0:0:
402,192,16771,128,0,17071:0:0:0:0:
109,192,17071,1,4,0:0:0:0:
329,192,17071,1,0,0:0:0:40:bassdrum.wav
182,192,17221,1,0,0:0:0:0:
329,192,17371,1,0,0:0:0:0:
256,192,17521,1,0,0:0:0:0:
36,192,17671,1,4,0:0:0:0:
402,192,17671,1,0,0:0:0:40:bassdrum.wav
329,192,17821,1,0,0:0:0:0:
182,192,17971,1,4,0:0:0:0:
475,192,17971,1,0,0:0:0:40:bassdrum.wav
109,192,18121,1,0,0:0:0:0:
36,192,18271,1,4,0:0:0:0:
475,192,18271,1,0,0:0:0:40:bassdrum.wav
402,192,18571,1,0,0:0:0:40:bassdrum.wav
109,192,18571,1,4,0:0:0:0:
475,192,18871,1,0,0:0:0:40:bassdrum.wav
36,192,18871,1,4,0:0:0:0:
182,192,19021,1,0,0:0:0:0:
36,192,19171,1,0,0:0:0:0:
329,192,19321,1,0,0:0:0:0:
475,192,19471,1,0,0:0:0:0:
256,192,19621,1,0,0:0:0:0:
109,192,19771,1,0,0:0:0:0:
329,192,19921,1,0,0:0:0:0:
475,192,20071,1,0,0:0:0:40:bassdrum.wav
182,192,20071,1,4,0:0:0:0:
36,192,20221,1,0,0:0:0:0:
256,192,20371,1,0,0:0:0:0:
109,192,20521,1,0,0:0:0:0:
329,192,20671,1,0,0:0:0:40:bassdrum.wav
182,192,20821,1,0,0:0:0:0:
475,192,20971,1,0,0:0:0:40:bassdrum.wav
109,192,20971,1,4,0:0:0:0:
402,192,21121,1,0,0:0:0:0:
36,192,21271,128,4,21571:0:0:0:0:
329,192,21271,1,0,0:0:0:40:bassdrum.wav
402,192,21571,128,0,21871:0:0:0:0:
256,192,21871,1,4,0:0:0:0:
475,192,21871,1,0,0:0:0:40:bassdrum.wav
109,192,22021,1,0,0:0:0:0:
475,192,22171,1,0,0:0:0:0:
329,192,22321,1,0,0:0:0:0:
475,192,22471,1,0,0:0:0:40:bassdrum.wav
182,192,22471,1,4,0:0:0:0:
256,192,22621,1,0,0:0:0:0:
329,192,22771,1,0,0:0:0:40:bassdrum.wav
36,192,22771,1,4,0:0:0:0:
402,192,22921,1,0,0:0:0:0:
475,192,23071,128,0,23671:0:0:0:40:bassdrum.wav
182,192,23371,128,0,23671:0:0:0:40:bassdrum.wav
36,192,23671,1,0,0:0:0:40:bassdrum.wav
329,192,23671,1,4,0:0:0:0:
109,192,23821,1,0,0:0:0:0:
402,192,23971,1,0,0:0:0:40:bassdrum.wav
182,192,24121,1,0,0:0:0:0:
36,192,24271,1,0,0:0:0:40:bassdrum.wav
256,192,24421,1,0,0:0:0:0:
475,192,24571,1,0,0:0:0:40:bassdrum.wav
256,192,24721,1,0,0:0:0:0:
402,192,24871,1,0,0:0:0:40:bassdrum.wav
36,192,24871,1,0,0:0:0:0:
182,192,25021,1,0,0:0:0:0:
329,192,25171,1,0,0:0:0:40:bassdrum.wav
256,192,25321,1,0,0:0:0:0:
36,192,25471,1,0,0:0:0:40:bassdrum.wav
182,192,25621,1,0,0:0:0:0:
109,192,25771,1,0,0:0:0:0:
329,192,25921,1,0,0:0:0:0:
36,192,26071,128,0,26371:0:0:0:40:bassdrum.wav
256,192,26071,1,0,0:0:0:0:
475,192,26371,128,0,26671:0:0:0:0:
256,192,26371,1,0,0:0:0:40:bassdrum.wav
402,192,26671,128,0,26971:0:0:0:0:
182,192,26671,1,0,0:0:0:40:bassdrum.wav
36,192,26971,1,0,0:0:0:40:bassdrum.wav
329,192,26971,1,0,0:0:0:0:
182,192,27271,1,0,0:0:0:40:bassdrum.wav
329,192,27421,1,0,0:0:0:0:
475,192,27571,1,0,0:0:0:40:bassdrum.wav
256,192,27721,1,0,0:0:0:0:
36,192,27871,128,0,28171:0:0:0:40:bassdrum.wav
402,192,27871,1,0,0:0:0:0:
475,192,28171,128,0,28471:0:0:0:40:bassdrum.wav
109,192,28171,1,0,0:0:0:0:
182,192,28471,1,0,0:0:0:40:bassdrum.wav
402,192,28471,1,0,0:0:0:0:
329,192,28621,1,0,0:0:0:0:
475,192,28771,1,0,0:0:0:40:bassdrum.wav
109,192,28921,1,0,0:0:0:0:
256,192,29071,1,0,0:0:0:40:bassdrum.wav
475,192,29221,1,0,0:0:0:0:
182,192,29371,1,0,0:0:0:40:bassdrum.wav
329,192,29521,1,0,0:0:0:0:
109,192,29671,1,0,0:0:0:40:bassdrum.wav
475,192,29671,1,0,0:0:0:0:
256,192,29821,1,0,0:0:0:0:
36,192,29971,1,0,0:0:0:40:bassdrum.wav
475,192,30121,1,0,0:0:0:0:
182,192,30271,1,0,0:0:0:40:bassdrum.wav
36,192,30421,1,0,0:0:0:0:
329,192,30571,1,0,0:0:0:40:bassdrum.wav
475,192,30721,1,0,0:0:0:0:
329,192,30871,128,0,31171:0:0:0:40:bassdrum.wav
36,192,31171,128,0,31471:0:0:0:40:bassdrum.wav
256,192,31171,1,0,0:0:0:0:
475,192,31471,128,0,31771:0:0:0:40:bassdrum.wav
109,192,31471,1,0,0:0:0:0:
182,192,31771,128,0,32071:0:0:0:40:bassdrum.wav
402,192,31771,1,0,0:0:0:0:
36,192,32071,1,0,0:0:0:0:
329,192,32071,1,0,0:0:0:40:normal-hitclap19.wav
329,192,32296,1,0,0:0:0:40:normal-hitclap19.wav
36,192,32296,1,0,0:0:0:0:
109,192,32521,1,0,0:0:0:0:
402,192,32521,1,0,0:0:0:40:normal-hitclap19.wav
109,192,32671,128,0,33271:0:0:0:0:
402,192,32671,128,0,33271:0:0:0:0:
36,192,33271,1,0,0:0:0:40:bassdrum.wav
475,192,33271,1,4,0:0:0:0:
109,192,33421,1,0,0:0:0:0:
182,192,33571,1,0,0:0:0:40:bassdrum.wav
475,192,33721,1,0,0:0:0:0:
256,192,33871,1,0,0:0:0:40:bassdrum.wav
109,192,34021,128,0,34471:0:0:0:0:
36,192,34471,1,0,0:0:0:0:
329,192,34471,1,0,0:0:0:40:bassdrum.wav
182,192,34621,1,0,0:0:0:0:
402,192,34771,1,0,0:0:0:40:bassdrum.wav
36,192,34921,1,0,0:0:0:0:
256,192,35071,1,0,0:0:0:40:bassdrum.wav
402,192,35221,1,0,0:0:0:0:
182,192,35371,1,0,0:0:0:40:bassdrum.wav
475,192,35521,1,0,0:0:0:0:
36,192,35671,128,0,35971:0:0:0:40:bassdrum.wav
256,192,35671,1,0,0:0:0:0:
329,192,35971,1,0,0:0:0:40:bassdrum.wav
182,192,36121,1,0,0:0:0:0:
402,192,36271,1,0,0:0:0:40:bassdrum.wav
256,192,36421,1,0,0:0:0:0:
36,192,36571,1,0,0:0:0:40:bassdrum.wav
329,192,36721,1,0,0:0:0:0:
36,192,36871,128,0,37171:0:0:0:0:
109,192,36871,1,0,0:0:0:40:bassdrum.wav
182,192,37171,128,0,37471:0:0:0:0:
256,192,37171,1,0,0:0:0:40:bassdrum.wav
329,192,37471,128,0,37771:0:0:0:0:
402,192,37471,1,0,0:0:0:40:bassdrum.wav
475,192,37771,1,0,0:0:0:40:bassdrum.wav
256,192,37921,1,0,0:0:0:40:bassdrum.wav
36,192,38071,1,0,0:0:0:0:
402,192,38071,1,0,0:0:0:40:bassdrum.wav
182,192,38371,1,0,0:0:0:0:
36,192,38671,128,0,38971:0:0:0:0:
402,192,38671,1,0,0:0:0:40:bassdrum.wav
475,192,38971,1,0,0:0:0:40:bassdrum.wav
256,192,39121,1,0,0:0:0:40:bassdrum.wav
36,192,39271,1,0,0:0:0:0:
329,192,39271,1,0,0:0:0:40:bassdrum.wav
182,192,39571,1,0,0:0:0:0:
109,192,39871,1,0,0:0:0:40:bassdrum.wav
475,192,39871,128,0,40171:0:0:0:0:
329,192,40171,128,0,40471:0:0:0:0:
109,192,40471,128,0,40771:0:0:0:40:bassdrum.wav
402,192,40771,1,0,0:0:0:40:bassdrum.wav
182,192,40921,1,0,0:0:0:40:bassdrum.wav
36,192,41071,1,0,0:0:0:40:bassdrum.wav
329,192,41071,128,0,41371:0:0:0:0:
182,192,41371,128,0,41671:0:0:0:0:
36,192,41671,128,0,41971:0:0:0:40:bassdrum.wav
182,192,41971,1,0,0:0:0:40:bassdrum.wav
402,192,41971,1,0,0:0:0:0:
109,192,42121,1,0,0:0:0:40:bassdrum.wav
475,192,42271,1,0,0:0:0:40:bassdrum.wav
36,192,42421,1,0,0:0:0:40:bassdrum.wav
256,192,42571,128,0,42871:0:0:0:40:bassdrum.wav
402,192,42871,1,0,0:0:0:40:bassdrum.wav
109,192,42871,1,4,0:0:0:0:
475,192,42871,128,0,44071:0:0:0:0:
182,192,43171,1,0,0:0:0:40:bassdrum.wav
109,192,43471,1,0,0:0:0:40:bassdrum.wav
256,192,43771,1,0,0:0:0:40:bassdrum.wav
36,192,44071,128,0,44671:0:0:0:0:
182,192,44071,1,0,0:0:0:40:bassdrum.wav
256,192,44371,1,0,0:0:0:40:bassdrum.wav
475,192,44671,128,0,45121:0:0:0:0:
329,192,44671,1,0,0:0:0:40:bassdrum.wav
402,192,45121,1,0,0:0:0:0:
109,192,45271,128,0,46471:0:0:0:40:bassdrum.wav
256,192,45571,1,0,0:0:0:40:bassdrum.wav
402,192,45871,1,0,0:0:0:40:bassdrum.wav
329,192,46171,1,0,0:0:0:40:bassdrum.wav
475,192,46471,128,0,46771:0:0:0:40:bassdrum.wav
329,192,46771,128,0,47071:0:0:0:40:bassdrum.wav
182,192,47071,128,0,47371:0:0:0:40:bassdrum.wav
109,192,47371,1,0,0:0:0:40:bassdrum.wav
402,192,47521,1,0,0:0:0:40:bassdrum.wav
256,192,47671,128,0,48871:0:0:0:40:bassdrum.wav
109,192,47971,1,0,0:0:0:40:bassdrum.wav
475,192,48271,1,0,0:0:0:40:bassdrum.wav
402,192,48571,1,0,0:0:0:40:bassdrum.wav
329,192,48871,128,0,49471:0:0:0:40:bassdrum.wav
475,192,49171,1,0,0:0:0:40:bassdrum.wav
182,192,49471,128,0,49771:0:0:0:40:bassdrum.wav
109,192,49771,128,0,50071:0:0:0:40:bassdrum.wav
36,192,50071,128,0,50371:0:0:0:40:bassdrum.wav
182,192,50371,128,0,50671:0:0:0:40:bassdrum.wav
256,192,50671,128,0,50971:0:0:0:40:bassdrum.wav
329,192,50971,128,0,51271:0:0:0:40:bassdrum.wav
475,192,51271,128,0,51571:0:0:0:40:bassdrum.wav
402,192,51571,128,0,51871:0:0:0:40:bassdrum.wav
329,192,51871,1,0,0:0:0:40:bassdrum.wav
109,192,52021,1,0,0:0:0:0:
256,192,52171,128,0,52471:0:0:0:40:bassdrum.wav
36,192,52471,1,4,0:0:0:0:
475,192,52471,128,0,53671:0:0:0:40:bassdrum.wav
402,192,52471,1,0,0:0:0:0:
182,192,52771,1,0,0:0:0:40:bassdrum.wav
109,192,53071,1,0,0:0:0:40:bassdrum.wav
256,192,53371,1,0,0:0:0:40:bassdrum.wav
109,192,53671,128,0,54271:0:0:0:0:
329,192,53671,1,0,0:0:0:40:bassdrum.wav
256,192,53971,1,0,0:0:0:40:bassdrum.wav
329,192,54271,1,0,0:0:0:40:bassdrum.wav
475,192,54271,128,0,54721:0:0:0:0:
402,192,54721,1,0,0:0:0:0:
329,192,54871,128,0,56071:0:0:0:40:bassdrum.wav
109,192,55171,1,0,0:0:0:40:bassdrum.wav
36,192,55471,1,0,0:0:0:40:bassdrum.wav
182,192,55771,1,0,0:0:0:40:bassdrum.wav
475,192,56071,128,0,56371:0:0:0:40:bassdrum.wav
329,192,56371,128,0,56671:0:0:0:40:bassdrum.wav
182,192,56671,128,0,56896:0:0:0:0:
256,192,56896,1,0,0:0:0:0:
329,192,57121,1,0,0:0:0:40:bassdrum.wav
109,192,57271,128,0,58171:0:0:0:40:bassdrum.wav
256,192,57571,1,0,0:0:0:40:bassdrum.wav
475,192,57871,1,0,0:0:0:40:bassdrum.wav
329,192,58171,128,0,58471:0:0:0:40:bassdrum.wav
182,192,58471,128,0,58921:0:0:0:40:bassdrum.wav
256,192,58921,128,0,59371:0:0:0:0:
329,192,59371,128,0,59671:0:0:0:40:bassdrum.wav
402,192,59671,128,0,60571:0:0:0:40:bassdrum.wav
182,192,59971,1,0,0:0:0:40:bassdrum.wav
256,192,60121,1,0,0:0:0:40:bassdrum.wav
329,192,60271,1,0,0:0:0:40:bassdrum.wav
36,192,60571,1,0,0:0:0:40:bassdrum.wav
109,192,60721,1,0,0:0:0:40:bassdrum.wav
182,192,60871,1,0,0:0:0:40:bassdrum.wav
475,192,60871,128,4,62071:0:0:0:0:
329,192,61096,1,0,0:0:0:0:
182,192,61321,1,0,0:0:0:40:bassdrum.wav
36,192,61471,1,4,0:0:0:0:
329,192,61471,1,0,0:0:0:40:bassdrum.wav
256,192,61771,1,0,0:0:0:0:
329,192,61921,1,0,0:0:0:40:bassdrum.wav
36,192,61921,1,4,0:0:0:0:
182,192,62071,1,4,0:0:0:0:
402,192,62071,1,0,0:0:0:0:
109,192,62071,1,0,0:0:0:40:bassdrum.wav
256,192,62221,1,0,0:0:0:0:
329,192,62371,1,0,0:0:0:40:bassdrum.wav
36,192,62521,1,0,0:0:0:0:
182,192,62671,1,0,0:0:0:40:bassdrum.wav
256,192,62821,1,0,0:0:0:0:
329,192,62971,1,0,0:0:0:40:bassdrum.wav
182,192,63121,1,0,0:0:0:0:
109,192,63271,1,0,0:0:0:0:
475,192,63271,1,0,0:0:0:40:bassdrum.wav
36,192,63421,1,0,0:0:0:0:
256,192,63571,1,0,0:0:0:40:bassdrum.wav
182,192,63721,1,0,0:0:0:0:
402,192,63871,1,0,0:0:0:40:bassdrum.wav
329,192,64021,1,0,0:0:0:0:
256,192,64171,1,0,0:0:0:40:bassdrum.wav
182,192,64321,1,0,0:0:0:0:
329,192,64471,128,0,64771:0:0:0:0:
109,192,64471,1,0,0:0:0:40:bassdrum.wav
36,192,64771,128,0,65071:0:0:0:0:
402,192,64771,1,0,0:0:0:40:bassdrum.wav
329,192,65071,128,0,65371:0:0:0:0:
109,192,65071,1,0,0:0:0:40:bassdrum.wav
402,192,65371,1,0,0:0:0:40:bassdrum.wav
109,192,65521,1,0,0:0:0:0:
475,192,65671,1,0,0:0:0:0:
182,192,65671,1,0,0:0:0:40:bassdrum.wav
329,192,65821,1,0,0:0:0:0:
182,192,65971,1,0,0:0:0:40:bassdrum.wav
36,192,66121,1,0,0:0:0:0:
329,192,66271,128,0,66571:0:0:0:0:
402,192,66271,1,0,0:0:0:40:bassdrum.wav
36,192,66571,128,0,66871:0:0:0:0:
109,192,66571,1,0,0:0:0:40:bassdrum.wav
182,192,66871,1,0,0:0:0:0:
475,192,66871,1,0,0:0:0:40:bassdrum.wav
329,192,67021,1,0,0:0:0:0:
36,192,67171,1,0,0:0:0:40:bassdrum.wav
182,192,67321,1,0,0:0:0:0:
402,192,67471,1,0,0:0:0:40:bassdrum.wav
109,192,67621,1,0,0:0:0:0:
256,192,67771,1,0,0:0:0:40:bassdrum.wav
182,192,67921,1,0,0:0:0:0:
475,192,68071,1,0,0:0:0:0:
329,192,68071,1,0,0:0:0:40:bassdrum.wav
402,192,68221,1,0,0:0:0:0:
36,192,68371,1,0,0:0:0:40:bassdrum.wav
109,192,68521,1,0,0:0:0:0:
329,192,68671,1,0,0:0:0:40:bassdrum.wav
475,192,68821,1,0,0:0:0:0:
182,192,68971,1,0,0:0:0:40:bassdrum.wav
36,192,69121,1,0,0:0:0:0:
475,192,69271,1,0,0:0:0:40:bassdrum.wav
182,192,69271,128,0,69571:0:0:0:0:
475,192,69571,128,0,69871:0:0:0:0:
256,192,69571,1,0,0:0:0:40:bassdrum.wav
36,192,69871,128,0,70171:0:0:0:0:
402,192,69871,1,0,0:0:0:40:bassdrum.wav
182,192,70171,1,0,0:0:0:40:bassdrum.wav
402,192,70321,1,0,0:0:0:0:
329,192,70471,1,0,0:0:0:0:
36,192,70471,1,0,0:0:0:40:normal-hitclap19.wav
36,192,70696,1,0,0:0:0:40:normal-hitclap19.wav
329,192,70696,1,0,0:0:0:0:
182,192,70921,1,0,0:0:0:40:normal-hitclap19.wav
475,192,70921,1,0,0:0:0:0:
182,192,71071,1,0,0:0:0:40:normal-hitclap19.wav
475,192,71071,128,0,71671:0:0:0:40:bassdrum.wav
402,192,71371,128,0,71671:0:0:0:40:bassdrum.wav
329,192,71671,1,0,0:0:0:40:bassdrum.wav
182,192,71671,1,4,0:0:0:0:
36,192,71671,128,0,72871:0:0:0:0:
475,192,72871,128,0,73471:0:0:0:20:normal-hitfinish19.wav
109,192,72871,1,0,0:0:0:0:
329,192,73471,128,0,74071:0:0:0:0:
109,192,74071,128,0,74971:0:0:0:20:bassdrum.wav
402,192,74971,128,0,75271:0:0:0:0:
182,192,75271,128,0,75421:0:0:0:20:normal-hitfinish19.wav
36,192,75271,1,0,0:0:0:0:
256,192,75421,128,0,75571:0:0:0:0:
329,192,75571,128,0,75721:0:0:0:0:
402,192,75721,128,0,75871:0:0:0:0:
475,192,75871,128,0,76171:0:0:0:0:
329,192,76171,128,0,76471:0:0:0:0:
36,192,76471,128,0,77071:0:0:0:20:bassdrum.wav
182,192,77071,128,0,80671:0:0:0:0:
402,192,77671,1,0,0:0:0:30:normal-hitfinish19.wav
402,192,80071,1,0,0:0:0:30:normal-hitfinish19.wav
475,192,80671,1,0,0:0:0:20:bassdrum.wav
329,192,80821,1,0,0:0:0:0:
36,192,80971,1,0,0:0:0:20:bassdrum.wav
182,192,81121,1,0,0:0:0:20:bassdrum.wav
329,192,81271,128,0,82471:0:0:0:0:
475,192,81271,1,0,0:0:0:20:bassdrum.wav
109,192,81271,1,4,0:0:0:0:
475,192,82471,128,0,83071:0:0:0:20:normal-hitfinish19.wav
256,192,82471,1,0,0:0:0:30:normal-hitfinish19.wav
402,192,83071,128,0,83671:0:0:0:0:
109,192,83671,128,0,84571:0:0:0:20:bassdrum.wav
402,192,84571,128,0,84871:0:0:0:0:
182,192,84871,128,0,85021:0:0:0:20:normal-hitfinish19.wav
36,192,84871,1,0,0:0:0:0:
256,192,85021,128,0,85171:0:0:0:0:
329,192,85171,128,0,85321:0:0:0:0:
402,192,85321,128,0,85471:0:0:0:0:
475,192,85471,128,0,85771:0:0:0:0:
182,192,85771,128,0,86071:0:0:0:0:
36,192,86071,128,0,86671:0:0:0:20:bassdrum.wav
256,192,86671,128,0,88171:0:0:0:0:
402,192,87271,1,0,0:0:0:0:
109,192,88171,128,0,88471:0:0:0:0:
402,192,88471,128,0,89671:0:0:0:20:bassdrum.wav
475,192,89671,128,0,89971:0:0:0:0:
36,192,89671,1,0,0:0:0:40:normal-hitfinish19.wav
329,192,89971,128,0,90271:0:0:0:0:
182,192,90271,128,0,90571:0:0:0:0:
36,192,90571,128,0,90871:0:0:0:0:
475,192,90571,1,0,0:0:0:40:bassdrum.wav
329,192,90721,1,0,0:0:0:40:bassdrum.wav
182,192,90871,1,4,0:0:0:0:
475,192,90871,1,0,0:0:0:40:bassdrum.wav
256,192,91021,1,0,0:0:0:0:
329,192,91171,1,0,0:0:0:40:bassdrum.wav
256,192,91321,1,0,0:0:0:0:
182,192,91471,1,0,0:0:0:40:bassdrum.wav
109,192,91621,1,0,0:0:0:0:
36,192,91771,1,0,0:0:0:40:bassdrum.wav
109,192,91921,1,0,0:0:0:0:
182,192,92071,1,0,0:0:0:40:bassdrum.wav
256,192,92221,1,0,0:0:0:0:
329,192,92371,1,0,0:0:0:40:bassdrum.wav
256,192,92521,1,0,0:0:0:0:
182,192,92671,1,0,0:0:0:40:bassdrum.wav
109,192,92821,1,0,0:0:0:0:
36,192,92971,1,0,0:0:0:40:bassdrum.wav
182,192,93121,1,0,0:0:0:40:bassdrum.wav
256,192,93271,1,0,0:0:0:40:bassdrum.wav
402,192,93421,1,0,0:0:0:0:
475,192,93571,1,0,0:0:0:40:bassdrum.wav
402,192,93721,1,0,0:0:0:0:
329,192,93871,1,0,0:0:0:40:bassdrum.wav
256,192,94021,1,0,0:0:0:0:
182,192,94171,1,0,0:0:0:40:bassdrum.wav
256,192,94321,1,0,0:0:0:0:
329,192,94471,1,0,0:0:0:40:bassdrum.wav
402,192,94621,1,0,0:0:0:0:
475,192,94771,1,0,0:0:0:40:bassdrum.wav
402,192,94921,1,0,0:0:0:0:
256,192,95071,1,0,0:0:0:40:bassdrum.wav
182,192,95221,1,0,0:0:0:0:
109,192,95371,1,0,0:0:0:40:bassdrum.wav
256,192,95521,1,0,0:0:0:40:bassdrum.wav
402,192,95671,1,0,0:0:0:40:bassdrum.wav
329,192,95821,1,0,0:0:0:0:
256,192,95971,1,0,0:0:0:40:bassdrum.wav
182,192,96121,1,0,0:0:0:0:
109,192,96271,1,0,0:0:0:40:bassdrum.wav
36,192,96421,1,0,0:0:0:0:
109,192,96571,1,0,0:0:0:40:bassdrum.wav
182,192,96721,1,0,0:0:0:0:
256,192,96871,1,0,0:0:0:40:bassdrum.wav
329,192,97021,1,0,0:0:0:0:
402,192,97171,1,0,0:0:0:40:bassdrum.wav
329,192,97321,1,0,0:0:0:0:
256,192,97471,1,0,0:0:0:40:bassdrum.wav
182,192,97621,1,0,0:0:0:0:
109,192,97771,1,0,0:0:0:40:bassdrum.wav
182,192,97921,1,0,0:0:0:0:
256,192,98071,1,0,0:0:0:40:bassdrum.wav
475,192,98071,1,0,0:0:0:0:
109,192,98221,1,0,0:0:0:40:bassdrum.wav
402,192,98371,1,0,0:0:0:40:bassdrum.wav
256,192,98521,1,0,0:0:0:40:bassdrum.wav
36,192,98671,1,0,0:0:0:40:bassdrum.wav
182,192,98821,1,0,0:0:0:40:bassdrum.wav
475,192,98971,1,0,0:0:0:40:bassdrum.wav
329,192,99121,1,0,0:0:0:40:bassdrum.wav
36,192,99271,1,0,0:0:0:40:bassdrum.wav
256,192,99271,1,4,0:0:0:0:
402,192,99496,1,4,0:0:0:0:
109,192,99496,1,0,0:0:0:40:bassdrum.wav
109,192,99721,1,0,0:0:0:40:bassdrum.wav
402,192,99721,1,4,0:0:0:0:
256,192,99871,128,0,100471:0:0:0:40:bassdrum.wav
402,192,100171,128,0,100471:0:0:0:40:bassdrum.wav
109,192,100171,128,0,100471:0:0:0:0:
329,192,100471,1,0,0:0:0:40:bassdrum.wav
182,192,100471,1,4,0:0:0:0:
36,192,100771,1,4,0:0:0:0:
475,192,100771,1,0,0:0:0:40:bassdrum.wav
182,192,100921,1,0,0:0:0:0:
329,192,101071,1,0,0:0:0:40:bassdrum.wav
36,192,101221,1,0,0:0:0:0:
182,192,101371,1,0,0:0:0:40:bassdrum.wav
329,192,101521,1,0,0:0:0:0:
475,192,101671,1,0,0:0:0:40:bassdrum.wav
109,192,101821,1,0,0:0:0:0:
182,192,101971,1,0,0:0:0:40:bassdrum.wav
402,192,101971,1,0,0:0:0:0:
36,192,102121,1,0,0:0:0:0:
329,192,102271,1,0,0:0:0:40:bassdrum.wav
182,192,102421,1,0,0:0:0:0:
475,192,102571,1,0,0:0:0:40:bassdrum.wav
329,192,102721,1,0,0:0:0:0:
36,192,102871,1,0,0:0:0:40:bassdrum.wav
182,192,103021,1,0,0:0:0:0:
256,192,103171,1,0,0:0:0:40:bassdrum.wav
475,192,103171,128,0,103471:0:0:0:0:
402,192,103471,128,0,103771:0:0:0:0:
36,192,103471,1,0,0:0:0:40:bassdrum.wav
109,192,103771,128,0,104071:0:0:0:0:
182,192,103771,1,0,0:0:0:40:bassdrum.wav
475,192,104071,128,0,104371:0:0:0:0:
329,192,104071,1,0,0:0:0:40:bassdrum.wav
182,192,104371,1,0,0:0:0:40:bassdrum.wav
402,192,104521,1,0,0:0:0:0:
256,192,104671,1,0,0:0:0:40:bassdrum.wav
109,192,104821,1,0,0:0:0:0:
329,192,104971,128,0,105271:0:0:0:40:bassdrum.wav
475,192,104971,1,0,0:0:0:0:
36,192,105271,128,0,105571:0:0:0:0:
182,192,105271,1,0,0:0:0:40:bassdrum.wav
256,192,105571,1,0,0:0:0:40:bassdrum.wav
475,192,105571,1,0,0:0:0:0:
109,192,105721,1,0,0:0:0:0:
329,192,105871,1,0,0:0:0:40:bassdrum.wav
36,192,106021,1,0,0:0:0:0:
256,192,106171,1,0,0:0:0:40:bassdrum.wav
475,192,106321,1,0,0:0:0:0:
329,192,106471,1,0,0:0:0:40:bassdrum.wav
109,192,106621,1,0,0:0:0:0:
182,192,106771,1,0,0:0:0:0:
475,192,106771,1,0,0:0:0:40:bassdrum.wav
329,192,106921,1,0,0:0:0:0:
182,192,107071,1,0,0:0:0:40:bassdrum.wav
475,192,107221,1,0,0:0:0:0:
256,192,107371,1,0,0:0:0:40:bassdrum.wav
182,192,107521,1,0,0:0:0:0:
329,192,107671,1,0,0:0:0:40:bassdrum.wav
36,192,107821,1,0,0:0:0:0:
475,192,107971,1,0,0:0:0:40:bassdrum.wav
182,192,107971,128,0,108271:0:0:0:0:
475,192,108271,128,0,108571:0:0:0:0:
329,192,108271,1,0,0:0:0:40:bassdrum.wav
36,192,108571,128,0,108871:0:0:0:0:
182,192,108571,1,0,0:0:0:40:bassdrum.wav
475,192,108871,1,0,0:0:0:40:bassdrum.wav
256,192,108871,128,0,109171:0:0:0:0:
402,192,109021,1,0,0:0:0:0:
36,192,109171,1,0,0:0:0:40:bassdrum.wav
182,192,109321,1,0,0:0:0:40:bassdrum.wav
475,192,109471,1,0,0:0:0:40:bassdrum.wav
329,192,109621,1,0,0:0:0:40:bassdrum.wav
256,192,109771,128,0,110371:0:0:0:40:bassdrum.wav
402,192,110071,1,0,0:0:0:40:bassdrum.wav
109,192,110221,1,0,0:0:0:40:bassdrum.wav
36,192,110371,1,0,0:0:0:40:bassdrum.wav
475,192,110371,1,4,0:0:0:0:
182,192,110521,1,0,0:0:0:0:
329,192,110671,1,0,0:0:0:40:bassdrum.wav
109,192,110821,1,0,0:0:0:0:
256,192,110971,1,0,0:0:0:40:bassdrum.wav
475,192,110971,1,0,0:0:0:0:
36,192,111121,1,0,0:0:0:0:
329,192,111271,1,0,0:0:0:40:bassdrum.wav
109,192,111421,1,0,0:0:0:0:
182,192,111571,1,0,0:0:0:0:
475,192,111571,1,0,0:0:0:40:bassdrum.wav
402,192,111721,1,0,0:0:0:0:
36,192,111871,1,0,0:0:0:40:bassdrum.wav
109,192,112021,1,0,0:0:0:0:
256,192,112171,1,0,0:0:0:40:bassdrum.wav
475,192,112171,1,0,0:0:0:0:
329,192,112321,1,0,0:0:0:0:
36,192,112471,1,0,0:0:0:40:bassdrum.wav
182,192,112621,1,0,0:0:0:0:
402,192,112771,1,0,0:0:0:40:bassdrum.wav
109,192,112771,1,0,0:0:0:0:
475,192,113071,128,0,113371:0:0:0:0:
329,192,113071,1,0,0:0:0:40:bassdrum.wav
36,192,113371,128,0,113671:0:0:0:0:
182,192,113371,1,0,0:0:0:40:bassdrum.wav
402,192,113671,1,0,0:0:0:0:
109,192,113671,1,0,0:0:0:40:bassdrum.wav
256,192,113821,1,0,0:0:0:0:
36,192,113971,1,0,0:0:0:40:bassdrum.wav
182,192,113971,1,0,0:0:0:0:
329,192,114121,1,0,0:0:0:0:
475,192,114271,1,0,0:0:0:40:bassdrum.wav
109,192,114421,1,0,0:0:0:0:
329,192,114571,128,0,114871:0:0:0:40:bassdrum.wav
475,192,114571,1,0,0:0:0:0:
182,192,114871,128,0,115171:0:0:0:40:bassdrum.wav
36,192,114871,1,0,0:0:0:0:
475,192,115171,1,0,0:0:0:0:
256,192,115171,1,0,0:0:0:40:bassdrum.wav
109,192,115321,1,0,0:0:0:0:
402,192,115471,1,0,0:0:0:40:bassdrum.wav
182,192,115621,1,0,0:0:0:0:
329,192,115771,1,0,0:0:0:40:bassdrum.wav
36,192,115771,1,0,0:0:0:0:
182,192,115921,1,0,0:0:0:0:
475,192,116071,1,0,0:0:0:40:bassdrum.wav
256,192,116221,1,0,0:0:0:0:
109,192,116371,1,0,0:0:0:0:
402,192,116371,1,0,0:0:0:40:bassdrum.wav
329,192,116521,1,0,0:0:0:0:
109,192,116671,1,0,0:0:0:40:bassdrum.wav
182,192,116821,1,0,0:0:0:0:
475,192,116971,1,0,0:0:0:0:
36,192,116971,1,0,0:0:0:40:bassdrum.wav
256,192,117121,1,0,0:0:0:0:
36,192,117271,1,0,0:0:0:40:bassdrum.wav
256,192,117421,1,0,0:0:0:0:
402,192,117571,1,0,0:0:0:0:
109,192,117571,1,0,0:0:0:40:bassdrum.wav
475,192,117871,128,0,118171:0:0:0:0:
329,192,117871,1,0,0:0:0:40:bassdrum.wav
182,192,118171,128,0,118471:0:0:0:0:
36,192,118171,1,0,0:0:0:40:bassdrum.wav
402,192,118471,1,0,0:0:0:40:bassdrum.wav
109,192,118471,1,0,0:0:0:0:
256,192,118621,1,0,0:0:0:0:
402,192,118771,1,0,0:0:0:40:bassdrum.wav
109,192,118771,1,0,0:0:0:0:
329,192,118996,1,0,0:0:0:40:normal-hitclap19.wav
182,192,118996,1,0,0:0:0:0:
182,192,119221,1,0,0:0:0:0:
329,192,119221,1,0,0:0:0:40:normal-hitclap19.wav
475,192,119371,1,0,0:0:0:40:normal-hitclap19.wav
36,192,119371,1,4,0:0:0:0:
256,192,119671,128,0,119971:0:0:0:40:bassdrum.wav
402,192,119971,1,0,0:0:0:40:normal-hitclap19.wav
109,192,119971,1,0,0:0:0:0:
256,192,120121,1,0,0:0:0:20:normal-hitclap19.wav
256,192,120271,1,0,0:0:0:20:normal-hitclap19.wav
475,192,120421,1,0,0:0:0:40:normal-hitclap19.wav
36,192,120421,1,0,0:0:0:0:
256,192,120571,1,0,0:0:0:20:normal-hitclap19.wav
256,192,120721,1,0,0:0:0:20:normal-hitclap19.wav
402,192,120871,1,0,0:0:0:40:normal-hitclap19.wav
109,192,120871,1,0,0:0:0:0:
402,192,121021,1,0,0:0:0:40:normal-hitclap19.wav
109,192,121021,1,0,0:0:0:0:
256,192,121171,128,0,121471:0:0:0:40:bassdrum.wav
475,192,121471,128,4,122671:0:0:0:0:
36,192,121471,128,0,122671:0:0:0:40:bassdrum.wav
329,192,122671,1,0,0:0:0:40:bassdrum.wav
182,192,122671,1,4,0:0:0:0:
256,192,122671,128,4,125071:0:0:0:0:
