osu file format v14

[General]
AudioFilename: xi - Garyo Tensei.mp3
AudioLeadIn: 0
PreviewTime: 42569
Countdown: 0
SampleSet: Soft
StackLeniency: 0.7
Mode: 3
LetterboxInBreaks: 0
SpecialStyle: 0
WidescreenStoryboard: 0

[Editor]
DistanceSpacing: 1.2
BeatDivisor: 4
GridSize: 8
TimelineZoom: 1.7

[Metadata]
Title:Garyou Tensei
TitleUnicode:画竜点睛
Artist:xi
ArtistUnicode:xi
Creator:LNP-
Version:4K HD
Source:
Tags:puxtu ExUsagi Remillion Cross
BeatmapID:530543
BeatmapSetID:210610

[Difficulty]
HPDrainRate:7
CircleSize:4
OverallDifficulty:8
ApproachRate:5
SliderMultiplier:1.4
SliderTickRate:1

[Events]
//Background and Video events
0,0,"BG.png",0,0
//Break Periods
//Storyboard Layer 0 (Background)
//Storyboard Layer 1 (Fail)
//Storyboard Layer 2 (Pass)
//Storyboard Layer 3 (Foreground)
//Storyboard Sound Samples

[TimingPoints]
14071,300,4,2,0,30,1,0
23671,-100,4,2,0,30,0,1
33271,-100,4,2,0,30,0,0
62071,-100,4,2,0,30,0,1
71671,-100,4,2,0,30,0,0
100771,300,4,2,0,30,1,1
119971,-100,4,2,0,30,0,0

[HitObjects]
192,192,14071,5,4,0:0:0:0:
320,192,14071,1,0,0:0:0:40:bassdrum.wav
448,192,14221,1,0,0:0:0:0:
320,192,14296,1,0,0:0:0:0:
192,192,14371,1,0,0:0:0:0:
64,192,14521,1,0,0:0:0:0:
448,192,14671,1,0,0:0:0:0:
320,192,14821,1,0,0:0:0:0:
192,192,14896,1,0,0:0:0:0:
64,192,14971,1,0,0:0:0:0:
192,192,15121,1,0,0:0:0:0:
448,192,15271,1,0,0:0:0:40:bassdrum.wav
320,192,15271,1,4,0:0:0:0:
192,192,15421,1,0,0:0:0:0:
64,192,15571,1,0,0:0:0:0:
192,192,15721,1,0,0:0:0:0:
320,192,15871,1,0,0:0:0:0:
64,192,15871,1,0,0:0:0:40:bassdrum.wav
448,192,16021,1,0,0:0:0:0:
320,192,16171,1,0,0:0:0:40:bassdrum.wav
192,192,16171,1,4,0:0:0:0:
64,192,16321,1,0,0:0:0:0:
192,192,16471,1,4,0:0:0:0:
320,192,16471,1,0,0:0:0:40:bassdrum.wav
448,192,16771,128,0,17071:0:0:0:0:
64,192,17071,1,0,0:0:0:40:bassdrum.wav
320,192,17071,1,4,0:0:0:0:
192,192,17221,1,0,0:0:0:0:
320,192,17296,1,0,0:0:0:0:
448,192,17371,1,0,0:0:0:0:
320,192,17521,1,0,0:0:0:0:
64,192,17671,1,0,0:0:0:40:bassdrum.wav
192,192,17671,1,4,0:0:0:0:
320,192,17821,1,0,0:0:0:0:
192,192,17896,1,0,0:0:0:0:
64,192,17971,1,0,0:0:0:40:bassdrum.wav
448,192,18121,1,0,0:0:0:0:
192,192,18271,1,0,0:0:0:40:bassdrum.wav
320,192,18271,1,4,0:0:0:0:
64,192,18571,1,0,0:0:0:40:bassdrum.wav
192,192,18571,1,4,0:0:0:0:
448,192,18721,1,0,0:0:0:40:bassdrum.wav
192,192,18871,1,0,0:0:0:40:bassdrum.wav
64,192,18871,1,4,0:0:0:0:
320,192,19021,1,0,0:0:0:0:
192,192,19096,1,0,0:0:0:0:
64,192,19171,1,0,0:0:0:0:
448,192,19321,1,0,0:0:0:0:
64,192,19471,1,0,0:0:0:0:
448,192,19621,1,0,0:0:0:0:
320,192,19696,1,0,0:0:0:0:
192,192,19771,1,0,0:0:0:0:
64,192,19921,1,0,0:0:0:0:
448,192,20071,1,0,0:0:0:40:bassdrum.wav
320,192,20071,1,4,0:0:0:0:
64,192,20221,1,0,0:0:0:0:
192,192,20371,1,0,0:0:0:0:
320,192,20521,1,0,0:0:0:0:
448,192,20671,1,0,0:0:0:40:bassdrum.wav
320,192,20821,1,0,0:0:0:0:
64,192,20971,1,0,0:0:0:40:bassdrum.wav
192,192,20971,1,4,0:0:0:0:
448,192,21121,1,0,0:0:0:0:
192,192,21271,1,0,0:0:0:40:bassdrum.wav
320,192,21271,1,4,0:0:0:0:
448,192,21571,128,0,21871:0:0:0:0:
320,192,21871,1,4,0:0:0:0:
64,192,21871,1,0,0:0:0:40:bassdrum.wav
192,192,22021,1,0,0:0:0:0:
320,192,22096,1,0,0:0:0:0:
448,192,22171,1,0,0:0:0:0:
192,192,22321,1,0,0:0:0:0:
448,192,22471,1,4,0:0:0:0:
64,192,22471,1,0,0:0:0:40:bassdrum.wav
320,192,22621,1,0,0:0:0:0:
64,192,22771,1,0,0:0:0:40:bassdrum.wav
448,192,22771,1,4,0:0:0:0:
192,192,22921,1,0,0:0:0:0:
64,192,23071,1,4,0:0:0:0:
448,192,23071,1,0,0:0:0:40:normal-hitclap19.wav
320,192,23146,1,0,0:0:0:20:normal-hitclap19.wav
64,192,23221,1,0,0:0:0:20:normal-hitclap19.wav
192,192,23296,1,0,0:0:0:20:normal-hitclap19.wav
448,192,23371,1,0,0:0:0:20:normal-hitclap19.wav
320,192,23446,1,0,0:0:0:40:normal-hitclap19.wav
192,192,23521,1,0,0:0:0:40:normal-hitclap19.wav
64,192,23596,1,0,0:0:0:40:normal-hitclap19.wav
192,192,23671,1,4,0:0:0:0:
448,192,23671,1,0,0:0:0:40:bassdrum.wav
448,192,23821,1,0,0:0:0:0:
192,192,23896,1,0,0:0:0:0:
64,192,23971,1,0,0:0:0:40:bassdrum.wav
192,192,24121,1,0,0:0:0:0:
448,192,24271,1,0,0:0:0:0:
64,192,24271,1,0,0:0:0:40:bassdrum.wav
448,192,24421,1,0,0:0:0:0:
192,192,24496,1,0,0:0:0:0:
64,192,24571,1,0,0:0:0:40:bassdrum.wav
320,192,24721,1,0,0:0:0:0:
64,192,24871,1,0,0:0:0:40:bassdrum.wav
192,192,24871,1,0,0:0:0:0:
320,192,25021,1,0,0:0:0:0:
448,192,25171,1,0,0:0:0:40:bassdrum.wav
320,192,25321,1,0,0:0:0:0:
192,192,25471,1,0,0:0:0:40:bassdrum.wav
64,192,25621,1,0,0:0:0:0:
448,192,25771,1,0,0:0:0:40:bassdrum.wav
320,192,25771,1,0,0:0:0:0:
64,192,25921,1,0,0:0:0:0:
320,192,26071,1,0,0:0:0:40:bassdrum.wav
192,192,26071,1,0,0:0:0:0:
448,192,26221,1,0,0:0:0:0:
64,192,26371,1,0,0:0:0:0:
192,192,26371,1,0,0:0:0:40:bassdrum.wav
320,192,26521,1,0,0:0:0:0:
64,192,26671,1,0,0:0:0:40:bassdrum.wav
448,192,26671,1,0,0:0:0:0:
192,192,26821,1,0,0:0:0:0:
320,192,26896,1,0,0:0:0:0:
448,192,26971,1,0,0:0:0:40:bassdrum.wav
64,192,27121,1,0,0:0:0:0:
192,192,27271,1,0,0:0:0:0:
320,192,27271,1,0,0:0:0:40:bassdrum.wav
448,192,27421,1,0,0:0:0:0:
320,192,27496,1,0,0:0:0:0:
192,192,27571,1,0,0:0:0:40:bassdrum.wav
320,192,27721,1,0,0:0:0:0:
64,192,27871,1,0,0:0:0:0:
448,192,27871,1,0,0:0:0:40:bassdrum.wav
320,192,28021,1,0,0:0:0:0:
192,192,28171,1,0,0:0:0:40:bassdrum.wav
64,192,28171,1,0,0:0:0:0:
320,192,28321,1,0,0:0:0:40:bassdrum.wav
192,192,28471,1,0,0:0:0:40:bassdrum.wav
448,192,28471,1,0,0:0:0:0:
448,192,28621,1,0,0:0:0:0:
192,192,28696,1,0,0:0:0:0:
64,192,28771,1,0,0:0:0:40:bassdrum.wav
320,192,28921,1,0,0:0:0:0:
448,192,29071,1,0,0:0:0:40:bassdrum.wav
192,192,29071,1,0,0:0:0:0:
448,192,29221,1,0,0:0:0:0:
192,192,29296,1,0,0:0:0:0:
64,192,29371,1,0,0:0:0:40:bassdrum.wav
192,192,29521,1,0,0:0:0:0:
448,192,29671,1,0,0:0:0:40:bassdrum.wav
320,192,29671,1,0,0:0:0:0:
64,192,29821,1,0,0:0:0:0:
192,192,29971,1,0,0:0:0:40:bassdrum.wav
320,192,30121,1,0,0:0:0:0:
448,192,30271,1,0,0:0:0:40:bassdrum.wav
320,192,30421,1,0,0:0:0:0:
192,192,30571,1,0,0:0:0:0:
64,192,30571,1,0,0:0:0:40:bassdrum.wav
448,192,30721,1,0,0:0:0:0:
320,192,30871,1,0,0:0:0:0:
192,192,30871,1,0,0:0:0:40:bassdrum.wav
64,192,31021,1,0,0:0:0:0:
448,192,31171,1,0,0:0:0:40:bassdrum.wav
192,192,31171,1,0,0:0:0:0:
320,192,31321,1,0,0:0:0:0:
448,192,31471,1,0,0:0:0:0:
64,192,31471,1,0,0:0:0:40:bassdrum.wav
192,192,31621,1,0,0:0:0:0:
320,192,31696,1,0,0:0:0:0:
448,192,31771,1,0,0:0:0:40:bassdrum.wav
192,192,31921,1,0,0:0:0:0:
448,192,32071,1,0,0:0:0:40:bassdrum.wav
64,192,32071,1,0,0:0:0:20:normal-hitclap19.wav
192,192,32296,1,0,0:0:0:20:normal-hitclap19.wav
448,192,32296,1,0,0:0:0:40:bassdrum.wav
64,192,32521,1,0,0:0:0:20:normal-hitclap19.wav
320,192,32521,1,0,0:0:0:40:bassdrum.wav
192,192,32671,1,0,0:0:0:20:normal-hitclap19.wav
320,192,32746,1,0,0:0:0:20:normal-hitclap19.wav
448,192,32821,1,0,0:0:0:20:normal-hitclap19.wav
64,192,32896,1,0,0:0:0:20:normal-hitclap19.wav
192,192,32971,1,0,0:0:0:40:normal-hitclap19.wav
320,192,33046,1,0,0:0:0:40:normal-hitclap19.wav
448,192,33121,1,0,0:0:0:40:normal-hitclap19.wav
320,192,33196,1,0,0:0:0:40:normal-hitclap19.wav
192,192,33271,1,0,0:0:0:40:bassdrum.wav
64,192,33271,1,4,0:0:0:0:
448,192,33421,1,0,0:0:0:0:
320,192,33571,1,0,0:0:0:0:
64,192,33721,1,0,0:0:0:0:
320,192,33871,1,0,0:0:0:0:
448,192,33871,1,0,0:0:0:40:bassdrum.wav
192,192,34021,1,0,0:0:0:0:
320,192,34096,1,0,0:0:0:0:
448,192,34171,1,0,0:0:0:0:
320,192,34246,1,0,0:0:0:0:
192,192,34321,1,0,0:0:0:0:
64,192,34396,1,0,0:0:0:0:
192,192,34471,1,0,0:0:0:0:
320,192,34471,1,0,0:0:0:40:bassdrum.wav
64,192,34621,1,0,0:0:0:0:
320,192,34771,1,0,0:0:0:0:
64,192,34921,1,0,0:0:0:0:
448,192,35071,1,0,0:0:0:40:bassdrum.wav
320,192,35071,1,0,0:0:0:0:
192,192,35221,1,0,0:0:0:0:
448,192,35371,1,0,0:0:0:0:
64,192,35521,1,0,0:0:0:0:
192,192,35671,1,0,0:0:0:40:bassdrum.wav
320,192,35746,1,0,0:0:0:0:
448,192,35821,1,0,0:0:0:0:
192,192,35896,1,0,0:0:0:0:
64,192,35971,1,0,0:0:0:0:
320,192,36121,1,0,0:0:0:0:
64,192,36271,1,0,0:0:0:0:
448,192,36271,1,0,0:0:0:40:bassdrum.wav
192,192,36346,1,0,0:0:0:0:
320,192,36421,1,0,0:0:0:0:
448,192,36496,1,0,0:0:0:0:
64,192,36571,1,0,0:0:0:40:bassdrum.wav
192,192,36571,1,0,0:0:0:0:
448,192,36721,1,0,0:0:0:40:bassdrum.wav
64,192,36796,1,0,0:0:0:0:
192,192,36871,1,0,0:0:0:0:
320,192,36946,1,0,0:0:0:0:
448,192,37021,1,0,0:0:0:0:
320,192,37096,1,0,0:0:0:0:
192,192,37171,1,0,0:0:0:0:
64,192,37246,1,0,0:0:0:0:
448,192,37321,1,0,0:0:0:0:
320,192,37396,1,0,0:0:0:0:
192,192,37471,1,0,0:0:0:0:
64,192,37546,1,0,0:0:0:0:
192,192,37621,1,0,0:0:0:0:
320,192,37696,1,0,0:0:0:0:
448,192,37771,1,0,0:0:0:40:bassdrum.wav
64,192,37771,1,0,0:0:0:0:
64,192,37921,1,0,0:0:0:0:
448,192,37921,1,0,0:0:0:40:bassdrum.wav
192,192,38071,1,0,0:0:0:0:
320,192,38071,1,0,0:0:0:40:bassdrum.wav
64,192,38221,1,0,0:0:0:0:
192,192,38296,1,0,0:0:0:0:
320,192,38371,1,0,0:0:0:0:
448,192,38446,1,0,0:0:0:0:
64,192,38521,1,0,0:0:0:0:
192,192,38596,1,0,0:0:0:0:
320,192,38671,1,0,0:0:0:0:
448,192,38746,1,0,0:0:0:0:
64,192,38821,1,0,0:0:0:0:
192,192,38896,1,0,0:0:0:0:
320,192,38971,1,0,0:0:0:0:
448,192,38971,1,0,0:0:0:40:bassdrum.wav
320,192,39121,1,0,0:0:0:0:
448,192,39121,1,0,0:0:0:40:bassdrum.wav
64,192,39271,1,0,0:0:0:40:bassdrum.wav
192,192,39271,1,0,0:0:0:0:
320,192,39421,1,0,0:0:0:0:
448,192,39496,1,0,0:0:0:0:
192,192,39571,1,0,0:0:0:0:
320,192,39646,1,0,0:0:0:0:
64,192,39721,1,0,0:0:0:0:
192,192,39796,1,0,0:0:0:0:
320,192,39871,1,0,0:0:0:0:
448,192,39946,1,0,0:0:0:0:
192,192,40021,1,0,0:0:0:0:
320,192,40096,1,0,0:0:0:0:
448,192,40171,1,0,0:0:0:0:
320,192,40246,1,0,0:0:0:0:
192,192,40321,1,0,0:0:0:0:
320,192,40396,1,0,0:0:0:0:
192,192,40471,1,0,0:0:0:0:
64,192,40546,1,0,0:0:0:0:
192,192,40621,1,0,0:0:0:0:
320,192,40696,1,0,0:0:0:0:
64,192,40771,1,0,0:0:0:40:bassdrum.wav
448,192,40771,1,0,0:0:0:0:
448,192,40921,1,0,0:0:0:0:
64,192,40921,1,0,0:0:0:40:bassdrum.wav
192,192,41071,1,0,0:0:0:40:bassdrum.wav
320,192,41071,1,0,0:0:0:0:
448,192,41146,1,0,0:0:0:0:
320,192,41221,1,0,0:0:0:0:
192,192,41296,1,0,0:0:0:0:
64,192,41371,1,0,0:0:0:0:
448,192,41446,1,0,0:0:0:0:
320,192,41521,1,0,0:0:0:0:
192,192,41596,1,0,0:0:0:0:
320,192,41671,1,0,0:0:0:0:
448,192,41746,1,0,0:0:0:0:
64,192,41821,1,0,0:0:0:0:
192,192,41896,1,0,0:0:0:0:
320,192,41971,1,0,0:0:0:0:
448,192,41971,1,0,0:0:0:40:bassdrum.wav
192,192,42121,1,0,0:0:0:0:
64,192,42121,1,0,0:0:0:40:bassdrum.wav
448,192,42271,1,0,0:0:0:40:bassdrum.wav
320,192,42271,1,0,0:0:0:0:
320,192,42421,1,0,0:0:0:0:
448,192,42421,1,0,0:0:0:40:bassdrum.wav
192,192,42571,1,0,0:0:0:40:bassdrum.wav
64,192,42646,1,0,0:0:0:40:bassdrum.wav
320,192,42721,1,0,0:0:0:40:bassdrum.wav
192,192,42796,1,0,0:0:0:40:bassdrum.wav
448,192,42871,128,4,44071:0:0:0:0:
320,192,42871,1,0,0:0:0:40:bassdrum.wav
192,192,43021,1,0,0:0:0:0:
64,192,43171,1,0,0:0:0:40:bassdrum.wav
320,192,43321,1,0,0:0:0:0:
192,192,43471,1,0,0:0:0:40:bassdrum.wav
64,192,43621,1,0,0:0:0:0:
192,192,43771,1,0,0:0:0:40:bassdrum.wav
320,192,43921,1,0,0:0:0:0:
192,192,44071,128,0,44671:0:0:0:40:bassdrum.wav
64,192,44071,1,0,0:0:0:0:
320,192,44221,1,0,0:0:0:0:
448,192,44371,1,0,0:0:0:40:bassdrum.wav
320,192,44521,1,0,0:0:0:0:
448,192,44671,128,0,45121:0:0:0:40:bassdrum.wav
64,192,44671,1,0,0:0:0:0:
320,192,44821,1,0,0:0:0:0:
192,192,44971,1,0,0:0:0:40:bassdrum.wav
320,192,45121,1,0,0:0:0:0:
192,192,45196,1,0,0:0:0:0:
64,192,45271,128,0,46471:0:0:0:40:bassdrum.wav
448,192,45271,1,0,0:0:0:0:
320,192,45421,1,0,0:0:0:0:
192,192,45571,1,0,0:0:0:40:bassdrum.wav
448,192,45721,1,0,0:0:0:0:
320,192,45871,1,0,0:0:0:40:bassdrum.wav
192,192,46021,1,0,0:0:0:0:
320,192,46171,1,0,0:0:0:40:bassdrum.wav
448,192,46321,1,0,0:0:0:0:
320,192,46471,128,0,46771:0:0:0:0:
192,192,46471,1,0,0:0:0:40:bassdrum.wav
448,192,46621,1,0,0:0:0:0:
192,192,46771,128,0,47071:0:0:0:40:bassdrum.wav
448,192,46921,1,0,0:0:0:0:
64,192,47071,128,0,47371:0:0:0:40:bassdrum.wav
320,192,47221,1,0,0:0:0:0:
192,192,47371,128,0,47521:0:0:0:40:bassdrum.wav
320,192,47521,128,0,47671:0:0:0:0:
448,192,47671,128,0,48871:0:0:0:0:
64,192,47671,1,0,0:0:0:40:bassdrum.wav
192,192,47821,1,0,0:0:0:0:
320,192,47971,1,0,0:0:0:40:bassdrum.wav
64,192,48121,1,0,0:0:0:0:
192,192,48271,1,0,0:0:0:40:bassdrum.wav
320,192,48421,1,0,0:0:0:0:
192,192,48571,1,0,0:0:0:40:bassdrum.wav
64,192,48721,1,0,0:0:0:0:
320,192,48871,128,0,49471:0:0:0:0:
192,192,48871,1,0,0:0:0:40:bassdrum.wav
64,192,49021,1,0,0:0:0:0:
448,192,49171,1,0,0:0:0:40:bassdrum.wav
192,192,49321,1,0,0:0:0:0:
64,192,49471,1,0,0:0:0:0:
448,192,49471,128,0,49771:0:0:0:40:bassdrum.wav
192,192,49621,1,0,0:0:0:0:
320,192,49771,128,0,50071:0:0:0:40:bassdrum.wav
64,192,49921,1,0,0:0:0:0:
192,192,50071,128,0,50371:0:0:0:40:bassdrum.wav
448,192,50221,1,0,0:0:0:0:
320,192,50371,128,0,50671:0:0:0:40:bassdrum.wav
64,192,50521,1,0,0:0:0:0:
448,192,50671,128,0,50971:0:0:0:40:bassdrum.wav
64,192,50821,1,0,0:0:0:0:
192,192,50971,128,0,51271:0:0:0:40:bassdrum.wav
320,192,51121,1,0,0:0:0:0:
448,192,51271,128,0,51571:0:0:0:40:bassdrum.wav
64,192,51421,1,0,0:0:0:0:
320,192,51571,128,0,51871:0:0:0:40:bassdrum.wav
192,192,51721,1,0,0:0:0:0:
448,192,51871,1,0,0:0:0:20:normal-hitclap19.wav
64,192,51871,1,0,0:0:0:40:bassdrum.wav
320,192,52021,1,0,0:0:0:20:normal-hitclap19.wav
64,192,52021,1,0,0:0:0:40:bassdrum.wav
448,192,52171,1,0,0:0:0:40:normal-hitclap19.wav
320,192,52246,1,0,0:0:0:40:normal-hitclap19.wav
192,192,52321,1,0,0:0:0:40:normal-hitclap19.wav
320,192,52396,1,0,0:0:0:40:normal-hitclap19.wav
448,192,52471,128,4,53671:0:0:0:0:
64,192,52471,1,0,0:0:0:40:bassdrum.wav
192,192,52621,1,0,0:0:0:0:
320,192,52771,1,0,0:0:0:40:bassdrum.wav
64,192,52921,1,0,0:0:0:0:
192,192,53071,1,0,0:0:0:40:bassdrum.wav
320,192,53221,1,0,0:0:0:0:
64,192,53371,1,0,0:0:0:40:bassdrum.wav
192,192,53521,1,0,0:0:0:0:
320,192,53671,1,0,0:0:0:40:bassdrum.wav
64,192,53671,128,0,54271:0:0:0:0:
192,192,53821,1,0,0:0:0:0:
448,192,53971,1,0,0:0:0:40:bassdrum.wav
192,192,54121,1,0,0:0:0:0:
448,192,54271,128,0,54721:0:0:0:0:
320,192,54271,1,0,0:0:0:40:bassdrum.wav
192,192,54421,1,0,0:0:0:0:
64,192,54571,1,0,0:0:0:40:bassdrum.wav
320,192,54721,1,0,0:0:0:0:
64,192,54796,1,0,0:0:0:0:
320,192,54871,1,0,0:0:0:40:bassdrum.wav
192,192,54871,128,0,56071:0:0:0:0:
448,192,55021,1,0,0:0:0:0:
320,192,55171,1,0,0:0:0:40:bassdrum.wav
64,192,55321,1,0,0:0:0:0:
448,192,55471,1,0,0:0:0:40:bassdrum.wav
320,192,55621,1,0,0:0:0:0:
64,192,55771,1,0,0:0:0:40:bassdrum.wav
320,192,55921,1,0,0:0:0:0:
64,192,56071,1,0,0:0:0:40:bassdrum.wav
448,192,56071,128,0,56371:0:0:0:0:
192,192,56221,1,0,0:0:0:0:
320,192,56371,128,0,56671:0:0:0:40:bassdrum.wav
64,192,56521,1,0,0:0:0:0:
192,192,56671,128,0,56896:0:0:0:40:bassdrum.wav
64,192,56896,1,0,0:0:0:0:
320,192,56896,128,0,57121:0:0:0:0:
192,192,57121,1,0,0:0:0:0:
448,192,57121,128,0,57271:0:0:0:40:bassdrum.wav
320,192,57271,1,0,0:0:0:0:
64,192,57271,128,0,58171:0:0:0:40:bassdrum.wav
192,192,57421,1,0,0:0:0:0:
320,192,57571,1,0,0:0:0:40:bassdrum.wav
448,192,57721,1,0,0:0:0:0:
192,192,57871,1,0,0:0:0:40:bassdrum.wav
320,192,58021,1,0,0:0:0:0:
192,192,58171,1,0,0:0:0:40:bassdrum.wav
448,192,58171,128,0,58471:0:0:0:0:
320,192,58321,1,0,0:0:0:40:bassdrum.wav
192,192,58471,128,0,58921:0:0:0:0:
64,192,58471,1,0,0:0:0:40:bassdrum.wav
320,192,58621,1,0,0:0:0:0:
448,192,58771,1,0,0:0:0:40:bassdrum.wav
64,192,58921,128,0,59371:0:0:0:0:
320,192,58921,1,0,0:0:0:0:
448,192,59071,1,0,0:0:0:40:bassdrum.wav
192,192,59221,1,0,0:0:0:0:
320,192,59371,128,0,59671:0:0:0:0:
448,192,59371,1,0,0:0:0:40:bassdrum.wav
192,192,59521,1,0,0:0:0:0:
448,192,59671,128,0,60571:0:0:0:0:
64,192,59671,1,0,0:0:0:40:bassdrum.wav
192,192,59821,1,0,0:0:0:0:
320,192,59971,1,0,0:0:0:40:bassdrum.wav
64,192,60121,1,0,0:0:0:40:bassdrum.wav
192,192,60271,1,0,0:0:0:40:bassdrum.wav
320,192,60421,1,0,0:0:0:0:
192,192,60571,1,0,0:0:0:40:bassdrum.wav
64,192,60646,1,0,0:0:0:40:bassdrum.wav
192,192,60721,1,0,0:0:0:40:bassdrum.wav
320,192,60796,1,0,0:0:0:40:bassdrum.wav
448,192,60871,1,0,0:0:0:40:bassdrum.wav
64,192,60871,1,4,0:0:0:0:
192,192,61096,1,4,0:0:0:0:
320,192,61096,1,0,0:0:0:40:bassdrum.wav
448,192,61321,1,0,0:0:0:40:bassdrum.wav
64,192,61321,1,4,0:0:0:0:
448,192,61471,1,0,0:0:0:40:bassdrum.wav
64,192,61471,1,4,0:0:0:0:
192,192,61696,1,4,0:0:0:0:
320,192,61696,1,0,0:0:0:40:bassdrum.wav
64,192,61921,1,4,0:0:0:0:
320,192,61921,1,0,0:0:0:40:bassdrum.wav
192,192,62071,1,4,0:0:0:0:
448,192,62071,1,0,0:0:0:40:bassdrum.wav
320,192,62221,1,0,0:0:0:0:
192,192,62296,1,0,0:0:0:0:
64,192,62371,1,0,0:0:0:40:bassdrum.wav
448,192,62521,1,0,0:0:0:0:
64,192,62671,1,0,0:0:0:0:
192,192,62671,1,0,0:0:0:40:bassdrum.wav
448,192,62821,1,0,0:0:0:0:
320,192,62896,1,0,0:0:0:0:
192,192,62971,1,0,0:0:0:40:bassdrum.wav
448,192,63121,1,0,0:0:0:0:
192,192,63271,1,0,0:0:0:0:
64,192,63271,1,0,0:0:0:40:bassdrum.wav
320,192,63421,1,0,0:0:0:0:
448,192,63571,1,0,0:0:0:40:bassdrum.wav
64,192,63721,1,0,0:0:0:0:
192,192,63871,1,0,0:0:0:0:
320,192,63871,1,0,0:0:0:40:bassdrum.wav
448,192,64021,1,0,0:0:0:0:
320,192,64171,1,0,0:0:0:0:
64,192,64171,1,0,0:0:0:40:bassdrum.wav
192,192,64321,1,0,0:0:0:40:bassdrum.wav
64,192,64471,1,0,0:0:0:40:bassdrum.wav
448,192,64471,1,0,0:0:0:0:
192,192,64621,1,0,0:0:0:0:
320,192,64771,1,0,0:0:0:0:
448,192,64771,1,0,0:0:0:40:bassdrum.wav
64,192,64921,1,0,0:0:0:0:
192,192,65071,1,0,0:0:0:0:
320,192,65071,1,0,0:0:0:40:bassdrum.wav
64,192,65221,1,0,0:0:0:0:
192,192,65296,1,0,0:0:0:0:
320,192,65371,1,0,0:0:0:40:bassdrum.wav
448,192,65521,1,0,0:0:0:0:
64,192,65671,1,0,0:0:0:40:bassdrum.wav
320,192,65671,1,0,0:0:0:0:
448,192,65821,1,0,0:0:0:0:
320,192,65896,1,0,0:0:0:0:
192,192,65971,1,0,0:0:0:40:bassdrum.wav
448,192,66121,1,0,0:0:0:40:bassdrum.wav
320,192,66121,1,0,0:0:0:0:
64,192,66271,1,0,0:0:0:40:bassdrum.wav
192,192,66271,1,0,0:0:0:0:
448,192,66421,1,0,0:0:0:0:
320,192,66571,1,0,0:0:0:0:
64,192,66571,1,0,0:0:0:40:bassdrum.wav
320,192,66721,1,0,0:0:0:0:
64,192,66721,1,0,0:0:0:40:bassdrum.wav
192,192,66871,1,0,0:0:0:40:bassdrum.wav
448,192,66871,1,0,0:0:0:0:
320,192,67021,1,0,0:0:0:0:
192,192,67096,1,0,0:0:0:0:
64,192,67171,1,0,0:0:0:40:bassdrum.wav
192,192,67321,1,0,0:0:0:0:
448,192,67471,1,0,0:0:0:40:bassdrum.wav
64,192,67471,1,0,0:0:0:0:
320,192,67621,1,0,0:0:0:0:
192,192,67696,1,0,0:0:0:0:
64,192,67771,1,0,0:0:0:40:bassdrum.wav
320,192,67921,1,0,0:0:0:0:
64,192,68071,1,0,0:0:0:0:
448,192,68071,1,0,0:0:0:40:bassdrum.wav
320,192,68221,1,0,0:0:0:0:
64,192,68371,1,0,0:0:0:40:bassdrum.wav
192,192,68371,1,0,0:0:0:0:
320,192,68521,1,0,0:0:0:0:
448,192,68671,1,0,0:0:0:40:bassdrum.wav
64,192,68671,1,0,0:0:0:0:
320,192,68821,1,0,0:0:0:0:
64,192,68971,1,0,0:0:0:40:bassdrum.wav
192,192,68971,1,0,0:0:0:0:
320,192,69121,1,0,0:0:0:0:
448,192,69121,1,0,0:0:0:40:bassdrum.wav
192,192,69271,1,0,0:0:0:0:
64,192,69271,1,0,0:0:0:40:bassdrum.wav
448,192,69421,1,0,0:0:0:0:
320,192,69571,1,0,0:0:0:0:
64,192,69571,1,0,0:0:0:40:bassdrum.wav
192,192,69721,1,0,0:0:0:0:
320,192,69871,1,0,0:0:0:0:
448,192,69871,1,0,0:0:0:40:bassdrum.wav
64,192,70021,1,0,0:0:0:0:
192,192,70096,1,0,0:0:0:0:
320,192,70171,1,0,0:0:0:40:bassdrum.wav
448,192,70321,1,0,0:0:0:0:
320,192,70471,1,0,0:0:0:20:normal-hitclap19.wav
64,192,70471,1,0,0:0:0:40:bassdrum.wav
64,192,70696,1,0,0:0:0:40:bassdrum.wav
320,192,70696,1,0,0:0:0:20:normal-hitclap19.wav
192,192,70921,1,0,0:0:0:20:normal-hitclap19.wav
448,192,70921,1,0,0:0:0:40:bassdrum.wav
448,192,71071,1,0,0:0:0:40:bassdrum.wav
192,192,71071,1,0,0:0:0:20:normal-hitclap19.wav
320,192,71146,1,0,0:0:0:40:normal-hitclap19.wav
64,192,71221,1,0,0:0:0:40:normal-hitclap19.wav
192,192,71296,1,0,0:0:0:40:normal-hitclap19.wav
448,192,71371,1,0,0:0:0:40:normal-hitclap19.wav
320,192,71446,1,0,0:0:0:40:normal-hitclap19.wav
64,192,71521,1,0,0:0:0:40:normal-hitclap19.wav
192,192,71596,1,0,0:0:0:40:normal-hitclap19.wav
448,192,71671,1,0,0:0:0:40:bassdrum.wav
64,192,71671,1,4,0:0:0:0:
320,192,71671,128,0,72871:0:0:0:0:
448,192,72871,128,0,73471:0:0:0:0:
64,192,72871,1,0,0:0:0:40:normal-hitfinish19.wav
192,192,73471,128,0,74071:0:0:0:0:
448,192,74071,1,0,0:0:0:40:bassdrum.wav
320,192,74146,1,0,0:0:0:0:
64,192,74221,128,0,74971:0:0:0:0:
192,192,74971,128,0,75271:0:0:0:0:
64,192,75271,1,0,0:0:0:40:normal-hitfinish19.wav
320,192,75271,128,0,75421:0:0:0:0:
448,192,75421,128,0,75571:0:0:0:0:
320,192,75571,128,0,75721:0:0:0:0:
192,192,75721,128,0,75871:0:0:0:0:
448,192,75871,1,0,0:0:0:0:
320,192,75946,1,0,0:0:0:0:
192,192,76021,1,0,0:0:0:0:
64,192,76096,1,0,0:0:0:0:
448,192,76171,128,0,76321:0:0:0:0:
64,192,76321,128,0,76471:0:0:0:0:
192,192,76471,128,0,77071:0:0:0:40:bassdrum.wav
320,192,77071,128,0,80671:0:0:0:0:
64,192,77671,1,0,0:0:0:40:normal-hitfinish19.wav
64,192,78721,1,0,0:0:0:40:bassdrum.wav
192,192,78796,1,0,0:0:0:40:bassdrum.wav
64,192,78871,1,0,0:0:0:40:bassdrum.wav
64,192,80071,1,0,0:0:0:40:normal-hitfinish19.wav
448,192,80071,1,0,0:0:0:40:bassdrum.wav
192,192,80671,1,0,0:0:0:40:bassdrum.wav
64,192,80746,1,0,0:0:0:0:
448,192,80821,1,0,0:0:0:0:
320,192,80871,1,0,0:0:0:0:
192,192,80921,1,0,0:0:0:0:
64,192,80971,1,0,0:0:0:40:bassdrum.wav
448,192,81046,1,0,0:0:0:0:
320,192,81121,1,0,0:0:0:40:bassdrum.wav
192,192,81196,1,0,0:0:0:40:bassdrum.wav
64,192,81271,1,0,0:0:0:40:bassdrum.wav
448,192,81271,128,0,82471:0:0:0:0:
320,192,82471,128,0,83071:0:0:0:0:
64,192,82471,1,2,0:0:0:0:
192,192,83071,128,0,83671:0:0:0:0:
448,192,83671,1,0,0:0:0:40:bassdrum.wav
320,192,83746,1,0,0:0:0:0:
64,192,83821,128,0,84571:0:0:0:0:
192,192,84571,128,0,84871:0:0:0:0:
320,192,84871,1,0,0:0:0:40:bassdrum.wav
64,192,84871,1,2,0:0:0:0:
448,192,84871,128,0,85021:0:0:0:0:
320,192,85021,128,0,85171:0:0:0:0:
192,192,85171,128,0,85321:0:0:0:0:
64,192,85321,128,0,85471:0:0:0:0:
192,192,85471,1,0,0:0:0:0:
320,192,85546,1,0,0:0:0:0:
448,192,85621,1,0,0:0:0:0:
64,192,85696,1,0,0:0:0:0:
192,192,85771,1,0,0:0:0:0:
320,192,85846,1,0,0:0:0:0:
448,192,85921,1,0,0:0:0:40:bassdrum.wav
320,192,85996,1,0,0:0:0:40:bassdrum.wav
192,192,86071,1,0,0:0:0:40:bassdrum.wav
64,192,86071,128,0,86671:0:0:0:0:
320,192,86671,128,0,88171:0:0:0:0:
64,192,87271,1,0,0:0:0:40:bassdrum.wav
448,192,87271,1,0,0:0:0:40:normal-hitfinish19.wav
192,192,88171,1,0,0:0:0:0:
64,192,88246,1,0,0:0:0:0:
192,192,88321,1,0,0:0:0:0:
320,192,88396,1,0,0:0:0:0:
448,192,88471,128,0,89671:0:0:0:40:bassdrum.wav
64,192,89671,1,0,0:0:0:0:
192,192,89746,1,0,0:0:0:0:
320,192,89821,1,0,0:0:0:0:
448,192,89896,1,0,0:0:0:0:
192,192,89971,1,0,0:0:0:0:
320,192,90046,1,0,0:0:0:0:
448,192,90121,1,0,0:0:0:0:
64,192,90196,1,0,0:0:0:0:
192,192,90271,1,0,0:0:0:40:bassdrum.wav
320,192,90346,1,0,0:0:0:0:
192,192,90421,1,0,0:0:0:0:
320,192,90496,1,0,0:0:0:0:
448,192,90571,1,0,0:0:0:40:bassdrum.wav
320,192,90646,1,0,0:0:0:0:
192,192,90721,1,0,0:0:0:40:bassdrum.wav
64,192,90796,1,0,0:0:0:40:bassdrum.wav
192,192,90871,1,0,0:0:0:40:bassdrum.wav
448,192,90871,1,4,0:0:0:0:
320,192,90871,1,0,0:0:0:0:
64,192,90946,1,0,0:0:0:0:
192,192,91021,1,0,0:0:0:0:
320,192,91096,1,0,0:0:0:0:
192,192,91171,1,0,0:0:0:0:
64,192,91246,1,0,0:0:0:0:
448,192,91321,1,0,0:0:0:0:
320,192,91396,1,0,0:0:0:0:
192,192,91471,1,0,0:0:0:0:
64,192,91546,1,0,0:0:0:0:
448,192,91621,1,0,0:0:0:0:
320,192,91696,1,0,0:0:0:0:
192,192,91771,1,0,0:0:0:0:
320,192,91846,1,0,0:0:0:0:
448,192,91921,1,0,0:0:0:0:
64,192,91996,1,0,0:0:0:0:
192,192,92071,1,0,0:0:0:0:
320,192,92146,1,0,0:0:0:0:
448,192,92221,1,0,0:0:0:0:
64,192,92296,1,0,0:0:0:0:
192,192,92371,1,0,0:0:0:0:
320,192,92446,1,0,0:0:0:0:
192,192,92521,1,0,0:0:0:0:
64,192,92596,1,0,0:0:0:0:
448,192,92671,1,0,0:0:0:0:
320,192,92746,1,0,0:0:0:0:
192,192,92821,1,0,0:0:0:0:
64,192,92896,1,0,0:0:0:0:
320,192,92971,1,0,0:0:0:0:
192,192,93046,1,0,0:0:0:0:
64,192,93121,1,0,0:0:0:0:
448,192,93196,1,0,0:0:0:0:
320,192,93271,1,0,0:0:0:0:
192,192,93346,1,0,0:0:0:0:
320,192,93421,1,0,0:0:0:0:
448,192,93496,1,0,0:0:0:0:
64,192,93571,1,0,0:0:0:0:
192,192,93646,1,0,0:0:0:0:
320,192,93721,1,0,0:0:0:0:
64,192,93796,1,0,0:0:0:0:
192,192,93871,1,0,0:0:0:0:
320,192,93946,1,0,0:0:0:0:
448,192,94021,1,0,0:0:0:0:
320,192,94096,1,0,0:0:0:0:
192,192,94171,1,0,0:0:0:0:
64,192,94246,1,0,0:0:0:0:
448,192,94321,1,0,0:0:0:0:
320,192,94396,1,0,0:0:0:0:
192,192,94471,1,0,0:0:0:0:
64,192,94546,1,0,0:0:0:0:
320,192,94621,1,0,0:0:0:0:
64,192,94696,1,0,0:0:0:0:
192,192,94771,1,0,0:0:0:0:
320,192,94846,1,0,0:0:0:0:
448,192,94921,1,0,0:0:0:0:
64,192,94996,1,0,0:0:0:0:
192,192,95071,1,0,0:0:0:0:
320,192,95146,1,0,0:0:0:0:
64,192,95221,1,0,0:0:0:0:
192,192,95296,1,0,0:0:0:0:
448,192,95371,1,0,0:0:0:0:
320,192,95446,1,0,0:0:0:0:
192,192,95521,1,0,0:0:0:0:
320,192,95596,1,0,0:0:0:0:
448,192,95671,1,0,0:0:0:0:
192,192,95746,1,0,0:0:0:0:
64,192,95821,1,0,0:0:0:0:
320,192,95896,1,0,0:0:0:0:
192,192,95971,1,0,0:0:0:0:
64,192,96046,1,0,0:0:0:0:
448,192,96121,1,0,0:0:0:0:
320,192,96196,1,0,0:0:0:0:
192,192,96271,1,0,0:0:0:0:
64,192,96346,1,0,0:0:0:0:
192,192,96421,1,0,0:0:0:0:
320,192,96496,1,0,0:0:0:0:
64,192,96571,1,0,0:0:0:0:
192,192,96646,1,0,0:0:0:0:
448,192,96721,1,0,0:0:0:0:
320,192,96796,1,0,0:0:0:0:
192,192,96871,1,0,0:0:0:0:
448,192,96946,1,0,0:0:0:0:
320,192,97021,1,0,0:0:0:0:
192,192,97096,1,0,0:0:0:0:
64,192,97171,1,0,0:0:0:0:
192,192,97246,1,0,0:0:0:0:
320,192,97321,1,0,0:0:0:0:
448,192,97396,1,0,0:0:0:0:
320,192,97471,1,0,0:0:0:0:
192,192,97546,1,0,0:0:0:0:
64,192,97621,1,0,0:0:0:0:
320,192,97696,1,0,0:0:0:0:
448,192,97771,1,0,0:0:0:0:
192,192,97846,1,0,0:0:0:0:
320,192,97921,1,0,0:0:0:0:
448,192,97996,1,0,0:0:0:0:
64,192,98071,1,0,0:0:0:40:bassdrum.wav
320,192,98071,1,0,0:0:0:0:
192,192,98221,1,0,0:0:0:40:bassdrum.wav
448,192,98371,1,0,0:0:0:40:bassdrum.wav
192,192,98521,1,0,0:0:0:40:bassdrum.wav
448,192,98671,1,0,0:0:0:40:bassdrum.wav
64,192,98821,1,0,0:0:0:40:bassdrum.wav
320,192,98971,1,0,0:0:0:40:bassdrum.wav
64,192,99121,1,0,0:0:0:40:bassdrum.wav
320,192,99271,1,0,0:0:0:40:bassdrum.wav
192,192,99271,1,4,0:0:0:0:
448,192,99421,1,0,0:0:0:40:bassdrum.wav
320,192,99571,1,4,0:0:0:0:
192,192,99571,1,0,0:0:0:40:bassdrum.wav
192,192,99721,1,0,0:0:0:40:bassdrum.wav
64,192,99871,1,4,0:0:0:0:
448,192,99871,1,0,0:0:0:40:bassdrum.wav
320,192,99946,1,0,0:0:0:20:normal-hitclap19.wav
192,192,100021,1,0,0:0:0:20:normal-hitclap19.wav
320,192,100096,1,0,0:0:0:20:normal-hitclap19.wav
192,192,100171,1,0,0:0:0:40:normal-hitclap19.wav
64,192,100246,1,0,0:0:0:40:normal-hitclap19.wav
320,192,100321,1,0,0:0:0:40:normal-hitclap19.wav
192,192,100396,1,0,0:0:0:40:normal-hitclap19.wav
320,192,100471,1,0,0:0:0:0:
448,192,100471,1,0,0:0:0:40:bassdrum.wav
64,192,100471,1,4,0:0:0:0:
64,192,100771,1,4,0:0:0:0:
448,192,100771,1,0,0:0:0:40:bassdrum.wav
320,192,100921,1,0,0:0:0:0:
192,192,100996,1,0,0:0:0:0:
64,192,101071,1,0,0:0:0:40:bassdrum.wav
320,192,101221,1,0,0:0:0:0:
448,192,101371,1,0,0:0:0:40:bassdrum.wav
192,192,101371,1,0,0:0:0:0:
320,192,101521,1,0,0:0:0:0:
192,192,101596,1,0,0:0:0:0:
64,192,101671,1,0,0:0:0:40:bassdrum.wav
192,192,101821,1,0,0:0:0:0:
320,192,101971,1,0,0:0:0:0:
448,192,101971,1,0,0:0:0:40:bassdrum.wav
64,192,102121,1,0,0:0:0:0:
192,192,102271,1,0,0:0:0:40:bassdrum.wav
320,192,102421,1,0,0:0:0:0:
192,192,102571,1,0,0:0:0:0:
64,192,102571,1,0,0:0:0:40:bassdrum.wav
448,192,102721,1,0,0:0:0:0:
320,192,102871,1,0,0:0:0:0:
64,192,102871,1,0,0:0:0:40:bassdrum.wav
192,192,103021,1,0,0:0:0:0:
448,192,103171,1,0,0:0:0:0:
64,192,103171,1,0,0:0:0:40:bassdrum.wav
192,192,103321,1,0,0:0:0:0:
64,192,103471,1,0,0:0:0:40:bassdrum.wav
320,192,103471,1,0,0:0:0:0:
448,192,103621,1,0,0:0:0:0:
192,192,103771,1,0,0:0:0:0:
320,192,103771,1,0,0:0:0:40:bassdrum.wav
64,192,103921,1,0,0:0:0:0:
192,192,103996,1,0,0:0:0:0:
320,192,104071,1,0,0:0:0:40:bassdrum.wav
448,192,104221,1,0,0:0:0:0:
192,192,104371,1,0,0:0:0:0:
64,192,104371,1,0,0:0:0:40:bassdrum.wav
448,192,104521,1,0,0:0:0:0:
320,192,104596,1,0,0:0:0:0:
192,192,104671,1,0,0:0:0:40:bassdrum.wav
320,192,104821,1,0,0:0:0:0:
192,192,104971,1,0,0:0:0:0:
64,192,104971,1,0,0:0:0:40:bassdrum.wav
320,192,105121,1,0,0:0:0:0:
64,192,105271,1,0,0:0:0:40:bassdrum.wav
448,192,105271,1,0,0:0:0:0:
192,192,105421,1,0,0:0:0:40:bassdrum.wav
320,192,105421,1,0,0:0:0:0:
448,192,105571,1,0,0:0:0:0:
64,192,105571,1,0,0:0:0:40:bassdrum.wav
320,192,105721,1,0,0:0:0:0:
192,192,105796,1,0,0:0:0:0:
64,192,105871,1,0,0:0:0:40:bassdrum.wav
192,192,106021,1,0,0:0:0:0:
64,192,106171,1,0,0:0:0:40:bassdrum.wav
320,192,106171,1,0,0:0:0:0:
448,192,106321,1,0,0:0:0:0:
320,192,106396,1,0,0:0:0:0:
192,192,106471,1,0,0:0:0:40:bassdrum.wav
320,192,106621,1,0,0:0:0:0:
448,192,106771,1,0,0:0:0:40:bassdrum.wav
64,192,106771,1,0,0:0:0:0:
192,192,106921,1,0,0:0:0:0:
320,192,107071,1,0,0:0:0:40:bassdrum.wav
192,192,107221,1,0,0:0:0:0:
64,192,107371,1,0,0:0:0:0:
448,192,107371,1,0,0:0:0:40:bassdrum.wav
320,192,107521,1,0,0:0:0:0:
192,192,107671,1,0,0:0:0:0:
64,192,107671,1,0,0:0:0:40:bassdrum.wav
320,192,107821,1,0,0:0:0:0:
448,192,107971,1,0,0:0:0:40:bassdrum.wav
192,192,107971,1,0,0:0:0:0:
320,192,108121,1,0,0:0:0:0:
64,192,108271,1,0,0:0:0:0:
448,192,108271,1,0,0:0:0:40:bassdrum.wav
192,192,108421,1,0,0:0:0:0:
320,192,108571,1,0,0:0:0:0:
448,192,108571,1,0,0:0:0:40:bassdrum.wav
64,192,108721,1,0,0:0:0:0:
192,192,108796,1,0,0:0:0:0:
320,192,108871,1,0,0:0:0:40:bassdrum.wav
192,192,109021,1,0,0:0:0:0:
64,192,109171,1,4,0:0:0:0:
448,192,109171,1,0,0:0:0:40:bassdrum.wav
192,192,109396,1,4,0:0:0:0:
320,192,109396,1,0,0:0:0:40:bassdrum.wav
320,192,109621,1,0,0:0:0:40:bassdrum.wav
192,192,109621,1,4,0:0:0:0:
448,192,109771,1,0,0:0:0:40:bassdrum.wav
64,192,109771,1,4,0:0:0:0:
320,192,109846,1,0,0:0:0:20:normal-hitclap19.wav
192,192,109921,1,0,0:0:0:20:normal-hitclap19.wav
64,192,109996,1,0,0:0:0:20:normal-hitclap19.wav
320,192,110071,1,0,0:0:0:40:normal-hitclap19.wav
192,192,110146,1,0,0:0:0:40:normal-hitclap19.wav
64,192,110221,1,0,0:0:0:40:normal-hitclap19.wav
320,192,110296,1,0,0:0:0:40:normal-hitclap19.wav
192,192,110371,1,4,0:0:0:0:
448,192,110371,1,0,0:0:0:40:bassdrum.wav
320,192,110521,1,0,0:0:0:0:
64,192,110671,1,0,0:0:0:40:bassdrum.wav
192,192,110671,1,0,0:0:0:0:
320,192,110821,1,0,0:0:0:0:
192,192,110971,1,0,0:0:0:0:
448,192,110971,1,0,0:0:0:40:bassdrum.wav
64,192,111121,1,0,0:0:0:0:
192,192,111271,1,0,0:0:0:0:
320,192,111271,1,0,0:0:0:40:bassdrum.wav
448,192,111421,1,0,0:0:0:0:
64,192,111571,128,0,111721:0:0:0:0:
320,192,111571,1,0,0:0:0:40:bassdrum.wav
192,192,111721,128,0,111871:0:0:0:0:
448,192,111721,1,0,0:0:0:0:
320,192,111871,128,0,112021:0:0:0:0:
64,192,111871,1,0,0:0:0:40:bassdrum.wav
448,192,112021,128,0,112171:0:0:0:0:
192,192,112021,1,0,0:0:0:0:
320,192,112171,128,0,112321:0:0:0:0:
64,192,112171,1,0,0:0:0:40:bassdrum.wav
192,192,112321,128,0,112471:0:0:0:0:
448,192,112321,1,0,0:0:0:0:
320,192,112471,1,0,0:0:0:40:bassdrum.wav
64,192,112471,128,0,112771:0:0:0:0:
320,192,112621,1,0,0:0:0:0:
192,192,112771,1,0,0:0:0:0:
448,192,112771,1,0,0:0:0:40:bassdrum.wav
320,192,112921,1,0,0:0:0:0:
64,192,113071,1,0,0:0:0:0:
448,192,113071,1,0,0:0:0:40:bassdrum.wav
192,192,113221,1,0,0:0:0:0:
320,192,113371,1,0,0:0:0:0:
448,192,113371,1,0,0:0:0:40:bassdrum.wav
192,192,113521,1,0,0:0:0:0:
320,192,113596,1,0,0:0:0:0:
448,192,113671,1,0,0:0:0:40:bassdrum.wav
192,192,113671,1,0,0:0:0:0:
64,192,113821,1,0,0:0:0:0:
192,192,113971,1,0,0:0:0:0:
320,192,113971,1,0,0:0:0:40:bassdrum.wav
448,192,114121,1,0,0:0:0:0:
320,192,114196,1,0,0:0:0:0:
64,192,114271,1,0,0:0:0:40:bassdrum.wav
192,192,114271,1,0,0:0:0:0:
448,192,114421,1,0,0:0:0:0:
320,192,114571,1,0,0:0:0:0:
192,192,114571,1,0,0:0:0:40:bassdrum.wav
64,192,114721,1,0,0:0:0:0:
192,192,114871,1,0,0:0:0:0:
448,192,114871,1,0,0:0:0:40:bassdrum.wav
448,192,115021,1,0,0:0:0:40:bassdrum.wav
192,192,115021,1,0,0:0:0:0:
320,192,115171,1,0,0:0:0:40:bassdrum.wav
64,192,115171,1,0,0:0:0:0:
448,192,115321,1,0,0:0:0:0:
320,192,115396,1,0,0:0:0:0:
192,192,115471,1,0,0:0:0:0:
64,192,115471,1,0,0:0:0:40:bassdrum.wav
448,192,115621,1,0,0:0:0:0:
192,192,115771,1,0,0:0:0:0:
64,192,115771,1,0,0:0:0:40:bassdrum.wav
320,192,115921,1,0,0:0:0:0:
192,192,115996,1,0,0:0:0:0:
64,192,116071,1,0,0:0:0:40:bassdrum.wav
448,192,116071,1,0,0:0:0:0:
192,192,116221,1,0,0:0:0:0:
64,192,116371,128,0,116671:0:0:0:0:
320,192,116371,1,0,0:0:0:40:bassdrum.wav
192,192,116521,128,0,116671:0:0:0:0:
448,192,116521,1,0,0:0:0:0:
448,192,116671,128,0,116821:0:0:0:40:bassdrum.wav
320,192,116671,1,0,0:0:0:0:
320,192,116821,128,0,116971:0:0:0:0:
64,192,116821,1,0,0:0:0:0:
192,192,116971,128,0,117121:0:0:0:0:
448,192,116971,1,0,0:0:0:40:bassdrum.wav
64,192,117121,128,0,117271:0:0:0:0:
320,192,117121,1,0,0:0:0:0:
448,192,117271,128,0,117571:0:0:0:0:
192,192,117271,1,0,0:0:0:40:bassdrum.wav
320,192,117421,128,0,117571:0:0:0:0:
64,192,117421,1,0,0:0:0:0:
192,192,117571,1,0,0:0:0:40:bassdrum.wav
64,192,117721,1,0,0:0:0:0:
448,192,117871,1,0,0:0:0:40:bassdrum.wav
320,192,117871,1,0,0:0:0:0:
192,192,118021,1,0,0:0:0:0:
64,192,118171,1,0,0:0:0:40:bassdrum.wav
320,192,118171,1,0,0:0:0:0:
192,192,118321,1,0,0:0:0:0:
320,192,118396,1,0,0:0:0:0:
448,192,118471,1,0,0:0:0:40:bassdrum.wav
64,192,118471,1,0,0:0:0:0:
192,192,118621,1,0,0:0:0:0:
448,192,118771,1,0,0:0:0:40:bassdrum.wav
64,192,118771,1,4,0:0:0:0:
448,192,118996,1,0,0:0:0:40:bassdrum.wav
192,192,118996,1,4,0:0:0:0:
64,192,119221,1,4,0:0:0:0:
320,192,119221,1,0,0:0:0:40:bassdrum.wav
448,192,119371,1,0,0:0:0:40:bassdrum.wav
320,192,119446,1,0,0:0:0:40:bassdrum.wav
64,192,119521,1,0,0:0:0:40:bassdrum.wav
192,192,119596,1,0,0:0:0:40:bassdrum.wav
448,192,119671,1,0,0:0:0:40:bassdrum.wav
320,192,119746,1,0,0:0:0:40:bassdrum.wav
192,192,119821,1,0,0:0:0:40:bassdrum.wav
64,192,119896,1,0,0:0:0:40:bassdrum.wav
192,192,119971,1,4,0:0:0:0:
448,192,119971,1,0,0:0:0:40:bassdrum.wav
320,192,120121,1,0,0:0:0:30:normal-hitclap19.wav
64,192,120196,1,0,0:0:0:30:normal-hitclap19.wav
320,192,120271,1,0,0:0:0:30:normal-hitclap19.wav
448,192,120421,1,0,0:0:0:40:bassdrum.wav
64,192,120421,1,4,0:0:0:0:
192,192,120571,1,0,0:0:0:30:normal-hitclap19.wav
448,192,120646,1,0,0:0:0:30:normal-hitclap19.wav
192,192,120721,1,0,0:0:0:30:normal-hitclap19.wav
64,192,120871,1,0,0:0:0:30:normal-hitclap19.wav
448,192,120871,1,0,0:0:0:30:bassdrum.wav
320,192,120946,1,0,0:0:0:30:bassdrum.wav
192,192,120946,1,0,0:0:0:30:normal-hitclap19.wav
64,192,121021,1,0,0:0:0:30:normal-hitclap19.wav
448,192,121021,1,0,0:0:0:30:bassdrum.wav
320,192,121171,128,0,121471:0:0:0:40:bassdrum.wav
64,192,121471,1,0,0:0:0:40:bassdrum.wav
192,192,121471,1,4,0:0:0:0:
448,192,121471,128,0,122671:0:0:0:0:
192,192,122671,1,4,0:0:0:0:
320,192,122671,1,0,0:0:0:40:bassdrum.wav
64,192,122671,128,4,125071:0:0:0:0:
