osu file format v9

[General]
AudioFilename: xi_finder_keepers.mp3
AudioLeadIn: 1000
PreviewTime: 14437
Countdown: 0
SampleSet: Soft
StackLeniency: 0.7
Mode: 0
LetterboxInBreaks: 1

[Editor]
DistanceSpacing: 1
BeatDivisor: 4
GridSize: 8

[Metadata]
Title:Finder keepers
Artist:xi
Creator:gowww
Version:Another
Source:BMS
Tags:taka1235 swish

[Difficulty]
HPDrainRate:7
CircleSize:4
OverallDifficulty:8
ApproachRate:8
SliderMultiplier:1.2
SliderTickRate:1

[Events]
//Background and Video events
0,0,"fk.jpg"
//Break Periods
//Storyboard Layer 0 (Background)
//Storyboard Layer 1 (Fail)
//Storyboard Layer 2 (Pass)
//Storyboard Layer 3 (Foreground)
//Storyboard Sound Samples
//Background Colour Transformations
3,100,0,0,255

[TimingPoints]
750,375,4,2,0,70,1,0
5156,-100,4,2,1,70,0,0
5531,-100,4,2,0,70,0,0
11718,-100,4,2,1,40,0,0
11906,-100,4,2,1,45,0,0
12093,-100,4,2,1,50,0,0
12281,-100,4,2,1,55,0,0
12468,-100,4,2,1,60,0,0
12656,-100,4,2,1,65,0,0
12843,-100,4,2,0,70,0,0
13593,-100,4,2,1,70,0,0
14343,-66.6666666666667,4,1,0,80,0,0
14437,-66.6666666666667,4,1,0,80,0,1
14531,-66.6666666666667,4,1,0,80,0,0
16027,-66.6666666666667,4,1,0,80,0,0
27656,-66.6666666666667,4,1,0,70,0,0
51843,-66.6666666666667,4,1,0,80,0,0
51937,-66.6666666666667,4,1,0,70,0,1
52031,-66.6666666666667,4,1,0,80,0,0
61968,-66.6666666666667,4,1,1,70,0,0
63937,-66.6666666666667,4,1,1,65,0,0
64218,-100,4,2,0,70,0,0
86343,-100,4,2,1,70,0,0
87093,-50,4,1,0,90,0,0
87843,-66.6666666666667,4,1,0,80,0,0
87937,-66.6666666666667,4,1,0,80,0,1
88031,-66.6666666666667,4,1,0,80,0,0
100968,-66.6666666666667,4,1,1,70,0,0
102843,-66.6666666666667,4,1,0,70,0,0
105375,-66.6666666666667,4,1,0,40,0,0
106875,-66.6666666666667,4,1,0,0,0,0
106968,-66.6666666666667,4,2,1,50,0,0

[Colours]
Combo1 : 249,249,0
Combo2 : 255,0,0
Combo3 : 0,204,102

[HitObjects]
200,288,750,2,0,B|176:256|176:192|200:160,1,120,4|2
232,112,1312,2,0,B|216:88|176:56,3,60,0|0|0|2
296,168,2250,6,0,B|360:168|416:112,1,120,0|2
464,80,2812,2,0,B|480:136|480:208,1,120,0|2
479,198,3281,1,0
479,198,3375,1,2
479,198,3468,1,0
479,198,3562,1,2
479,198,3656,1,0
479,198,3750,6,0,B|464:240|408:288|384:288,1,120,4|2
336,248,4312,2,0,B|320:206|264:158|240:158,1,120
192,128,4875,1,2
128,88,5062,2,0,B|72:56,1,60,0|4
75,58,5437,1,4
32,120,5625,5,2
72,184,5812,2,0,B|96:216|112:248|112:280|112:304,1,120
176,336,6375,1,2
192,328,6468,1,0
208,320,6562,1,2
224,312,6656,1,0
240,304,6750,6,0,B|280:272|320:256|352:256,1,120,4|2
400,200,7312,2,0,B|360:168|320:152|288:152,1,120,4|0
224,176,7875,1,2
152,176,8062,2,0,B|88:176,2,60,4|0|0
224,176,8625,1,2
224,104,8812,2,0,B|256:80|288:72|320:72|344:80,1,120,4|0
408,104,9375,1,2
416,120,9468,1,0
424,136,9562,1,2
432,152,9656,1,0
440,168,9750,6,0,B|464:192|480:232|480:256|472:288,1,120,4|2
400,272,10312,2,0,B|376:296|336:312|312:312|280:304,1,120,4|4
246,247,10875,1,2
200,304,11062,2,0,B|184:264|232:224|184:112,1,180,4|6
190,127,11812,5,4
272,56,12000,1,4
384,104,12187,1,4
456,232,12375,1,4
312,304,12562,1,4
136,256,12750,1,4
288,192,12937,5,4
232,256,13125,1,0
232,256,13218,1,4
176,192,13406,1,4
176,192,13500,1,0
232,136,13687,5,4
208,56,13875,1,0
128,56,14062,1,4
96,128,14250,1,0
96,208,14437,6,0,B|64:248|56:288,1,89.9999973177911,4|8
128,328,14812,1,0
152,320,14906,1,0
176,312,15000,1,0
200,304,15093,1,0
224,296,15187,2,0,B|288:272,3,44.9999986588955,0|0|8|0
288,272,15562,5,0
312,264,15656,1,0
336,256,15750,2,0,B|360:200|320:136,1,89.9999973177911,4|0
336,128,16031,5,4
192,48,16218,1,4
336,48,16406,1,0
264,88,16593,1,4
192,128,16781,1,4
184,152,16875,1,8
176,176,16968,2,0,B|144:224|144:272|184:320,1,134.999995976687
432,288,17437,6,0,B|448:248|496:184,1,89.9999973177911,0|8
464,192,17718,1,0
448,176,17812,1,0
432,160,17906,1,0
416,144,18000,2,0,B|368:136|304:136,1,89.9999973177911
312,120,18281,1,0
288,112,18375,2,0,B|272:168,3,44.9999986588955,8|0|0|0
264,176,18750,2,0,B|264:128|232:72|176:56|136:64,1,179.999994635582,0|8
88,264,19312,6,0,B|136:256|184:232,1,89.9999973177911,0|8
192,256,19593,1,4
216,264,19687,1,0
240,256,19781,1,0
264,264,19875,1,8
288,256,19968,1,0
312,264,20062,1,0
336,256,20156,1,0
360,264,20250,2,0,B|408:248,1,44.9999986588955,8|0
424,256,20437,6,0,B|448:200|448:152,1,89.9999973177911,4|8
440,152,20718,1,0
448,128,20812,1,0
432,112,20906,2,0,B|392:80|376:32,1,89.9999973177911
360,48,21187,2,0,B|296:80,1,44.9999986588955
296,80,21375,2,0,B|256:40,1,44.9999986588955,8|0
240,56,21562,5,0
216,56,21656,1,0
192,56,21750,1,4
120,88,21937,1,4
96,88,22031,1,0
64,160,22218,1,4
112,224,22406,1,4
64,288,22593,1,4
112,352,22781,1,0
112,352,22875,2,0,B|168:336|216:336,2,89.9999973177911,4|0|0
336,320,23437,6,0,B|384:272|392:232|400:216,1,89.9999973177911,0|8
384,224,23718,1,0
392,200,23812,1,0
384,176,23906,1,0
392,152,24000,2,0,B|384:96|360:64,1,89.9999973177911
280,80,24375,2,0,B|232:72|192:48,2,89.9999973177911,8|0|0
288,160,24937,5,0
264,168,25031,1,0
240,176,25125,1,0
216,184,25218,1,0
192,192,25312,1,0
136,248,25500,5,0
120,232,25593,1,0
104,216,25687,1,0
88,200,25781,1,0
72,184,25875,1,0
288,160,26062,2,0,B|336:200|368:280|368:320,1,179.999994635582,4|0
352,336,26531,5,0
328,344,26625,2,0,B|272:352,3,44.9999986588955,8|0|0|0
264,344,27000,2,0,B|224:296,3,44.9999986588955
216,312,27375,2,0,B|160:304|128:288,1,89.9999973177911,8|0
72,224,27750,6,0,B|104:184|216:184|248:208,1,179.999994635582,0|8
304,256,28312,1,0
368,208,28500,2,0,B|408:176|432:144,1,89.9999973177911
368,88,28875,2,0,B|328:120|304:152,1,89.9999973177911,8|0
256,88,29250,2,0,B|192:64|80:72|48:112,1,179.999994635582,0|8
48,168,29812,5,0
48,168,29906,1,0
48,168,30000,2,0,B|16:216|24:264,1,89.9999973177911
80,312,30375,2,0,B|112:264|104:216,2,89.9999973177911,8|0|0
160,336,30937,6,0,B|200:352|264:352,1,89.9999973177911,0|8
272,344,31218,1,0
296,336,31312,1,0
320,328,31406,1,0
344,320,31500,2,0,B|392:304|432:272,1,89.9999973177911
464,208,31875,2,0,B|448:160|416:120,1,89.9999973177911,8|0
400,48,32250,2,0,B|336:32|312:64|208:40,1,179.999994635582,0|8
152,88,32812,5,0
152,88,32906,1,0
152,88,33000,2,0,B|104:72|56:64,1,89.9999973177911
64,65,33281,1,0
64,65,33375,2,0,B|32:136|32:176,2,89.9999973177911,8|0|0
152,88,33937,6,0,B|192:56|240:48,1,89.9999973177911,0|8
256,48,34218,1,0
280,48,34312,2,0,B|368:48,1,89.9999973177911
392,48,34593,1,0
416,48,34687,2,0,B|416:176,1,89.9999973177911,0|8
432,216,35062,5,0
392,288,35250,1,0
312,264,35437,1,0
240,304,35625,1,8
216,296,35718,1,0
192,288,35812,1,0
168,280,35906,1,0
144,272,36000,2,0,B|64:248|48:232,1,89.9999973177911
59,240,36281,5,0
32,160,36468,1,0
32,160,36562,2,0,B|64:128|112:104,1,89.9999973177911
56,40,36937,2,0,B|112:8|208:16|240:48,1,179.999994635582
248,56,37406,1,0
264,72,37500,2,0,B|312:120,3,44.9999986588955
288,128,37875,2,0,B|256:168,1,44.9999986588955
264,184,38062,2,0,B|304:240,2,44.9999986588955
360,272,38437,5,4
360,272,38531,1,0
248,320,38718,1,4
136,264,38906,1,0
136,264,39000,1,4
96,152,39187,1,0
112,136,39281,1,0
128,120,39375,1,8
144,104,39468,1,0
160,88,39562,2,0,B|200:48,1,44.9999986588955
208,40,39750,6,0,B|264:16|320:24|376:48|376:88,1,179.999994635582,12|8
448,128,40312,1,0
472,216,40500,1,0
456,232,40593,1,0
440,248,40687,1,0
424,264,40781,1,0
408,280,40875,2,0,B|376:320|312:352,1,89.9999973177911,8|0
280,280,41250,6,0,B|248:240|184:208,1,89.9999973177911,0|0
168,296,41625,2,0,B|136:336|72:368,1,89.9999973177911,8|0
48,288,42000,2,0,B|32:240,3,44.9999986588955
32,208,42375,2,0,B|8:168|24:120,2,89.9999973177911,8|0|0
112,184,42937,6,0,B|152:160|224:144|296:152,1,179.999994635582
286,151,43406,1,0
286,151,43500,1,8
286,151,43593,1,0
286,151,43687,2,0,B|334:175|358:223,2,89.9999973177911
256,72,44250,6,0,B|216:48|144:32|72:40,1,179.999994635582,0|8
48,112,44812,2,0,B|32:160,1,44.9999986588955
32,176,45000,1,0
32,200,45093,1,0
32,224,45187,2,0,B|32:280|48:328,2,89.9999973177911,0|8|0
112,200,45750,1,4
192,216,45937,5,0
352,256,46125,1,0
272,240,46312,1,0
432,272,46500,1,4
408,192,46687,1,0
272,240,46875,1,4
168,144,47062,1,0
256,32,47250,2,0,B|296:64|312:120,1,89.9999973177911
224,112,47625,5,8
216,128,47718,1,0
208,144,47812,1,0
200,160,47906,1,0
192,176,48000,1,0
120,208,48187,1,4
128,224,48281,1,0
200,256,48468,1,0
224,248,48562,6,0,B|280:240|360:184|384:128,1,179.999994635582,4|0
376,128,49031,1,0
376,104,49125,1,0
376,80,49218,1,0
376,56,49312,2,0,B|328:24,3,44.9999986588955
320,32,49687,2,0,B|280:48,3,44.9999986588955
240,48,50062,6,0,B|192:24|144:16,1,89.9999973177911,4|0
160,112,50437,1,0
136,104,50531,1,4
64,48,50718,1,0
48,136,50906,5,4
104,200,51093,1,4
104,280,51281,1,4
120,296,51375,1,0
136,312,51468,1,0
152,328,51562,1,0
176,320,51656,2,0,B|224:296|256:336|320:312,1,134.999995976687
392,336,52125,5,0
448,280,52312,2,0,B|432:224,1,44.9999986588955
376,184,52593,1,0
408,112,52781,1,0
392,96,52875,1,8
376,80,52968,1,0
360,64,53062,1,0
344,48,53156,1,0
328,32,53250,5,4
264,80,53437,1,4
248,96,53531,1,0
176,56,53718,1,4
120,112,53906,1,4
40,96,54093,1,4
64,176,54281,1,4
48,256,54468,2,0,B|80:312|136:328|168:336,1,134.999995976687,4|0
200,264,54937,6,0,B|248:232|288:224,1,89.9999973177911,0|8
296,208,55218,2,0,B|352:192,1,44.9999986588955
360,208,55406,2,0,B|416:224,1,44.9999986588955
424,208,55593,1,0
440,192,55687,2,0,B|456:144|456:96|448:88,2,89.9999973177911,0|8|0
376,136,56250,6,0,B|328:104|240:96|192:104,1,179.999994635582,0|8
128,136,56812,1,0
64,184,57000,1,4
48,200,57093,1,0
88,272,57281,1,4
152,336,57468,1,4
232,304,57656,2,0,B|280:304|336:288|384:272,1,134.999995976687
364,278,58031,5,0
364,278,58125,1,8
364,278,58218,1,0
364,278,58312,2,0,B|392:240|408:192,1,89.9999973177911
408,160,58593,6,0,B|376:112,1,44.9999986588955
344,112,58781,2,0,B|328:56,1,44.9999986588955,0|8
312,32,58968,2,0,B|264:16,1,44.9999986588955
232,32,59156,2,0,B|184:56,1,44.9999986588955,0|4
112,40,59437,5,4
88,48,59531,1,0
64,128,59718,1,4
120,184,59906,1,4
72,248,60093,1,4
200,320,60281,1,4
296,216,60468,2,0,B|344:168|408:144|416:144,1,134.999995976687,4|0
480,184,60937,6,0,B|432:136|408:72|408:64,1,134.999995976687
409,70,61312,1,0
409,70,61406,1,0
409,70,61500,1,0
328,48,61687,2,0,B|272:40|240:48,1,89.9999973177911,0|4
256,128,62062,5,0
72,232,62343,1,0
256,344,62625,1,0
448,240,62906,1,0
160,176,63187,5,0
352,288,63468,1,0
256,232,63750,1,0
256,232,64031,1,0
256,232,64312,6,0,B|240:176|272:160|248:96,2,120,4|0|0
256,304,65250,1,0
192,336,65437,5,4
192,336,65531,1,0
192,336,65625,1,2
192,336,65718,1,0
192,336,65812,1,0
192,336,65906,1,0
120,344,66093,1,0
120,344,66187,1,0
120,344,66281,1,0
120,344,66375,1,6
72,288,66562,1,0
56,216,66750,6,0,B|64:168|80:136,1,60
70,157,67031,1,0
70,157,67125,2,0,B|72:128|64:96,1,60,2|0
120,48,67500,2,0,B|168:32|192:32,1,60
200,40,67781,5,0
216,48,67875,1,2
232,56,67968,1,0
248,64,68062,1,0
264,72,68156,1,0
280,80,68250,2,0,B|392:136,1,120,4|2
408,144,68718,5,0
432,136,68812,2,0,B|456:200,2,60
448,64,69375,6,0,B|376:32,1,60,2|0
320,56,69750,2,0,B|256:96,1,60
200,56,70125,2,0,B|160:48|128:48,1,60,2|0
140,48,70406,2,0,B|88:72,1,30
64,120,70687,5,0
64,120,70781,1,0
64,120,70875,1,2
64,120,70968,1,0
64,120,71062,1,0
40,192,71250,6,0,B|32:224,3,30,2|0|0|0
48,256,71625,2,0,B|72:296,3,30,2|0|0|0
96,296,72000,1,2
120,288,72093,1,0
144,280,72187,1,0
168,272,72281,1,0
192,264,72375,1,2
216,256,72468,1,0
240,248,72562,1,0
264,240,72656,1,0
288,232,72750,6,0,B|352:208,1,60,6|0
352,192,73031,1,0
360,176,73125,1,2
368,160,73218,1,0
376,144,73312,1,0
384,128,73406,1,0
392,112,73500,6,0,B|352:88,3,30,6|0|0|0
328,88,73875,2,0,B|280:96,3,30,2|0|0|0
264,88,74250,2,0,B|216:72,3,30,6|0|0|0
200,80,74625,2,0,B|152:104,3,30,2|0|0|0
136,96,75000,6,0,B|112:128,1,30,6|0
96,144,75187,2,0,B|96:192,1,30,0|0
96,208,75375,2,0,B|136:216,3,30,2|0|0|0
160,200,75750,6,0,B|208:184,3,30,2|0|0|0
224,200,76125,2,0,B|272:208,3,30,2|0|0|0
288,200,76500,2,0,B|328:192,3,30,2|0|0|0
352,200,76875,2,0,B|400:200,3,30,2|0|0|0
416,184,77250,6,0,B|456:128,2,40,6|0|0
448,216,77625,2,0,B|480:240,2,40,2|0|0
400,232,78000,2,0,B|368:264,2,40,6|0|0
416,184,78375,1,2
392,144,78500,1,0
360,112,78625,1,0
320,88,78750,2,0,B|264:72|200:72,1,120,2|0
184,88,79218,1,0
168,104,79312,1,0
152,120,79406,1,0
136,136,79500,1,4
80,232,79781,5,4
160,312,80062,1,4
216,264,80250,2,0,B|256:248|288:240,1,60
312,184,80625,2,0,B|272:168|240:160,1,60,2|0
208,104,81000,2,0,B|248:88|280:80,1,60
312,24,81375,1,6
312,24,81656,1,0
416,48,81937,6,0,B|448:80,3,30,0|0|2|0
440,104,82312,2,0,B|408:144,3,30,0|0|2|0
432,160,82687,2,0,B|464:192,3,30,0|0|2|0
456,216,83062,2,0,B|432:248,2,30,0|0|6
312,232,83531,5,4
184,160,83812,1,4
72,72,84093,1,4
216,40,84375,5,4
216,40,84468,1,0
216,40,84562,1,0
216,40,84656,1,0
216,40,84750,1,4
344,104,85031,1,0
344,104,85125,1,4
256,144,85312,1,0
256,144,85406,1,0
256,144,85500,1,4
104,216,85781,1,4
224,288,86062,1,4
392,192,86437,5,4
392,192,86531,1,0
408,96,86718,1,0
408,96,86906,1,0
408,96,87000,1,4
48,192,87281,6,0,B|360:192,1,300,4|0
432,192,87937,6,0,B|464:152|472:112,1,89.9999973177911,4|8
400,72,88312,1,0
376,80,88406,1,0
352,88,88500,1,0
328,96,88593,1,0
304,104,88687,2,0,B|240:128,3,44.9999986588955,0|0|8|0
240,128,89062,5,0
216,120,89156,1,0
192,112,89250,2,0,B|168:168|208:232,1,89.9999973177911,4|0
224,224,89531,5,4
304,224,89718,1,4
184,288,89906,1,4
344,288,90093,1,4
264,288,90281,1,4
272,264,90375,1,8
280,240,90468,2,0,B|320:192|248:176|296:96,1,134.999995976687
96,112,90937,6,0,B|80:152|32:216,1,89.9999973177911,0|8
64,208,91218,1,0
80,224,91312,1,0
96,240,91406,1,0
112,256,91500,2,0,B|160:264|224:264,1,89.9999973177911
216,280,91781,1,0
240,288,91875,2,0,B|256:232,3,44.9999986588955,8|0|0|0
264,224,92250,2,0,B|264:272|296:328|352:344|392:336,1,179.999994635582,0|8
440,136,92812,6,0,B|392:144|344:168,1,89.9999973177911,0|8
336,144,93093,1,4
312,136,93187,1,0
288,144,93281,1,0
264,136,93375,1,8
240,144,93468,1,0
216,136,93562,1,0
192,144,93656,1,0
168,136,93750,2,0,B|120:152,1,44.9999986588955,8|0
104,144,93937,6,0,B|80:200|80:248,1,89.9999973177911,4|8
88,248,94218,1,0
80,272,94312,1,0
96,288,94406,2,0,B|136:320|152:368,1,89.9999973177911
168,352,94687,2,0,B|232:320,1,44.9999986588955
232,320,94875,2,0,B|272:360,1,44.9999986588955,8|0
288,344,95062,5,0
312,344,95156,1,0
336,344,95250,1,4
408,312,95437,1,4
432,312,95531,1,0
464,240,95718,1,4
416,176,95906,1,4
464,112,96093,1,4
416,48,96281,1,0
416,48,96375,2,0,B|360:64|312:64,2,89.9999973177911,4|0|0
192,80,96937,6,0,B|144:128|136:168|128:184,1,89.9999973177911,0|8
144,176,97218,1,0
136,200,97312,1,0
144,224,97406,1,0
136,248,97500,2,0,B|144:304|168:336,1,89.9999973177911
248,320,97875,2,0,B|296:328|336:352,2,89.9999973177911,8|0|0
224,240,98437,6,0,B|264:208|320:192,1,89.9999973177911,0|8
302,197,98718,1,0
302,197,98812,1,0
302,197,98906,1,0
302,197,99000,2,0,B|326:149|334:93,2,89.9999973177911,0|0|8
256,104,99562,2,0,B|200:80|168:112|56:96,1,179.999994635582
64,120,100031,5,0
56,144,100125,1,8
48,168,100218,1,0
40,192,100312,1,0
32,216,100406,1,0
24,240,100500,2,0,B|24:288|48:336,2,89.9999973177911,0|0|12
160,296,101062,5,0
368,240,101343,1,0
264,48,101625,1,0
56,96,101906,1,0
320,136,102187,5,0
112,192,102468,1,0
216,168,102750,2,0,B|208:216|248:240|232:320|208:344,1,179.999994635582,0|4
264,352,103250,6,0,B|328:352,2,59.9999982118607
296,304,103625,2,0,B|352:256,2,59.9999982118607
192,128,104156,5,4
256,192,104250,12,0,106875
256,192,107062,6,0,B|256:152,3,29.9999991059304,4|0|0|0
