osu file format v14

[General]
AudioFilename: xi_finder_keepers.mp3
AudioLeadIn: 0
PreviewTime: 14250
Countdown: 0
SampleSet: None
StackLeniency: 0.7
Mode: 1
LetterboxInBreaks: 0
WidescreenStoryboard: 1

[Editor]
DistanceSpacing: 0.8
BeatDivisor: 4
GridSize: 8
TimelineZoom: 1

[Metadata]
Title:Finder keepers
TitleUnicode:Finder keepers
Artist:xi
ArtistUnicode:xi
Creator:Mapper 31
Version:Futsuu
Source:
Tags:
BeatmapID:744066
BeatmapSetID:336183

[Difficulty]
HPDrainRate:4
CircleSize:4
OverallDifficulty:4
ApproachRate:4
SliderMultiplier:1.4
SliderTickRate:1

[Events]
//Background and Video events
0,0,"fk.jpg",0,0
//Break Periods
//Storyboard Layer 0 (Background)
//Storyboard Layer 1 (Fail)
//Storyboard Layer 2 (Pass)
//Storyboard Layer 3 (Foreground)
//Storyboard Sound Samples

[TimingPoints]
750.148148148148,375.000370370372,4,1,0,100,1,0
14250,-100,4,1,0,100,0,1
27750,-100,4,1,0,100,0,0
51747,-100,4,1,0,100,0,1
63747,-100,4,1,0,100,0,0
87747,-100,4,1,0,100,0,1
104247,-100,4,1,0,100,0,0

[HitObjects]
240,224,750,5,0,0:0:0:0:
240,224,1312,1,0,0:0:0:0:
240,224,2250,1,0,0:0:0:0:
240,224,2812,1,0,0:0:0:0:
240,224,3750,1,0,0:0:0:0:
240,224,4312,1,0,0:0:0:0:
240,224,5250,1,0,0:0:0:0:
240,224,5625,1,8,0:0:0:0:
240,224,6000,1,0,0:0:0:0:
240,224,6375,1,0,0:0:0:0:
240,224,6750,1,4,0:0:0:0:
240,224,7312,1,4,0:0:0:0:
240,224,8062,1,0,0:0:0:0:
240,224,8437,1,0,0:0:0:0:
224,120,8812,1,4,0:0:0:0:
224,120,9750,1,4,0:0:0:0:
240,224,10312,1,0,0:0:0:0:
240,224,10687,1,4,0:0:0:0:
240,224,11062,1,4,0:0:0:0:
200,272,12750,1,0,0:0:0:0:
200,272,12937,1,0,0:0:0:0:
200,272,13218,1,0,0:0:0:0:
200,272,13406,1,0,0:0:0:0:
280,264,14437,1,4,0:0:0:0:
224,304,14906,1,4,0:0:0:0:
224,304,15750,1,0,0:0:0:0:
168,168,16031,1,0,0:0:0:0:
168,168,16218,1,0,0:0:0:0:
168,168,16406,1,0,0:0:0:0:
280,264,17437,1,4,0:0:0:0:
248,112,18000,1,0,0:0:0:0:
256,112,18187,1,0,0:0:0:0:
256,112,18562,1,0,0:0:0:0:
256,112,18750,1,0,0:0:0:0:
280,264,19500,1,4,0:0:0:0:
240,120,19781,1,0,0:0:0:0:
240,120,19968,1,0,0:0:0:0:
192,96,20156,1,0,0:0:0:0:
280,264,20437,1,4,0:0:0:0:
192,240,20906,1,4,0:0:0:0:
280,256,21750,1,0,0:0:0:0:
120,168,22031,1,0,0:0:0:0:
120,168,22218,1,0,0:0:0:0:
120,168,22406,1,0,0:0:0:0:
272,288,23437,1,4,0:0:0:0:
272,288,24000,1,8,0:0:0:0:
272,288,24562,1,4,0:0:0:0:
272,288,25312,1,0,0:0:0:0:
272,288,25500,1,0,0:0:0:0:
272,288,25875,1,0,0:0:0:0:
24,80,26250,2,0,L|448:96,1,420
272,288,27750,1,4,0:0:0:0:
272,288,28500,1,0,0:0:0:0:
272,288,28875,1,8,0:0:0:0:
272,288,29250,1,0,0:0:0:0:
272,288,30000,1,0,0:0:0:0:
272,288,30375,1,0,0:0:0:0:
272,288,30937,1,4,0:0:0:0:
272,288,31500,1,0,0:0:0:0:
272,288,31875,1,8,0:0:0:0:
272,288,32250,1,0,0:0:0:0:
272,288,33000,1,0,0:0:0:0:
272,288,33375,1,0,0:0:0:0:
272,288,33937,1,4,0:0:0:0:
224,136,34406,1,0,0:0:0:0:
224,136,35250,1,0,0:0:0:0:
224,136,35625,1,0,0:0:0:0:
224,136,36000,1,0,0:0:0:0:
224,136,36281,1,0,0:0:0:0:
320,336,36937,1,4,0:0:0:0:
320,336,37500,1,0,0:0:0:0:
320,336,37875,1,8,0:0:0:0:
216,96,38437,1,4,0:0:0:0:
264,280,38718,1,4,0:0:0:0:
264,280,38906,1,4,0:0:0:0:
272,288,39750,1,4,0:0:0:0:
272,288,40500,1,0,0:0:0:0:
272,288,40875,1,8,0:0:0:0:
272,288,41250,1,0,0:0:0:0:
272,288,42000,1,0,0:0:0:0:
272,288,42375,1,0,0:0:0:0:
272,288,42937,1,4,0:0:0:0:
272,288,43500,1,0,0:0:0:0:
272,288,43875,1,8,0:0:0:0:
272,288,44250,1,0,0:0:0:0:
272,288,45000,1,0,0:0:0:0:
272,288,45375,1,0,0:0:0:0:
272,288,45937,1,4,0:0:0:0:
272,288,46406,1,0,0:0:0:0:
272,288,47250,1,0,0:0:0:0:
272,288,47437,1,0,0:0:0:0:
272,288,47625,1,0,0:0:0:0:
272,288,48000,1,8,0:0:0:0:
152,144,48281,1,8,0:0:0:0:
288,240,48937,1,4,0:0:0:0:
288,240,49500,1,0,0:0:0:0:
288,240,49875,1,0,0:0:0:0:
288,240,50062,1,0,0:0:0:0:
256,192,50437,12,0,51375,0:0:0:0:
280,264,51937,5,4,0:0:0:0:
224,240,52406,1,4,0:0:0:0:
224,240,53250,1,0,0:0:0:0:
112,152,53531,1,0,0:0:0:0:
192,56,53718,1,0,0:0:0:0:
112,152,53906,1,0,0:0:0:0:
280,264,54937,1,4,0:0:0:0:
192,64,55500,1,0,0:0:0:0:
192,64,55687,1,0,0:0:0:0:
280,264,56062,1,0,0:0:0:0:
280,264,56250,1,0,0:0:0:0:
280,264,57000,1,4,0:0:0:0:
192,24,57281,1,0,0:0:0:0:
192,24,57468,1,0,0:0:0:0:
192,24,57656,1,0,0:0:0:0:
280,264,57937,1,4,0:0:0:0:
240,280,58406,1,4,0:0:0:0:
240,280,59250,1,0,0:0:0:0:
104,144,59531,1,0,0:0:0:0:
216,48,59718,1,0,0:0:0:0:
104,144,59906,1,0,0:0:0:0:
272,288,60937,1,4,0:0:0:0:
272,288,61500,1,8,0:0:0:0:
272,288,62062,1,4,0:0:0:0:
240,144,62625,1,4,0:0:0:0:
240,144,63187,1,4,0:0:0:0:
240,144,63750,1,4,0:0:0:0:
224,264,65437,1,0,0:0:0:0:
224,264,65625,1,0,0:0:0:0:
224,264,66000,1,0,0:0:0:0:
224,264,66375,1,0,0:0:0:0:
224,264,66750,1,0,0:0:0:0:
64,104,67500,2,0,L|384:192|136:160,1,560
224,264,69750,1,4,0:0:0:0:
224,264,71250,1,0,0:0:0:0:
240,96,71625,1,0,0:0:0:0:
240,96,72000,1,8,0:0:0:0:
224,264,72375,1,8,0:0:0:0:
224,264,72750,1,4,0:0:0:0:
224,264,73500,1,4,0:0:0:0:
216,104,74250,1,4,0:0:0:0:
224,264,75000,1,0,0:0:0:0:
224,264,75656,1,4,0:0:0:0:
256,144,76125,1,0,0:0:0:0:
256,144,76500,1,8,0:0:0:0:
184,264,76875,1,8,0:0:0:0:
184,264,77250,1,0,0:0:0:0:
184,264,77625,1,0,0:0:0:0:
224,48,78000,1,0,0:0:0:0:
224,48,78375,1,0,0:0:0:0:
184,264,78750,1,0,0:0:0:0:
184,264,79500,1,0,0:0:0:0:
184,264,79875,1,8,0:0:0:0:
184,264,80250,1,0,0:0:0:0:
184,264,80625,1,0,0:0:0:0:
184,264,81000,1,0,0:0:0:0:
376,208,81656,1,4,0:0:0:0:
256,224,82125,1,0,0:0:0:0:
256,224,82500,1,0,0:0:0:0:
200,48,82875,1,0,0:0:0:0:
200,48,83250,1,8,0:0:0:0:
240,48,83812,1,8,0:0:0:0:
256,104,84375,1,0,0:0:0:0:
264,24,84750,1,8,0:0:0:0:
264,24,85125,1,8,0:0:0:0:
264,24,85500,1,0,0:0:0:0:
264,24,85875,1,0,0:0:0:0:
200,48,86437,1,4,0:0:0:0:
208,160,86718,1,4,0:0:0:0:
240,208,86906,1,4,0:0:0:0:
280,264,87937,1,4,0:0:0:0:
280,264,88406,1,4,0:0:0:0:
272,232,88875,1,8,0:0:0:0:
280,264,89250,1,0,0:0:0:0:
216,64,89531,1,0,0:0:0:0:
216,64,89718,1,0,0:0:0:0:
48,152,89906,1,0,0:0:0:0:
280,264,90937,1,4,0:0:0:0:
224,88,91500,1,0,0:0:0:0:
224,88,91687,1,8,0:0:0:0:
280,264,92062,1,0,0:0:0:0:
320,280,92250,1,0,0:0:0:0:
280,264,93000,1,4,0:0:0:0:
184,56,93281,1,0,0:0:0:0:
184,56,93468,1,0,0:0:0:0:
184,56,93656,1,0,0:0:0:0:
280,264,93937,1,4,0:0:0:0:
184,208,94406,1,4,0:0:0:0:
320,352,94875,1,8,0:0:0:0:
136,160,95250,1,0,0:0:0:0:
136,160,95531,1,0,0:0:0:0:
224,64,95718,1,0,0:0:0:0:
136,160,95906,1,0,0:0:0:0:
272,288,96937,1,4,0:0:0:0:
208,40,97500,1,8,0:0:0:0:
40,112,97781,1,0,0:0:0:0:
168,48,98062,1,0,0:0:0:0:
376,256,98437,1,4,0:0:0:0:
208,32,99000,1,0,0:0:0:0:
208,40,99281,1,0,0:0:0:0:
208,32,99562,1,8,0:0:0:0:
272,280,99937,1,4,0:0:0:0:
440,248,100500,1,8,0:0:0:0:
40,112,100781,1,0,0:0:0:0:
272,280,101062,1,4,0:0:0:0:
168,152,101343,1,4,0:0:0:0:
432,248,101625,1,4,0:0:0:0:
168,152,101906,1,4,0:0:0:0:
280,280,102187,1,4,0:0:0:0:
272,280,102468,1,4,0:0:0:0:
280,280,102750,1,4,0:0:0:0:
256,192,103125,12,0,104156,0:0:0:0:
