osu file format v13

[General]
AudioFilename: SDVX II Fiat Lux [EXH].mp3
AudioLeadIn: 0
PreviewTime: 53370
Countdown: 0
SampleSet: Soft
StackLeniency: 0.7
Mode: 3
LetterboxInBreaks: 0
SpecialStyle: 0
WidescreenStoryboard: 1

[Editor]
DistanceSpacing: 0.8
BeatDivisor: 4
GridSize: 8
TimelineZoom: 2.050001

[Metadata]
Title:Fiat Lux
TitleUnicode:Fiat Lux
Artist:xi
ArtistUnicode:xi
Creator:Remillion Cross
Version:EXHAUST
Source:SOUND VOLTEX II -infinite infection-
Tags:trance arcade bemani konami beatmania rasis sdvx booth fantasy lux
BeatmapID:412185
BeatmapSetID:170223

[Difficulty]
HPDrainRate:7
CircleSize:7
OverallDifficulty:8
ApproachRate:9
SliderMultiplier:1.4
SliderTickRate:1

[Events]
//Background and Video events
0,0,"BG.jpg",0,0
//Break Periods
//Storyboard Layer 0 (Background)
//Storyboard Layer 1 (Fail)
//Storyboard Layer 2 (Pass)
//Storyboard Layer 3 (Foreground)
//Storyboard Sound Samples
//Background Colour Transformations
3,100,163,162,255

[TimingPoints]
570,300,4,2,1,65,1,0
5370,-100,4,2,1,65,0,0
10170,-125,4,2,1,65,0,0
11370,-166.666666666667,4,2,1,65,0,0
11970,-100,4,2,1,65,0,0
28770,-62.5,4,2,1,65,0,0
28845,-142.857142857143,4,2,1,65,0,0
28995,-62.5,4,2,1,65,0,0
29070,-142.857142857143,4,2,1,65,0,0
29220,-62.5,4,2,1,65,0,0
29257,-142.857142857143,4,2,1,65,0,0
29370,-100,4,2,1,65,0,0
33570,-133.333333333333,4,2,1,65,0,0
34020,-100,4,2,1,65,0,0
43470,-66.6666666666667,4,2,1,65,0,0
43545,-200,4,2,1,65,0,0
43620,-66.6666666666667,4,2,1,65,0,0
43695,-200,4,2,1,65,0,0
43770,-100,4,2,1,65,0,0
48420,-166.666666666667,4,2,1,65,0,0
48870,-100,4,2,1,65,0,0
52920,-133.333333333333,4,2,1,65,0,0
53370,-100,4,2,1,65,0,0
84120,-66.6666666666667,4,2,1,65,0,0
84195,-200,4,2,1,65,0,0
84270,-66.6666666666667,4,2,1,65,0,0
84345,-200,4,2,1,65,0,0
84420,-100,4,2,1,65,0,0
94170,-100,4,2,1,65,0,1
103770,-133.333333333333,4,2,1,65,0,0
104070,-100,4,2,1,65,0,1
110370,-62.5,4,2,1,65,0,1
110445,-142.857142857143,4,2,1,65,0,1
110595,-62.5,4,2,1,65,0,1
110670,-142.857142857143,4,2,1,65,0,1
110820,-62.5,4,2,1,65,0,1
110857,-142.857142857143,4,2,1,65,0,1
110970,-100,4,2,1,65,0,1
115620,-400,4,2,1,65,0,1
115920,-100,4,2,1,65,0,1
116070,-100,4,2,1,65,0,0

[HitObjects]
256,192,570,5,0,0:0:0:0:
475,192,570,128,0,1770:0:0:0:0:
36,192,570,128,4,2970:0:0:0:0:
329,192,1770,128,2,2970:0:0:0:0:
475,192,2970,128,2,4170:0:0:0:0:
36,192,3570,128,2,4770:0:0:0:0:
329,192,4170,128,2,4770:0:0:0:0:
402,192,4770,128,2,5370:0:0:0:0:
36,192,5070,1,0,0:0:0:0:
109,192,5145,1,0,0:0:0:0:
182,192,5220,1,0,0:0:0:0:
256,192,5295,1,0,0:0:0:0:
329,192,5370,1,8,0:0:0:0:
36,192,5370,1,8,0:0:0:0:
109,192,5445,1,0,0:0:0:0:
182,192,5520,1,0,0:0:0:0:
256,192,5595,1,0,0:0:0:0:
109,192,5670,1,8,0:0:0:0:
402,192,5670,1,8,0:0:0:0:
182,192,5745,1,0,0:0:0:0:
256,192,5820,1,0,0:0:0:0:
329,192,5895,1,0,0:0:0:0:
475,192,5970,1,8,0:0:0:0:
109,192,5970,1,8,0:0:0:0:
402,192,6045,1,0,0:0:0:0:
329,192,6120,1,0,0:0:0:0:
256,192,6195,1,0,0:0:0:0:
36,192,6270,1,8,0:0:0:0:
182,192,6270,1,8,0:0:0:0:
109,192,6345,1,0,0:0:0:0:
182,192,6420,1,0,0:0:0:0:
256,192,6495,1,0,0:0:0:0:
475,192,6570,1,8,0:0:0:0:
329,192,6570,1,8,0:0:0:0:
402,192,6645,1,0,0:0:0:0:
329,192,6720,1,0,0:0:0:0:
256,192,6795,1,0,0:0:0:0:
182,192,6870,1,8,0:0:0:0:
36,192,6870,1,8,0:0:0:0:
256,192,6945,1,0,0:0:0:0:
329,192,7020,1,0,0:0:0:0:
402,192,7095,1,0,0:0:0:0:
329,192,7170,1,8,0:0:0:0:
36,192,7170,1,8,0:0:0:0:
109,192,7245,1,0,0:0:0:0:
182,192,7320,1,0,0:0:0:0:
256,192,7395,1,0,0:0:0:0:
329,192,7470,1,8,0:0:0:0:
475,192,7470,1,8,0:0:0:0:
256,192,7545,1,0,0:0:0:0:
475,192,7620,1,8,0:0:0:0:
109,192,7620,1,8,0:0:0:0:
182,192,7695,1,0,0:0:0:0:
256,192,7770,1,8,0:0:0:0:
475,192,7770,1,8,0:0:0:0:
256,192,7920,1,8,0:0:0:0:
475,192,7920,1,8,0:0:0:0:
182,192,8070,1,8,0:0:0:0:
402,192,8070,1,8,0:0:0:0:
402,192,8220,1,8,0:0:0:0:
182,192,8220,1,8,0:0:0:0:
109,192,8370,1,8,0:0:0:0:
329,192,8370,1,8,0:0:0:0:
109,192,8520,1,8,0:0:0:0:
329,192,8520,1,8,0:0:0:0:
256,192,8670,1,8,0:0:0:0:
36,192,8670,1,8,0:0:0:0:
256,192,8820,1,8,0:0:0:0:
36,192,8820,1,8,0:0:0:0:
182,192,8895,1,0,0:0:0:0:
36,192,8970,1,8,0:0:0:0:
256,192,8970,1,8,0:0:0:0:
109,192,9045,1,8,0:0:0:0:
329,192,9045,1,8,0:0:0:0:
182,192,9120,1,8,0:0:0:0:
402,192,9120,1,8,0:0:0:0:
256,192,9195,1,8,0:0:0:0:
475,192,9195,1,8,0:0:0:0:
402,192,9270,1,8,0:0:0:0:
182,192,9270,1,8,0:0:0:0:
109,192,9345,1,8,0:0:0:0:
329,192,9345,1,8,0:0:0:0:
182,192,9420,1,8,0:0:0:0:
402,192,9420,1,8,0:0:0:0:
109,192,9495,1,8,0:0:0:0:
329,192,9495,1,8,0:0:0:0:
256,192,9570,128,0,9720:0:0:0:0:
36,192,9570,128,2,9720:0:0:0:0:
475,192,9570,128,2,9720:0:0:0:0:
256,192,9870,128,0,10020:0:0:0:0:
36,192,9870,128,2,10020:0:0:0:0:
475,192,9870,128,2,10020:0:0:0:0:
36,192,10170,1,0,0:0:0:0:
475,192,10170,1,0,0:0:0:0:
256,192,10170,128,0,11820:0:0:0:0:
182,192,10170,1,0,0:0:0:0:
329,192,10170,1,0,0:0:0:0:
475,192,11370,128,0,11820:0:0:0:0:
36,192,11370,128,0,11820:0:0:0:0:
109,192,11970,1,0,0:0:0:0:
402,192,11970,1,0,0:0:0:0:
109,192,12120,1,8,0:0:0:0:
402,192,12120,1,8,0:0:0:0:
256,192,12120,1,0,0:0:0:0:
36,192,12420,1,0,0:0:0:0:
475,192,12420,1,0,0:0:0:0:
36,192,12570,1,8,0:0:0:0:
256,192,12570,1,8,0:0:0:0:
475,192,12570,128,0,12870:0:0:0:0:
182,192,12720,1,0,0:0:0:0:
256,192,12795,1,0,0:0:0:0:
36,192,12870,128,8,13170:0:0:0:0:
329,192,12870,1,8,0:0:0:0:
182,192,13020,1,0,0:0:0:0:
475,192,13170,1,0,0:0:0:0:
475,192,13320,128,0,13620:0:0:0:0:
36,192,13320,128,0,13620:0:0:0:0:
329,192,13320,1,8,0:0:0:0:
182,192,13320,1,8,0:0:0:0:
182,192,13620,1,8,0:0:0:0:
329,192,13620,1,8,0:0:0:0:
475,192,13920,128,0,14070:0:0:0:0:
36,192,13920,1,8,0:0:0:0:
329,192,13920,1,8,0:0:0:0:
109,192,13995,1,8,0:0:0:0:
256,192,13995,1,8,0:0:0:0:
329,192,14070,128,8,14220:0:0:0:0:
182,192,14070,1,8,0:0:0:0:
182,192,14220,128,0,14520:0:0:0:0:
36,192,14220,1,0,0:0:0:0:
402,192,14370,1,8,0:0:0:0:
475,192,14520,128,0,14970:0:0:0:0:
329,192,14520,1,0,0:0:0:0:
36,192,14520,128,0,14670:0:0:0:0:
329,192,14670,128,8,14970:0:0:0:0:
182,192,14820,128,0,14970:0:0:0:0:
36,192,14820,1,0,0:0:0:0:
36,192,14970,1,8,0:0:0:0:
402,192,14970,128,0,15420:0:0:0:0:
109,192,14970,1,0,0:0:0:0:
109,192,15120,1,0,0:0:0:0:
182,192,15195,1,0,0:0:0:0:
256,192,15270,1,0,0:0:0:0:
36,192,15420,128,0,16020:0:0:0:0:
182,192,15420,1,8,0:0:0:0:
475,192,15420,1,8,0:0:0:0:
182,192,15720,128,0,16020:0:0:0:0:
329,192,15720,1,8,0:0:0:0:
475,192,15720,1,8,0:0:0:0:
475,192,16020,128,0,16470:0:0:0:0:
402,192,16020,1,8,0:0:0:0:
329,192,16020,1,8,0:0:0:0:
36,192,16320,1,0,0:0:0:0:
256,192,16320,1,0,0:0:0:0:
109,192,16395,1,0,0:0:0:0:
329,192,16395,1,0,0:0:0:0:
182,192,16470,1,8,0:0:0:0:
402,192,16470,1,8,0:0:0:0:
256,192,16545,1,0,0:0:0:0:
182,192,16620,1,0,0:0:0:0:
329,192,16620,1,0,0:0:0:0:
36,192,16620,128,0,16920:0:0:0:0:
475,192,16620,128,0,16920:0:0:0:0:
182,192,16920,1,2,0:0:0:0:
402,192,16920,1,0,0:0:0:0:
109,192,16995,1,2,0:0:0:0:
256,192,17070,1,10,0:0:0:0:
402,192,17145,1,0,0:0:0:0:
109,192,17220,1,8,0:0:0:0:
329,192,17220,1,8,0:0:0:0:
36,192,17370,128,0,17670:0:0:0:0:
256,192,17370,128,8,17670:0:0:0:0:
475,192,17370,1,8,0:0:0:0:
182,192,17670,1,0,0:0:0:0:
475,192,17670,1,0,0:0:0:0:
402,192,17820,128,8,18120:0:0:0:0:
109,192,17820,128,8,18120:0:0:0:0:
256,192,17820,1,0,0:0:0:0:
329,192,17970,1,0,0:0:0:0:
36,192,18120,1,0,0:0:0:0:
256,192,18120,1,0,0:0:0:0:
256,192,18270,128,8,18570:0:0:0:0:
475,192,18270,128,8,18570:0:0:0:0:
109,192,18270,1,0,0:0:0:0:
109,192,18570,1,0,0:0:0:0:
182,192,18607,1,0,0:0:0:0:
256,192,18645,1,0,0:0:0:0:
329,192,18682,1,0,0:0:0:0:
402,192,18720,1,8,0:0:0:0:
36,192,18720,128,10,19170:0:0:0:0:
109,192,18870,128,10,19170:0:0:0:0:
475,192,18870,1,8,0:0:0:0:
475,192,19020,128,2,19320:0:0:0:0:
329,192,19020,1,8,0:0:0:0:
182,192,19020,1,8,0:0:0:0:
36,192,19320,128,0,19620:0:0:0:0:
182,192,19320,1,0,0:0:0:0:
475,192,19470,1,0,0:0:0:0:
256,192,19470,1,0,0:0:0:0:
402,192,19545,1,0,0:0:0:0:
182,192,19620,1,0,0:0:0:0:
256,192,19695,1,0,0:0:0:0:
329,192,19770,1,8,0:0:0:0:
36,192,19770,1,0,0:0:0:0:
475,192,19770,1,8,0:0:0:0:
109,192,19770,128,0,20070:0:0:0:0:
256,192,19920,1,0,0:0:0:0:
329,192,20070,1,8,0:0:0:0:
36,192,20070,1,8,0:0:0:0:
475,192,20220,128,8,20370:0:0:0:0:
182,192,20220,1,8,0:0:0:0:
109,192,20295,1,8,0:0:0:0:
329,192,20370,128,8,20520:0:0:0:0:
36,192,20370,1,8,0:0:0:0:
182,192,20520,128,0,20670:0:0:0:0:
475,192,20520,1,8,0:0:0:0:
36,192,20670,128,0,20970:0:0:0:0:
256,192,20670,1,8,0:0:0:0:
475,192,20670,1,8,0:0:0:0:
329,192,20820,1,8,0:0:0:0:
475,192,20970,1,8,0:0:0:0:
329,192,20970,1,8,0:0:0:0:
36,192,21120,1,2,0:0:0:0:
109,192,21195,1,2,0:0:0:0:
182,192,21270,1,10,0:0:0:0:
475,192,21270,1,8,0:0:0:0:
109,192,21420,1,2,0:0:0:0:
182,192,21495,1,2,0:0:0:0:
475,192,21570,1,8,0:0:0:0:
256,192,21570,1,10,0:0:0:0:
402,192,21720,1,2,0:0:0:0:
329,192,21757,1,2,0:0:0:0:
256,192,21795,1,2,0:0:0:0:
182,192,21832,1,2,0:0:0:0:
109,192,21870,1,2,0:0:0:0:
475,192,21870,128,0,22170:0:0:0:0:
36,192,21870,128,0,22170:0:0:0:0:
182,192,22170,1,8,0:0:0:0:
329,192,22170,1,8,0:0:0:0:
402,192,22320,1,0,0:0:0:0:
36,192,22470,1,8,0:0:0:0:
256,192,22470,1,8,0:0:0:0:
109,192,22620,1,0,0:0:0:0:
182,192,22770,1,8,0:0:0:0:
402,192,22770,1,8,0:0:0:0:
475,192,22920,128,0,23220:0:0:0:0:
36,192,22920,128,0,23220:0:0:0:0:
329,192,22920,1,0,0:0:0:0:
109,192,22920,1,0,0:0:0:0:
109,192,23220,1,0,0:0:0:0:
402,192,23295,1,0,0:0:0:0:
109,192,23370,1,0,0:0:0:0:
402,192,23445,1,0,0:0:0:0:
109,192,23520,1,0,0:0:0:0:
256,192,23520,128,0,23670:0:0:0:0:
36,192,23670,1,8,0:0:0:0:
475,192,23670,1,8,0:0:0:0:
109,192,23820,128,8,24120:0:0:0:0:
329,192,23820,1,8,0:0:0:0:
256,192,23970,128,8,24270:0:0:0:0:
475,192,23970,1,8,0:0:0:0:
36,192,24120,128,0,24420:0:0:0:0:
402,192,24120,128,0,24270:0:0:0:0:
182,192,24270,128,8,24570:0:0:0:0:
475,192,24270,1,8,0:0:0:0:
402,192,24420,128,0,24570:0:0:0:0:
329,192,24420,1,0,0:0:0:0:
36,192,24570,1,8,0:0:0:0:
475,192,24570,1,8,0:0:0:0:
109,192,24720,1,0,0:0:0:0:
182,192,24870,1,8,0:0:0:0:
475,192,24870,1,8,0:0:0:0:
36,192,25020,128,0,25620:0:0:0:0:
256,192,25020,1,8,0:0:0:0:
475,192,25020,1,8,0:0:0:0:
475,192,25320,128,0,25620:0:0:0:0:
182,192,25320,1,8,0:0:0:0:
329,192,25320,1,8,0:0:0:0:
256,192,25620,128,0,25920:0:0:0:0:
402,192,25620,1,0,0:0:0:0:
109,192,25695,1,0,0:0:0:0:
402,192,25770,1,0,0:0:0:0:
109,192,25845,1,0,0:0:0:0:
402,192,25920,1,0,0:0:0:0:
109,192,25995,1,0,0:0:0:0:
182,192,26070,1,0,0:0:0:0:
256,192,26145,1,0,0:0:0:0:
36,192,26220,128,0,26520:0:0:0:0:
475,192,26220,128,0,26520:0:0:0:0:
329,192,26220,1,0,0:0:0:0:
109,192,26520,1,0,0:0:0:0:
182,192,26570,1,0,0:0:0:0:
329,192,26620,1,0,0:0:0:0:
402,192,26670,1,8,0:0:0:0:
182,192,26820,1,8,0:0:0:0:
109,192,26895,1,0,0:0:0:0:
36,192,26970,1,0,0:0:0:0:
475,192,26970,128,8,27270:0:0:0:0:
329,192,26970,128,8,27270:0:0:0:0:
109,192,27270,1,8,0:0:0:0:
182,192,27270,1,8,0:0:0:0:
402,192,27420,128,8,27720:0:0:0:0:
256,192,27420,128,8,27720:0:0:0:0:
36,192,27420,1,0,0:0:0:0:
109,192,27720,1,8,0:0:0:0:
475,192,27720,1,8,0:0:0:0:
36,192,27870,1,0,0:0:0:0:
475,192,27870,1,0,0:0:0:0:
109,192,27970,1,0,0:0:0:0:
402,192,27970,1,0,0:0:0:0:
182,192,28070,1,0,0:0:0:0:
329,192,28070,1,0,0:0:0:0:
475,192,28170,128,8,28470:0:0:0:0:
36,192,28170,1,8,0:0:0:0:
256,192,28170,1,0,0:0:0:0:
36,192,28470,1,8,0:0:0:0:
182,192,28470,128,8,28770:0:0:0:0:
329,192,28470,128,0,28770:0:0:0:0:
256,192,28770,1,0,0:0:0:0:
36,192,28770,1,8,0:0:0:0:
475,192,28770,1,8,0:0:0:0:
36,192,28995,1,8,0:0:0:0:
256,192,28995,1,0,0:0:0:0:
475,192,28995,1,8,0:0:0:0:
36,192,29220,1,8,0:0:0:0:
256,192,29220,1,0,0:0:0:0:
475,192,29220,1,8,0:0:0:0:
109,192,29370,1,8,0:0:0:0:
402,192,29370,1,8,0:0:0:0:
182,192,29520,1,0,0:0:0:0:
36,192,29670,1,8,0:0:0:0:
329,192,29670,1,8,0:0:0:0:
475,192,29820,1,0,0:0:0:0:
182,192,29970,1,8,0:0:0:0:
329,192,29970,1,8,0:0:0:0:
109,192,30120,1,0,0:0:0:0:
256,192,30270,1,8,0:0:0:0:
402,192,30270,1,8,0:0:0:0:
36,192,30420,1,0,0:0:0:0:
109,192,30570,1,8,0:0:0:0:
475,192,30570,1,8,0:0:0:0:
256,192,30645,1,0,0:0:0:0:
475,192,30720,1,0,0:0:0:0:
256,192,30795,1,0,0:0:0:0:
402,192,30870,1,8,0:0:0:0:
182,192,30945,1,0,0:0:0:0:
402,192,31020,1,0,0:0:0:0:
182,192,31095,1,0,0:0:0:0:
475,192,31170,128,0,31620:0:0:0:0:
36,192,31170,1,8,0:0:0:0:
329,192,31170,1,8,0:0:0:0:
182,192,31320,1,0,0:0:0:0:
109,192,31470,1,8,0:0:0:0:
256,192,31620,1,0,0:0:0:0:
36,192,31620,1,0,0:0:0:0:
109,192,31695,1,0,0:0:0:0:
182,192,31770,1,0,0:0:0:0:
256,192,31845,1,0,0:0:0:0:
109,192,31920,1,0,0:0:0:0:
182,192,31995,1,0,0:0:0:0:
256,192,32070,1,8,0:0:0:0:
329,192,32145,1,0,0:0:0:0:
182,192,32220,1,0,0:0:0:0:
256,192,32295,1,0,0:0:0:0:
329,192,32370,1,8,0:0:0:0:
402,192,32445,1,0,0:0:0:0:
256,192,32520,1,0,0:0:0:0:
329,192,32595,1,0,0:0:0:0:
402,192,32670,1,8,0:0:0:0:
475,192,32745,1,0,0:0:0:0:
402,192,32820,1,0,0:0:0:0:
329,192,32895,1,0,0:0:0:0:
256,192,32970,1,8,0:0:0:0:
36,192,32970,128,0,33570:0:0:0:0:
475,192,33045,1,0,0:0:0:0:
256,192,33120,1,0,0:0:0:0:
475,192,33195,1,0,0:0:0:0:
182,192,33270,1,8,0:0:0:0:
402,192,33345,1,0,0:0:0:0:
182,192,33420,1,0,0:0:0:0:
402,192,33495,1,0,0:0:0:0:
475,192,33570,1,0,0:0:0:0:
402,192,33645,1,0,0:0:0:0:
329,192,33720,1,0,0:0:0:0:
256,192,33795,1,0,0:0:0:0:
182,192,33870,1,0,0:0:0:0:
109,192,33945,1,0,0:0:0:0:
36,192,34020,1,8,0:0:0:0:
475,192,34020,128,8,34170:0:0:0:0:
182,192,34170,1,8,0:0:0:0:
329,192,34170,1,8,0:0:0:0:
182,192,34470,1,8,0:0:0:0:
475,192,34470,1,8,0:0:0:0:
36,192,34620,128,0,35220:0:0:0:0:
182,192,34620,1,8,0:0:0:0:
475,192,34620,1,8,0:0:0:0:
109,192,34920,128,0,35220:0:0:0:0:
329,192,34920,1,8,0:0:0:0:
475,192,34920,1,8,0:0:0:0:
475,192,35220,128,0,35520:0:0:0:0:
329,192,35220,1,8,0:0:0:0:
256,192,35220,1,8,0:0:0:0:
36,192,35520,128,0,35670:0:0:0:0:
182,192,35520,1,0,0:0:0:0:
329,192,35670,128,0,35820:0:0:0:0:
475,192,35670,1,0,0:0:0:0:
109,192,35820,128,8,36120:0:0:0:0:
475,192,35820,1,8,0:0:0:0:
402,192,35895,1,0,0:0:0:0:
329,192,35970,1,8,0:0:0:0:
256,192,36045,1,0,0:0:0:0:
475,192,36120,128,0,36270:0:0:0:0:
182,192,36120,1,0,0:0:0:0:
36,192,36270,128,0,36420:0:0:0:0:
256,192,36270,1,8,0:0:0:0:
402,192,36420,128,0,36870:0:0:0:0:
329,192,36420,1,0,0:0:0:0:
182,192,36495,1,0,0:0:0:0:
36,192,36570,1,8,0:0:0:0:
256,192,36645,1,8,0:0:0:0:
109,192,36720,1,8,0:0:0:0:
329,192,36795,1,8,0:0:0:0:
36,192,36870,128,0,38070:0:0:0:0:
182,192,36870,1,8,0:0:0:0:
475,192,36870,1,8,0:0:0:0:
182,192,37320,1,8,0:0:0:0:
475,192,37320,1,8,0:0:0:0:
475,192,37620,1,8,0:0:0:0:
182,192,37620,1,8,0:0:0:0:
402,192,37920,1,0,0:0:0:0:
329,192,37995,1,0,0:0:0:0:
475,192,38070,128,0,38370:0:0:0:0:
256,192,38070,1,0,0:0:0:0:
36,192,38220,1,8,0:0:0:0:
36,192,38370,128,8,38820:0:0:0:0:
256,192,38370,1,8,0:0:0:0:
182,192,38520,128,8,38970:0:0:0:0:
475,192,38520,1,8,0:0:0:0:
402,192,38670,1,0,0:0:0:0:
109,192,38670,1,0,0:0:0:0:
329,192,38820,1,0,0:0:0:0:
402,192,38895,1,0,0:0:0:0:
475,192,38970,1,8,0:0:0:0:
36,192,38970,1,8,0:0:0:0:
182,192,39070,1,8,0:0:0:0:
329,192,39070,1,8,0:0:0:0:
475,192,39170,1,8,0:0:0:0:
36,192,39170,1,8,0:0:0:0:
475,192,39270,128,0,39570:0:0:0:0:
109,192,39270,1,8,0:0:0:0:
402,192,39270,1,8,0:0:0:0:
256,192,39420,1,0,0:0:0:0:
109,192,39570,1,0,0:0:0:0:
36,192,39720,128,0,40020:0:0:0:0:
256,192,39720,1,8,0:0:0:0:
475,192,39720,1,8,0:0:0:0:
182,192,39870,1,0,0:0:0:0:
402,192,40020,128,0,40470:0:0:0:0:
256,192,40020,1,8,0:0:0:0:
109,192,40020,1,8,0:0:0:0:
36,192,40320,1,8,0:0:0:0:
256,192,40320,1,8,0:0:0:0:
109,192,40470,1,0,0:0:0:0:
36,192,40620,128,0,40920:0:0:0:0:
182,192,40620,1,8,0:0:0:0:
475,192,40620,1,8,0:0:0:0:
475,192,40920,128,0,41070:0:0:0:0:
256,192,40920,1,0,0:0:0:0:
402,192,41070,128,0,41220:0:0:0:0:
182,192,41070,1,0,0:0:0:0:
329,192,41220,128,0,41820:0:0:0:0:
109,192,41220,1,0,0:0:0:0:
36,192,41520,1,8,0:0:0:0:
475,192,41520,1,8,0:0:0:0:
36,192,41820,128,0,42270:0:0:0:0:
475,192,41820,1,0,0:0:0:0:
402,192,41970,1,0,0:0:0:0:
329,192,42120,1,0,0:0:0:0:
256,192,42270,1,8,0:0:0:0:
109,192,42270,1,0,0:0:0:0:
475,192,42420,128,0,43020:0:0:0:0:
36,192,42420,1,8,0:0:0:0:
329,192,42420,1,8,0:0:0:0:
109,192,42720,1,8,0:0:0:0:
256,192,42720,1,8,0:0:0:0:
256,192,42870,1,8,0:0:0:0:
109,192,42870,1,8,0:0:0:0:
36,192,43020,128,8,43470:0:0:0:0:
182,192,43020,1,8,0:0:0:0:
329,192,43170,1,8,0:0:0:0:
256,192,43320,1,8,0:0:0:0:
402,192,43470,1,8,0:0:0:0:
109,192,43470,1,8,0:0:0:0:
36,192,43620,1,8,0:0:0:0:
256,192,43620,1,0,0:0:0:0:
475,192,43620,1,8,0:0:0:0:
36,192,43770,1,8,0:0:0:0:
475,192,43770,1,8,0:0:0:0:
256,192,43770,1,0,0:0:0:0:
36,192,44070,1,0,0:0:0:0:
475,192,44070,1,0,0:0:0:0:
36,192,44220,128,2,44520:0:0:0:0:
329,192,44220,1,0,0:0:0:0:
182,192,44370,128,2,44520:0:0:0:0:
402,192,44370,1,0,0:0:0:0:
475,192,44520,128,10,44820:0:0:0:0:
329,192,44520,1,8,0:0:0:0:
329,192,44670,128,2,44820:0:0:0:0:
109,192,44670,1,0,0:0:0:0:
36,192,44820,128,8,45420:0:0:0:0:
182,192,44820,1,8,0:0:0:0:
475,192,45120,128,0,45420:0:0:0:0:
182,192,45120,1,8,0:0:0:0:
329,192,45120,1,8,0:0:0:0:
182,192,45420,128,0,45720:0:0:0:0:
256,192,45420,1,8,0:0:0:0:
402,192,45420,1,8,0:0:0:0:
329,192,45720,128,0,46470:0:0:0:0:
36,192,45720,1,0,0:0:0:0:
475,192,45720,1,0,0:0:0:0:
109,192,45870,1,0,0:0:0:0:
182,192,45945,1,0,0:0:0:0:
109,192,46020,1,0,0:0:0:0:
182,192,46095,1,0,0:0:0:0:
36,192,46170,128,0,46470:0:0:0:0:
475,192,46170,128,0,46470:0:0:0:0:
109,192,46170,1,0,0:0:0:0:
182,192,46470,1,8,0:0:0:0:
256,192,46470,1,0,0:0:0:0:
109,192,46620,128,2,46770:0:0:0:0:
256,192,46770,128,2,46920:0:0:0:0:
402,192,46920,128,10,47070:0:0:0:0:
36,192,46920,1,8,0:0:0:0:
475,192,46920,1,0,0:0:0:0:
182,192,47070,128,2,47220:0:0:0:0:
475,192,47220,128,2,47820:0:0:0:0:
329,192,47220,1,8,0:0:0:0:
36,192,47220,1,8,0:0:0:0:
36,192,47520,128,2,47820:0:0:0:0:
182,192,47520,1,0,0:0:0:0:
109,192,47670,128,2,47970:0:0:0:0:
256,192,47670,1,0,0:0:0:0:
182,192,47820,128,2,48270:0:0:0:0:
329,192,47820,1,0,0:0:0:0:
402,192,47820,1,0,0:0:0:0:
475,192,48120,128,0,48270:0:0:0:0:
329,192,48120,1,0,0:0:0:0:
256,192,48270,1,8,0:0:0:0:
36,192,48270,1,8,0:0:0:0:
475,192,48420,1,8,0:0:0:0:
36,192,48420,1,8,0:0:0:0:
256,192,48420,1,0,0:0:0:0:
36,192,48870,128,0,49320:0:0:0:0:
256,192,48870,1,8,0:0:0:0:
475,192,48870,1,8,0:0:0:0:
329,192,49170,1,0,0:0:0:0:
475,192,49320,128,2,49470:0:0:0:0:
256,192,49320,1,8,0:0:0:0:
182,192,49320,1,8,0:0:0:0:
402,192,49470,128,2,49620:0:0:0:0:
109,192,49470,1,0,0:0:0:0:
329,192,49620,128,2,50070:0:0:0:0:
36,192,49620,1,8,0:0:0:0:
182,192,49620,1,8,0:0:0:0:
36,192,49920,1,0,0:0:0:0:
109,192,49995,1,0,0:0:0:0:
182,192,50070,1,0,0:0:0:0:
36,192,50220,128,0,50820:0:0:0:0:
329,192,50220,1,8,0:0:0:0:
475,192,50220,1,8,0:0:0:0:
475,192,50520,128,2,50670:0:0:0:0:
256,192,50520,1,0,0:0:0:0:
329,192,50670,128,2,50820:0:0:0:0:
182,192,50670,1,0,0:0:0:0:
182,192,50820,128,10,52020:0:0:0:0:
475,192,50820,1,8,0:0:0:0:
329,192,51120,1,8,0:0:0:0:
475,192,51120,1,8,0:0:0:0:
329,192,51270,1,8,0:0:0:0:
475,192,51270,1,8,0:0:0:0:
256,192,51420,1,8,0:0:0:0:
402,192,51420,1,8,0:0:0:0:
256,192,51570,1,8,0:0:0:0:
402,192,51570,1,8,0:0:0:0:
36,192,51720,1,8,0:0:0:0:
329,192,51720,1,8,0:0:0:0:
36,192,51870,1,8,0:0:0:0:
329,192,51870,1,8,0:0:0:0:
475,192,52020,1,8,0:0:0:0:
36,192,52095,1,0,0:0:0:0:
402,192,52170,1,0,0:0:0:0:
109,192,52245,1,0,0:0:0:0:
329,192,52320,1,0,0:0:0:0:
182,192,52395,1,0,0:0:0:0:
402,192,52470,1,0,0:0:0:0:
109,192,52545,1,0,0:0:0:0:
475,192,52620,1,0,0:0:0:0:
36,192,52695,1,0,0:0:0:0:
329,192,52770,1,0,0:0:0:0:
182,192,52770,1,0,0:0:0:0:
36,192,52920,128,0,53370:0:0:0:0:
475,192,52920,128,0,53370:0:0:0:0:
182,192,52920,1,8,0:0:0:0:
329,192,52920,1,8,0:0:0:0:
182,192,53370,1,8,0:0:0:0:
402,192,53370,1,8,0:0:0:0:
182,192,53520,1,0,0:0:0:0:
109,192,53595,1,0,0:0:0:0:
402,192,53670,1,8,0:0:0:0:
36,192,53670,1,8,0:0:0:0:
329,192,53745,1,0,0:0:0:0:
256,192,53820,1,0,0:0:0:0:
182,192,53895,1,0,0:0:0:0:
36,192,53970,1,8,0:0:0:0:
475,192,53970,1,8,0:0:0:0:
109,192,54045,1,0,0:0:0:0:
182,192,54120,1,0,0:0:0:0:
36,192,54270,1,8,0:0:0:0:
402,192,54270,1,8,0:0:0:0:
109,192,54345,1,0,0:0:0:0:
182,192,54420,1,0,0:0:0:0:
475,192,54570,1,8,0:0:0:0:
36,192,54570,1,8,0:0:0:0:
109,192,54645,1,0,0:0:0:0:
329,192,54720,1,0,0:0:0:0:
256,192,54795,1,0,0:0:0:0:
36,192,54870,1,8,0:0:0:0:
475,192,54870,1,8,0:0:0:0:
109,192,54945,1,0,0:0:0:0:
329,192,55020,1,0,0:0:0:0:
256,192,55095,1,0,0:0:0:0:
109,192,55170,1,8,0:0:0:0:
475,192,55170,1,8,0:0:0:0:
182,192,55245,1,0,0:0:0:0:
402,192,55320,1,0,0:0:0:0:
329,192,55395,1,0,0:0:0:0:
182,192,55470,1,8,0:0:0:0:
36,192,55470,1,8,0:0:0:0:
256,192,55545,1,0,0:0:0:0:
475,192,55620,1,0,0:0:0:0:
402,192,55695,1,0,0:0:0:0:
36,192,55770,1,8,0:0:0:0:
329,192,55770,1,8,0:0:0:0:
109,192,55845,1,0,0:0:0:0:
182,192,55920,1,0,0:0:0:0:
475,192,55995,1,0,0:0:0:0:
329,192,56070,1,8,0:0:0:0:
36,192,56070,1,8,0:0:0:0:
109,192,56145,1,0,0:0:0:0:
182,192,56220,1,0,0:0:0:0:
475,192,56295,1,0,0:0:0:0:
329,192,56370,1,8,0:0:0:0:
36,192,56370,1,8,0:0:0:0:
109,192,56445,1,0,0:0:0:0:
182,192,56520,1,0,0:0:0:0:
475,192,56595,1,0,0:0:0:0:
109,192,56670,1,8,0:0:0:0:
329,192,56670,1,8,0:0:0:0:
182,192,56745,1,0,0:0:0:0:
256,192,56820,1,0,0:0:0:0:
329,192,56895,1,0,0:0:0:0:
36,192,56970,1,8,0:0:0:0:
402,192,56970,1,8,0:0:0:0:
256,192,57045,1,0,0:0:0:0:
109,192,57120,1,0,0:0:0:0:
329,192,57195,1,0,0:0:0:0:
36,192,57270,1,8,0:0:0:0:
182,192,57270,1,8,0:0:0:0:
402,192,57345,1,0,0:0:0:0:
256,192,57420,1,0,0:0:0:0:
475,192,57495,1,0,0:0:0:0:
36,192,57570,1,8,0:0:0:0:
329,192,57570,1,8,0:0:0:0:
36,192,57720,128,8,58020:0:0:0:0:
475,192,57720,128,8,58020:0:0:0:0:
329,192,58020,1,8,0:0:0:0:
182,192,58020,1,8,0:0:0:0:
36,192,58170,128,0,58320:0:0:0:0:
475,192,58170,128,0,58320:0:0:0:0:
182,192,58320,1,0,0:0:0:0:
256,192,58395,1,0,0:0:0:0:
329,192,58470,1,8,0:0:0:0:
475,192,58470,1,8,0:0:0:0:
256,192,58545,1,0,0:0:0:0:
182,192,58620,1,0,0:0:0:0:
109,192,58695,1,0,0:0:0:0:
182,192,58770,1,8,0:0:0:0:
402,192,58770,1,8,0:0:0:0:
329,192,58845,1,0,0:0:0:0:
256,192,58920,1,0,0:0:0:0:
329,192,58995,1,0,0:0:0:0:
36,192,59070,1,8,0:0:0:0:
182,192,59070,1,8,0:0:0:0:
256,192,59145,1,0,0:0:0:0:
329,192,59220,1,0,0:0:0:0:
256,192,59295,1,0,0:0:0:0:
109,192,59370,1,8,0:0:0:0:
475,192,59370,1,8,0:0:0:0:
402,192,59445,1,0,0:0:0:0:
329,192,59520,1,0,0:0:0:0:
256,192,59595,1,0,0:0:0:0:
402,192,59670,1,8,0:0:0:0:
36,192,59670,1,8,0:0:0:0:
329,192,59745,1,0,0:0:0:0:
256,192,59820,1,0,0:0:0:0:
182,192,59895,1,0,0:0:0:0:
36,192,59970,1,8,0:0:0:0:
402,192,59970,1,8,0:0:0:0:
109,192,60045,1,0,0:0:0:0:
182,192,60120,1,0,0:0:0:0:
256,192,60195,1,0,0:0:0:0:
475,192,60270,1,8,0:0:0:0:
109,192,60270,1,8,0:0:0:0:
182,192,60345,1,0,0:0:0:0:
256,192,60420,1,0,0:0:0:0:
329,192,60495,1,0,0:0:0:0:
36,192,60570,1,8,0:0:0:0:
475,192,60570,1,8,0:0:0:0:
402,192,60645,1,0,0:0:0:0:
329,192,60720,1,0,0:0:0:0:
256,192,60795,1,0,0:0:0:0:
36,192,60870,1,8,0:0:0:0:
182,192,60870,1,8,0:0:0:0:
182,192,60945,1,0,0:0:0:0:
475,192,61020,1,0,0:0:0:0:
329,192,61095,1,0,0:0:0:0:
329,192,61170,1,8,0:0:0:0:
36,192,61170,1,8,0:0:0:0:
182,192,61245,1,0,0:0:0:0:
329,192,61320,1,0,0:0:0:0:
475,192,61395,1,0,0:0:0:0:
256,192,61470,1,8,0:0:0:0:
36,192,61470,1,8,0:0:0:0:
402,192,61545,1,0,0:0:0:0:
182,192,61620,1,0,0:0:0:0:
329,192,61695,1,0,0:0:0:0:
36,192,61770,1,8,0:0:0:0:
475,192,61770,1,8,0:0:0:0:
182,192,61845,1,0,0:0:0:0:
36,192,61920,1,8,0:0:0:0:
475,192,61920,1,8,0:0:0:0:
329,192,61995,1,0,0:0:0:0:
36,192,62070,128,8,62370:0:0:0:0:
256,192,62070,128,8,62370:0:0:0:0:
475,192,62070,1,0,0:0:0:0:
402,192,62220,1,0,0:0:0:0:
109,192,62370,128,8,62670:0:0:0:0:
329,192,62370,128,8,62670:0:0:0:0:
475,192,62370,1,0,0:0:0:0:
475,192,62520,1,0,0:0:0:0:
182,192,62670,128,8,62970:0:0:0:0:
402,192,62670,128,8,62970:0:0:0:0:
36,192,62670,1,0,0:0:0:0:
475,192,62970,1,8,0:0:0:0:
36,192,62970,1,8,0:0:0:0:
329,192,63045,1,0,0:0:0:0:
402,192,63120,1,0,0:0:0:0:
256,192,63195,1,0,0:0:0:0:
329,192,63270,1,8,0:0:0:0:
36,192,63270,1,8,0:0:0:0:
182,192,63345,1,0,0:0:0:0:
256,192,63420,1,0,0:0:0:0:
109,192,63495,1,0,0:0:0:0:
182,192,63570,1,8,0:0:0:0:
475,192,63570,1,8,0:0:0:0:
36,192,63645,1,0,0:0:0:0:
256,192,63720,1,0,0:0:0:0:
109,192,63795,1,0,0:0:0:0:
329,192,63870,1,8,0:0:0:0:
475,192,63870,1,8,0:0:0:0:
182,192,63945,1,0,0:0:0:0:
402,192,64020,1,0,0:0:0:0:
256,192,64095,1,0,0:0:0:0:
475,192,64170,1,8,0:0:0:0:
36,192,64170,1,8,0:0:0:0:
109,192,64320,1,0,0:0:0:0:
402,192,64320,1,0,0:0:0:0:
182,192,64470,128,8,64770:0:0:0:0:
475,192,64470,128,8,64770:0:0:0:0:
36,192,64470,1,0,0:0:0:0:
329,192,64620,1,0,0:0:0:0:
109,192,64770,128,8,65070:0:0:0:0:
402,192,64770,128,8,65070:0:0:0:0:
36,192,64770,1,0,0:0:0:0:
256,192,64920,1,0,0:0:0:0:
36,192,65070,128,8,65370:0:0:0:0:
329,192,65070,128,8,65370:0:0:0:0:
475,192,65070,1,0,0:0:0:0:
182,192,65370,1,8,0:0:0:0:
475,192,65370,1,8,0:0:0:0:
402,192,65445,1,0,0:0:0:0:
329,192,65520,1,0,0:0:0:0:
256,192,65595,1,0,0:0:0:0:
475,192,65670,1,8,0:0:0:0:
36,192,65670,1,8,0:0:0:0:
402,192,65745,1,0,0:0:0:0:
329,192,65820,1,0,0:0:0:0:
256,192,65895,1,0,0:0:0:0:
36,192,65970,1,8,0:0:0:0:
475,192,65970,1,8,0:0:0:0:
109,192,66045,1,0,0:0:0:0:
182,192,66120,1,0,0:0:0:0:
256,192,66195,1,0,0:0:0:0:
36,192,66270,1,8,0:0:0:0:
402,192,66270,1,8,0:0:0:0:
109,192,66345,1,0,0:0:0:0:
182,192,66420,1,0,0:0:0:0:
256,192,66495,1,0,0:0:0:0:
475,192,66570,1,8,0:0:0:0:
36,192,66570,1,8,0:0:0:0:
475,192,66720,1,0,0:0:0:0:
36,192,66720,1,0,0:0:0:0:
109,192,66870,128,8,67170:0:0:0:0:
402,192,66870,128,8,67170:0:0:0:0:
182,192,66870,1,0,0:0:0:0:
256,192,67020,1,0,0:0:0:0:
36,192,67170,128,8,67470:0:0:0:0:
475,192,67170,128,8,67470:0:0:0:0:
329,192,67170,1,0,0:0:0:0:
182,192,67320,1,0,0:0:0:0:
109,192,67470,128,8,67770:0:0:0:0:
402,192,67470,128,8,67770:0:0:0:0:
256,192,67470,1,0,0:0:0:0:
256,192,67620,1,0,0:0:0:0:
475,192,67770,1,8,0:0:0:0:
256,192,67770,1,8,0:0:0:0:
182,192,67845,1,0,0:0:0:0:
109,192,67920,1,0,0:0:0:0:
182,192,67995,1,0,0:0:0:0:
256,192,68070,1,8,0:0:0:0:
402,192,68070,1,8,0:0:0:0:
329,192,68145,1,0,0:0:0:0:
475,192,68220,1,0,0:0:0:0:
402,192,68295,1,0,0:0:0:0:
182,192,68370,1,8,0:0:0:0:
329,192,68370,1,8,0:0:0:0:
256,192,68445,1,0,0:0:0:0:
402,192,68520,1,0,0:0:0:0:
329,192,68595,1,0,0:0:0:0:
109,192,68670,1,8,0:0:0:0:
256,192,68670,1,8,0:0:0:0:
182,192,68745,1,0,0:0:0:0:
329,192,68820,1,0,0:0:0:0:
256,192,68895,1,0,0:0:0:0:
182,192,68970,1,8,0:0:0:0:
36,192,68970,1,8,0:0:0:0:
109,192,69045,1,0,0:0:0:0:
182,192,69120,1,0,0:0:0:0:
256,192,69195,1,0,0:0:0:0:
109,192,69270,128,8,69570:0:0:0:0:
475,192,69270,128,8,69570:0:0:0:0:
329,192,69270,1,0,0:0:0:0:
182,192,69420,1,0,0:0:0:0:
402,192,69570,128,8,69870:0:0:0:0:
36,192,69570,128,8,69870:0:0:0:0:
329,192,69570,1,0,0:0:0:0:
256,192,69720,1,0,0:0:0:0:
329,192,69870,128,8,70170:0:0:0:0:
109,192,69870,128,8,70170:0:0:0:0:
182,192,69870,1,0,0:0:0:0:
475,192,70170,128,0,71370:0:0:0:0:
36,192,70170,1,8,0:0:0:0:
182,192,70170,1,8,0:0:0:0:
36,192,70320,1,8,0:0:0:0:
182,192,70320,1,8,0:0:0:0:
109,192,70470,1,8,0:0:0:0:
256,192,70470,1,8,0:0:0:0:
109,192,70620,1,8,0:0:0:0:
256,192,70620,1,8,0:0:0:0:
402,192,70770,1,0,0:0:0:0:
256,192,70845,1,0,0:0:0:0:
402,192,70920,1,0,0:0:0:0:
256,192,70995,1,0,0:0:0:0:
36,192,71070,128,0,71370:0:0:0:0:
402,192,71070,1,0,0:0:0:0:
329,192,71370,1,8,0:0:0:0:
182,192,71370,1,8,0:0:0:0:
36,192,71595,1,8,0:0:0:0:
256,192,71595,1,8,0:0:0:0:
475,192,71595,1,0,0:0:0:0:
475,192,71820,1,0,0:0:0:0:
36,192,71820,1,8,0:0:0:0:
182,192,71820,1,8,0:0:0:0:
402,192,71895,1,0,0:0:0:0:
329,192,71970,1,0,0:0:0:0:
256,192,72045,1,0,0:0:0:0:
182,192,72120,1,0,0:0:0:0:
109,192,72195,1,0,0:0:0:0:
36,192,72270,1,0,0:0:0:0:
402,192,72345,1,0,0:0:0:0:
329,192,72420,1,0,0:0:0:0:
256,192,72495,1,0,0:0:0:0:
329,192,72570,1,8,0:0:0:0:
182,192,72570,1,8,0:0:0:0:
475,192,72570,128,4,74370:0:0:0:0:
36,192,72570,128,0,74370:0:0:0:0:
36,192,74595,1,0,0:0:0:0:
475,192,74595,1,0,0:0:0:0:
36,192,74670,1,0,0:0:0:0:
475,192,74670,1,0,0:0:0:0:
475,192,74820,1,0,0:0:0:0:
256,192,74820,1,0,0:0:0:0:
36,192,74820,128,0,76170:0:0:0:0:
475,192,76170,128,0,76770:0:0:0:0:
182,192,76170,1,0,0:0:0:0:
329,192,76320,1,0,0:0:0:0:
109,192,76470,1,0,0:0:0:0:
256,192,76620,1,0,0:0:0:0:
36,192,76770,1,0,0:0:0:0:
182,192,76920,1,0,0:0:0:0:
36,192,77070,1,0,0:0:0:0:
109,192,77145,1,0,0:0:0:0:
256,192,77220,1,0,0:0:0:0:
402,192,77295,1,0,0:0:0:0:
36,192,77370,1,0,0:0:0:0:
475,192,77370,1,0,0:0:0:0:
182,192,77370,128,0,77970:0:0:0:0:
329,192,77520,1,0,0:0:0:0:
475,192,77670,1,0,0:0:0:0:
329,192,77820,1,0,0:0:0:0:
475,192,77970,128,0,78420:0:0:0:0:
36,192,77970,1,0,0:0:0:0:
182,192,78120,1,0,0:0:0:0:
329,192,78270,1,0,0:0:0:0:
36,192,78420,128,0,78870:0:0:0:0:
182,192,78420,1,0,0:0:0:0:
475,192,78570,1,0,0:0:0:0:
329,192,78720,1,0,0:0:0:0:
182,192,78870,1,0,0:0:0:0:
475,192,79020,128,0,79320:0:0:0:0:
329,192,79020,1,0,0:0:0:0:
182,192,79170,1,0,0:0:0:0:
36,192,79320,128,0,79620:0:0:0:0:
329,192,79320,1,0,0:0:0:0:
475,192,79470,128,0,79620:0:0:0:0:
182,192,79470,1,0,0:0:0:0:
109,192,79620,128,0,80220:0:0:0:0:
329,192,79620,1,0,0:0:0:0:
475,192,79770,1,0,0:0:0:0:
256,192,79920,1,0,0:0:0:0:
402,192,80070,1,0,0:0:0:0:
475,192,80220,128,0,80670:0:0:0:0:
182,192,80220,1,0,0:0:0:0:
329,192,80370,1,0,0:0:0:0:
109,192,80520,1,0,0:0:0:0:
36,192,80670,128,0,80820:0:0:0:0:
256,192,80670,1,0,0:0:0:0:
402,192,80820,128,0,81420:0:0:0:0:
182,192,80820,1,0,0:0:0:0:
109,192,80970,1,0,0:0:0:0:
182,192,81120,1,0,0:0:0:0:
329,192,81270,1,0,0:0:0:0:
36,192,81420,128,0,82170:0:0:0:0:
256,192,81420,1,0,0:0:0:0:
182,192,81570,1,0,0:0:0:0:
329,192,81720,1,0,0:0:0:0:
475,192,81870,128,8,82170:0:0:0:0:
256,192,81870,1,8,0:0:0:0:
109,192,82170,1,8,0:0:0:0:
402,192,82170,1,8,0:0:0:0:
256,192,82245,1,0,0:0:0:0:
329,192,82320,1,0,0:0:0:0:
402,192,82395,1,0,0:0:0:0:
475,192,82470,1,0,0:0:0:0:
402,192,82545,1,0,0:0:0:0:
329,192,82620,1,0,0:0:0:0:
256,192,82695,1,0,0:0:0:0:
182,192,82770,1,0,0:0:0:0:
109,192,82845,1,0,0:0:0:0:
36,192,82920,1,0,0:0:0:0:
109,192,82995,1,0,0:0:0:0:
182,192,83070,1,0,0:0:0:0:
256,192,83145,1,0,0:0:0:0:
329,192,83220,1,0,0:0:0:0:
402,192,83295,1,0,0:0:0:0:
475,192,83370,1,0,0:0:0:0:
36,192,83370,1,0,0:0:0:0:
109,192,83445,1,0,0:0:0:0:
182,192,83520,1,0,0:0:0:0:
256,192,83595,1,0,0:0:0:0:
402,192,83670,1,0,0:0:0:0:
329,192,83745,1,0,0:0:0:0:
256,192,83820,1,0,0:0:0:0:
182,192,83895,1,0,0:0:0:0:
109,192,83970,1,0,0:0:0:0:
182,192,84045,1,0,0:0:0:0:
36,192,84120,1,8,0:0:0:0:
256,192,84120,1,8,0:0:0:0:
475,192,84120,1,0,0:0:0:0:
36,192,84270,1,8,0:0:0:0:
256,192,84270,1,8,0:0:0:0:
475,192,84270,1,0,0:0:0:0:
36,192,84420,1,8,0:0:0:0:
256,192,84420,1,8,0:0:0:0:
475,192,84420,1,0,0:0:0:0:
402,192,84495,1,0,0:0:0:0:
329,192,84570,1,0,0:0:0:0:
256,192,84645,1,0,0:0:0:0:
182,192,84720,1,0,0:0:0:0:
109,192,84795,1,0,0:0:0:0:
36,192,84870,1,0,0:0:0:0:
109,192,84945,1,0,0:0:0:0:
182,192,85020,1,0,0:0:0:0:
256,192,85095,1,0,0:0:0:0:
329,192,85170,1,0,0:0:0:0:
109,192,85170,1,0,0:0:0:0:
182,192,85245,1,0,0:0:0:0:
256,192,85320,1,0,0:0:0:0:
329,192,85395,1,0,0:0:0:0:
402,192,85470,1,0,0:0:0:0:
329,192,85545,1,0,0:0:0:0:
256,192,85620,1,0,0:0:0:0:
182,192,85695,1,0,0:0:0:0:
109,192,85770,1,0,0:0:0:0:
182,192,85845,1,0,0:0:0:0:
256,192,85920,1,0,0:0:0:0:
329,192,85995,1,0,0:0:0:0:
402,192,86070,1,0,0:0:0:0:
475,192,86145,1,0,0:0:0:0:
402,192,86220,1,0,0:0:0:0:
329,192,86295,1,0,0:0:0:0:
256,192,86370,1,0,0:0:0:0:
36,192,86370,128,0,86670:0:0:0:0:
182,192,86370,1,0,0:0:0:0:
109,192,86520,1,0,0:0:0:0:
475,192,86670,1,8,0:0:0:0:
329,192,86670,1,0,0:0:0:0:
402,192,86745,1,8,0:0:0:0:
256,192,86745,1,0,0:0:0:0:
329,192,86820,1,8,0:0:0:0:
182,192,86820,1,0,0:0:0:0:
256,192,86895,1,8,0:0:0:0:
109,192,86895,1,0,0:0:0:0:
182,192,86970,1,8,0:0:0:0:
36,192,86970,1,8,0:0:0:0:
475,192,86970,128,0,87270:0:0:0:0:
109,192,87120,1,0,0:0:0:0:
182,192,87270,1,0,0:0:0:0:
402,192,87420,128,0,87720:0:0:0:0:
256,192,87420,1,8,0:0:0:0:
36,192,87420,1,8,0:0:0:0:
109,192,87570,1,0,0:0:0:0:
182,192,87720,1,0,0:0:0:0:
256,192,87870,1,8,0:0:0:0:
475,192,87870,1,8,0:0:0:0:
36,192,88020,128,0,88470:0:0:0:0:
329,192,88020,1,0,0:0:0:0:
182,192,88170,1,0,0:0:0:0:
329,192,88320,1,8,0:0:0:0:
475,192,88320,1,8,0:0:0:0:
182,192,88470,1,0,0:0:0:0:
475,192,88620,128,0,89070:0:0:0:0:
256,192,88620,1,0,0:0:0:0:
36,192,88770,1,8,0:0:0:0:
402,192,88770,1,0,0:0:0:0:
182,192,88920,1,0,0:0:0:0:
109,192,89070,1,8,0:0:0:0:
329,192,89070,1,8,0:0:0:0:
256,192,89220,1,0,0:0:0:0:
36,192,89370,128,8,89520:0:0:0:0:
475,192,89370,1,8,0:0:0:0:
182,192,89520,128,8,89670:0:0:0:0:
402,192,89520,1,8,0:0:0:0:
109,192,89670,128,8,89820:0:0:0:0:
475,192,89670,1,8,0:0:0:0:
256,192,89820,128,8,89970:0:0:0:0:
402,192,89820,1,8,0:0:0:0:
182,192,89970,128,8,90120:0:0:0:0:
36,192,89970,1,8,0:0:0:0:
329,192,90120,128,8,90270:0:0:0:0:
475,192,90120,1,8,0:0:0:0:
256,192,90270,128,8,90420:0:0:0:0:
36,192,90270,1,8,0:0:0:0:
402,192,90420,128,8,90570:0:0:0:0:
475,192,90420,1,8,0:0:0:0:
109,192,90570,128,8,90720:0:0:0:0:
36,192,90570,1,8,0:0:0:0:
256,192,90720,128,8,90870:0:0:0:0:
402,192,90720,1,8,0:0:0:0:
475,192,90870,128,8,91020:0:0:0:0:
36,192,90870,1,8,0:0:0:0:
329,192,91020,128,8,91170:0:0:0:0:
182,192,91020,1,0,0:0:0:0:
36,192,91170,128,8,91320:0:0:0:0:
475,192,91170,1,8,0:0:0:0:
475,192,91320,128,8,91770:0:0:0:0:
329,192,91320,1,8,0:0:0:0:
36,192,91470,1,0,0:0:0:0:
109,192,91545,1,0,0:0:0:0:
182,192,91620,1,0,0:0:0:0:
256,192,91695,1,0,0:0:0:0:
329,192,91770,1,0,0:0:0:0:
109,192,91845,1,0,0:0:0:0:
329,192,91920,1,0,0:0:0:0:
109,192,91995,1,0,0:0:0:0:
329,192,92070,1,0,0:0:0:0:
109,192,92145,1,0,0:0:0:0:
329,192,92220,1,0,0:0:0:0:
109,192,92295,1,0,0:0:0:0:
402,192,92370,1,0,0:0:0:0:
182,192,92445,1,0,0:0:0:0:
402,192,92520,1,0,0:0:0:0:
182,192,92595,1,0,0:0:0:0:
402,192,92670,1,0,0:0:0:0:
182,192,92745,1,0,0:0:0:0:
402,192,92820,1,0,0:0:0:0:
182,192,92895,1,0,0:0:0:0:
256,192,92970,128,0,93570:0:0:0:0:
402,192,92970,1,0,0:0:0:0:
109,192,92970,1,0,0:0:0:0:
36,192,93270,128,0,93570:0:0:0:0:
475,192,93270,128,0,93570:0:0:0:0:
182,192,93570,1,0,0:0:0:0:
36,192,93720,128,0,93870:0:0:0:0:
329,192,93720,1,0,0:0:0:0:
475,192,93870,128,0,94020:0:0:0:0:
182,192,93870,1,0,0:0:0:0:
109,192,94020,128,0,94170:0:0:0:0:
329,192,94020,1,0,0:0:0:0:
475,192,94170,1,0,0:0:0:0:
36,192,94170,1,0,0:0:0:0:
256,192,94320,1,0,0:0:0:0:
329,192,94395,1,0,0:0:0:0:
402,192,94470,1,0,0:0:0:0:
182,192,94620,1,0,0:0:0:0:
36,192,94770,1,8,0:0:0:0:
475,192,94770,1,8,0:0:0:0:
36,192,94920,128,8,95220:0:0:0:0:
475,192,94920,128,8,95220:0:0:0:0:
182,192,95220,1,8,0:0:0:0:
329,192,95220,1,8,0:0:0:0:
475,192,95370,128,0,95820:0:0:0:0:
36,192,95520,1,0,0:0:0:0:
109,192,95670,1,0,0:0:0:0:
182,192,95820,1,8,0:0:0:0:
329,192,95820,1,8,0:0:0:0:
36,192,96120,128,0,96270:0:0:0:0:
475,192,96120,1,8,0:0:0:0:
329,192,96120,1,8,0:0:0:0:
109,192,96270,128,0,96420:0:0:0:0:
329,192,96270,1,8,0:0:0:0:
182,192,96420,128,0,96570:0:0:0:0:
475,192,96420,1,8,0:0:0:0:
475,192,96570,1,8,0:0:0:0:
36,192,96570,1,8,0:0:0:0:
182,192,96720,1,0,0:0:0:0:
256,192,96795,1,0,0:0:0:0:
329,192,96870,1,0,0:0:0:0:
36,192,97020,1,0,0:0:0:0:
475,192,97170,128,0,97620:0:0:0:0:
256,192,97170,1,0,0:0:0:0:
36,192,97170,1,0,0:0:0:0:
36,192,97620,128,0,97920:0:0:0:0:
402,192,97620,1,0,0:0:0:0:
256,192,97620,1,0,0:0:0:0:
402,192,97920,1,0,0:0:0:0:
329,192,97995,1,0,0:0:0:0:
256,192,98070,1,0,0:0:0:0:
182,192,98145,1,0,0:0:0:0:
109,192,98220,1,0,0:0:0:0:
475,192,98220,128,0,98670:0:0:0:0:
402,192,98520,1,0,0:0:0:0:
329,192,98595,1,0,0:0:0:0:
256,192,98670,1,0,0:0:0:0:
109,192,98670,128,0,98970:0:0:0:0:
36,192,98670,1,0,0:0:0:0:
402,192,98970,128,0,99270:0:0:0:0:
182,192,98970,1,8,0:0:0:0:
329,192,98970,1,8,0:0:0:0:
256,192,99120,1,0,0:0:0:0:
182,192,99270,1,0,0:0:0:0:
329,192,99420,128,0,99720:0:0:0:0:
36,192,99420,1,8,0:0:0:0:
475,192,99420,1,8,0:0:0:0:
109,192,99570,1,0,0:0:0:0:
182,192,99720,1,0,0:0:0:0:
256,192,99870,128,0,100170:0:0:0:0:
36,192,99870,1,8,0:0:0:0:
475,192,99870,1,8,0:0:0:0:
36,192,100320,128,0,100470:0:0:0:0:
475,192,100320,1,0,0:0:0:0:
402,192,100395,1,0,0:0:0:0:
182,192,100470,128,0,100620:0:0:0:0:
329,192,100470,1,0,0:0:0:0:
329,192,100620,128,0,100920:0:0:0:0:
475,192,100620,1,8,0:0:0:0:
36,192,100620,1,8,0:0:0:0:
109,192,100920,128,0,101070:0:0:0:0:
475,192,100920,1,0,0:0:0:0:
256,192,101070,1,0,0:0:0:0:
402,192,101145,1,0,0:0:0:0:
256,192,101220,1,0,0:0:0:0:
402,192,101295,1,0,0:0:0:0:
36,192,101370,1,8,0:0:0:0:
182,192,101370,1,8,0:0:0:0:
109,192,101570,1,8,0:0:0:0:
256,192,101570,1,8,0:0:0:0:
182,192,101770,1,8,0:0:0:0:
329,192,101770,1,8,0:0:0:0:
256,192,101970,1,8,0:0:0:0:
402,192,101970,1,8,0:0:0:0:
329,192,102170,1,8,0:0:0:0:
475,192,102170,1,8,0:0:0:0:
256,192,102370,1,8,0:0:0:0:
402,192,102370,1,8,0:0:0:0:
182,192,102570,1,8,0:0:0:0:
329,192,102570,1,8,0:0:0:0:
402,192,102645,1,0,0:0:0:0:
109,192,102720,1,0,0:0:0:0:
182,192,102795,1,0,0:0:0:0:
256,192,102870,1,0,0:0:0:0:
36,192,102870,1,0,0:0:0:0:
475,192,103020,1,0,0:0:0:0:
402,192,103095,1,0,0:0:0:0:
329,192,103170,1,0,0:0:0:0:
36,192,103170,128,0,103770:0:0:0:0:
182,192,103470,1,0,0:0:0:0:
329,192,103545,1,0,0:0:0:0:
256,192,103620,1,0,0:0:0:0:
402,192,103695,1,0,0:0:0:0:
329,192,103770,1,0,0:0:0:0:
475,192,104070,128,0,104370:0:0:0:0:
182,192,104070,1,8,0:0:0:0:
36,192,104070,1,8,0:0:0:0:
329,192,104370,1,0,0:0:0:0:
36,192,104520,128,8,104820:0:0:0:0:
182,192,104520,128,8,104820:0:0:0:0:
329,192,104520,1,0,0:0:0:0:
475,192,104820,128,8,105420:0:0:0:0:
329,192,104820,1,8,0:0:0:0:
36,192,105120,1,8,0:0:0:0:
109,192,105195,1,8,0:0:0:0:
182,192,105270,1,8,0:0:0:0:
36,192,105420,128,0,106170:0:0:0:0:
109,192,105420,1,8,0:0:0:0:
402,192,105420,128,8,105570:0:0:0:0:
329,192,105570,128,8,105720:0:0:0:0:
475,192,105720,128,0,105870:0:0:0:0:
256,192,105720,1,0,0:0:0:0:
402,192,105870,128,8,106020:0:0:0:0:
182,192,105870,1,8,0:0:0:0:
329,192,106020,128,0,106170:0:0:0:0:
109,192,106020,1,0,0:0:0:0:
475,192,106170,128,8,106470:0:0:0:0:
182,192,106170,1,8,0:0:0:0:
402,192,106320,1,0,0:0:0:0:
329,192,106395,1,0,0:0:0:0:
256,192,106470,1,0,0:0:0:0:
36,192,106620,128,8,106920:0:0:0:0:
402,192,106620,1,8,0:0:0:0:
475,192,106920,128,8,107220:0:0:0:0:
256,192,106920,1,8,0:0:0:0:
109,192,107220,128,0,107670:0:0:0:0:
256,192,107220,1,0,0:0:0:0:
329,192,107295,1,0,0:0:0:0:
402,192,107370,1,0,0:0:0:0:
256,192,107445,1,0,0:0:0:0:
329,192,107520,1,0,0:0:0:0:
36,192,107670,1,0,0:0:0:0:
475,192,107670,1,0,0:0:0:0:
109,192,107745,1,0,0:0:0:0:
402,192,107820,128,0,108270:0:0:0:0:
182,192,107820,1,0,0:0:0:0:
109,192,108120,1,2,0:0:0:0:
182,192,108170,1,2,0:0:0:0:
256,192,108220,1,2,0:0:0:0:
36,192,108270,128,0,108570:0:0:0:0:
329,192,108270,1,2,0:0:0:0:
475,192,108570,128,8,108870:0:0:0:0:
256,192,108570,128,8,108870:0:0:0:0:
109,192,108570,1,0,0:0:0:0:
402,192,109020,128,8,109320:0:0:0:0:
182,192,109020,128,8,109320:0:0:0:0:
36,192,109020,1,0,0:0:0:0:
329,192,109470,128,0,110070:0:0:0:0:
475,192,109470,1,8,0:0:0:0:
182,192,109620,1,0,0:0:0:0:
109,192,109770,1,0,0:0:0:0:
36,192,109920,128,0,110070:0:0:0:0:
109,192,110070,1,0,0:0:0:0:
402,192,110070,1,0,0:0:0:0:
475,192,110370,1,0,0:0:0:0:
36,192,110370,1,8,0:0:0:0:
256,192,110370,1,8,0:0:0:0:
36,192,110595,1,8,0:0:0:0:
256,192,110595,1,8,0:0:0:0:
475,192,110595,1,0,0:0:0:0:
402,192,110820,1,8,0:0:0:0:
109,192,110820,1,8,0:0:0:0:
36,192,110970,1,8,0:0:0:0:
475,192,110970,1,8,0:0:0:0:
182,192,111120,1,0,0:0:0:0:
109,192,111270,1,8,0:0:0:0:
402,192,111270,1,8,0:0:0:0:
329,192,111420,1,0,0:0:0:0:
256,192,111570,1,8,0:0:0:0:
475,192,111570,1,8,0:0:0:0:
36,192,111720,1,0,0:0:0:0:
109,192,111870,1,8,0:0:0:0:
329,192,111870,1,8,0:0:0:0:
256,192,112020,1,0,0:0:0:0:
475,192,112170,1,8,0:0:0:0:
182,192,112170,1,8,0:0:0:0:
402,192,112245,1,0,0:0:0:0:
329,192,112320,1,0,0:0:0:0:
256,192,112395,1,0,0:0:0:0:
36,192,112470,1,8,0:0:0:0:
475,192,112470,1,8,0:0:0:0:
109,192,112545,1,0,0:0:0:0:
182,192,112620,1,0,0:0:0:0:
256,192,112695,1,0,0:0:0:0:
475,192,112770,128,8,113220:0:0:0:0:
36,192,112770,128,8,113220:0:0:0:0:
329,192,112770,1,0,0:0:0:0:
182,192,113220,1,0,0:0:0:0:
402,192,113295,1,0,0:0:0:0:
182,192,113370,1,0,0:0:0:0:
402,192,113445,1,0,0:0:0:0:
109,192,113520,1,0,0:0:0:0:
329,192,113595,1,0,0:0:0:0:
109,192,113670,1,0,0:0:0:0:
329,192,113745,1,0,0:0:0:0:
36,192,113820,1,0,0:0:0:0:
256,192,113895,1,0,0:0:0:0:
36,192,113970,1,0,0:0:0:0:
256,192,114045,1,0,0:0:0:0:
109,192,114120,1,0,0:0:0:0:
329,192,114195,1,0,0:0:0:0:
182,192,114270,1,0,0:0:0:0:
402,192,114345,1,0,0:0:0:0:
256,192,114420,1,0,0:0:0:0:
475,192,114495,1,0,0:0:0:0:
329,192,114570,1,0,0:0:0:0:
475,192,114720,128,0,115170:0:0:0:0:
36,192,114720,128,0,115170:0:0:0:0:
182,192,114720,1,0,0:0:0:0:
182,192,115170,1,8,0:0:0:0:
329,192,115170,1,8,0:0:0:0:
256,192,115170,1,0,0:0:0:0:
36,192,115395,1,8,0:0:0:0:
475,192,115395,1,0,0:0:0:0:
256,192,115395,1,8,0:0:0:0:
36,192,115620,1,8,0:0:0:0:
256,192,115620,1,8,0:0:0:0:
475,192,115620,1,0,0:0:0:0:
402,192,116070,128,0,118470:0:0:0:0:
109,192,116070,128,4,118470:0:0:0:0:
256,192,116070,1,0,0:0:0:0:
