osu file format v13

[General]
AudioFilename: SDVX II Fiat Lux [EXH].mp3
AudioLeadIn: 0
PreviewTime: 53370
Countdown: 0
SampleSet: Soft
StackLeniency: 0.7
Mode: 3
LetterboxInBreaks: 0
SpecialStyle: 0
WidescreenStoryboard: 1

[Editor]
DistanceSpacing: 0.8
BeatDivisor: 4
GridSize: 8
TimelineZoom: 2.050001

[Metadata]
Title:Fiat Lux
TitleUnicode:Fiat Lux
Artist:xi
ArtistUnicode:xi
Creator:Remillion Cross
Version:BASIC
Source:SOUND VOLTEX II -infinite infection-
Tags:trance arcade bemani konami beatmania rasis sdvx booth fantasy lux
BeatmapID:412184
BeatmapSetID:170223

[Difficulty]
HPDrainRate:5
CircleSize:7
OverallDifficulty:5.1
ApproachRate:9
SliderMultiplier:1.4
SliderTickRate:1

[Events]
//Background and Video events
0,0,"BG.jpg",0,0
//Break Periods
//Storyboard Layer 0 (Background)
//Storyboard Layer 1 (Fail)
//Storyboard Layer 2 (Pass)
//Storyboard Layer 3 (Foreground)
//Storyboard Sound Samples
//Background Colour Transformations
3,100,163,162,255

[TimingPoints]
570,300,4,2,1,65,1,0
94170,-100,4,2,1,65,0,1
103770,-100,4,2,1,65,0,0
104070,-100,4,2,1,65,0,1
116070,-100,4,2,1,65,0,0

[HitObjects]
475,192,570,128,0,1770:0:0:0:0:
36,192,570,1,4,0:0:0:0:
256,192,1770,128,2,2970:0:0:0:0:
36,192,2970,128,2,3570:0:0:0:0:
329,192,3570,1,2,0:0:0:0:
475,192,4170,128,2,4770:0:0:0:0:
182,192,4770,1,2,0:0:0:0:
256,192,5070,128,0,5370:0:0:0:0:
475,192,5370,1,8,0:0:0:0:
36,192,5370,1,0,0:0:0:0:
109,192,5670,1,8,0:0:0:0:
329,192,5970,1,8,0:0:0:0:
182,192,6270,1,8,0:0:0:0:
475,192,6570,1,8,0:0:0:0:
36,192,6570,1,0,0:0:0:0:
329,192,6870,1,8,0:0:0:0:
475,192,7170,1,0,0:0:0:0:
36,192,7170,1,0,0:0:0:0:
256,192,7470,1,8,0:0:0:0:
36,192,7770,1,0,0:0:0:0:
475,192,7770,1,8,0:0:0:0:
329,192,8070,1,8,0:0:0:0:
36,192,8370,1,8,0:0:0:0:
475,192,8370,1,8,0:0:0:0:
182,192,8670,1,8,0:0:0:0:
475,192,8970,1,8,0:0:0:0:
36,192,8970,1,0,0:0:0:0:
256,192,9270,1,8,0:0:0:0:
182,192,9570,128,2,9720:0:0:0:0:
329,192,9570,128,2,9720:0:0:0:0:
182,192,9870,128,2,10020:0:0:0:0:
329,192,9870,128,2,10020:0:0:0:0:
256,192,10170,128,0,11370:0:0:0:0:
36,192,10170,1,0,0:0:0:0:
475,192,10170,1,0,0:0:0:0:
36,192,11370,128,0,11970:0:0:0:0:
182,192,11970,1,8,0:0:0:0:
329,192,12120,1,8,0:0:0:0:
36,192,12120,1,8,0:0:0:0:
182,192,12570,1,8,0:0:0:0:
475,192,12570,1,8,0:0:0:0:
109,192,12870,1,8,0:0:0:0:
402,192,13170,1,0,0:0:0:0:
182,192,13320,1,8,0:0:0:0:
36,192,13620,1,8,0:0:0:0:
329,192,13620,1,8,0:0:0:0:
36,192,13920,1,0,0:0:0:0:
256,192,14070,1,0,0:0:0:0:
475,192,14220,1,0,0:0:0:0:
475,192,14520,1,8,0:0:0:0:
329,192,14670,1,8,0:0:0:0:
182,192,14820,1,0,0:0:0:0:
36,192,14970,1,8,0:0:0:0:
475,192,14970,128,0,15420:0:0:0:0:
36,192,15420,1,8,0:0:0:0:
256,192,15420,1,8,0:0:0:0:
109,192,15720,1,8,0:0:0:0:
402,192,15720,1,8,0:0:0:0:
256,192,16020,1,8,0:0:0:0:
475,192,16020,1,8,0:0:0:0:
109,192,16320,1,8,0:0:0:0:
329,192,16470,1,8,0:0:0:0:
182,192,16620,1,8,0:0:0:0:
475,192,16620,128,0,16920:0:0:0:0:
256,192,16920,1,8,0:0:0:0:
109,192,17070,128,8,17370:0:0:0:0:
402,192,17370,1,8,0:0:0:0:
36,192,17370,1,8,0:0:0:0:
182,192,17820,1,8,0:0:0:0:
329,192,17820,1,8,0:0:0:0:
329,192,18120,1,0,0:0:0:0:
109,192,18270,1,8,0:0:0:0:
475,192,18270,1,8,0:0:0:0:
329,192,18720,1,8,0:0:0:0:
402,192,18870,1,8,0:0:0:0:
475,192,19020,1,0,0:0:0:0:
36,192,19020,1,0,0:0:0:0:
475,192,19320,1,0,0:0:0:0:
109,192,19470,128,0,19770:0:0:0:0:
402,192,19770,1,8,0:0:0:0:
256,192,19770,1,0,0:0:0:0:
36,192,20070,1,0,0:0:0:0:
475,192,20220,1,2,0:0:0:0:
256,192,20370,1,8,0:0:0:0:
109,192,20520,1,2,0:0:0:0:
329,192,20670,1,8,0:0:0:0:
475,192,20670,1,0,0:0:0:0:
36,192,21120,1,2,0:0:0:0:
256,192,21270,1,2,0:0:0:0:
475,192,21420,1,2,0:0:0:0:
182,192,21570,1,0,0:0:0:0:
402,192,21720,1,2,0:0:0:0:
109,192,21870,1,2,0:0:0:0:
402,192,21870,1,0,0:0:0:0:
36,192,22170,1,8,0:0:0:0:
475,192,22170,1,8,0:0:0:0:
256,192,22170,128,0,22470:0:0:0:0:
109,192,22470,1,8,0:0:0:0:
182,192,22770,1,8,0:0:0:0:
475,192,22770,1,0,0:0:0:0:
36,192,22920,1,8,0:0:0:0:
329,192,22920,1,0,0:0:0:0:
475,192,23220,128,8,23670:0:0:0:0:
256,192,23670,1,8,0:0:0:0:
36,192,23820,1,8,0:0:0:0:
329,192,24120,1,0,0:0:0:0:
475,192,24270,1,8,0:0:0:0:
329,192,24420,1,0,0:0:0:0:
182,192,24570,1,8,0:0:0:0:
36,192,24570,1,0,0:0:0:0:
256,192,24870,1,0,0:0:0:0:
36,192,25020,1,0,0:0:0:0:
475,192,25020,1,0,0:0:0:0:
402,192,25320,1,8,0:0:0:0:
36,192,25320,1,0,0:0:0:0:
475,192,25620,1,8,0:0:0:0:
36,192,25620,128,0,26070:0:0:0:0:
402,192,26070,1,8,0:0:0:0:
182,192,26220,1,8,0:0:0:0:
36,192,26220,1,0,0:0:0:0:
109,192,26520,1,8,0:0:0:0:
329,192,26670,1,8,0:0:0:0:
36,192,26970,1,8,0:0:0:0:
475,192,26970,1,8,0:0:0:0:
109,192,27420,1,8,0:0:0:0:
402,192,27420,1,8,0:0:0:0:
182,192,27870,1,8,0:0:0:0:
329,192,27870,1,8,0:0:0:0:
329,192,28320,1,0,0:0:0:0:
109,192,28470,1,0,0:0:0:0:
402,192,28770,1,8,0:0:0:0:
256,192,28995,1,8,0:0:0:0:
109,192,29220,1,8,0:0:0:0:
402,192,29370,1,8,0:0:0:0:
402,192,29670,1,8,0:0:0:0:
109,192,29970,1,8,0:0:0:0:
109,192,30270,1,8,0:0:0:0:
329,192,30570,128,8,30870:0:0:0:0:
475,192,30870,128,8,31170:0:0:0:0:
182,192,31170,1,8,0:0:0:0:
182,192,31470,1,8,0:0:0:0:
475,192,31620,128,0,32970:0:0:0:0:
36,192,32970,128,0,34020:0:0:0:0:
475,192,33570,128,0,34020:0:0:0:0:
182,192,34170,1,8,0:0:0:0:
329,192,34170,1,8,0:0:0:0:
109,192,34470,1,8,0:0:0:0:
402,192,34620,1,8,0:0:0:0:
36,192,34920,1,8,0:0:0:0:
329,192,34920,1,8,0:0:0:0:
402,192,35220,1,8,0:0:0:0:
109,192,35220,1,8,0:0:0:0:
36,192,35520,1,2,0:0:0:0:
256,192,35670,1,2,0:0:0:0:
109,192,35820,128,2,36120:0:0:0:0:
475,192,36120,1,2,0:0:0:0:
329,192,36270,1,2,0:0:0:0:
182,192,36420,128,2,36870:0:0:0:0:
475,192,36870,128,8,38070:0:0:0:0:
36,192,37320,1,8,0:0:0:0:
256,192,37320,1,8,0:0:0:0:
36,192,37620,1,8,0:0:0:0:
256,192,37620,1,8,0:0:0:0:
36,192,38070,1,0,0:0:0:0:
182,192,38370,1,8,0:0:0:0:
329,192,38520,1,8,0:0:0:0:
256,192,38820,128,0,39270:0:0:0:0:
36,192,39270,1,0,0:0:0:0:
475,192,39270,1,0,0:0:0:0:
256,192,39720,1,0,0:0:0:0:
475,192,39870,1,8,0:0:0:0:
329,192,40020,128,8,40320:0:0:0:0:
36,192,40470,1,8,0:0:0:0:
182,192,40620,128,8,40920:0:0:0:0:
402,192,40920,1,0,0:0:0:0:
256,192,41070,1,8,0:0:0:0:
36,192,41220,128,8,41820:0:0:0:0:
329,192,41520,1,8,0:0:0:0:
475,192,41820,128,0,42270:0:0:0:0:
109,192,42270,1,0,0:0:0:0:
182,192,42420,1,8,0:0:0:0:
329,192,42420,1,8,0:0:0:0:
256,192,42720,1,8,0:0:0:0:
329,192,42870,1,8,0:0:0:0:
475,192,42870,1,8,0:0:0:0:
36,192,43020,1,8,0:0:0:0:
475,192,43320,1,8,0:0:0:0:
329,192,43320,1,0,0:0:0:0:
182,192,43470,1,8,0:0:0:0:
36,192,43620,1,8,0:0:0:0:
329,192,43770,1,8,0:0:0:0:
475,192,43770,1,0,0:0:0:0:
256,192,44070,1,0,0:0:0:0:
402,192,44220,1,2,0:0:0:0:
36,192,44370,1,2,0:0:0:0:
182,192,44520,1,2,0:0:0:0:
475,192,44670,1,2,0:0:0:0:
256,192,44820,128,8,45120:0:0:0:0:
109,192,45120,1,8,0:0:0:0:
256,192,45420,128,8,45720:0:0:0:0:
402,192,45720,1,8,0:0:0:0:
36,192,45870,128,0,46170:0:0:0:0:
475,192,46170,128,0,46470:0:0:0:0:
36,192,46470,1,8,0:0:0:0:
182,192,46620,1,0,0:0:0:0:
329,192,46770,1,0,0:0:0:0:
36,192,46920,1,8,0:0:0:0:
182,192,46920,1,8,0:0:0:0:
329,192,47220,1,8,0:0:0:0:
182,192,47220,1,8,0:0:0:0:
475,192,47520,1,0,0:0:0:0:
329,192,47670,1,0,0:0:0:0:
182,192,47820,1,8,0:0:0:0:
36,192,47820,1,8,0:0:0:0:
256,192,48120,1,0,0:0:0:0:
329,192,48270,1,8,0:0:0:0:
402,192,48420,1,8,0:0:0:0:
475,192,48870,1,8,0:0:0:0:
36,192,48870,1,8,0:0:0:0:
109,192,49320,1,8,0:0:0:0:
402,192,49320,1,8,0:0:0:0:
109,192,49620,1,8,0:0:0:0:
402,192,49620,1,8,0:0:0:0:
36,192,50220,128,8,50520:0:0:0:0:
475,192,50520,1,0,0:0:0:0:
329,192,50670,1,0,0:0:0:0:
109,192,50820,128,8,52020:0:0:0:0:
475,192,52020,128,0,52770:0:0:0:0:
36,192,52920,128,0,53370:0:0:0:0:
182,192,53370,1,8,0:0:0:0:
329,192,53670,1,8,0:0:0:0:
182,192,53970,1,8,0:0:0:0:
329,192,54270,1,8,0:0:0:0:
36,192,54570,1,8,0:0:0:0:
109,192,54870,1,8,0:0:0:0:
256,192,55170,1,8,0:0:0:0:
329,192,55470,1,8,0:0:0:0:
109,192,55770,1,8,0:0:0:0:
182,192,56070,1,8,0:0:0:0:
329,192,56370,1,8,0:0:0:0:
402,192,56670,1,8,0:0:0:0:
109,192,56970,1,8,0:0:0:0:
402,192,57270,1,8,0:0:0:0:
109,192,57570,1,8,0:0:0:0:
402,192,57570,1,8,0:0:0:0:
402,192,57720,1,8,0:0:0:0:
109,192,57720,1,8,0:0:0:0:
36,192,58020,1,8,0:0:0:0:
475,192,58020,1,8,0:0:0:0:
109,192,58320,1,0,0:0:0:0:
402,192,58470,1,8,0:0:0:0:
329,192,58770,1,8,0:0:0:0:
182,192,59070,1,8,0:0:0:0:
109,192,59370,1,8,0:0:0:0:
475,192,59670,1,8,0:0:0:0:
402,192,59970,1,8,0:0:0:0:
256,192,60270,1,8,0:0:0:0:
182,192,60570,1,8,0:0:0:0:
36,192,60870,1,8,0:0:0:0:
256,192,61170,1,8,0:0:0:0:
109,192,61470,1,8,0:0:0:0:
329,192,61770,1,8,0:0:0:0:
182,192,61920,1,8,0:0:0:0:
475,192,62070,128,0,62370:0:0:0:0:
109,192,62370,1,8,0:0:0:0:
36,192,62670,128,0,62970:0:0:0:0:
402,192,62970,1,8,0:0:0:0:
402,192,63270,1,8,0:0:0:0:
182,192,63570,1,8,0:0:0:0:
182,192,63870,1,8,0:0:0:0:
329,192,64170,1,8,0:0:0:0:
109,192,64470,128,0,64770:0:0:0:0:
475,192,64770,1,8,0:0:0:0:
402,192,65070,128,0,65370:0:0:0:0:
36,192,65370,1,8,0:0:0:0:
109,192,65670,1,8,0:0:0:0:
475,192,65970,1,8,0:0:0:0:
402,192,66270,1,8,0:0:0:0:
182,192,66570,1,8,0:0:0:0:
329,192,66870,128,0,67170:0:0:0:0:
109,192,67170,1,8,0:0:0:0:
182,192,67470,128,0,67770:0:0:0:0:
402,192,67770,1,8,0:0:0:0:
256,192,68070,1,8,0:0:0:0:
109,192,68370,1,8,0:0:0:0:
475,192,68670,1,8,0:0:0:0:
329,192,68970,1,8,0:0:0:0:
182,192,69270,128,0,69570:0:0:0:0:
36,192,69570,1,8,0:0:0:0:
329,192,69870,128,0,70170:0:0:0:0:
36,192,70170,128,8,71370:0:0:0:0:
475,192,71370,1,8,0:0:0:0:
329,192,71370,1,8,0:0:0:0:
329,192,71595,1,8,0:0:0:0:
475,192,71595,1,8,0:0:0:0:
329,192,71820,1,8,0:0:0:0:
475,192,71820,1,8,0:0:0:0:
36,192,72570,1,8,0:0:0:0:
475,192,72570,128,4,74370:0:0:0:0:
36,192,74520,1,0,0:0:0:0:
256,192,74670,1,0,0:0:0:0:
36,192,74820,128,0,76170:0:0:0:0:
475,192,74820,1,0,0:0:0:0:
256,192,76170,128,0,77370:0:0:0:0:
475,192,77370,1,0,0:0:0:0:
36,192,77370,1,0,0:0:0:0:
36,192,77820,128,0,78270:0:0:0:0:
256,192,78270,1,0,0:0:0:0:
475,192,78420,128,0,78870:0:0:0:0:
36,192,79020,128,0,79320:0:0:0:0:
329,192,79320,1,0,0:0:0:0:
182,192,79470,1,0,0:0:0:0:
475,192,79620,128,0,80220:0:0:0:0:
329,192,80220,128,0,80670:0:0:0:0:
36,192,80670,1,0,0:0:0:0:
182,192,80820,128,0,82170:0:0:0:0:
475,192,81870,1,8,0:0:0:0:
329,192,81870,1,0,0:0:0:0:
475,192,82170,1,8,0:0:0:0:
36,192,82170,128,0,84120:0:0:0:0:
182,192,84120,1,8,0:0:0:0:
329,192,84270,1,8,0:0:0:0:
475,192,84420,128,8,86370:0:0:0:0:
36,192,86370,1,0,0:0:0:0:
182,192,86670,128,8,86970:0:0:0:0:
329,192,86970,1,8,0:0:0:0:
475,192,86970,1,0,0:0:0:0:
36,192,87420,1,8,0:0:0:0:
329,192,87420,1,8,0:0:0:0:
402,192,87870,1,8,0:0:0:0:
109,192,87870,1,8,0:0:0:0:
182,192,88320,1,8,0:0:0:0:
475,192,88320,1,8,0:0:0:0:
402,192,88770,1,8,0:0:0:0:
109,192,88770,1,8,0:0:0:0:
109,192,89070,1,8,0:0:0:0:
402,192,89070,1,8,0:0:0:0:
109,192,89370,1,8,0:0:0:0:
256,192,89520,1,8,0:0:0:0:
402,192,89670,1,8,0:0:0:0:
182,192,89820,1,8,0:0:0:0:
182,192,90120,1,8,0:0:0:0:
182,192,90345,1,8,0:0:0:0:
329,192,90495,1,8,0:0:0:0:
329,192,90720,1,8,0:0:0:0:
475,192,90870,1,8,0:0:0:0:
329,192,91020,1,8,0:0:0:0:
182,192,91170,1,8,0:0:0:0:
109,192,91320,128,0,91770:0:0:0:0:
475,192,91770,128,0,92970:0:0:0:0:
36,192,92970,1,8,0:0:0:0:
36,192,93270,128,0,93570:0:0:0:0:
475,192,93570,1,0,0:0:0:0:
329,192,93720,128,0,94170:0:0:0:0:
109,192,94170,1,8,0:0:0:0:
256,192,94470,128,0,94770:0:0:0:0:
36,192,94770,1,8,0:0:0:0:
475,192,94770,1,8,0:0:0:0:
36,192,94920,1,8,0:0:0:0:
475,192,94920,1,8,0:0:0:0:
36,192,95220,1,8,0:0:0:0:
475,192,95220,1,8,0:0:0:0:
109,192,95820,1,8,0:0:0:0:
329,192,95820,1,8,0:0:0:0:
402,192,96120,1,0,0:0:0:0:
182,192,96270,1,0,0:0:0:0:
109,192,96420,1,0,0:0:0:0:
329,192,96570,1,0,0:0:0:0:
475,192,96570,1,0,0:0:0:0:
109,192,97170,1,8,0:0:0:0:
402,192,97170,1,8,0:0:0:0:
36,192,97620,1,8,0:0:0:0:
329,192,97620,1,8,0:0:0:0:
109,192,97920,128,0,98220:0:0:0:0:
402,192,98220,1,0,0:0:0:0:
402,192,98520,1,0,0:0:0:0:
36,192,98670,1,0,0:0:0:0:
256,192,98670,1,0,0:0:0:0:
475,192,98970,1,8,0:0:0:0:
256,192,98970,1,8,0:0:0:0:
402,192,99420,1,8,0:0:0:0:
182,192,99420,1,8,0:0:0:0:
329,192,99870,1,8,0:0:0:0:
109,192,99870,1,8,0:0:0:0:
109,192,100320,1,0,0:0:0:0:
329,192,100470,1,0,0:0:0:0:
182,192,100620,1,8,0:0:0:0:
36,192,100620,1,0,0:0:0:0:
402,192,100920,1,0,0:0:0:0:
256,192,101070,1,0,0:0:0:0:
109,192,101220,1,0,0:0:0:0:
329,192,101370,1,8,0:0:0:0:
475,192,101370,1,8,0:0:0:0:
182,192,101570,1,8,0:0:0:0:
36,192,101770,1,8,0:0:0:0:
329,192,101970,1,8,0:0:0:0:
182,192,101970,1,8,0:0:0:0:
475,192,102170,1,8,0:0:0:0:
256,192,102370,1,8,0:0:0:0:
36,192,102570,1,8,0:0:0:0:
182,192,102770,1,8,0:0:0:0:
329,192,102970,1,8,0:0:0:0:
36,192,103170,1,8,0:0:0:0:
475,192,103170,1,8,0:0:0:0:
329,192,103470,128,0,103770:0:0:0:0:
182,192,103770,128,0,104070:0:0:0:0:
36,192,104070,1,8,0:0:0:0:
475,192,104070,1,8,0:0:0:0:
109,192,104370,1,8,0:0:0:0:
329,192,104370,1,8,0:0:0:0:
182,192,104520,1,8,0:0:0:0:
402,192,104520,1,8,0:0:0:0:
182,192,104820,1,8,0:0:0:0:
402,192,104820,1,8,0:0:0:0:
109,192,105120,1,10,0:0:0:0:
402,192,105270,1,10,0:0:0:0:
182,192,105420,1,2,0:0:0:0:
402,192,105720,1,2,0:0:0:0:
256,192,105870,1,2,0:0:0:0:
475,192,106020,1,2,0:0:0:0:
182,192,106170,1,8,0:0:0:0:
36,192,106170,1,8,0:0:0:0:
182,192,106620,1,8,0:0:0:0:
402,192,106620,1,8,0:0:0:0:
182,192,106920,1,8,0:0:0:0:
402,192,106920,1,8,0:0:0:0:
182,192,107220,1,8,0:0:0:0:
402,192,107220,1,8,0:0:0:0:
109,192,107520,128,0,107820:0:0:0:0:
475,192,107820,1,0,0:0:0:0:
256,192,107820,1,0,0:0:0:0:
475,192,108120,128,0,108270:0:0:0:0:
256,192,108270,1,0,0:0:0:0:
109,192,108420,1,0,0:0:0:0:
329,192,108570,1,8,0:0:0:0:
475,192,108570,1,8,0:0:0:0:
256,192,109020,1,8,0:0:0:0:
402,192,109020,1,8,0:0:0:0:
182,192,109470,128,8,110070:0:0:0:0:
329,192,109470,128,8,110070:0:0:0:0:
36,192,110070,1,0,0:0:0:0:
475,192,110070,1,0,0:0:0:0:
109,192,110370,1,8,0:0:0:0:
402,192,110370,1,8,0:0:0:0:
109,192,110595,1,8,0:0:0:0:
402,192,110595,1,8,0:0:0:0:
109,192,110820,1,8,0:0:0:0:
402,192,110820,1,8,0:0:0:0:
475,192,110970,1,8,0:0:0:0:
36,192,110970,1,8,0:0:0:0:
329,192,111270,1,8,0:0:0:0:
182,192,111570,1,8,0:0:0:0:
36,192,111870,1,8,0:0:0:0:
402,192,112170,1,8,0:0:0:0:
256,192,112470,1,8,0:0:0:0:
109,192,112770,128,0,113070:0:0:0:0:
329,192,113070,1,8,0:0:0:0:
402,192,113220,128,0,114570:0:0:0:0:
182,192,113220,1,0,0:0:0:0:
256,192,114570,1,0,0:0:0:0:
475,192,115170,1,8,0:0:0:0:
36,192,115170,1,8,0:0:0:0:
475,192,115395,1,8,0:0:0:0:
36,192,115395,1,8,0:0:0:0:
475,192,115620,1,8,0:0:0:0:
36,192,115620,1,8,0:0:0:0:
256,192,116070,128,4,118470:0:0:0:0:
