osu file format v14

[General]
AudioFilename: dive_a7.mp3
AudioLeadIn: 0
PreviewTime: 45335
Countdown: 0
SampleSet: None
StackLeniency: 0.7
Mode: 0
LetterboxInBreaks: 1
WidescreenStoryboard: 1

[Editor]
Bookmarks: 28055,45335,82055,89615,123771
DistanceSpacing: 1.2
BeatDivisor: 4
GridSize: 8
TimelineZoom: 3.099999

[Metadata]
Title:FREEDOM DiVE
TitleUnicode:FREEDOM DiVE
Artist:xi
ArtistUnicode:xi
Creator:rustbell
Version:FOUR CIRCLESIZE
Source:MAX BEAT
Tags:BMS
BeatmapID:786304
BeatmapSetID:322235

[Difficulty]
HPDrainRate:4
CircleSize:4
OverallDifficulty:9.4
ApproachRate:10
SliderMultiplier:1.6
SliderTickRate:1

[Events]
//Background and Video events
0,0,"FD.jpg",0,0
//Break Periods
//Storyboard Layer 0 (Background)
//Storyboard Layer 1 (Fail)
//Storyboard Layer 2 (Pass)
//Storyboard Layer 3 (Foreground)
//Storyboard Sound Samples

[TimingPoints]
1055,270.002700027,4,2,0,5,1,0
2135,-100,4,1,0,60,0,0
2202,-100,4,1,0,40,0,0
25895,-100,4,1,0,40,0,1
26975,-100,4,1,0,45,0,1
27515,-100,4,1,0,50,0,1
28122,-100,4,2,0,50,0,1
28325,-100,4,2,0,50,0,0
44255,-66.6666666666667,4,2,0,50,0,0
45875,-66.6666666666667,4,2,0,50,0,0
46415,-66.6666666666667,4,2,0,50,0,0
47495,-100,4,1,0,60,0,0
47562,-100,4,1,0,50,0,0
56135,-100,4,2,0,60,0,0
62615,-66.6666666666667,4,1,0,60,0,0
64775,-66.6666666666667,4,1,0,60,0,1
71525,-100,4,1,0,60,0,1
72065,-66.6666666666667,4,1,0,60,0,1
82055,-66.6666666666667,4,1,0,80,0,1
82325,-100,4,2,0,60,0,0
89480,-100,4,2,0,40,0,0
89615,-100,4,2,0,40,0,1
93800,-100,4,2,0,50,0,1
93935,-80,4,2,0,60,0,1
96095,-66.6666666666667,4,2,0,60,0,1
99403,-66.6666666666667,4,2,0,50,0,1
99605,-66.6666666666667,4,1,0,50,0,0
133896,-100,4,1,0,50,0,1
134031,-66.6666666666667,4,1,0,50,0,1
134436,-100,4,1,0,50,0,1
134571,-58.8235294117647,4,1,0,50,0,1
134773,-100,4,1,0,50,0,1
135111,-54.054054054054,4,1,0,50,0,1
135381,-100,4,1,0,50,0,1
135651,-50,4,1,0,50,0,1
136326,-66.6666666666667,4,1,0,50,0,1
136596,-50,4,1,0,50,0,1
136866,-66.6666666666667,4,1,0,50,0,1
137676,-58.8235294117647,4,1,0,55,0,1
138216,-58.8235294117647,4,1,0,60,0,1
138486,-100,4,1,0,50,0,0

[HitObjects]
256,192,1325,12,0,2067,0:0:0:0:
74,250,2135,5,4,0:0:0:0:
110,267,2202,1,0,0:0:0:0:
148,260,2270,1,0,0:0:0:0:
176,232,2337,1,0,0:0:0:0:
186,194,2405,6,0,P|162:194|138:202,1,40
178,330,2540,2,0,P|202:330|226:322,1,40,0|0,0:0|0:0,0:0:0:0:
250,234,2675,5,0,0:0:0:0:
285,250,2742,1,0,0:0:0:0:
324,243,2810,1,0,0:0:0:0:
351,215,2877,1,0,0:0:0:0:
362,178,2945,6,0,P|338:178|314:186,1,40
354,314,3080,2,0,P|378:314|402:306,1,40,0|0,0:0|0:0,0:0:0:0:
480,224,3215,5,0,0:0:0:0:
448,208,3282,1,0,0:0:0:0:
416,184,3350,1,0,0:0:0:0:
416,144,3417,1,0,0:0:0:0:
432,104,3485,6,0,P|408:104|384:112,1,40
336,264,3620,2,0,P|360:264|384:256,1,40
288,152,3755,5,0,0:0:0:0:
256,136,3822,1,0,0:0:0:0:
224,112,3890,1,0,0:0:0:0:
224,72,3957,1,0,0:0:0:0:
240,32,4025,6,0,P|216:32|192:40,1,40
144,192,4160,2,0,P|168:192|192:184,1,40
56,160,4295,5,4,0:0:0:0:
96,176,4362,1,0,0:0:0:0:
136,176,4430,1,0,0:0:0:0:
160,144,4497,1,0,0:0:0:0:
176,104,4565,6,0,L|216:112,1,40
296,256,4700,2,0,L|256:248,1,40
264,168,4835,5,0,0:0:0:0:
304,184,4902,1,0,0:0:0:0:
344,184,4970,1,0,0:0:0:0:
368,152,5037,1,0,0:0:0:0:
384,112,5105,6,0,L|424:120,1,40
504,264,5240,2,0,L|464:256,1,40
448,184,5375,5,0,0:0:0:0:
408,192,5442,1,0,0:0:0:0:
384,224,5510,1,0,0:0:0:0:
384,264,5577,1,0,0:0:0:0:
408,296,5645,6,0,P|428:312|448:312,1,40
296,352,5780,2,0,P|276:336|256:336,1,40,0|0,0:0|0:0,0:0:0:0:
40,280,5915,6,0,L|88:288,1,40
206,145,6050,1,0,0:0:0:0:
201,152,6095,1,0,0:0:0:0:
196,160,6140,1,0,0:0:0:0:
192,168,6185,6,0,P|192:192|200:208,1,40
344,280,6320,2,0,P|344:256|336:240,1,40,0|0,0:0|0:0,0:0:0:0:
253,176,6455,5,4,0:0:0:0:
214,179,6522,1,0,0:0:0:0:
176,168,6590,1,0,0:0:0:0:
144,143,6657,1,0,0:0:0:0:
120,112,6725,6,0,P|120:96|128:72,1,40
168,200,6860,2,0,P|168:216|160:240,1,40
208,312,6995,5,0,0:0:0:0:
169,315,7062,1,0,0:0:0:0:
131,304,7130,1,0,0:0:0:0:
99,279,7197,1,0,0:0:0:0:
75,248,7265,6,0,P|75:232|83:208,1,40
123,336,7400,2,0,P|123:352|115:376,1,40
232,240,7535,5,0,0:0:0:0:
270,246,7602,1,0,0:0:0:0:
307,232,7670,1,0,0:0:0:0:
332,201,7737,1,0,0:0:0:0:
344,160,7805,6,0,P|344:136|336:112,1,40
400,264,7940,2,0,P|400:288|408:312,1,40,0|0,0:0|0:0,0:0:0:0:
296,320,8075,5,0,0:0:0:0:
334,326,8142,1,0,0:0:0:0:
371,312,8210,1,0,0:0:0:0:
396,281,8277,1,0,0:0:0:0:
408,240,8345,6,0,P|408:216|400:192,1,40
464,344,8480,2,0,P|464:368|472:392,1,40,0|0,0:0|0:0,0:0:0:0:
512,272,8615,5,4,0:0:0:0:
474,286,8682,1,0,0:0:0:0:
435,285,8750,1,0,0:0:0:0:
398,269,8817,1,0,0:0:0:0:
368,240,8885,6,0,P|344:240|328:248,1,40
176,312,9020,2,0,P|200:312|216:304,1,40,0|0,0:0|0:0,0:0:0:0:
192,192,9155,5,4,0:0:0:0:
154,177,9222,1,0,0:0:0:0:
115,178,9290,1,0,0:0:0:0:
78,194,9357,1,0,0:0:0:0:
47,224,9425,6,0,P|27:224|8:217,1,40
171,114,9560,2,0,P|190:113|209:120,1,40,0|0,0:0|0:0,0:0:0:0:
444,220,9695,6,0,L|464:180,1,40,12|0,0:0|0:0,0:0:0:0:
424,40,9830,1,0,0:0:0:0:
420,48,9875,1,0,0:0:0:0:
416,56,9920,1,0,0:0:0:0:
412,64,9965,2,0,B|328:80,1,80,8|0,0:0|0:0,0:0:0:0:
32,136,10235,5,12,0:0:0:0:
71,141,10302,1,0,0:0:0:0:
107,158,10370,1,0,0:0:0:0:
142,178,10437,1,0,0:0:0:0:
177,196,10505,1,12,0:0:0:0:
215,209,10572,1,0,0:0:0:0:
255,213,10640,1,0,0:0:0:0:
294,209,10707,1,0,0:0:0:0:
336,200,10775,6,0,P|360:208|376:204,1,40,4|0,0:0|0:0,0:0:0:0:
432,176,10910,2,0,P|456:168|472:172,1,40,0|0,0:0|0:0,0:0:0:0:
264,256,11045,5,8,0:0:0:0:
224,255,11112,1,0,0:0:0:0:
184,272,11180,1,0,0:0:0:0:
161,301,11247,1,0,0:0:0:0:
144,336,11315,6,0,P|128:344|104:344,1,40
48,312,11450,2,0,P|32:304|8:304,1,40,0|0,0:0|0:0,0:0:0:0:
96,176,11585,5,8,0:0:0:0:
121,146,11652,1,0,0:0:0:0:
159,133,11720,1,0,0:0:0:0:
197,142,11787,1,0,0:0:0:0:
232,168,11855,6,0,P|248:176|272:176,1,40
328,144,11990,2,0,P|344:136|368:136,1,40,0|0,0:0|0:0,0:0:0:0:
472,280,12125,5,8,0:0:0:0:
432,288,12192,1,0,0:0:0:0:
392,296,12260,1,0,0:0:0:0:
352,304,12327,1,0,0:0:0:0:
312,312,12395,6,0,P|294:313|273:325,1,40
216,344,12530,2,0,P|198:345|175:336,1,40,0|0,0:0|0:0,0:0:0:0:
72,184,12665,5,8,0:0:0:0:
112,192,12732,1,0,0:0:0:0:
152,200,12800,1,0,0:0:0:0:
192,208,12867,1,0,0:0:0:0:
232,216,12935,6,0,L|272:208,1,40,4|0,0:0|0:0,0:0:0:0:
352,224,13070,2,0,L|392:216,1,40
424,88,13205,5,8,0:0:0:0:
416,48,13272,1,0,0:0:0:0:
392,16,13340,1,0,0:0:0:0:
352,24,13407,1,0,0:0:0:0:
320,48,13475,6,0,L|280:56,1,40
200,40,13610,2,0,L|160:48,1,40
48,176,13745,5,8,0:0:0:0:
64,136,13812,1,0,0:0:0:0:
96,112,13880,1,0,0:0:0:0:
136,128,13947,1,0,0:0:0:0:
160,160,14015,6,0,L|208:168,1,40
272,208,14150,2,0,L|320:216,1,40
496,216,14285,6,0,B|432:224|432:224|376:248,1,120,12|0,0:0|0:0,0:0:0:0:
232,352,14555,6,0,L|272:335,1,40,12|0,0:0|0:0,0:0:0:0:
136,288,14690,5,0,0:0:0:0:
136,288,14757,2,0,L|96:271,1,40,12|0,0:0|0:0,0:0:0:0:
200,192,14892,5,0,0:0:0:0:
200,192,14959,2,0,L|240:175,1,40,12|0,0:0|0:0,0:0:0:0:
136,40,15095,5,4,0:0:0:0:
136,40,15162,1,0,0:0:0:0:
136,40,15230,1,0,0:0:0:0:
136,40,15297,1,0,0:0:0:0:
136,40,15365,6,0,P|144:64|144:88,1,40,8|0,0:0|0:0,0:0:0:0:
88,144,15500,2,0,P|63:138|42:126,1,40,0|0,2:0|0:0,0:0:0:0:
232,112,15635,5,0,0:0:0:0:
232,112,15702,1,0,0:0:0:0:
232,112,15770,1,0,0:0:0:0:
232,112,15837,1,0,0:0:0:0:
232,112,15905,6,0,P|248:93|269:81,1,40,12|0,0:0|0:0,0:0:0:0:
472,112,16040,2,0,L|384:112,1,80,4|0,0:0|0:0,0:0:0:0:
160,176,16310,5,4,0:0:0:0:
160,176,16377,1,0,0:0:0:0:
160,176,16445,2,0,P|152:216|152:256,1,80,12|0,0:0|0:0,0:0:0:0:
432,328,16715,6,0,L|436:280,1,40,4|0,0:0|0:0,0:0:0:0:
224,128,16850,1,0,0:0:0:0:
224,128,16917,1,0,0:0:0:0:
224,128,16985,2,0,P|232:88|232:48,1,80,12|0,0:0|0:0,0:0:0:0:
24,200,17255,6,0,L|68:204,1,40,4|0,0:0|0:0,0:0:0:0:
184,268,17390,1,0,0:0:0:0:
176,272,17457,1,0,0:0:0:0:
168,276,17525,2,0,P|208:276|252:280,1,80,8|0,0:0|0:0,0:0:0:0:
320,312,17728,1,0,0:0:0:0:
320,312,17795,6,0,L|324:268,1,40,4|0,0:0|0:0,0:0:0:0:
388,152,17930,1,0,0:0:0:0:
392,160,17997,1,0,0:0:0:0:
396,168,18065,2,0,P|396:128|400:84,1,80,8|0,0:0|0:0,0:0:0:0:
432,16,18268,1,0,0:0:0:0:
432,16,18335,6,0,P|408:24|384:24,1,40,12|0,0:0|0:0,0:0:0:0:
176,96,18470,2,0,P|200:88|224:88,1,40
488,48,18605,6,0,L|440:40,1,40,12|0,0:0|0:0,0:0:0:0:
112,112,18740,2,0,L|160:120,1,40
448,304,18875,5,12,0:0:0:0:
481,261,18942,1,0,0:0:0:0:
471,208,19010,1,0,0:0:0:0:
423,182,19077,1,0,0:0:0:0:
373,201,19145,5,12,0:0:0:0:
328,168,19212,1,0,0:0:0:0:
288,208,19280,1,0,0:0:0:0:
240,176,19347,1,0,0:0:0:0:
200,216,19415,6,0,P|176:220|160:232,1,40,4|0,0:0|0:0,0:0:0:0:
32,224,19550,2,0,L|76:228,1,40
96,72,19685,5,8,0:0:0:0:
128,96,19752,1,0,0:0:0:0:
168,96,19820,1,0,0:0:0:0:
200,72,19887,1,0,0:0:0:0:
224,40,19955,6,0,P|248:44|264:56,1,40
392,48,20090,2,0,L|348:52,1,40
272,224,20225,5,8,0:0:0:0:
296,192,20292,1,0,0:0:0:0:
336,176,20360,1,0,0:0:0:0:
376,192,20427,1,0,0:0:0:0:
400,224,20495,6,0,P|400:248|392:272,1,40
368,336,20630,2,0,L|376:384,1,40
192,288,20765,5,8,0:0:0:0:
152,304,20832,1,0,0:0:0:0:
112,304,20900,1,0,0:0:0:0:
96,272,20967,1,0,0:0:0:0:
88,232,21035,6,0,P|88:208|96:184,1,40
120,120,21170,2,0,L|112:72,1,40
256,32,21305,5,8,0:0:0:0:
296,16,21372,1,0,0:0:0:0:
336,16,21440,1,0,0:0:0:0:
352,48,21507,1,0,0:0:0:0:
360,88,21575,6,0,L|344:136,1,40,4|0,0:0|0:0,0:0:0:0:
408,216,21710,2,0,L|424:168,1,40
264,120,21845,5,8,0:0:0:0:
224,112,21912,1,0,0:0:0:0:
184,120,21980,1,0,0:0:0:0:
160,152,22047,1,0,0:0:0:0:
152,192,22115,6,0,L|168:240,1,40
104,320,22250,2,0,L|88:272,1,40
248,224,22385,5,8,0:0:0:0:
288,216,22452,1,0,0:0:0:0:
328,224,22520,1,0,0:0:0:0:
352,256,22587,1,0,0:0:0:0:
360,296,22655,6,0,L|400:304,1,40
464,336,22790,2,0,L|504:344,1,40
176,328,22925,2,0,B|136:344|136:344|160:312|152:272,1,120,12|0,0:0|0:0,0:0:0:0:
24,152,23195,6,0,L|64:160,1,40,12|0,0:0|0:0,0:0:0:0:
280,64,23330,5,0,0:0:0:0:
280,64,23397,2,0,L|240:72,1,40,12|0,0:0|0:0,0:0:0:0:
168,264,23533,5,0,0:0:0:0:
168,264,23600,2,0,L|208:256,1,40,12|0,0:0|0:0,0:0:0:0:
480,160,23735,5,4,0:0:0:0:
448,184,23802,1,0,0:0:0:0:
432,224,23870,1,0,0:0:0:0:
400,200,23937,1,0,0:0:0:0:
360,200,24005,6,0,P|340:204|320:200,1,40,8|0,0:0|0:0,0:0:0:0:
128,120,24140,2,0,P|148:116|168:120,1,40
280,176,24275,5,0,0:0:0:0:
248,200,24342,1,0,0:0:0:0:
232,240,24410,1,0,0:0:0:0:
200,216,24477,1,0,0:0:0:0:
160,216,24545,6,0,P|140:220|120:216,1,40,12|0,0:0|0:0,0:0:0:0:
288,0,24680,2,0,L|368:8,1,80,4|0,0:0|0:0,0:0:0:0:
72,40,24950,5,4,0:0:0:0:
72,40,25017,1,0,0:0:0:0:
72,40,25085,2,0,P|92:44|112:52,1,40,12|0,0:0|0:0,0:0:0:0:
232,184,25220,2,0,P|228:204|220:224,1,40,4|0,0:0|0:0,0:0:0:0:
8,376,25355,6,0,L|16:336,1,40,4|0,0:0|0:0,0:0:0:0:
256,144,25490,1,4,0:0:0:0:
280,176,25557,1,0,0:0:0:0:
280,216,25625,2,0,P|272:256|232:280,1,80,12|0,0:0|0:0,0:0:0:0:
32,176,25895,6,0,L|72:184,1,40,4|0,0:0|0:0,0:0:0:0:
376,232,26030,1,0,0:0:0:0:
376,232,26097,1,0,0:0:0:0:
376,232,26165,6,0,L|416:224,1,40,8|0,0:0|0:0,0:0:0:0:
512,168,26300,2,0,L|472:176,1,40
120,256,26435,6,0,L|80:264,1,40,4|0,0:0|0:0,0:0:0:0:
280,64,26570,1,0,0:0:0:0:
280,64,26637,1,0,0:0:0:0:
280,64,26705,6,0,L|320:72,1,40,8|0,0:0|0:0,0:0:0:0:
416,128,26840,2,0,L|376:120,1,40
16,32,26975,6,0,P|16:52|24:72,1,40,12|0,0:0|0:0,0:0:0:0:
136,328,27110,1,0,0:0:0:0:
160,296,27177,1,0,0:0:0:0:
160,256,27245,6,0,P|152:280|152:304,1,40,12|0,0:0|0:0,0:0:0:0:
304,152,27380,1,0,0:0:0:0:
304,152,27447,1,0,0:0:0:0:
304,152,27515,6,0,L|312:104,1,40,12|0,0:0|0:0,0:0:0:0:
360,48,27650,2,0,L|364:24,2,20
184,80,27785,6,0,L|224:72,1,40,12|0,0:0|0:0,0:0:0:0:
64,128,27920,2,0,L|104:120,1,40
488,168,28055,6,0,L|480:208,2,40,4|0|0,0:0|0:0|0:0,0:0:0:0:
408,184,28257,2,0,L|400:224,2,40,2|0|0,0:0|0:0|0:0,0:0:0:0:
328,200,28460,2,0,L|320:240,1,40,2|0,0:0|0:0,0:0:0:0:
232,208,28595,5,0,0:0:0:0:
232,208,28662,2,0,L|224:160,2,40,2|0|0,0:0|0:0|0:0,0:0:0:0:
160,232,28865,2,0,L|152:184,1,40,2|0,0:0|0:0,0:0:0:0:
88,256,29000,2,0,L|80:208,1,40,2|0,0:0|0:0,0:0:0:0:
128,112,29135,6,0,L|120:152,2,40,2|0|0,0:0|0:0|0:0,0:0:0:0:
200,96,29337,2,0,L|192:136,2,40,2|0|0,0:0|0:0|0:0,0:0:0:0:
272,80,29540,2,0,L|264:120,1,40,2|0,0:0|0:0,0:0:0:0:
272,224,29675,5,0,0:0:0:0:
272,224,29742,2,0,L|280:176,2,40,2|0|0,0:0|0:0|0:0,0:0:0:0:
344,248,29945,2,0,L|352:200,1,40,2|0,0:0|0:0,0:0:0:0:
416,272,30080,2,0,L|424:224,1,40,2|0,0:0|0:0,0:0:0:0:
472,184,30215,6,0,P|488:184|512:192,2,40,2|0|0,0:0|0:0|0:0,0:0:0:0:
408,216,30417,2,0,P|400:229|381:246,2,40,2|0|0,0:0|0:0|0:0,0:0:0:0:
408,144,30620,2,0,P|400:130|394:105,1,40,2|0,0:0|0:0,0:0:0:0:
336,80,30755,5,0,0:0:0:0:
336,80,30822,2,0,P|312:80|288:88,2,40,2|0|0,0:0|0:0|0:0,0:0:0:0:
208,32,31025,2,0,P|220:52|238:69,1,40,2|0,0:0|0:0,0:0:0:0:
232,168,31160,2,0,P|244:147|249:122,1,40,2|0,0:0|0:0,0:0:0:0:
144,80,31295,6,0,L|96:88,2,40,2|0|0,0:0|0:0|0:0,0:0:0:0:
96,152,31497,2,0,L|48:160,2,40,2|0|0,0:0|0:0|0:0,0:0:0:0:
48,224,31700,2,0,L|8:232,1,40,2|0,0:0|0:0,0:0:0:0:
112,280,31835,6,0,L|96:320,1,40,2|0,0:0|0:0,0:0:0:0:
200,280,31970,2,0,L|208:320,1,40,2|0,0:0|0:0,0:0:0:0:
272,232,32105,2,0,L|312:248,1,40,2|0,0:0|0:0,0:0:0:0:
296,152,32240,2,0,L|336:144,1,40,2|0,0:0|0:0,0:0:0:0:
416,96,32375,6,0,L|456:88,2,40,2|0|0,0:0|0:0|0:0,0:0:0:0:
400,168,32577,2,0,L|440:160,2,40,2|0|0,0:0|0:0|0:0,0:0:0:0:
384,240,32780,2,0,L|424:232,1,40,2|0,0:0|0:0,0:0:0:0:
336,304,32915,6,0,L|328:352,1,40,2|0,0:0|0:0,0:0:0:0:
344,296,33050,2,0,L|336:344,1,40,2|0,0:0|0:0,0:0:0:0:
256,208,33185,6,0,L|264:256,1,40,2|0,0:0|0:0,0:0:0:0:
248,200,33320,2,0,L|256:248,1,40,2|0,0:0|0:0,0:0:0:0:
328,80,33455,6,0,L|320:120,1,40,2|0,0:0|0:0,0:0:0:0:
360,64,33590,2,0,L|352:104,1,40,2|0,0:0|0:0,0:0:0:0:
160,168,33725,6,0,L|168:208,1,40,2|0,0:0|0:0,0:0:0:0:
128,152,33860,2,0,L|136:192,1,40,2|0,0:0|0:0,0:0:0:0:
280,208,33995,6,0,L|272:248,1,40,2|0,0:0|0:0,0:0:0:0:
304,192,34130,2,0,L|296:232,1,40,2|0,0:0|0:0,0:0:0:0:
112,296,34265,6,0,L|120:336,1,40,2|0,0:0|0:0,0:0:0:0:
88,280,34400,2,0,L|96:320,1,40,2|0,0:0|0:0,0:0:0:0:
208,376,34535,6,0,L|200:336,1,40,2|0,0:0|0:0,0:0:0:0:
224,352,34670,2,0,L|216:312,1,40,2|0,0:0|0:0,0:0:0:0:
336,304,34805,6,0,L|344:344,1,40,2|0,0:0|0:0,0:0:0:0:
352,280,34940,2,0,L|360:320,1,40,2|0,0:0|0:0,0:0:0:0:
464,304,35075,6,0,L|456:264,1,40,2|0,0:0|0:0,0:0:0:0:
480,280,35210,2,0,L|472:240,1,40,2|0,0:0|0:0,0:0:0:0:
472,112,35345,6,0,L|480:152,1,40,2|0,0:0|0:0,0:0:0:0:
496,136,35480,2,0,L|504:176,1,40,2|0,0:0|0:0,0:0:0:0:
328,136,35615,6,0,L|288:144,2,40,2|0|0,0:0|0:0|0:0,0:0:0:0:
304,208,35817,2,0,L|264:216,2,40,2|0|0,0:0|0:0|0:0,0:0:0:0:
280,280,36020,2,0,L|240:288,1,40,2|0,0:0|0:0,0:0:0:0:
128,240,36155,5,0,0:0:0:0:
128,240,36222,2,0,L|168:232,2,40,2|0|0,0:0|0:0|0:0,0:0:0:0:
88,176,36424,2,0,L|128:168,1,40,2|0,0:0|0:0,0:0:0:0:
136,56,36560,5,0,1:0:0:0:
208,64,36627,1,0,1:0:0:0:
280,72,36695,6,0,L|272:120,1,40,4|0,1:0|0:0,0:0:0:0:
360,104,36830,2,0,L|352:144,1,40,2|0,0:0|0:0,0:0:0:0:
168,112,36965,6,0,L|176:160,1,40,2|0,0:0|0:0,0:0:0:0:
80,136,37100,2,0,L|88:184,1,40,2|0,0:0|0:0,0:0:0:0:
320,208,37235,6,0,L|312:256,1,40,2|0,0:0|0:0,0:0:0:0:
408,232,37370,2,0,L|400:280,1,40,2|0,0:0|0:0,0:0:0:0:
136,256,37505,6,0,L|142:295,1,40,2|0,0:0|0:0,0:0:0:0:
48,280,37640,2,0,L|54:319,1,40,2|0,0:0|0:0,0:0:0:0:
304,336,37775,5,2,0:0:0:0:
224,320,37865,1,2,0:0:0:0:
304,336,37955,1,2,0:0:0:0:
376,296,38045,6,0,L|384:248,1,40,2|0,0:0|0:0,0:0:0:0:
464,272,38180,2,0,L|472:224,1,40,2|0,0:0|0:0,0:0:0:0:
208,176,38315,6,0,L|200:224,1,40,2|0,0:0|0:0,0:0:0:0:
296,152,38450,2,0,L|288:200,1,40,2|0,0:0|0:0,0:0:0:0:
472,88,38585,6,0,L|480:136,1,40,2|0,0:0|0:0,0:0:0:0:
384,64,38720,2,0,L|392:112,1,40,2|0,0:0|0:0,0:0:0:0:
88,176,38855,6,0,L|136:184,1,40,4|0,1:0|0:0,0:0:0:0:
56,256,38990,2,0,L|104:264,1,40,2|0,0:0|0:0,0:0:0:0:
248,104,39125,6,0,L|200:112,1,40,2|0,0:0|0:0,0:0:0:0:
280,184,39260,2,0,L|232:192,1,40,2|0,0:0|0:0,0:0:0:0:
176,344,39395,6,0,L|224:352,1,40,2|0,0:0|0:0,0:0:0:0:
208,264,39530,2,0,L|256:272,1,40,2|0,0:0|0:0,0:0:0:0:
400,136,39665,6,0,L|352:144,1,40,2|0,0:0|0:0,0:0:0:0:
432,216,39800,2,0,L|384:224,1,40,2|0,0:0|0:0,0:0:0:0:
312,56,39935,6,0,L|304:96,1,40,2|0,0:0|0:0,0:0:0:0:
280,72,40070,2,0,L|272:112,1,40,2|0,0:0|0:0,0:0:0:0:
120,112,40205,6,0,L|128:152,1,40,2|0,0:0|0:0,0:0:0:0:
152,128,40340,2,0,L|160:168,1,40,2|0,0:0|0:0,0:0:0:0:
256,280,40475,6,0,L|264:240,1,40,2|0,0:0|0:0,0:0:0:0:
288,264,40610,2,0,L|296:224,1,40,2|0,0:0|0:0,0:0:0:0:
464,216,40745,6,0,L|456:176,1,40,2|0,0:0|0:0,0:0:0:0:
432,200,40880,2,0,L|424:160,1,40,2|0,0:0|0:0,0:0:0:0:
232,40,41015,6,0,L|184:48,2,40,4|0|0,1:0|0:0|0:0,0:0:0:0:
224,112,41217,2,0,L|176:120,2,40,2|0|0,0:0|0:0|0:0,0:0:0:0:
216,184,41420,2,0,L|176:192,1,40,2|0,0:0|0:0,0:0:0:0:
56,160,41555,5,0,0:0:0:0:
56,160,41622,2,0,L|104:168,2,40,2|0|0,0:0|0:0|0:0,0:0:0:0:
64,232,41824,2,0,L|112:240,1,40,2|0,0:0|0:0,0:0:0:0:
72,304,41960,2,0,L|112:312,1,40,2|0,0:0|0:0,0:0:0:0:
304,256,42095,6,0,L|264:264,1,40,4|0,1:0|0:0,0:0:0:0:
344,216,42230,2,0,L|304:224,1,40,2|0,0:0|0:0,0:0:0:0:
416,280,42365,6,0,L|456:288,1,40,2|0,0:0|0:0,0:0:0:0:
456,320,42500,2,0,L|496:328,1,40,2|0,2:0|0:0,0:0:0:0:
416,160,42635,6,0,L|424:112,2,40,4|0|0,1:0|0:0|0:0,0:0:0:0:
352,88,42837,2,0,L|345:127,2,40,2|0|0,0:0|0:0|0:0,0:0:0:0:
272,96,43040,2,0,L|280:56,1,40,2|0,0:0|0:0,0:0:0:0:
104,120,43175,6,0,L|144:112,2,40,4|0|0,1:0|0:0|0:0,0:0:0:0:
56,192,43377,2,0,L|96:184,2,40,2|0|0,0:0|0:0|0:0,0:0:0:0:
8,264,43580,2,0,L|48:256,1,40,2|0,0:0|0:0,0:0:0:0:
232,288,43715,6,0,L|192:280,1,40,4|0,1:0|0:0,0:0:0:0:
304,320,43850,2,0,L|264:312,1,40,2|0,0:0|0:0,0:0:0:0:
376,224,43985,6,0,L|336:232,1,40,4|0,1:0|0:0,0:0:0:0:
448,192,44120,2,0,L|408:200,1,40,2|0,0:0|0:0,0:0:0:0:
328,48,44255,6,0,L|336:112,1,60.0000022888184,8|0,1:0|0:0,0:0:0:0:
264,80,44390,2,0,L|272:144,1,60.0000022888184,2|0,0:0|0:0,0:0:0:0:
128,144,44525,6,0,L|120:208,1,60.0000022888184,8|0,1:0|0:0,0:0:0:0:
192,176,44660,2,0,L|184:240,1,60.0000022888184,2|0,0:0|0:0,0:0:0:0:
408,264,44795,6,0,L|416:328,1,60.0000022888184,8|0,1:0|0:0,0:0:0:0:
320,296,44930,5,0,1:0:0:0:
320,296,44997,1,0,1:0:0:0:
320,296,45065,2,0,L|256:304,1,60.0000022888184,8|0,1:0|0:0,0:0:0:0:
328,224,45200,2,0,L|264:232,1,60.0000022888184,2|0,0:0|0:0,0:0:0:0:
56,272,45335,6,0,P|48:240|48:208,1,60.0000022888184,4|0,1:0|0:0,0:0:0:0:
88,88,45470,2,0,P|96:120|96:152,1,60.0000022888184,0|0,1:0|0:0,0:0:0:0:
56,272,45605,2,0,L|-8:256,1,60.0000022888184,0|0,1:0|0:0,0:0:0:0:
184,200,45740,5,0,1:0:0:0:
184,200,45807,1,0,1:0:0:0:
184,200,45875,2,0,P|216:192|248:192,1,60.0000022888184,4|0,1:0|0:0,0:0:0:0:
368,232,46010,2,0,P|336:240|304:240,1,60.0000022888184,0|0,1:0|0:0,0:0:0:0:
184,200,46145,2,0,L|200:136,1,60.0000022888184,0|0,1:0|0:0,0:0:0:0:
256,328,46280,5,0,1:0:0:0:
256,328,46347,1,0,1:0:0:0:
256,328,46415,2,0,L|248:264,1,60.0000022888184,8|0,1:0|0:0,0:0:0:0:
352,136,46550,2,0,P|352:168|344:200,1,60.0000022888184,0|0,1:0|0:0,0:0:0:0:
192,176,46685,6,0,L|128:184,1,60.0000022888184,8|0,1:0|0:0,0:0:0:0:
0,80,46820,2,0,P|32:80|64:88,1,60.0000022888184,0|0,1:0|0:0,0:0:0:0:
96,288,46955,6,0,L|88:352,1,60.0000022888184,8|0,1:0|0:0,0:0:0:0:
160,240,47090,5,0,1:0:0:0:
160,240,47135,1,8,1:0:0:0:
160,240,47180,1,0,1:0:0:0:
160,240,47225,2,0,P|192:248|224:248,1,60.0000022888184,8|0,1:0|0:0,0:0:0:0:
376,216,47360,2,0,P|344:208|312:208,1,60.0000022888184,8|0,1:0|0:0,0:0:0:0:
432,48,47495,5,4,0:0:0:0:
464,65,47562,1,0,0:0:0:0:
487,95,47630,1,0,0:0:0:0:
496,131,47697,1,0,0:0:0:0:
491,168,47765,6,0,L|488:216,1,40,8|0,0:0|0:0,0:0:0:0:
456,272,47900,2,0,L|452:319,1,40
352,120,48035,6,0,P|376:128|392:144,1,40
272,160,48170,2,0,P|248:152|232:136,1,40
296,240,48305,6,0,L|304:280,1,40,8|0,0:0|0:0,0:0:0:0:
264,344,48440,2,0,L|272:384,1,40
136,328,48575,5,0,0:0:0:0:
112,336,48642,1,0,0:0:0:0:
88,336,48710,2,0,L|48:328,1,40
16,160,48845,5,8,0:0:0:0:
40,152,48912,1,0,0:0:0:0:
64,152,48980,2,0,L|104:160,1,40
160,224,49115,5,0,0:0:0:0:
192,246,49182,1,0,0:0:0:0:
231,251,49250,1,0,0:0:0:0:
267,234,49317,1,0,0:0:0:0:
296,207,49385,5,8,0:0:0:0:
327,181,49452,1,0,0:0:0:0:
365,170,49520,1,0,0:0:0:0:
404,176,49587,1,0,0:0:0:0:
440,194,49655,6,0,L|448:144,1,40
280,16,49790,2,0,L|272:64,1,40
336,272,49925,5,8,0:0:0:0:
336,272,49992,1,0,0:0:0:0:
336,272,50060,2,0,L|343:221,1,40
175,93,50195,2,0,L|167:141,1,40
232,344,50330,5,0,0:0:0:0:
232,344,50397,1,0,0:0:0:0:
232,344,50465,2,0,L|239:293,1,40,8|0,0:0|0:0,0:0:0:0:
71,165,50600,2,0,L|63:213,1,40
136,248,50735,6,0,L|184:240,3,40
248,192,51005,1,8,0:0:0:0:
264,192,51073,1,0,0:0:0:0:
280,200,51140,2,0,P|296:216|304:240,1,40
384,256,51275,5,0,0:0:0:0:
423,251,51342,1,0,0:0:0:0:
460,236,51410,1,0,0:0:0:0:
486,206,51477,1,0,0:0:0:0:
499,168,51545,5,8,0:0:0:0:
464,152,51612,1,0,0:0:0:0:
435,125,51680,1,0,0:0:0:0:
424,87,51747,1,0,0:0:0:0:
431,48,51815,6,0,L|384:56,1,40
208,80,51950,1,0,0:0:0:0:
208,80,52018,1,0,0:0:0:0:
208,80,52085,2,0,L|216:120,1,40,8|0,0:0|0:0,0:0:0:0:
431,48,52220,2,0,L|424:8,1,40
352,168,52355,5,0,0:0:0:0:
352,168,52423,1,0,0:0:0:0:
352,168,52490,2,0,L|400:176,1,40
208,80,52625,2,0,L|160:72,1,40,8|0,0:0|0:0,0:0:0:0:
40,128,52760,5,0,0:0:0:0:
40,128,52828,1,0,0:0:0:0:
40,128,52895,2,0,L|48:176,1,40
232,208,53030,2,0,L|224:168,1,40
112,328,53165,5,8,0:0:0:0:
112,328,53233,1,0,0:0:0:0:
112,328,53300,2,0,L|120:280,1,40
304,248,53435,2,0,L|296:288,1,40
392,352,53570,5,0,0:0:0:0:
392,352,53638,1,0,0:0:0:0:
392,352,53705,1,8,0:0:0:0:
432,336,53773,1,0,0:0:0:0:
456,304,53840,2,0,L|464:256,1,40
408,88,53975,6,0,L|416:128,1,40
280,80,54110,2,0,L|320:88,1,40
200,168,54245,2,0,L|240:128,1,40,8|0,0:0|0:0,0:0:0:0:
224,272,54380,5,0,0:0:0:0:
224,272,54448,1,0,0:0:0:0:
224,272,54515,2,0,L|176:280,1,40
64,240,54650,2,0,L|112:248,1,40
224,272,54785,5,8,0:0:0:0:
224,272,54853,1,0,0:0:0:0:
224,272,54920,2,0,L|272:264,1,40
328,328,55055,6,0,L|320:376,1,40
392,192,55190,6,0,L|384:240,1,40
464,48,55325,5,12,0:0:0:0:
426,80,55392,1,0,0:0:0:0:
379,96,55460,1,0,0:0:0:0:
330,92,55527,1,0,0:0:0:0:
286,69,55595,2,0,L|240:72,1,40,4|0,0:0|0:0,0:0:0:0:
184,48,55730,6,0,L|152:40,1,20
128,48,55798,2,0,L|104:40,1,20
82,66,55865,1,12,0:0:0:0:
47,102,55932,1,0,0:0:0:0:
32,149,56000,1,0,0:0:0:0:
38,198,56067,1,0,0:0:0:0:
64,240,56135,6,0,L|56:288,1,40,4|0,1:0|0:0,0:0:0:0:
312,184,56270,2,0,L|304:232,1,40,2|0,0:0|0:0,0:0:0:0:
136,296,56405,6,0,L|128:344,1,40,8|0,1:0|0:0,0:0:0:0:
384,240,56540,2,0,L|376:288,1,40,2|0,0:0|0:0,0:0:0:0:
96,128,56675,6,0,L|88:176,1,40,2|0,0:0|0:0,0:0:0:0:
344,72,56810,2,0,L|336:120,1,40,2|0,0:0|0:0,0:0:0:0:
168,184,56945,6,0,L|160:232,1,40,8|0,1:0|0:0,0:0:0:0:
416,128,57080,2,0,L|408:176,1,40,2|0,0:0|0:0,0:0:0:0:
184,112,57215,6,0,L|224:104,1,40,2|0,0:0|0:0,0:0:0:0:
64,48,57350,2,0,L|104:40,1,40,2|0,0:0|0:0,0:0:0:0:
400,128,57485,6,0,L|440:120,1,40,8|0,1:0|0:0,0:0:0:0:
280,64,57620,2,0,L|320:56,1,40,2|0,0:0|0:0,0:0:0:0:
440,192,57755,6,0,L|432:232,1,40,2|0,0:0|0:0,0:0:0:0:
320,240,57890,2,0,L|312:280,1,40,2|0,0:0|0:0,0:0:0:0:
280,184,58025,6,0,L|272:144,1,40,8|0,1:0|0:0,0:0:0:0:
160,136,58160,2,0,L|152:96,1,40,2|0,0:0|0:0,0:0:0:0:
88,264,58295,6,0,L|48:256,1,40,2|0,0:0|0:0,0:0:0:0:
224,224,58430,2,0,L|176:240,1,40,2|0,0:0|0:0,0:0:0:0:
448,168,58565,6,0,L|488:160,1,40,8|0,1:0|0:0,0:0:0:0:
312,128,58700,2,0,L|360:144,1,40,2|0,0:0|0:0,0:0:0:0:
80,80,58835,6,0,L|72:128,1,40,2|0,0:0|0:0,0:0:0:0:
224,40,58970,2,0,L|216:88,1,40,2|0,0:0|0:0,0:0:0:0:
280,256,59105,6,0,L|288:304,1,40,8|0,1:0|0:0,0:0:0:0:
424,296,59240,2,0,L|432:344,1,40,2|0,0:0|0:0,0:0:0:0:
496,88,59375,6,0,L|488:128,1,40,2|0,0:0|0:0,0:0:0:0:
384,136,59510,2,0,L|376:176,1,40,2|0,0:0|0:0,0:0:0:0:
8,128,59645,6,0,L|16:168,1,40,8|0,1:0|0:0,0:0:0:0:
120,176,59780,2,0,L|128:216,1,40,2|0,0:0|0:0,0:0:0:0:
424,208,59915,6,0,L|416:248,1,40,2|0,0:0|0:0,0:0:0:0:
312,256,60050,2,0,L|304:296,1,40,2|0,0:0|0:0,0:0:0:0:
80,248,60185,6,0,L|88:288,1,40,8|0,1:0|0:0,0:0:0:0:
192,296,60320,2,0,L|200:336,1,40,2|0,0:0|0:0,0:0:0:0:
304,184,60455,6,0,L|312:144,1,40,2|0,0:0|0:0,0:0:0:0:
440,40,60590,2,0,L|432:88,1,40,2|0,0:0|0:0,0:0:0:0:
304,184,60725,6,0,L|256:176,1,40,8|0,1:0|0:0,0:0:0:0:
440,40,60860,2,0,L|488:48,1,40,2|0,0:0|0:0,0:0:0:0:
40,144,60995,6,0,L|48:184,1,40,2|0,0:0|0:0,0:0:0:0:
176,288,61130,2,0,L|168:240,1,40,2|0,0:0|0:0,0:0:0:0:
40,144,61265,6,0,L|-8:152,1,40,8|0,1:0|0:0,0:0:0:0:
176,288,61400,2,0,L|224:280,1,40,2|0,0:0|0:0,0:0:0:0:
376,144,61535,6,0,L|384:184,1,40,2|0,0:0|0:0,0:0:0:0:
208,72,61670,2,0,L|248:64,1,40,2|0,0:0|0:0,0:0:0:0:
304,312,61805,2,0,L|264:320,1,40,8|0,1:0|0:0,0:0:0:0:
136,240,61940,2,0,L|128:200,1,40,2|0,0:0|0:0,0:0:0:0:
376,144,62075,6,0,L|424:136,1,40,2|0,0:0|0:0,0:0:0:0:
208,72,62210,2,0,L|200:32,1,40,2|0,0:0|0:0,0:0:0:0:
136,240,62345,2,0,L|96:232,1,40,8|0,1:0|0:0,0:0:0:0:
304,312,62480,2,0,L|312:352,1,40,2|0,0:0|0:0,0:0:0:0:
232,192,62615,5,0,0:0:0:0:
488,168,62750,1,0,0:0:0:0:
232,192,62885,1,8,0:0:0:0:
488,168,63020,1,0,0:0:0:0:
24,112,63155,5,0,0:0:0:0:
280,136,63290,1,0,0:0:0:0:
24,112,63425,1,8,0:0:0:0:
280,136,63560,1,0,0:0:0:0:
40,240,63695,5,8,0:0:0:0:
39,289,63762,1,0,0:0:0:0:
66,330,63830,1,0,0:0:0:0:
112,349,63897,1,0,0:0:0:0:
160,336,63965,6,0,L|224:328,1,60.0000022888184,12|0,0:0|0:0,0:0:0:0:
320,288,64100,2,0,L|384:280,1,60.0000022888184
488,104,64235,5,8,0:0:0:0:
428,88,64302,1,0,0:0:0:0:
369,110,64370,2,0,L|368:144,2,30.0000011444092
264,64,64505,6,0,P|232:64|200:72,1,60.0000022888184,12|0,0:0|0:0,0:0:0:0:
0,176,64640,2,0,P|32:176|64:168,1,60.0000022888184
160,248,64775,5,6,0:0:0:0:
160,248,64843,2,0,L|224:240,1,60.0000022888184
424,200,64978,1,6,0:0:0:0:
424,200,65046,2,0,L|360:192,1,60.0000022888184,8|0,0:0|0:0,0:0:0:0:
80,176,65180,2,0,P|112:168|144:144,1,60.0000022888184,2|0,0:0|0:0,0:0:0:0:
168,8,65315,5,0,0:0:0:0:
168,8,65383,2,0,L|240:0,2,60.0000022888184,2|0|0,0:0|0:0|0:0,0:0:0:0:
320,40,65585,2,0,L|312:112,1,60.0000022888184,10|0,0:0|0:0,0:0:0:0:
448,72,65720,2,0,L|440:136,1,60.0000022888184,2|0,0:0|0:0,0:0:0:0:
432,288,65855,6,0,L|496:296,2,60.0000022888184,2|0|0,0:0|0:0|0:0,0:0:0:0:
352,352,66058,2,0,P|320:352|288:336,2,60.0000022888184,2|8|0,0:0|0:0|0:0,0:0:0:0:
240,256,66260,2,0,L|176:264,1,60.0000022888184,2|0,0:0|0:0,0:0:0:0:
80,312,66395,5,0,0:0:0:0:
80,312,66463,2,0,P|64:280|64:256,2,60.0000022888184,2|0|0,0:0|0:0|0:0,0:0:0:0:
128,120,66665,2,0,L|112:184,1,60.0000022888184,10|0,0:0|0:0,0:0:0:0:
288,16,66800,2,0,L|272:80,1,60.0000022888184,2|0,0:0|0:0,0:0:0:0:
400,168,66935,5,2,0:0:0:0:
400,168,67003,2,2,P|440:176|464:192,1,60.0000022888184,0|0,0:0|0:0,0:0:0:0:
296,248,67138,1,2,0:0:0:0:
296,248,67206,2,2,P|256:256|232:272,1,60.0000022888184,8|0,0:0|0:0,0:0:0:0:
112,232,67340,2,0,L|120:168,1,60.0000022888184,2|0,0:0|0:0,0:0:0:0:
64,40,67475,5,0,0:0:0:0:
64,40,67543,2,0,P|56:72|56:104,2,60.0000022888184,2|0|0,0:0|0:0|0:0,0:0:0:0:
200,128,67745,2,0,L|264:120,1,60.0000022888184,10|0,0:0|0:0,0:0:0:0:
360,192,67880,2,0,L|424:184,1,60.0000022888184,2|0,0:0|0:0,0:0:0:0:
464,64,68015,6,0,P|472:96|464:128,1,60.0000022888184,2|0,0:0|0:0,0:0:0:0:
440,336,68150,1,0,0:0:0:0:
384,312,68218,1,2,0:0:0:0:
368,252,68285,2,0,L|376:188,1,60.0000022888184,8|0,0:0|0:0,0:0:0:0:
80,168,68420,6,0,P|112:160|144:160,1,60.0000022888184,2|0,0:0|0:0,0:0:0:0:
360,128,68555,6,0,L|296:136,1,60.0000022888184,14|0,0:0|0:0,0:0:0:0:
32,136,68690,2,0,P|64:144|96:144,1,60.0000022888184,2|0,0:0|0:0,0:0:0:0:
456,160,68825,6,0,L|392:152,1,60.0000022888184,14|0,0:0|0:0,0:0:0:0:
0,200,68960,2,0,L|72:192,1,60.0000022888184,2|0,0:0|0:0,0:0:0:0:
496,192,69095,5,6,0:0:0:0:
496,192,69163,2,0,P|504:160|504:128,1,60.0000022888184
304,48,69298,1,2,0:0:0:0:
304,48,69366,2,0,P|296:80|296:112,1,60.0000022888184,8|0,0:0|0:0,0:0:0:0:
312,232,69500,2,0,P|320:200|320:168,1,60.0000022888184,2|0,0:0|0:0,0:0:0:0:
232,128,69635,5,2,0:0:0:0:
184,168,69703,1,0,0:0:0:0:
136,136,69770,1,0,0:0:0:0:
88,176,69838,1,0,0:0:0:0:
32,152,69905,6,0,P|32:120|40:88,1,60.0000022888184,10|0,0:0|0:0,0:0:0:0:
128,0,70040,2,0,L|120:64,1,60.0000022888184,2|0,0:0|0:0,0:0:0:0:
296,168,70175,6,0,L|360:160,1,60.0000022888184,2|0,0:0|0:0,0:0:0:0:
512,200,70310,2,0,L|448:192,1,60.0000022888184,2|0,0:0|0:0,0:0:0:0:
208,208,70445,6,0,L|216:272,1,60.0000022888184,10|0,0:0|0:0,0:0:0:0:
120,368,70580,2,0,P|112:336|120:304,1,60.0000022888184,2|0,0:0|0:0,0:0:0:0:
320,264,70715,6,0,L|392:256,1,60.0000022888184,2|0,0:0|0:0,0:0:0:0:
496,296,70850,2,0,L|432:304,1,60.0000022888184,2|0,0:0|0:0,0:0:0:0:
351,162,70985,6,0,P|352:132|360:104,1,60.0000022888184,10|0,0:0|0:0,0:0:0:0:
448,61,71120,2,0,P|447:91|440:120,1,60.0000022888184,2|0,0:0|0:0,0:0:0:0:
248,112,71255,5,2,0:0:0:0:
216,96,71323,1,0,0:0:0:0:
184,104,71390,1,2,0:0:0:0:
152,88,71458,1,0,0:0:0:0:
120,96,71525,6,0,L|72:104,3,40,10|0|2|0,0:0|0:0|0:0|0:0,0:0:0:0:
8,328,71795,6,0,L|8:288,1,40,2|0,0:0|0:0,0:0:0:0:
104,248,71930,2,0,L|104:288,1,40,2|0,0:0|0:0,0:0:0:0:
256,272,72065,6,0,L|320:264,1,60.0000022888184,10|0,0:0|0:0,0:0:0:0:
400,328,72200,2,0,L|464:320,1,60.0000022888184,2|0,0:0|0:0,0:0:0:0:
488,176,72335,5,2,0:0:0:0:
488,176,72403,2,0,P|496:144|496:112,1,60.0000022888184
392,32,72538,1,2,0:0:0:0:
392,32,72605,2,0,L|400:96,1,60.0000022888184,8|0,0:0|0:0,0:0:0:0:
328,208,72740,2,0,P|296:200|256:200,1,60.0000022888184,2|0,0:0|0:0,0:0:0:0:
144,224,72875,6,0,L|184:232,2,40.000001525879,2|0|0,0:0|0:0|0:0,0:0:0:0:
72,200,73010,2,0,L|8:208,1,60.0000022888184,8|0,0:0|0:0,0:0:0:0:
152,144,73145,5,10,0:0:0:0:
216,176,73213,1,0,0:0:0:0:
288,160,73280,1,10,0:0:0:0:
344,112,73348,1,8,0:0:0:0:
360,40,73415,6,0,L|424:48,1,60.0000022888184,6|0,0:0|0:0,0:0:0:0:
488,56,73550,2,0,L|416:64,1,60.0000022888184,2|0,0:0|0:0,0:0:0:0:
232,104,73685,6,0,L|304:96,1,60.0000022888184,10|0,0:0|0:0,0:0:0:0:
440,136,73820,2,0,L|368:128,1,60.0000022888184,2|0,0:0|0:0,0:0:0:0:
216,152,73955,6,0,L|152:144,1,60.0000022888184,2|0,0:0|0:0,0:0:0:0:
88,112,74090,2,0,L|24:104,1,60.0000022888184,2|0,0:0|0:0,0:0:0:0:
288,248,74225,6,0,L|352:240,1,60.0000022888184,10|0,0:0|0:0,0:0:0:0:
440,208,74360,2,0,L|504:200,1,60.0000022888184,2|0,0:0|0:0,0:0:0:0:
216,288,74495,5,2,0:0:0:0:
120,264,74585,1,2,0:0:0:0:
216,288,74675,1,2,0:0:0:0:
264,208,74765,6,0,P|272:176|272:144,1,60.0000022888184,10|0,0:0|0:0,0:0:0:0:
208,72,74900,2,0,L|216:0,1,60.0000022888184,2|0,0:0|0:0,0:0:0:0:
400,144,75035,6,0,P|368:144|336:136,1,60.0000022888184,2|0,0:0|0:0,0:0:0:0:
448,80,75170,2,0,L|512:72,1,60.0000022888184,2|0,0:0|0:0,0:0:0:0:
408,224,75305,6,0,L|416:288,1,60.0000022888184,2|0,0:2|0:0,0:0:0:0:
280,355,75440,2,0,L|288:296,1,60.0000022888184,2|0,0:2|0:0,0:0:0:0:
88,240,75575,6,0,P|56:240|24:248,1,60.0000022888184,2|0,0:0|0:0,0:0:0:0:
152,200,75710,2,0,L|216:208,1,60.0000022888184,2|0,0:0|0:0,0:0:0:0:
312,80,75845,6,0,L|296:144,1,60.0000022888184,10|0,0:0|0:0,0:0:0:0:
432,48,75980,2,0,L|416:112,1,60.0000022888184,2|0,0:0|0:0,0:0:0:0:
448,288,76115,6,0,P|480:288|512:280,1,60.0000022888184,2|0,0:0|0:0,0:0:0:0:
320,264,76250,2,0,P|326:293|326:323,1,60.0000022888184,2|0,0:0|0:0,0:0:0:0:
240,88,76385,6,0,P|239:117|246:147,1,60.0000022888184,10|0,0:0|0:0,0:0:0:0:
118,122,76520,2,0,P|88:122|59:129,1,60.0000022888184,2|0,0:0|0:0,0:0:0:0:
16,304,76655,6,0,L|8:240,1,60.0000022888184,2|0,0:0|0:0,0:0:0:0:
128,344,76790,2,0,L|120:280,1,60.0000022888184,2|0,0:0|0:0,0:0:0:0:
336,224,76925,6,0,L|344:160,1,60.0000022888184,10|0,0:0|0:0,0:0:0:0:
240,264,77060,2,0,L|248:200,1,60.0000022888184,2|0,0:0|0:0,0:0:0:0:
88,52,77195,6,0,L|96:112,1,60.0000022888184,2|0,0:0|0:0,0:0:0:0:
160,92,77330,2,0,L|168:152,1,60.0000022888184,2|0,0:0|0:0,0:0:0:0:
415,20,77465,6,0,L|408:80,1,60.0000022888184,10|0,0:0|0:0,0:0:0:0:
303,60,77600,2,0,L|296:120,1,60.0000022888184,2|0,0:0|0:0,0:0:0:0:
480,160,77735,5,2,0:0:0:0:
480,160,77803,2,0,P|488:192|488:224,1,60.0000022888184
352,304,77938,1,2,0:0:0:0:
352,304,78006,2,0,P|344:336|344:368,1,60.0000022888184,8|0,0:0|0:0,0:0:0:0:
272,192,78140,2,0,L|264:120,1,60.0000022888184,2|0,0:0|0:0,0:0:0:0:
160,280,78275,5,2,0:0:0:0:
104,320,78343,1,0,0:0:0:0:
40,296,78410,2,0,P|24:272|24:240,1,60.0000022888184,2|0,0:0|0:0,0:0:0:0:
96,80,78545,2,0,L|88:144,1,60.0000022888184,10|0,0:0|0:0,0:0:0:0:
200,192,78680,2,0,L|208:128,1,60.0000022888184,2|0,0:0|0:0,0:0:0:0:
368,96,78815,6,0,P|400:84|432:88,3,60.0000022888184,2|0|2|0,0:0|0:0|0:0|0:0,0:0:0:0:
440,208,79085,2,0,P|408:220|376:216,3,60.0000022888184,10|0|2|0,0:0|0:0|0:0|0:0,0:0:0:0:
272,112,79355,5,2,0:0:0:0:
272,112,79423,2,0,P|272:80|280:48,1,60.0000022888184
120,168,79558,1,2,0:0:0:0:
120,168,79626,2,0,P|120:200|112:232,1,60.0000022888184,8|0,0:0|0:0,0:0:0:0:
208,352,79760,2,0,L|200:288,1,60.0000022888184,2|0,0:0|0:0,0:0:0:0:
416,224,79895,6,0,L|408:288,1,60.0000022888184,2|0,0:0|0:0,0:0:0:0:
304,184,80030,2,0,L|296:248,1,60.0000022888184,0|2,0:0|0:0,0:0:0:0:
192,144,80165,2,0,L|184:208,1,60.0000022888184,8|0,0:0|0:0,0:0:0:0:
80,104,80300,2,0,L|72:168,1,60.0000022888184,2|0,0:0|0:0,0:0:0:0:
8,312,80435,6,0,L|0:252,1,60.0000022888184,0|10,0:0|0:0,0:0:0:0:
136,272,80570,2,0,L|128:212,1,60.0000022888184
264,232,80705,2,0,L|256:172,1,60.0000022888184,10|0,0:0|0:0,0:0:0:0:
392,192,80840,2,0,L|384:132,1,60.0000022888184,2|0,0:0|0:0,0:0:0:0:
512,0,80975,6,0,L|504:64,1,60.0000022888184,14|0,0:0|0:0,0:0:0:0:
256,112,81110,1,0,0:0:0:0:
256,112,81178,1,0,0:0:0:0:
256,112,81245,2,0,L|264:48,1,60.0000022888184,14|0,0:0|0:0,0:0:0:0:
424,256,81380,1,0,0:0:0:0:
424,256,81448,1,0,0:0:0:0:
424,256,81515,6,0,L|416:224,2,30.0000011444092,14|0|0,0:0|0:0|0:0,0:0:0:0:
392,320,81650,5,0,0:0:0:0:
328,352,81718,1,0,0:0:0:0:
256,336,81785,2,0,P|224:332|184:336,1,60.0000022888184,14|0,0:0|0:0,0:0:0:0:
80,256,81920,5,0,0:0:0:0:
96,160,81988,1,0,0:0:0:0:
112,64,82055,1,6,0:0:0:0:
152,104,82190,5,0,2:0:0:0:
72,88,82325,1,0,0:0:0:0:
120,32,82460,1,0,0:0:0:0:
368,104,82595,5,2,0:0:0:0:
272,88,82730,1,0,0:0:0:0:
368,104,82865,1,0,0:0:0:0:
320,184,83000,1,0,0:0:0:0:
400,272,83135,5,2,0:0:0:0:
480,320,83270,1,0,0:0:0:0:
400,272,83405,1,0,0:0:0:0:
408,176,83540,1,0,0:0:0:0:
248,312,83675,5,2,0:0:0:0:
232,216,83810,1,0,0:0:0:0:
248,312,83945,1,2,0:0:0:0:
152,336,84080,1,0,0:0:0:0:
64,296,84215,5,2,0:0:0:0:
160,280,84350,1,0,0:0:0:0:
176,184,84485,1,0,0:0:0:0:
80,200,84620,1,0,0:0:0:0:
224,88,84755,5,2,0:0:0:0:
136,48,84890,1,0,0:0:0:0:
224,88,85025,1,0,0:0:0:0:
312,56,85160,1,0,0:0:0:0:
288,192,85295,5,2,0:0:0:0:
384,208,85430,1,0,0:0:0:0:
472,176,85565,1,2,0:0:0:0:
504,88,85700,1,0,0:0:0:0:
448,264,85835,5,2,0:0:0:0:
360,216,85970,1,0,0:0:0:0:
256,216,86105,1,2,0:0:0:0:
168,280,86240,1,0,0:0:0:0:
120,376,86375,5,2,0:0:0:0:
24,384,86510,1,0,0:0:0:0:
120,376,86645,1,0,0:0:0:0:
72,296,86780,1,0,0:0:0:0:
128,136,86915,5,2,0:0:0:0:
56,200,87050,1,0,0:0:0:0:
128,136,87185,1,0,0:0:0:0:
128,232,87320,1,0,0:0:0:0:
248,88,87455,5,2,0:0:0:0:
272,184,87590,1,0,0:0:0:0:
384,128,87725,1,0,0:0:0:0:
392,32,87860,1,0,0:0:0:0:
480,200,87995,5,2,0:0:0:0:
496,104,88130,1,0,0:0:0:0:
480,200,88265,1,2,0:0:0:0:
464,296,88400,1,0,0:0:0:0:
368,312,88535,5,2,0:0:0:0:
272,312,88670,1,0,0:0:0:0:
192,360,88805,1,0,0:0:0:0:
272,312,88940,1,0,0:0:0:0:
368,312,89075,5,2,0:0:0:0:
256,288,89210,1,0,0:0:0:0:
176,216,89345,1,2,0:0:0:0:
192,104,89480,1,0,1:0:0:0:
192,104,89548,1,0,1:0:0:0:
192,104,89615,5,0,1:0:0:0:
213,120,89682,1,0,0:0:0:0:
238,127,89750,1,0,0:0:0:0:
264,125,89817,1,0,0:0:0:0:
288,112,89885,5,0,1:0:0:0:
327,111,89952,1,0,0:0:0:0:
364,124,90020,1,0,0:0:0:0:
394,151,90087,1,0,0:0:0:0:
408,184,90155,5,0,1:0:0:0:
387,200,90222,1,0,0:0:0:0:
362,207,90290,1,0,0:0:0:0:
336,205,90357,1,0,0:0:0:0:
312,192,90425,5,0,1:0:0:0:
273,191,90492,1,0,0:0:0:0:
236,204,90560,1,0,0:0:0:0:
206,231,90627,1,0,0:0:0:0:
200,272,90695,5,0,1:0:0:0:
173,274,90762,1,0,0:0:0:0:
146,276,90830,1,0,0:0:0:0:
120,279,90897,1,0,0:0:0:0:
88,296,90965,5,0,1:0:0:0:
105,260,91032,1,0,0:0:0:0:
105,220,91100,1,0,0:0:0:0:
87,185,91167,1,0,0:0:0:0:
64,152,91235,5,0,1:0:0:0:
90,150,91302,1,0,0:0:0:0:
117,148,91370,1,0,0:0:0:0:
143,145,91437,1,0,0:0:0:0:
176,152,91505,5,0,1:0:0:0:
158,116,91572,1,0,0:0:0:0:
158,76,91640,1,0,0:0:0:0:
176,41,91707,1,0,0:0:0:0:
200,16,91775,5,0,1:0:0:0:
223,28,91842,1,0,0:0:0:0:
249,32,91910,1,0,0:0:0:0:
276,28,91977,1,0,0:0:0:0:
304,16,92045,5,0,1:0:0:0:
343,19,92112,1,0,0:0:0:0:
383,23,92180,1,0,0:0:0:0:
423,27,92247,1,0,0:0:0:0:
456,56,92315,5,0,1:0:0:0:
448,81,92382,1,0,0:0:0:0:
451,107,92450,1,0,0:0:0:0:
465,129,92517,1,0,0:0:0:0:
488,152,92586,5,0,1:0:0:0:
448,155,92653,1,0,0:0:0:0:
408,159,92721,1,0,0:0:0:0:
368,163,92788,1,0,0:0:0:0:
336,192,92855,5,0,1:0:0:0:
321,221,92922,1,0,0:0:0:0:
323,254,92990,1,0,0:0:0:0:
342,281,93057,1,0,0:0:0:0:
368,296,93125,5,0,1:0:0:0:
333,323,93192,1,0,0:0:0:0:
289,331,93260,1,0,0:0:0:0:
247,316,93327,1,0,0:0:0:0:
224,288,93395,5,0,1:0:0:0:
239,258,93462,1,0,0:0:0:0:
237,225,93530,1,0,0:0:0:0:
218,198,93597,1,0,0:0:0:0:
192,184,93665,6,0,P|168:184|144:192,1,40,0|0,1:0|0:0,0:0:0:0:
92,296,93800,2,0,P|116:296|140:288,1,40,0|0,1:0|0:0,0:0:0:0:
48,168,93935,5,0,1:0:0:0:
73,135,94002,1,0,0:0:0:0:
79,95,94070,1,2,0:0:0:0:
64,57,94137,1,0,0:0:0:0:
32,24,94205,5,0,1:0:0:0:
73,51,94272,1,0,0:0:0:0:
121,64,94340,1,2,0:0:0:0:
170,59,94407,1,0,0:0:0:0:
215,38,94475,5,0,1:0:0:0:
246,65,94542,1,0,0:0:0:0:
286,73,94610,1,2,0:0:0:0:
325,58,94677,1,0,0:0:0:0:
352,32,94745,5,0,1:0:0:0:
401,32,94812,1,0,0:0:0:0:
443,58,94880,1,2,0:0:0:0:
464,102,94947,1,0,0:0:0:0:
459,151,95015,5,0,1:0:0:0:
420,172,95082,1,0,0:0:0:0:
395,210,95150,1,2,0:0:0:0:
391,254,95217,1,0,0:0:0:0:
407,295,95285,5,0,1:0:0:0:
360,281,95352,1,0,0:0:0:0:
311,288,95420,1,2,0:0:0:0:
269,314,95487,1,0,0:0:0:0:
241,355,95555,5,0,1:0:0:0:
206,328,95622,1,0,0:0:0:0:
163,317,95690,1,2,0:0:0:0:
119,327,95757,1,0,0:0:0:0:
88,352,95825,5,0,1:0:0:0:
112,309,95892,1,0,0:0:0:0:
112,259,95960,1,2,0:0:0:0:
89,216,96027,1,0,0:0:0:0:
47,189,96095,6,0,L|56:120,1,60.0000022888184,0|0,1:0|0:0,0:0:0:0:
232,40,96230,1,0,1:0:0:0:
216,104,96298,1,0,1:0:0:0:
192,168,96365,2,0,P|224:168|256:160,1,60.0000022888184,0|0,1:0|0:0,0:0:0:0:
432,136,96500,2,0,L|368:128,1,60.0000022888184,0|0,1:0|0:0,0:0:0:0:
128,240,96635,6,0,L|136:304,1,60.0000022888184,0|0,1:0|0:0,0:0:0:0:
8,208,96770,2,0,L|16:272,1,60.0000022888184,0|0,1:0|0:0,0:0:0:0:
352,288,96905,1,0,1:0:0:0:
416,280,96973,1,0,1:0:0:0:
480,272,97040,2,0,P|480:304|464:336,1,60.0000022888184,0|0,1:0|0:0,0:0:0:0:
313,192,97175,5,0,1:0:0:0:
275,155,97242,1,0,0:0:0:0:
272,103,97310,1,0,1:0:0:0:
306,63,97377,1,0,0:0:0:0:
359,57,97445,2,0,L|424:64,1,60.0000022888184,0|0,1:0|0:0,0:0:0:0:
512,184,97580,2,0,L|447:177,1,60.0000022888184,0|0,1:0|0:0,0:0:0:0:
224,280,97715,5,0,1:0:0:0:
182,310,97782,1,0,1:0:0:0:
130,320,97850,1,0,1:0:0:0:
80,307,97917,1,0,1:0:0:0:
32,320,97985,5,0,1:0:0:0:
0,264,98052,1,0,1:0:0:0:
8,200,98120,1,0,1:0:0:0:
48,148,98187,1,0,1:0:0:0:
8,80,98255,5,4,1:0:0:0:
0,96,99065,1,12,1:0:0:0:
200,48,99335,6,0,L|192:112,2,60.0000022888184,6|0|0,1:0|1:0|1:0,1:0:0:0:
272,64,99538,2,0,L|264:128,2,60.0000022888184,2|8|0,1:0|1:0|1:0,1:0:0:0:
344,80,99740,2,0,L|336:144,1,60.0000022888184,2|0,0:0|0:0,0:0:0:0:
384,296,99875,5,0,0:0:0:0:
384,296,99943,2,0,L|376:232,2,60.0000022888184,2|0|0,0:0|0:0|0:0,0:0:0:0:
312,288,100145,2,0,L|304:224,1,60.0000022888184,10|0,0:0|0:0,0:0:0:0:
240,280,100280,2,0,L|232:216,1,60.0000022888184,2|0,0:0|0:0,0:0:0:0:
144,248,100415,6,0,L|80:256,2,60.0000022888184,2|0|0,1:0|1:0|1:0,1:0:0:0:
128,176,100618,2,0,L|64:184,2,60.0000022888184,2|8|0,1:0|1:0|1:0,1:0:0:0:
112,104,100820,2,0,L|48:112,1,60.0000022888184,2|0,0:0|0:0,0:0:0:0:
224,48,100955,5,0,0:0:0:0:
224,48,101023,2,0,L|288:56,2,60.0000022888184,2|0|0,0:0|0:0|0:0,0:0:0:0:
232,120,101225,2,0,L|296:128,1,60.0000022888184,10|0,0:0|0:0,0:0:0:0:
240,192,101360,2,0,L|304:200,1,60.0000022888184,2|0,0:0|0:0,0:0:0:0:
440,256,101496,6,0,P|464:280|472:312,2,60.0000022888184,2|0|0,0:0|0:0|0:0,0:0:0:0:
376,224,101698,2,0,P|343:232|311:223,2,60.0000022888184,2|8|0,0:0|0:0|0:0,0:0:0:0:
432,184,101901,2,0,P|440:151|464:128,1,60.0000022888184,2|0,0:0|0:0,0:0:0:0:
336,136,102036,5,0,0:0:0:0:
336,136,102103,2,0,P|366:151|399:149,2,60.0000022888184,2|0|0,0:0|0:0|0:0,0:0:0:0:
285,85,102306,2,0,P|283:51|264:23,1,60.0000022888184,10|0,0:0|0:0,0:0:0:0:
265,150,102441,2,0,P|236:168|222:198,1,60.0000022888184,2|0,0:0|0:0,0:0:0:0:
176,260,102576,6,0,L|112:256,1,60.0000022888184,2|0,0:0|0:0,0:0:0:0:
24,176,102711,1,0,0:0:0:0:
24,176,102778,1,2,0:0:0:0:
24,176,102846,6,0,L|88:180,1,60.0000022888184,12|0,0:0|0:0,0:0:0:0:
60,308,102981,2,0,L|-4:304,1,60.0000022888184,2|0,0:0|0:0,0:0:0:0:
176,112,103116,6,0,L|240:116,1,60.0000022888184,14|0,0:0|0:0,0:0:0:0:
208,288,103251,2,0,L|144:284,1,60.0000022888184,2|0,0:0|0:0,0:0:0:0:
344,56,103386,6,0,L|408:60,1,60.0000022888184,14|0,0:0|0:0,0:0:0:0:
360,272,103521,2,0,L|296:268,1,60.0000022888184,2|0,0:0|0:0,0:0:0:0:
452,120,103656,6,0,P|484:120|508:108,2,60.0000022888184,6|0|0,0:0|0:0|0:0,0:0:0:0:
384,80,103858,2,0,P|352:80|328:68,2,60.0000022888184,2|8|0,0:0|0:0|0:0,0:0:0:0:
256,96,104061,2,0,L|192:104,1,60.0000022888184,2|0,0:0|0:0,0:0:0:0:
48,152,104196,5,2,0:0:0:0:
48,152,104263,1,0,0:0:0:0:
48,152,104331,2,0,P|88:152|112:144,1,60.0000022888184,2|0,0:0|0:0,0:0:0:0:
264,184,104466,5,10,0:0:0:0:
264,184,104533,1,0,0:0:0:0:
264,184,104601,2,0,P|224:184|200:176,1,60.0000022888184,2|0,0:0|0:0,0:0:0:0:
0,112,104736,5,2,0:0:0:0:
0,112,104803,1,0,0:0:0:0:
0,112,104871,2,0,P|40:112|64:120,1,60.0000022888184,2|0,0:0|0:0,0:0:0:0:
320,152,105006,5,10,0:0:0:0:
320,152,105073,1,0,0:0:0:0:
320,152,105141,2,0,P|280:152|256:160,1,60.0000022888184,2|0,0:0|0:0,0:0:0:0:
40,208,105276,6,0,L|48:272,1,60.0000022888184,2|0,0:0|0:0,0:0:0:0:
120,232,105411,2,0,L|128:296,1,60.0000022888184,2|0,0:0|0:0,0:0:0:0:
248,80,105546,6,0,L|240:144,1,60.0000022888184,10|0,0:0|0:0,0:0:0:0:
168,104,105681,2,0,L|160:168,1,60.0000022888184,2|0,0:0|0:0,0:0:0:0:
336,216,105816,5,2,0:0:0:0:
336,216,105883,1,0,0:0:0:0:
336,216,105951,2,2,P|344:184|344:152,1,60.0000022888184
400,272,106086,5,10,0:0:0:0:
400,272,106153,1,0,0:0:0:0:
400,272,106221,2,2,P|426:252|447:228,1,60.0000022888184
432,344,106356,5,2,0:0:0:0:
432,344,106423,1,0,0:0:0:0:
432,344,106491,2,2,P|464:346|496:340,1,60.0000022888184
512,152,106626,5,10,0:0:0:0:
512,152,106693,1,0,0:0:0:0:
512,152,106761,2,2,P|479:149|447:155,1,60.0000022888184
312,232,106896,6,0,L|376:224,1,60.0000022888184,2|0,0:0|0:0,0:0:0:0:
224,152,107031,2,0,L|160:160,1,60.0000022888184,0|2,0:0|0:0,0:0:0:0:
48,328,107166,2,0,L|112:320,1,60.0000022888184,8|0,0:0|0:0,0:0:0:0:
296,72,107301,5,2,0:0:0:0:
296,72,107368,1,0,0:0:0:0:
296,72,107436,1,4,0:0:0:0:
328,56,107503,1,2,0:0:0:0:
368,56,107571,2,0,L|408:48,2,30.0000011444092,8|0|0,0:0|0:0|0:0,0:0:0:0:
448,96,107706,5,10,0:0:0:0:
479,127,107773,1,0,0:0:0:0:
496,168,107841,1,10,0:0:0:0:
494,213,107908,1,8,0:0:0:0:
474,253,107976,6,0,L|408:248,1,60.0000022888184,6|0,0:0|0:0,0:0:0:0:
344,224,108111,2,0,L|278:219,1,60.0000022888184,2|0,0:0|0:0,0:0:0:0:
40,216,108246,6,0,L|106:211,1,60.0000022888184,14|0,0:0|0:0,0:0:0:0:
170,187,108381,2,0,L|236:182,1,60.0000022888184,2|0,0:0|0:0,0:0:0:0:
432,176,108516,6,0,P|456:152|464:120,1,60.0000022888184,2|0,0:0|0:0,0:0:0:0:
368,104,108651,2,0,P|382:73|378:40,1,60.0000022888184,2|0,0:0|0:0,0:0:0:0:
80,136,108786,6,0,P|56:112|48:80,1,60.0000022888184,10|0,0:0|0:0,0:0:0:0:
144,64,108921,2,0,P|129:33|133:0,1,60.0000022888184,2|0,0:0|0:0,0:0:0:0:
288,112,109056,5,2,0:0:0:0:
304,40,109146,1,0,0:0:0:0:
288,112,109236,1,0,0:0:0:0:
272,184,109326,1,10,0:0:0:0:
336,328,109461,1,2,0:0:0:0:
336,328,109528,1,0,0:0:0:0:
336,328,109596,6,0,P|352:296|344:256,1,60.0000022888184,2|0,0:0|0:0,0:0:0:0:
232,304,109731,2,0,P|216:336|224:376,1,60.0000022888184,2|0,0:0|0:0,0:0:0:0:
336,328,109866,2,0,L|400:320,1,60.0000022888184,2|0,0:2|0:0,0:0:0:0:
232,304,110001,2,0,L|168:312,1,60.0000022888184,2|0,0:2|0:0,0:0:0:0:
48,248,110136,6,0,P|48:280|56:312,1,60.0000022888184,2|0,0:0|0:0,0:0:0:0:
88,176,110271,2,0,L|104:104,1,60.0000022888184,2|0,0:0|0:0,0:0:0:0:
256,216,110406,6,0,L|192:200,1,60.0000022888184,10|0,0:0|0:0,0:0:0:0:
384,264,110541,2,0,L|320:248,1,60.0000022888184,2|0,0:0|0:0,0:0:0:0:
464,176,110676,6,0,P|464:208|456:240,1,60.0000022888184,2|0,0:0|0:0,0:0:0:0:
424,104,110811,2,0,L|408:32,1,60.0000022888184,2|0,0:0|0:0,0:0:0:0:
264,128,110946,6,0,L|328:144,1,60.0000022888184,10|0,0:0|0:0,0:0:0:0:
136,80,111081,2,0,L|200:96,1,60.0000022888184,2|0,0:0|0:0,0:0:0:0:
64,264,111216,6,0,L|128:256,1,60.0000022888184,2|0,0:0|0:0,0:0:0:0:
24,152,111351,2,0,L|88:144,1,60.0000022888184,2|0,0:0|0:0,0:0:0:0:
280,312,111486,6,0,L|216:304,1,60.0000022888184,10|0,0:0|0:0,0:0:0:0:
328,216,111621,2,0,L|264:208,1,60.0000022888184,2|0,0:0|0:0,0:0:0:0:
504,344,111756,6,0,P|512:312|512:280,1,60.0000022888184,2|0,0:0|0:0,0:0:0:0:
344,304,111891,2,0,P|344:272|352:240,1,60.0000022888184,2|0,0:0|0:0,0:0:0:0:
453,68,112026,6,0,P|453:98|448:128,1,60.0000022888184,10|0,0:0|0:0,0:0:0:0:
256,96,112161,2,0,P|248:125|248:155,1,60.0000022888184,2|0,0:0|0:0,0:0:0:0:
56,136,112296,5,2,0:0:0:0:
56,136,112363,2,0,L|48:72,1,60.0000022888184
184,160,112499,1,2,0:0:0:0:
184,160,112566,2,0,L|176:96,1,60.0000022888184,8|0,0:0|0:0,0:0:0:0:
312,184,112701,2,0,L|304:120,1,60.0000022888184,2|0,0:0|0:0,0:0:0:0:
440,48,112836,5,0,0:0:0:0:
440,48,112903,2,0,P|440:80|432:112,2,60.0000022888184,2|0|0,0:0|0:0|0:0,0:0:0:0:
512,184,113106,2,0,L|440:176,1,60.0000022888184,10|0,0:0|0:0,0:0:0:0:
296,280,113241,2,0,L|360:272,1,60.0000022888184,2|0,0:0|0:0,0:0:0:0:
184,216,113376,6,0,P|184:248|192:280,1,60.0000022888184,2|0,0:0|0:0,0:0:0:0:
72,248,113511,2,0,P|72:280|80:312,1,60.0000022888184,2|0,0:0|0:0,0:0:0:0:
160,88,113646,2,0,P|160:120|152:152,1,60.0000022888184,10|0,0:0|0:0,0:0:0:0:
272,120,113781,2,0,P|272:152|264:184,1,60.0000022888184,2|0,0:0|0:0,0:0:0:0:
432,128,113916,6,0,L|504:120,1,60.0000022888184,2|0,0:0|0:0,0:0:0:0:
368,216,114051,1,0,0:0:0:0:
368,216,114118,2,0,L|304:208,1,60.0000022888184,2|8,0:0|0:0,0:0:0:0:
440,296,114253,1,0,0:0:0:0:
440,296,114320,2,0,L|504:288,1,60.0000022888184,2|0,0:0|0:0,0:0:0:0:
232,352,114456,6,0,P|232:320|240:280,1,60.0000022888184,2|0,0:0|0:0,0:0:0:0:
168,200,114591,1,0,0:0:0:0:
128,232,114658,1,2,0:0:0:0:
80,232,114726,2,0,L|16:224,1,60.0000022888184,8|0,0:0|0:0,0:0:0:0:
112,56,114861,2,0,L|176:64,1,60.0000022888184,2|0,0:0|0:0,0:0:0:0:
336,112,114996,5,0,0:0:0:0:
352,160,115063,1,10,0:0:0:0:
328,200,115131,2,0,L|264:216,1,60.0000022888184
416,56,115266,2,0,L|480:40,2,60.0000022888184,10|0|2,0:0|0:0|0:0,0:0:0:0:
128,32,115536,5,6,0:0:0:0:
448,112,115671,1,4,0:0:0:0:
224,352,115806,1,14,0:0:0:0:
112,176,115941,5,0,0:0:0:0:
72,176,116008,1,0,0:0:0:0:
40,200,116076,1,6,0:0:0:0:
47,140,116143,1,0,0:0:0:0:
55,81,116211,1,0,0:0:0:0:
368,128,116346,5,14,0:0:0:0:
419,156,116413,1,0,0:0:0:0:
451,206,116481,1,0,0:0:0:0:
455,266,116548,1,0,0:0:0:0:
430,320,116616,5,6,0:0:0:0:
430,320,116683,2,0,L|370:327,1,60.0000022888184
144,272,116819,1,6,0:0:0:0:
143,271,116887,2,0,L|202:278,1,60.0000022888184,8|0,0:0|0:0,0:0:0:0:
304,144,117021,2,0,P|312:112|312:80,1,60.0000022888184,2|0,0:0|0:0,0:0:0:0:
48,32,117156,5,0,0:0:0:0:
48,32,117224,2,0,L|56:104,2,60.0000022888184,2|0|0,0:0|0:0|0:0,0:0:0:0:
224,88,117426,2,0,L|232:152,1,60.0000022888184,10|0,0:0|0:0,0:0:0:0:
296,112,117561,2,0,L|304:176,1,60.0000022888184,2|0,0:0|0:0,0:0:0:0:
416,72,117696,6,0,P|448:64|480:64,2,60.0000022888184,2|0|0,0:0|0:0|0:0,0:0:0:0:
448,200,117899,2,0,P|416:208|384:208,2,60.0000022888184,2|8|0,0:0|0:0|0:0,0:0:0:0:
216,160,118101,2,0,L|224:96,1,60.0000022888184,2|0,0:0|0:0,0:0:0:0:
72,248,118236,5,0,0:0:0:0:
72,248,118304,2,0,L|64:312,2,60.0000022888184,2|0|0,0:0|0:0|0:0,0:0:0:0:
240,288,118506,2,0,L|232:352,1,60.0000022888184,10|0,0:0|0:0,0:0:0:0:
312,304,118641,2,0,L|304:368,1,60.0000022888184,2|0,0:0|0:0,0:0:0:0:
400,168,118776,5,2,0:0:0:0:
400,168,118844,2,2,P|416:136|416:104,1,60.0000022888184,0|0,0:0|0:0,0:0:0:0:
216,80,118979,1,2,0:0:0:0:
216,80,119047,2,2,P|208:40|192:16,1,60.0000022888184,8|0,0:0|0:0,0:0:0:0:
16,160,119181,2,0,L|80:168,1,60.0000022888184,2|0,0:0|0:0,0:0:0:0:
312,248,119316,5,0,0:0:0:0:
312,248,119384,2,0,P|320:280|320:312,2,60.0000022888184,2|0|0,0:0|0:0|0:0,0:0:0:0:
152,136,119586,2,0,L|144:72,1,60.0000022888184,10|0,0:0|0:0,0:0:0:0:
80,128,119721,2,0,L|72:64,1,60.0000022888184,2|0,0:0|0:0,0:0:0:0:
464,64,119856,6,0,P|472:96|464:128,1,60.0000022888184,2|0,0:0|0:0,0:0:0:0:
336,344,119991,1,0,0:0:0:0:
336,344,120058,2,0,L|328:280,1,60.0000022888184,2|12,0:0|0:0,0:0:0:0:
152,64,120193,1,0,0:0:0:0:
152,64,120261,2,0,P|152:96|168:136,1,60.0000022888184
352,0,120396,6,0,L|344:64,1,60.0000022888184,14|0,0:0|0:0,0:0:0:0:
160,384,120531,2,0,L|168:320,1,60.0000022888184,2|0,0:0|0:0,0:0:0:0:
512,184,120666,6,0,P|480:176|448:176,1,60.0000022888184,14|0,0:0|0:0,0:0:0:0:
0,200,120801,2,0,P|32:200|72:192,1,60.0000022888184,2|0,0:0|0:0,0:0:0:0:
464,320,120936,5,6,0:0:0:0:
464,320,121004,2,0,P|472:288|472:256,1,60.0000022888184
368,64,121139,1,2,0:0:0:0:
368,64,121207,2,0,P|360:96|360:128,1,60.0000022888184,8|0,0:0|0:0,0:0:0:0:
192,192,121341,2,0,L|120:184,1,60.0000022888184,2|0,0:0|0:0,0:0:0:0:
248,288,121476,5,2,0:0:0:0:
282,316,121543,1,0,0:0:0:0:
325,330,121611,1,2,0:0:0:0:
369,330,121678,1,0,0:0:0:0:
411,314,121746,6,0,L|416:248,1,60.0000022888184,10|0,0:0|0:0,0:0:0:0:
215,148,121881,2,0,L|207:212,1,60.0000022888184,2|0,0:0|0:0,0:0:0:0:
272,72,122016,5,2,0:0:0:0:
217,47,122083,1,0,0:0:0:0:
158,39,122151,1,2,0:0:0:0:
98,47,122218,1,0,0:0:0:0:
44,71,122286,6,0,P|40:104|48:136,1,60.0000022888184,10|0,0:0|0:0,0:0:0:0:
232,328,122421,2,0,P|236:295|228:263,1,60.0000022888184,2|0,0:0|0:0,0:0:0:0:
384,248,122556,5,2,0:0:0:0:
428,248,122623,1,0,0:0:0:0:
468,228,122691,1,2,0:0:0:0:
493,191,122758,1,0,0:0:0:0:
498,147,122826,6,0,L|432:152,1,60.0000022888184,10|0,0:0|0:0,0:0:0:0:
240,200,122961,2,0,L|306:204,1,60.0000022888184,2|0,0:0|0:0,0:0:0:0:
88,152,123096,6,0,P|80:120|80:88,1,60.0000022888184,2|0,0:0|0:0,0:0:0:0:
168,56,123231,2,0,P|176:88|176:120,1,60.0000022888184,2|0,0:0|0:0,0:0:0:0:
296,144,123366,2,0,L|368:152,1,60.0000022888184,10|0,0:0|0:0,0:0:0:0:
416,248,123501,2,0,L|344:240,1,60.0000022888184,2|0,0:0|0:0,0:0:0:0:
136,328,123636,6,0,L|144:264,1,60.0000022888184,2|0,0:0|0:0,0:0:0:0:
56,288,123771,2,0,L|64:224,1,60.0000022888184,2|0,0:0|0:0,0:0:0:0:
352,144,123906,6,0,L|344:208,1,60.0000022888184,10|0,0:0|0:0,0:0:0:0:
448,112,124041,2,0,L|440:176,1,60.0000022888184,2|0,0:0|0:0,0:0:0:0:
480,352,124176,5,2,0:0:0:0:
480,352,124244,2,0,P|488:320|488:288,1,60.0000022888184
320,224,124379,1,2,0:0:0:0:
320,224,124446,2,0,L|328:288,1,60.0000022888184,8|0,0:0|0:0,0:0:0:0:
160,224,124581,2,0,P|128:216|88:216,1,60.0000022888184,2|0,0:0|0:0,0:0:0:0:
8,88,124716,6,0,L|0:48,2,30.0000011444092,2|0|0,0:0|0:0|0:0,0:0:0:0:
72,120,124851,2,0,L|136:128,1,60.0000022888184,8|0,0:0|0:0,0:0:0:0:
200,272,124986,5,10,0:0:0:0:
272,256,125054,1,0,0:0:0:0:
344,240,125121,1,10,0:0:0:0:
416,224,125189,1,8,0:0:0:0:
488,208,125256,6,0,L|496:144,1,60.0000022888184,6|0,0:0|0:0,0:0:0:0:
456,24,125391,2,0,L|464:96,1,60.0000022888184,2|0,0:0|0:0,0:0:0:0:
328,320,125526,6,0,P|320:288|320:248,1,60.0000022888184,10|0,0:0|0:0,0:0:0:0:
368,80,125661,2,0,P|368:112|360:152,1,60.0000022888184,2|0,0:0|0:0,0:0:0:0:
216,200,125796,6,0,L|152:192,1,60.0000022888184,2|0,0:0|0:0,0:0:0:0:
0,96,125931,2,0,L|64:88,1,60.0000022888184,2|0,0:0|0:0,0:0:0:0:
288,344,126066,6,0,L|352:336,1,60.0000022888184,10|0,0:0|0:0,0:0:0:0:
512,216,126201,2,0,L|448:208,1,60.0000022888184,2|0,0:0|0:0,0:0:0:0:
216,288,126336,5,2,0:0:0:0:
192,200,126426,1,2,0:0:0:0:
216,288,126516,1,2,0:0:0:0:
136,336,126606,6,0,P|104:344|72:344,1,60.0000022888184,10|0,0:0|0:0,0:0:0:0:
0,216,126741,2,0,L|72:224,1,60.0000022888184,2|0,0:0|0:0,0:0:0:0:
200,136,126876,6,0,P|203:104|216:72,1,60.0000022888184
368,40,127011,1,0,0:0:0:0:
368,40,127078,2,0,L|432:48,1,60.0000022888184,2|8,0:0|0:0,0:0:0:0:
464,224,127213,1,0,0:0:0:0:
464,224,127280,2,0,L|400:216,1,60.0000022888184,2|0,0:0|0:0,0:0:0:0:
304,272,127416,6,0,P|272:272|240:280,1,60.0000022888184,2|0,0:0|0:0,0:0:0:0:
136,232,127551,2,0,L|144:168,1,60.0000022888184,2|0,0:0|0:0,0:0:0:0:
293,105,127686,6,0,L|352:120,1,60.0000022888184,10|0,0:0|0:0,0:0:0:0:
488,96,127821,2,0,L|424:80,1,60.0000022888184,2|0,0:0|0:0,0:0:0:0:
344,200,127956,6,0,P|376:200|408:192,1,60.0000022888184,2|0,0:0|0:0,0:0:0:0:
512,240,128091,2,0,L|504:304,1,60.0000022888184,2|0,0:0|0:0,0:0:0:0:
218,102,128226,6,0,L|160:88,1,60.0000022888184,10|0,0:0|0:0,0:0:0:0:
0,120,128361,2,0,L|58:134,1,60.0000022888184,2|0,0:0|0:0,0:0:0:0:
16,304,128496,6,0,P|8:272|8:240,1,60.0000022888184,2|0,0:0|0:0,0:0:0:0:
128,344,128631,2,0,P|120:312|120:280,1,60.0000022888184,2|0,0:0|0:0,0:0:0:0:
448,232,128766,6,0,P|456:200|456:168,1,60.0000022888184,10|0,0:0|0:0,0:0:0:0:
352,272,128901,2,0,P|360:240|360:208,1,60.0000022888184,2|0,0:0|0:0,0:0:0:0:
88,104,129036,6,0,P|88:132|96:164,1,60.0000022888184,2|0,0:0|0:0,0:0:0:0:
160,144,129171,2,0,P|160:172|168:204,1,60.0000022888184,2|0,0:0|0:0,0:0:0:0:
416,40,129306,6,0,P|417:60|409:100,1,60.0000022888184,10|0,0:0|0:0,0:0:0:0:
304,80,129441,2,0,P|305:108|297:140,1,60.0000022888184,2|0,0:0|0:0,0:0:0:0:
120,256,129576,5,2,0:0:0:0:
120,256,129644,2,0,L|56:248,1,60.0000022888184
256,200,129779,1,2,0:0:0:0:
256,200,129847,2,0,L|328:192,1,60.0000022888184,8|0,0:0|0:0,0:0:0:0:
432,272,129981,2,0,P|440:304|440:344,1,60.0000022888184,2|0,0:0|0:0,0:0:0:0:
256,384,130116,5,0,0:0:0:0:
184,376,130184,1,2,0:0:0:0:
120,352,130251,2,0,P|152:344|184:328,1,60.0000022888184,2|0,0:0|0:0,0:0:0:0:
208,192,130386,5,10,0:0:0:0:
200,120,130454,1,0,0:0:0:0:
176,56,130521,2,0,P|168:88|152:120,1,60.0000022888184,2|0,0:0|0:0,0:0:0:0:
16,200,130656,6,0,P|48:208|80:200,3,60.0000022888184,2|0|2|0,0:0|0:0|0:0|0:0,0:0:0:0:
352,64,130926,2,0,P|320:56|288:64,3,60.0000022888184,10|0|2|0,0:0|0:0|0:0|0:0,0:0:0:0:
456,264,131196,5,2,0:0:0:0:
456,264,131264,2,0,L|464:200,1,60.0000022888184
264,8,131399,1,2,0:0:0:0:
264,8,131467,2,0,L|256:72,1,60.0000022888184,8|0,0:0|0:0,0:0:0:0:
104,360,131601,2,0,L|96:296,1,60.0000022888184,2|0,0:0|0:0,0:0:0:0:
0,112,131736,5,2,0:0:0:0:
56,152,131803,2,0,P|88:160|120:160,1,60.0000022888184
256,104,131938,1,2,0:0:0:0:
312,64,132005,2,0,P|344:56|376:56,1,60.0000022888184,8|0,0:0|0:0,0:0:0:0:
496,112,132141,2,0,L|488:176,1,60.0000022888184,2|0,0:0|0:0,0:0:0:0:
464,344,132276,5,0,0:0:0:0:
400,352,132343,1,2,0:0:0:0:
336,336,132411,1,0,0:0:0:0:
272,344,132478,1,0,0:0:0:0:
208,336,132546,6,0,L|136:328,1,60.0000022888184,10|0,0:0|0:0,0:0:0:0:
0,216,132681,2,0,L|72:224,1,60.0000022888184,2|0,0:0|0:0,0:0:0:0:
224,48,132816,6,2,P|248:104|232:168,1,120.000004577637,14|0,0:0|0:0,0:0:0:0:
80,304,133086,2,0,L|144:296,1,60.0000022888184,14|0,0:0|0:0,0:0:0:0:
504,264,133221,5,0,0:0:0:0:
504,264,133288,1,0,0:0:0:0:
504,264,133356,2,2,P|480:208|496:144,1,120.000004577637,14|0,0:0|0:0,0:0:0:0:
112,96,133626,2,0,L|184:88,1,60.0000022888184,14|0,0:0|0:0,0:0:0:0:
336,208,133761,2,0,L|264:216,1,60.0000022888184,2|0,0:0|0:0,0:0:0:0:
32,264,133896,6,0,L|40:216,1,40,14|0,0:0|0:0,0:0:0:0:
8,96,134031,2,0,P|64:104|128:88,1,120.000004577637,0|2,0:0|0:0,0:0:0:0:
424,0,134301,5,0,0:0:0:0:
424,0,134368,1,0,0:0:0:0:
424,0,134436,2,0,L|416:48,1,40,14|0,0:0|0:0,0:0:0:0:
368,336,134571,2,0,B|320:336|280:360|224:344,1,136.000002593994,0|2,0:0|0:0,0:0:0:0:
56,112,134841,5,0,0:0:0:0:
56,112,134909,1,0,0:0:0:0:
56,112,134976,2,0,L|112:120,1,40,14|0,0:0|0:0,0:0:0:0:
512,176,135111,2,0,P|448:224|376:216,1,147.999999435425,0|2,0:0|0:0,0:0:0:0:
160,32,135381,5,0,0:0:0:0:
160,32,135448,1,0,0:0:0:0:
160,32,135516,2,0,L|168:80,1,40,14|0,0:0|0:0,0:0:0:0:
208,384,135651,2,0,B|264:312|368:328,1,160,0|2,0:0|0:0,0:0:0:0:
512,384,135921,5,0,0:0:0:0:
512,384,135988,1,0,0:0:0:0:
512,384,136056,2,0,L|504:296,1,80,14|0,0:0|0:0,0:0:0:0:
272,104,136191,1,0,0:0:0:0:
208,128,136258,1,0,0:0:0:0:
168,184,136326,6,0,P|160:216|168:248,1,60.0000022888184,2|0,0:0|0:0,0:0:0:0:
352,368,136461,2,0,P|360:336|352:304,1,60.0000022888184
120,88,136596,6,0,L|24:96,1,80,14|0,0:0|0:0,0:0:0:0:
328,224,136731,1,0,0:0:0:0:
392,240,136798,1,0,0:0:0:0:
456,224,136866,6,0,P|488:216|512:192,1,60.0000022888184,2|0,0:0|0:0,0:0:0:0:
440,0,137001,2,0,P|408:8|384:32,1,60.0000022888184,0|0,0:0|0:0,0:0:0:0:
272,296,137136,5,14,0:0:0:0:
228,336,137203,1,0,0:0:0:0:
171,351,137271,1,0,0:0:0:0:
113,339,137338,1,0,0:0:0:0:
67,300,137406,6,0,L|56:224,1,60.0000022888184,14|0,0:0|0:0,0:0:0:0:
400,96,137541,2,0,L|411:172,1,60.0000022888184
0,192,137676,5,14,0:0:0:0:
48,144,137743,1,0,0:0:0:0:
110,119,137811,1,0,0:0:0:0:
178,118,137878,1,0,0:0:0:0:
240,144,137946,5,14,0:0:0:0:
317,178,138013,1,0,0:0:0:0:
401,170,138081,1,0,0:0:0:0:
471,124,138148,1,0,0:0:0:0:
511,50,138216,5,6,0:0:0:0:
